  0
SECTION
  2
HEADER
  9
$ACADVER
  1
AC1012
  9
$DWGCODEPAGE
  3
dos932
  9
$INSBASE
 10
0.0
 20
0.0
 30
0.0
  9
$EXTMIN
 10
116.906329
 20
134.736076
 30
9.074605
  9
$EXTMAX
 10
409.906329
 20
298.736076
 30
9.074605
  9
$LIMMIN
 10
0.0
 20
0.0
  9
$LIMMAX
 10
1140.0
 20
760.0
  9
$ORTHOMODE
 70
     0
  9
$REGENMODE
 70
     1
  9
$FILLMODE
 70
     1
  9
$QTEXTMODE
 70
     0
  9
$MIRRTEXT
 70
     1
  9
$DRAGMODE
 70
     2
  9
$LTSCALE
 40
1.0
  9
$OSMODE
 70
    37
  9
$ATTMODE
 70
     1
  9
$TEXTSIZE
 40
0.2
  9
$TRACEWID
 40
0.05
  9
$TEXTSTYLE
  7
STANDARD
  9
$CLAYER
  8
1
  9
$CELTYPE
  6
BYLAYER
  9
$CECOLOR
 62
   256
  9
$CELTSCALE
 40
1.0
  9
$DELOBJ
 70
     1
  9
$DISPSILH
 70
     0
  9
$DIMSCALE
 40
1.0
  9
$DIMASZ
 40
0.18
  9
$DIMEXO
 40
0.0625
  9
$DIMDLI
 40
0.38
  9
$DIMRND
 40
0.0
  9
$DIMDLE
 40
0.0
  9
$DIMEXE
 40
0.18
  9
$DIMTP
 40
0.0
  9
$DIMTM
 40
0.0
  9
$DIMTXT
 40
0.18
  9
$DIMCEN
 40
0.09
  9
$DIMTSZ
 40
0.0
  9
$DIMTOL
 70
     0
  9
$DIMLIM
 70
     0
  9
$DIMTIH
 70
     1
  9
$DIMTOH
 70
     1
  9
$DIMSE1
 70
     0
  9
$DIMSE2
 70
     0
  9
$DIMTAD
 70
     0
  9
$DIMZIN
 70
     0
  9
$DIMBLK
  1

  9
$DIMASO
 70
     1
  9
$DIMSHO
 70
     1
  9
$DIMPOST
  1

  9
$DIMAPOST
  1

  9
$DIMALT
 70
     0
  9
$DIMALTD
 70
     2
  9
$DIMALTF
 40
25.4
  9
$DIMLFAC
 40
1.0
  9
$DIMTOFL
 70
     0
  9
$DIMTVP
 40
0.0
  9
$DIMTIX
 70
     0
  9
$DIMSOXD
 70
     0
  9
$DIMSAH
 70
     0
  9
$DIMBLK1
  1

  9
$DIMBLK2
  1

  9
$DIMSTYLE
  2
STANDARD
  9
$DIMCLRD
 70
     0
  9
$DIMCLRE
 70
     0
  9
$DIMCLRT
 70
     0
  9
$DIMTFAC
 40
1.0
  9
$DIMGAP
 40
0.09
  9
$DIMJUST
 70
     0
  9
$DIMSD1
 70
     0
  9
$DIMSD2
 70
     0
  9
$DIMTOLJ
 70
     1
  9
$DIMTZIN
 70
     0
  9
$DIMALTZ
 70
     0
  9
$DIMALTTZ
 70
     0
  9
$DIMFIT
 70
     3
  9
$DIMUPT
 70
     0
  9
$DIMUNIT
 70
     2
  9
$DIMDEC
 70
     4
  9
$DIMTDEC
 70
     4
  9
$DIMALTU
 70
     2
  9
$DIMALTTD
 70
     2
  9
$DIMTXSTY
  7
STANDARD
  9
$DIMAUNIT
 70
     0
  9
$LUNITS
 70
     2
  9
$LUPREC
 70
     4
  9
$SKETCHINC
 40
0.1
  9
$FILLETRAD
 40
0.5
  9
$AUNITS
 70
     0
  9
$AUPREC
 70
     0
  9
$MENU
  1
.
  9
$ELEVATION
 40
0.0
  9
$PELEVATION
 40
0.0
  9
$THICKNESS
 40
0.0
  9
$LIMCHECK
 70
     0
  9
$BLIPMODE
 70
     0
  9
$CHAMFERA
 40
0.5
  9
$CHAMFERB
 40
0.5
  9
$CHAMFERC
 40
1.0
  9
$CHAMFERD
 40
0.0
  9
$SKPOLY
 70
     1
  9
$TDCREATE
 40
2452491.577467129
  9
$TDUPDATE
 40
2452492.420462847
  9
$TDINDWG
 40
0.0140262731
  9
$TDUSRTIMER
 40
0.0140262731
  9
$USRTIMER
 70
     1
  9
$ANGBASE
 50
0.0
  9
$ANGDIR
 70
     0
  9
$PDMODE
 70
     0
  9
$PDSIZE
 40
0.0
  9
$PLINEWID
 40
0.0
  9
$COORDS
 70
     1
  9
$SPLFRAME
 70
     0
  9
$SPLINETYPE
 70
     6
  9
$SPLINESEGS
 70
     8
  9
$ATTDIA
 70
     0
  9
$ATTREQ
 70
     1
  9
$HANDLING
 70
     1
  9
$HANDSEED
  5
B27
  9
$SURFTAB1
 70
     6
  9
$SURFTAB2
 70
     6
  9
$SURFTYPE
 70
     6
  9
$SURFU
 70
     6
  9
$SURFV
 70
     6
  9
$UCSNAME
  2

  9
$UCSORG
 10
0.0
 20
0.0
 30
0.0
  9
$UCSXDIR
 10
1.0
 20
0.0
 30
0.0
  9
$UCSYDIR
 10
0.0
 20
1.0
 30
0.0
  9
$PUCSNAME
  2

  9
$PUCSORG
 10
0.0
 20
0.0
 30
0.0
  9
$PUCSXDIR
 10
1.0
 20
0.0
 30
0.0
  9
$PUCSYDIR
 10
0.0
 20
1.0
 30
0.0
  9
$USERI1
 70
     0
  9
$USERI2
 70
     0
  9
$USERI3
 70
     0
  9
$USERI4
 70
     0
  9
$USERI5
 70
     0
  9
$USERR1
 40
0.0
  9
$USERR2
 40
0.0
  9
$USERR3
 40
0.0
  9
$USERR4
 40
0.0
  9
$USERR5
 40
0.0
  9
$WORLDVIEW
 70
     1
  9
$SHADEDGE
 70
     3
  9
$SHADEDIF
 70
    70
  9
$TILEMODE
 70
     1
  9
$MAXACTVP
 70
    48
  9
$PINSBASE
 10
0.0
 20
0.0
 30
0.0
  9
$PLIMCHECK
 70
     0
  9
$PEXTMIN
 10
1.000000E+20
 20
1.000000E+20
 30
1.000000E+20
  9
$PEXTMAX
 10
-1.000000E+20
 20
-1.000000E+20
 30
-1.000000E+20
  9
$PLIMMIN
 10
0.0
 20
0.0
  9
$PLIMMAX
 10
12.0
 20
9.0
  9
$UNITMODE
 70
     0
  9
$VISRETAIN
 70
     1
  9
$PLINEGEN
 70
     0
  9
$PSLTSCALE
 70
     1
  9
$TREEDEPTH
 70
  3020
  9
$PICKSTYLE
 70
     1
  9
$CMLSTYLE
  2
STANDARD
  9
$CMLJUST
 70
     0
  9
$CMLSCALE
 40
1.0
  9
$SAVEIMAGES
 70
     1
  0
ENDSEC
  0
SECTION
  2
CLASSES
  0
CLASS
  1
XRECORD
  2
AcDbXrecord
  3
"<Built In>"
 90
    32768
280
     0
281
     0
  0
CLASS
  1
ACDBDICTIONARYWDFLT
  2
AcDbDictionaryWithDefault
  3
AutoCAD 2000
 90
    32768
280
     0
281
     0
  0
CLASS
  1
ACDBPLACEHOLDER
  2
AcDbPlaceHolder
  3
AutoCAD 2000
 90
    32768
280
     0
281
     0
  0
CLASS
  1
LAYOUT
  2
AcDbLayout
  3
AutoCAD 2000
 90
    32768
280
     0
281
     0
  0
CLASS
  1
DICTIONARYVAR
  2
AcDbDictionaryVar
  3
"AutoCAD"
 90
    32768
280
     0
281
     0
  0
CLASS
  1
LONG_TRANSACTION
  2
AcDbLongTransaction
  3
AutoCAD 2000
 90
    32768
280
     0
281
     0
  0
CLASS
  1
LWPOLYLINE
  2
AcDbPolyline
  3
"AutoCAD"
 90
    32768
280
     0
281
     1
  0
CLASS
  1
HATCH
  2
AcDbHatch
  3
"ACAD_SEDONA"
 90
    32768
280
     0
281
     1
  0
CLASS
  1
XRECORD
  2
AcDbXrecord
  3
"<Built In>"
 90
    32768
280
     0
281
     0
  0
CLASS
  1
LONG_TRANSACTION
  2
AcDbLongTransaction
  3
AutoCAD 2000
 90
    32768
280
     0
281
     0
  0
CLASS
  1
LWPOLYLINE
  2
AcDbPolyline
  3
"AutoCAD"
 90
    32768
280
     0
281
     1
  0
CLASS
  1
HATCH
  2
AcDbHatch
  3
"ACAD_SEDONA"
 90
    32768
280
     0
281
     1
  0
CLASS
  1
XRECORD
  2
AcDbXrecord
  3
"<Built In>"
 90
    32768
280
     0
281
     0
  0
ENDSEC
  0
SECTION
  2
TABLES
  0
TABLE
  2
VPORT
  5
8
100
AcDbSymbolTable
 70
     2
  0
VPORT
  5
B26
100
AcDbSymbolTableRecord
100
AcDbViewportTableRecord
  2
*ACTIVE
 70
     0
 10
0.0
 20
0.0
 11
1.0
 21
1.0
 12
266.870436
 22
227.793192
 13
0.0
 23
0.0
 14
0.5
 24
0.5
 15
0.5
 25
0.5
 16
0.0
 26
0.0
 36
1.0
 17
0.0
 27
0.0
 37
0.0
 40
259.42802
 41
1.307503
 42
50.0
 43
0.0
 44
0.0
 50
0.0
 51
0.0
 71
     0
 72
 20000
 73
     1
 74
     1
 75
     0
 76
     0
 77
     0
 78
     0
  0
ENDTAB
  0
TABLE
  2
LTYPE
  5
5
100
AcDbSymbolTable
 70
     3
  0
LTYPE
  5
13
100
AcDbSymbolTableRecord
100
AcDbLinetypeTableRecord
  2
BYBLOCK
 70
     0
  3

 72
    65
 73
     0
 40
0.0
  0
LTYPE
  5
14
100
AcDbSymbolTableRecord
100
AcDbLinetypeTableRecord
  2
BYLAYER
 70
     0
  3

 72
    65
 73
     0
 40
0.0
  0
LTYPE
  5
15
100
AcDbSymbolTableRecord
100
AcDbLinetypeTableRecord
  2
CONTINUOUS
 70
     0
  3
Solid line
 72
    65
 73
     0
 40
0.0
  0
LTYPE
  5
4C
100
AcDbSymbolTableRecord
100
AcDbLinetypeTableRecord
  2
TENSEN
 70
     0
  3

 72
    65
 73
     2
 40
4.0
 49
3.0
 74
     0
 49
-1.0
 74
     0
  0
LTYPE
  5
4D
100
AcDbSymbolTableRecord
100
AcDbLinetypeTableRecord
  2
ITTEN1
 70
     0
  3

 72
    65
 73
     4
 40
8.2
 49
5.0
 74
     0
 49
-1.0
 74
     0
 49
1.2
 74
     0
 49
-1.0
 74
     0
  0
ENDTAB
  0
TABLE
  2
LAYER
  5
2
100
AcDbSymbolTable
 70
     6
  0
LAYER
  5
F
100
AcDbSymbolTableRecord
100
AcDbLayerTableRecord
  2
0
 70
     0
 62
     7
  6
CONTINUOUS
  0
LAYER
  5
4E
100
AcDbSymbolTableRecord
100
AcDbLayerTableRecord
  2
1
 70
     0
 62
     1
  6
ITTEN1
  0
LAYER
  5
4F
100
AcDbSymbolTableRecord
100
AcDbLayerTableRecord
  2
2
 70
     0
 62
     2
  6
TENSEN
  0
LAYER
  5
50
100
AcDbSymbolTableRecord
100
AcDbLayerTableRecord
  2
3
 70
     0
 62
     3
  6
CONTINUOUS
  0
LAYER
  5
51
100
AcDbSymbolTableRecord
100
AcDbLayerTableRecord
  2
4
 70
     0
 62
     4
  6
CONTINUOUS
  0
LAYER
  5
192
102
{ACAD_XDICTIONARY
360
B1E
102
}
100
AcDbSymbolTableRecord
100
AcDbLayerTableRecord
  2
DEFPOINTS
 70
     0
 62
     7
  6
CONTINUOUS
  0
ENDTAB
  0
TABLE
  2
STYLE
  5
3
100
AcDbSymbolTable
 70
     2
  0
STYLE
  5
10
100
AcDbSymbolTableRecord
100
AcDbTextStyleTableRecord
  2
STANDARD
 70
     0
 40
0.0
 41
1.0
 50
0.0
 71
     0
 42
0.2
  3
txt
  4

  0
STYLE
  5
52
100
AcDbSymbolTableRecord
100
AcDbTextStyleTableRecord
  2
BIGFONT
 70
     0
 40
5.0
 41
0.7
 50
0.0
 71
     0
 42
5.0
  3
txt.shx
  4
bigfont.shx
  0
ENDTAB
  0
TABLE
  2
VIEW
  5
6
100
AcDbSymbolTable
 70
     0
  0
ENDTAB
  0
TABLE
  2
UCS
  5
7
100
AcDbSymbolTable
 70
     0
  0
ENDTAB
  0
TABLE
  2
APPID
  5
9
100
AcDbSymbolTable
 70
     1
  0
APPID
  5
11
100
AcDbSymbolTableRecord
100
AcDbRegAppTableRecord
  2
ACAD
 70
     0
  0
ENDTAB
  0
TABLE
  2
DIMSTYLE
  5
A
100
AcDbSymbolTable
 70
     1
  0
DIMSTYLE
105
1D
102
{ACAD_REACTORS
330
379
330
37A
330
38B
330
38C
330
38D
330
4B1
330
5E4
330
5E5
330
5E9
330
60F
330
610
330
888
330
991
330
9BF
102
}
100
AcDbSymbolTableRecord
100
AcDbDimStyleTableRecord
  2
STANDARD
 70
     0
  3

  4

  5

  6

  7

 40
1.0
 41
0.18
 42
0.0625
 43
0.38
 44
0.18
 45
0.0
 46
0.0
 47
0.0
 48
0.0
140
0.18
141
0.09
142
0.0
143
25.4
144
1.0
145
0.0
146
1.0
147
0.09
 71
     0
 72
     0
 73
     1
 74
     1
 75
     0
 76
     0
 77
     0
 78
     0
170
     0
171
     2
172
     0
173
     0
174
     0
175
     0
176
     0
177
     0
178
     0
270
     2
271
     4
272
     4
273
     2
274
     2
340
10
275
     0
280
     0
281
     0
282
     0
283
     1
284
     0
285
     0
286
     0
287
     3
288
     0
  0
ENDTAB
  0
TABLE
  2
BLOCK_RECORD
  5
1
100
AcDbSymbolTable
 70
    33
  0
BLOCK_RECORD
  5
19
102
{ACAD_XDICTIONARY
360
AEB
102
}
100
AcDbSymbolTableRecord
100
AcDbBlockTableRecord
  2
*MODEL_SPACE
  0
BLOCK_RECORD
  5
16
102
{ACAD_XDICTIONARY
360
AE9
102
}
100
AcDbSymbolTableRecord
100
AcDbBlockTableRecord
  2
*PAPER_SPACE
  0
BLOCK_RECORD
  5
53
100
AcDbSymbolTableRecord
100
AcDbBlockTableRecord
  2
A$C6D1C3071
  0
BLOCK_RECORD
  5
BB
100
AcDbSymbolTableRecord
100
AcDbBlockTableRecord
  2
*D1
  0
BLOCK_RECORD
  5
C8
100
AcDbSymbolTableRecord
100
AcDbBlockTableRecord
  2
*D2
  0
BLOCK_RECORD
  5
D5
100
AcDbSymbolTableRecord
100
AcDbBlockTableRecord
  2
*D3
  0
BLOCK_RECORD
  5
E2
100
AcDbSymbolTableRecord
100
AcDbBlockTableRecord
  2
*D4
  0
BLOCK_RECORD
  5
ED
100
AcDbSymbolTableRecord
100
AcDbBlockTableRecord
  2
*D5
  0
BLOCK_RECORD
  5
FA
100
AcDbSymbolTableRecord
100
AcDbBlockTableRecord
  2
*D6
  0
BLOCK_RECORD
  5
107
100
AcDbSymbolTableRecord
100
AcDbBlockTableRecord
  2
*D7
  0
BLOCK_RECORD
  5
114
100
AcDbSymbolTableRecord
100
AcDbBlockTableRecord
  2
*D8
  0
BLOCK_RECORD
  5
121
100
AcDbSymbolTableRecord
100
AcDbBlockTableRecord
  2
A$C7EEB078D
  0
BLOCK_RECORD
  5
195
100
AcDbSymbolTableRecord
100
AcDbBlockTableRecord
  2
A$C78220C5A
  0
BLOCK_RECORD
  5
204
100
AcDbSymbolTableRecord
100
AcDbBlockTableRecord
  2
A$C56A93E4E
  0
BLOCK_RECORD
  5
274
100
AcDbSymbolTableRecord
100
AcDbBlockTableRecord
  2
A$C442E7360
  0
BLOCK_RECORD
  5
30E
100
AcDbSymbolTableRecord
100
AcDbBlockTableRecord
  2
*D13
  0
BLOCK_RECORD
  5
31B
100
AcDbSymbolTableRecord
100
AcDbBlockTableRecord
  2
*D14
  0
BLOCK_RECORD
  5
328
100
AcDbSymbolTableRecord
100
AcDbBlockTableRecord
  2
*D15
  0
BLOCK_RECORD
  5
335
100
AcDbSymbolTableRecord
100
AcDbBlockTableRecord
  2
*D16
  0
BLOCK_RECORD
  5
342
100
AcDbSymbolTableRecord
100
AcDbBlockTableRecord
  2
*D17
  0
BLOCK_RECORD
  5
34F
100
AcDbSymbolTableRecord
100
AcDbBlockTableRecord
  2
A$C09684561
  0
BLOCK_RECORD
  5
496
100
AcDbSymbolTableRecord
100
AcDbBlockTableRecord
  2
*D19
  0
BLOCK_RECORD
  5
4A3
100
AcDbSymbolTableRecord
100
AcDbBlockTableRecord
  2
A$C77A32249
  0
BLOCK_RECORD
  5
5A2
100
AcDbSymbolTableRecord
100
AcDbBlockTableRecord
  2
*D21
  0
BLOCK_RECORD
  5
5AF
100
AcDbSymbolTableRecord
100
AcDbBlockTableRecord
  2
*D22
  0
BLOCK_RECORD
  5
5BC
100
AcDbSymbolTableRecord
100
AcDbBlockTableRecord
  2
*D23
  0
BLOCK_RECORD
  5
5C9
100
AcDbSymbolTableRecord
100
AcDbBlockTableRecord
  2
*D24
  0
BLOCK_RECORD
  5
5D6
100
AcDbSymbolTableRecord
100
AcDbBlockTableRecord
  2
*D25
  0
BLOCK_RECORD
  5
5E3
100
AcDbSymbolTableRecord
100
AcDbBlockTableRecord
  2
A$C424615F3
  0
BLOCK_RECORD
  5
725
100
AcDbSymbolTableRecord
100
AcDbBlockTableRecord
  2
A$C2DA60589
  0
BLOCK_RECORD
  5
850
100
AcDbSymbolTableRecord
100
AcDbBlockTableRecord
  2
*D28
  0
BLOCK_RECORD
  5
85D
100
AcDbSymbolTableRecord
100
AcDbBlockTableRecord
  2
A$C7FF44580
  0
BLOCK_RECORD
  5
93C
100
AcDbSymbolTableRecord
100
AcDbBlockTableRecord
  2
*D30
  0
BLOCK_RECORD
  5
949
100
AcDbSymbolTableRecord
100
AcDbBlockTableRecord
  2
*D31
  0
BLOCK_RECORD
  5
956
100
AcDbSymbolTableRecord
100
AcDbBlockTableRecord
  2
A$C75E32E12
  0
ENDTAB
  0
ENDSEC
  0
SECTION
  2
BLOCKS
  0
BLOCK
  5
1A
100
AcDbEntity
  8
0
100
AcDbBlockBegin
  2
*MODEL_SPACE
 70
     0
 10
0.0
 20
0.0
 30
0.0
  3
*MODEL_SPACE
  1

  0
ENDBLK
  5
1B
100
AcDbEntity
  8
0
100
AcDbBlockEnd
  0
BLOCK
  5
17
100
AcDbEntity
 67
     1
  8
0
100
AcDbBlockBegin
  2
*PAPER_SPACE
 70
     0
 10
0.0
 20
0.0
 30
0.0
  3
*PAPER_SPACE
  1

  0
ENDBLK
  5
18
100
AcDbEntity
 67
     1
  8
0
100
AcDbBlockEnd
  0
BLOCK
  5
B1
100
AcDbEntity
  8
0
100
AcDbBlockBegin
  2
A$C6D1C3071
 70
     0
 10
0.0
 20
0.0
 30
0.0
  3
A$C6D1C3071
  1

  0
LINE
  5
54
100
AcDbEntity
  8
1
100
AcDbLine
 10
44.07886
 20
93.0
 30
7.856925
 11
44.07886
 21
0.0
 31
7.856925
  0
CIRCLE
  5
55
100
AcDbEntity
  8
3
100
AcDbCircle
 10
44.07886
 20
47.0
 30
7.856925
 40
40.0
  0
ARC
  5
56
100
AcDbEntity
  8
3
100
AcDbCircle
 10
44.07886
 20
47.0
 30
7.856925
 40
33.0
100
AcDbArc
 50
109.188136
 51
70.811864
  0
LINE
  5
57
100
AcDbEntity
  8
1
100
AcDbLine
 10
44.07886
 20
47.0
 30
7.856925
 11
4.653062
 21
24.237505
 31
7.856925
  0
LINE
  5
58
100
AcDbEntity
  8
1
100
AcDbLine
 10
90.07886
 20
47.0
 30
7.856925
 11
-0.42114
 21
47.0
 31
7.856925
  0
ARC
  5
59
100
AcDbEntity
  8
3
100
AcDbCircle
 10
44.07886
 20
47.0
 30
7.856925
 40
26.0
100
AcDbArc
 50
343.342364
 51
76.657636
  0
LINE
  5
5A
100
AcDbEntity
  8
1
100
AcDbLine
 10
44.07886
 20
47.0
 30
7.856925
 11
84.038152
 21
23.929492
 31
7.856925
  0
LINE
  5
5B
100
AcDbEntity
  8
3
100
AcDbLine
 10
51.07886
 20
59.698425
 30
7.856925
 11
50.07886
 21
72.298221
 31
7.856925
  0
LINE
  5
5C
100
AcDbEntity
  8
3
100
AcDbLine
 10
37.07886
 20
59.698425
 30
7.856925
 11
38.07886
 21
72.298221
 31
7.856925
  0
ARC
  5
5D
100
AcDbEntity
  8
3
100
AcDbCircle
 10
44.07886
 20
47.0
 30
7.856925
 40
26.0
100
AcDbArc
 50
103.342364
 51
196.657636
  0
ARC
  5
5E
100
AcDbEntity
  8
3
100
AcDbCircle
 10
44.07886
 20
46.505912
 30
7.856925
 40
13.694377
100
AcDbArc
 50
64.534649
 51
115.465351
  0
ARC
  5
5F
100
AcDbEntity
  8
3
100
AcDbCircle
 10
44.07886
 20
47.0
 30
7.856925
 40
14.5
100
AcDbArc
 50
238.865727
 51
301.134273
  0
CIRCLE
  5
60
100
AcDbEntity
  8
3
100
AcDbCircle
 10
44.07886
 20
47.0
 30
7.856925
 40
12.5
  0
ARC
  5
61
100
AcDbEntity
  8
3
100
AcDbCircle
 10
44.07886
 20
47.0
 30
7.856925
 40
26.0
100
AcDbArc
 50
223.342364
 51
316.657636
  0
ARC
  5
62
100
AcDbEntity
  8
3
100
AcDbCircle
 10
44.506753
 20
47.247044
 30
7.856925
 40
13.694377
100
AcDbArc
 50
184.534649
 51
235.465351
  0
LINE
  5
63
100
AcDbEntity
  8
3
100
AcDbLine
 10
29.581701
 20
46.712965
 30
7.856925
 11
19.169958
 21
39.547042
 31
7.856925
  0
LINE
  5
64
100
AcDbEntity
  8
3
100
AcDbLine
 10
36.581701
 20
34.58861
 30
7.856925
 11
25.169958
 21
29.154737
 31
7.856925
  0
ARC
  5
65
100
AcDbEntity
  8
3
100
AcDbCircle
 10
40.851658
 20
45.136774
 30
7.856925
 40
23.518955
100
AcDbArc
 50
197.962538
 51
222.037462
  0
ARC
  5
66
100
AcDbEntity
  8
3
100
AcDbCircle
 10
24.435783
 20
30.486953
 30
7.856925
 40
1.521122
100
AcDbArc
 50
226.252837
 51
298.858854
  0
ARC
  5
67
100
AcDbEntity
  8
3
100
AcDbCircle
 10
19.956603
 20
38.24512
 30
7.856925
 40
1.521122
100
AcDbArc
 50
121.141146
 51
193.747163
  0
ARC
  5
68
100
AcDbEntity
  8
3
100
AcDbCircle
 10
36.31681
 20
35.317803
 30
7.856925
 40
0.775816
100
AcDbArc
 50
289.964388
 51
56.647107
  0
ARC
  5
69
100
AcDbEntity
  8
3
100
AcDbCircle
 10
44.07886
 20
47.0
 30
7.856925
 40
14.5
100
AcDbArc
 50
118.865727
 51
181.134273
  0
ARC
  5
6A
100
AcDbEntity
  8
3
100
AcDbCircle
 10
30.080756
 20
46.118966
 30
7.856925
 40
0.775816
100
AcDbArc
 50
3.352893
 51
130.035612
  0
ARC
  5
6B
100
AcDbEntity
  8
3
100
AcDbCircle
 10
37.842806
 20
59.563231
 30
7.856925
 40
0.775816
100
AcDbArc
 50
169.964388
 51
296.647107
  0
ARC
  5
6C
100
AcDbEntity
  8
3
100
AcDbCircle
 10
43.650967
 20
47.247044
 30
7.856925
 40
13.694377
100
AcDbArc
 50
304.534649
 51
355.465351
  0
LINE
  5
6D
100
AcDbEntity
  8
3
100
AcDbLine
 10
58.576019
 20
46.712965
 30
7.856925
 11
68.987763
 21
39.547042
 31
7.856925
  0
LINE
  5
6E
100
AcDbEntity
  8
3
100
AcDbLine
 10
51.576019
 20
34.58861
 30
7.856925
 11
62.987763
 21
29.154737
 31
7.856925
  0
ARC
  5
6F
100
AcDbEntity
  8
3
100
AcDbCircle
 10
51.84091
 20
35.317803
 30
7.856925
 40
0.775816
100
AcDbArc
 50
123.352893
 51
250.035612
  0
ARC
  5
70
100
AcDbEntity
  8
3
100
AcDbCircle
 10
47.306062
 20
45.136774
 30
7.856925
 40
23.518955
100
AcDbArc
 50
317.962538
 51
342.037462
  0
ARC
  5
71
100
AcDbEntity
  8
3
100
AcDbCircle
 10
63.721937
 20
30.486953
 30
7.856925
 40
1.521122
100
AcDbArc
 50
241.141146
 51
313.747163
  0
ARC
  5
72
100
AcDbEntity
  8
3
100
AcDbCircle
 10
68.201117
 20
38.24512
 30
7.856925
 40
1.521122
100
AcDbArc
 50
346.252837
 51
58.858854
  0
ARC
  5
73
100
AcDbEntity
  8
3
100
AcDbCircle
 10
44.07886
 20
47.0
 30
7.856925
 40
14.5
100
AcDbArc
 50
358.865727
 51
61.134273
  0
ARC
  5
74
100
AcDbEntity
  8
3
100
AcDbCircle
 10
50.314914
 20
59.563231
 30
7.856925
 40
0.775816
100
AcDbArc
 50
243.352893
 51
10.035612
  0
ARC
  5
75
100
AcDbEntity
  8
3
100
AcDbCircle
 10
58.076965
 20
46.118966
 30
7.856925
 40
0.775816
100
AcDbArc
 50
49.964388
 51
176.647107
  0
ARC
  5
76
100
AcDbEntity
  8
3
100
AcDbCircle
 10
44.07886
 20
77.0
 30
7.856925
 40
7.0
100
AcDbArc
 50
189.594068
 51
350.405932
  0
ARC
  5
77
100
AcDbEntity
  8
3
100
AcDbCircle
 10
34.218727
 20
75.333333
 30
7.856925
 40
3.0
100
AcDbArc
 50
9.594068
 51
109.188136
  0
ARC
  5
78
100
AcDbEntity
  8
3
100
AcDbCircle
 10
39.59968
 20
72.267928
 30
7.856925
 40
1.521122
100
AcDbArc
 50
148.895729
 51
178.858854
  0
ARC
  5
79
100
AcDbEntity
  8
3
100
AcDbCircle
 10
53.938993
 20
75.333333
 30
7.856925
 40
3.0
100
AcDbArc
 50
70.811864
 51
170.405932
  0
ARC
  5
7A
100
AcDbEntity
  8
3
100
AcDbCircle
 10
48.55804
 20
72.267928
 30
7.856925
 40
1.521122
100
AcDbArc
 50
1.141146
 51
31.104271
  0
ARC
  5
7B
100
AcDbEntity
  8
2
100
AcDbCircle
 10
178.07886
 20
15.5
 30
7.856925
 40
5.5
100
AcDbArc
 50
4.69787
 51
175.30213
  0
LINE
  5
7C
100
AcDbEntity
  8
1
100
AcDbLine
 10
178.07886
 20
92.5
 30
7.856925
 11
178.07886
 21
1.5
 31
7.856925
  0
LINE
  5
7D
100
AcDbEntity
  8
3
100
AcDbLine
 10
185.07886
 20
14.0
 30
7.856925
 11
185.07886
 21
47.0
 31
7.856925
  0
LINE
  5
7E
100
AcDbEntity
  8
3
100
AcDbLine
 10
171.07886
 20
14.0
 30
7.856925
 11
171.07886
 21
47.0
 31
7.856925
  0
LINE
  5
7F
100
AcDbEntity
  8
1
100
AcDbLine
 10
178.07886
 20
15.5
 30
7.856925
 11
182.57886
 21
15.5
 31
7.856925
  0
ARC
  5
80
100
AcDbEntity
  8
3
100
AcDbCircle
 10
178.07886
 20
14.0
 30
7.856925
 40
7.0
100
AcDbArc
 50
180.0
 51
0.0
  0
LINE
  5
81
100
AcDbEntity
  8
1
100
AcDbLine
 10
172.07886
 20
14.0
 30
7.856925
 11
184.07886
 21
14.0
 31
7.856925
  0
ARC
  5
82
100
AcDbEntity
  8
2
100
AcDbCircle
 10
169.939341
 20
16.453457
 30
7.856925
 40
2.705172
100
AcDbArc
 50
294.912725
 51
349.284075
  0
LINE
  5
83
100
AcDbEntity
  8
1
100
AcDbLine
 10
178.07886
 20
15.5
 30
7.856925
 11
173.57886
 21
15.5
 31
7.856925
  0
ARC
  5
84
100
AcDbEntity
  8
2
100
AcDbCircle
 10
186.218379
 20
16.453457
 30
7.856925
 40
2.705172
100
AcDbArc
 50
190.715925
 51
245.087275
  0
LINE
  5
85
100
AcDbEntity
  8
3
100
AcDbLine
 10
195.372995
 20
60.5
 30
7.856925
 11
198.07886
 21
60.5
 31
7.856925
  0
LINE
  5
86
100
AcDbEntity
  8
3
100
AcDbLine
 10
195.372995
 20
33.5
 30
7.856925
 11
198.07886
 21
33.5
 31
7.856925
  0
LINE
  5
87
100
AcDbEntity
  8
1
100
AcDbLine
 10
211.57886
 20
47.0
 30
7.856925
 11
166.57886
 21
47.0
 31
7.856925
  0
ARC
  5
88
100
AcDbEntity
  8
3
100
AcDbCircle
 10
198.11258
 20
67.039963
 30
7.856925
 40
7.090588
100
AcDbArc
 50
222.957173
 51
247.27123
  0
ARC
  5
89
100
AcDbEntity
  8
3
100
AcDbCircle
 10
183.240313
 20
60.898709
 30
7.856925
 40
1.091307
100
AcDbArc
 50
320.209341
 51
39.790659
  0
LINE
  5
8A
100
AcDbEntity
  8
1
100
AcDbLine
 10
190.07886
 20
47.0
 30
7.856925
 11
190.07886
 21
70.5
 31
7.856925
  0
LINE
  5
8B
100
AcDbEntity
  8
3
100
AcDbLine
 10
171.07886
 20
80.0
 30
7.856925
 11
171.07886
 21
47.0
 31
7.856925
  0
LINE
  5
8C
100
AcDbEntity
  8
1
100
AcDbLine
 10
190.07886
 20
47.0
 30
7.856925
 11
190.07886
 21
29.5
 31
7.856925
  0
ARC
  5
8D
100
AcDbEntity
  8
2
100
AcDbCircle
 10
182.075137
 20
34.220086
 30
7.856925
 40
7.531695
100
AcDbArc
 50
123.065296
 51
150.381175
  0
LINE
  5
8E
100
AcDbEntity
  8
2
100
AcDbLine
 10
183.07886
 20
47.0
 30
7.856925
 11
183.07886
 21
35.25
 31
7.856925
  0
ARC
  5
8F
100
AcDbEntity
  8
2
100
AcDbCircle
 10
178.461165
 20
35.845367
 30
7.856925
 40
3.625369
100
AcDbArc
 50
39.901844
 51
140.098156
  0
ARC
  5
90
100
AcDbEntity
  8
2
100
AcDbCircle
 10
178.660104
 20
32.757223
 30
7.856925
 40
3.511411
100
AcDbArc
 50
214.208583
 51
308.820829
  0
LINE
  5
91
100
AcDbEntity
  8
2
100
AcDbLine
 10
185.07886
 20
30.900971
 30
7.856925
 11
179.03264
 21
29.183648
 31
7.856925
  0
ARC
  5
92
100
AcDbEntity
  8
2
100
AcDbCircle
 10
181.202935
 20
34.496092
 30
7.856925
 40
6.591933
100
AcDbArc
 50
146.912202
 51
214.281945
  0
ARC
  5
93
100
AcDbEntity
  8
3
100
AcDbCircle
 10
190.080358
 20
47.006001
 30
7.856925
 40
14.506001
100
AcDbArc
 50
249.831132
 51
291.398871
  0
LINE
  5
94
100
AcDbEntity
  8
3
100
AcDbLine
 10
185.07886
 20
30.900971
 30
7.856925
 11
191.52891
 21
33.981951
 31
7.856925
  0
LINE
  5
95
100
AcDbEntity
  8
2
100
AcDbLine
 10
183.07886
 20
35.25
 30
7.856925
 11
183.263758
 21
34.201391
 31
7.856925
  0
ARC
  5
96
100
AcDbEntity
  8
2
100
AcDbCircle
 10
176.54396
 20
34.223736
 30
7.856925
 40
6.078249
100
AcDbArc
 50
315.259614
 51
40.49634
  0
ARC
  5
97
100
AcDbEntity
  8
2
100
AcDbCircle
 10
188.011551
 20
42.380875
 30
7.856925
 40
9.457562
100
AcDbArc
 50
239.866919
 51
251.935378
  0
ARC
  5
98
100
AcDbEntity
  8
3
100
AcDbCircle
 10
190.10772
 20
37.613469
 30
7.856925
 40
3.899705
100
AcDbArc
 50
291.372843
 51
338.602177
  0
LINE
  5
99
100
AcDbEntity
  8
2
100
AcDbLine
 10
185.07886
 20
44.547269
 30
7.856925
 11
177.965886
 21
40.532017
 31
7.856925
  0
LINE
  5
9A
100
AcDbEntity
  8
3
100
AcDbLine
 10
183.07886
 20
58.75
 30
7.856925
 11
183.07886
 21
47.0
 31
7.856925
  0
ARC
  5
9B
100
AcDbEntity
  8
3
100
AcDbCircle
 10
190.138161
 20
41.230457
 30
7.856925
 40
5.547005
100
AcDbArc
 50
52.564256
 51
129.952739
  0
LINE
  5
9C
100
AcDbEntity
  8
3
100
AcDbLine
 10
185.07886
 20
44.547269
 30
7.856925
 11
186.576121
 21
45.482649
 31
7.856925
  0
LINE
  5
9D
100
AcDbEntity
  8
4
100
AcDbLine
 10
190.023557
 20
47.0
 30
7.856925
 11
190.07886
 21
47.055303
 31
7.856925
  0
LINE
  5
9E
100
AcDbEntity
  8
3
100
AcDbLine
 10
183.263758
 20
59.798609
 30
7.856925
 11
183.07886
 21
58.75
 31
7.856925
  0
ARC
  5
9F
100
AcDbEntity
  8
3
100
AcDbCircle
 10
190.080358
 20
46.993999
 30
7.856925
 40
14.506001
100
AcDbArc
 50
114.439062
 51
118.028836
  0
ARC
  5
A0
100
AcDbEntity
  8
3
100
AcDbCircle
 10
178.07886
 20
80.0
 30
7.856925
 40
7.0
100
AcDbArc
 50
0.0
 51
180.0
  0
LINE
  5
A1
100
AcDbEntity
  8
3
100
AcDbLine
 10
184.07886
 20
61.597128
 30
7.856925
 11
177.55834
 21
69.280058
 31
7.856925
  0
LINE
  5
A2
100
AcDbEntity
  8
3
100
AcDbLine
 10
171.07886
 20
70.0
 30
7.856925
 11
177.55834
 21
69.280058
 31
7.856925
  0
LINE
  5
A3
100
AcDbEntity
  8
3
100
AcDbLine
 10
185.07886
 20
80.0
 30
7.856925
 11
185.07886
 21
70.521572
 31
7.856925
  0
LINE
  5
A4
100
AcDbEntity
  8
3
100
AcDbLine
 10
192.923239
 20
62.208071
 30
7.856925
 11
183.571286
 21
72.119304
 31
7.856925
  0
LINE
  5
A5
100
AcDbEntity
  8
3
100
AcDbLine
 10
183.560383
 20
78.049542
 30
7.856925
 11
183.571286
 21
72.119304
 31
7.856925
  0
LINE
  5
A6
100
AcDbEntity
  8
2
100
AcDbLine
 10
182.07886
 20
77.0
 30
7.856925
 11
183.57886
 21
78.5
 31
7.856925
  0
LINE
  5
A7
100
AcDbEntity
  8
2
100
AcDbLine
 10
183.57886
 20
75.5
 30
7.856925
 11
182.07886
 21
77.0
 31
7.856925
  0
ARC
  5
A8
100
AcDbEntity
  8
3
100
AcDbCircle
 10
186.476603
 20
77.34551
 30
7.856925
 40
3.0
100
AcDbArc
 50
117.769399
 51
177.917121
  0
LINE
  5
A9
100
AcDbEntity
  8
3
100
AcDbLine
 10
198.07886
 20
33.5
 30
7.856925
 11
198.07886
 21
47.0
 31
7.856925
  0
LINE
  5
AA
100
AcDbEntity
  8
3
100
AcDbLine
 10
207.07886
 20
36.5
 30
7.856925
 11
207.07886
 21
47.0
 31
7.856925
  0
LINE
  5
AB
100
AcDbEntity
  8
3
100
AcDbLine
 10
198.07886
 20
34.5
 30
7.856925
 11
205.07886
 21
34.5
 31
7.856925
  0
ARC
  5
AC
100
AcDbEntity
  8
3
100
AcDbCircle
 10
205.07886
 20
36.5
 30
7.856925
 40
2.0
100
AcDbArc
 50
270.0
 51
0.0
  0
LINE
  5
AD
100
AcDbEntity
  8
3
100
AcDbLine
 10
207.07886
 20
57.5
 30
7.856925
 11
207.07886
 21
47.0
 31
7.856925
  0
LINE
  5
AE
100
AcDbEntity
  8
3
100
AcDbLine
 10
198.07886
 20
59.5
 30
7.856925
 11
205.07886
 21
59.5
 31
7.856925
  0
LINE
  5
AF
100
AcDbEntity
  8
3
100
AcDbLine
 10
198.07886
 20
60.5
 30
7.856925
 11
198.07886
 21
59.5
 31
7.856925
  0
ARC
  5
B0
100
AcDbEntity
  8
3
100
AcDbCircle
 10
205.07886
 20
57.5
 30
7.856925
 40
2.0
100
AcDbArc
 50
0.0
 51
90.0
  0
ENDBLK
  5
B2
100
AcDbEntity
  8
0
100
AcDbBlockEnd
  0
BLOCK
  5
C6
100
AcDbEntity
  8
0
100
AcDbBlockBegin
  2
*D1
 70
     1
 10
0.0
 20
0.0
 30
0.0
  3
*D1
  1

  0
LINE
  5
BC
100
AcDbEntity
  8
0
  6
BYBLOCK
 62
     0
100
AcDbLine
 10
208.0
 20
208.5
 30
0.0
 11
208.0
 21
243.196021
 31
0.0
  0
LINE
  5
BD
100
AcDbEntity
  8
0
  6
BYBLOCK
 62
     0
100
AcDbLine
 10
248.0
 20
180.0
 30
0.0
 11
248.0
 21
243.196021
 31
0.0
  0
LINE
  5
BE
100
AcDbEntity
  8
0
  6
BYBLOCK
 62
     0
100
AcDbLine
 10
210.5
 20
242.196021
 30
0.0
 11
224.982725
 21
242.196021
 31
0.0
  0
LINE
  5
BF
100
AcDbEntity
  8
0
  6
BYBLOCK
 62
     0
100
AcDbLine
 10
245.5
 20
242.196021
 30
0.0
 11
231.162725
 21
242.196021
 31
0.0
  0
SOLID
  5
C0
100
AcDbEntity
  8
0
  6
BYBLOCK
 62
     0
100
AcDbTrace
 10
210.5
 20
242.612687
 30
0.0
 11
210.5
 21
241.779354
 31
0.0
 12
208.0
 22
242.196021
 32
0.0
 13
208.0
 23
242.196021
 33
0.0
  0
SOLID
  5
C1
100
AcDbEntity
  8
0
  6
BYBLOCK
 62
     0
100
AcDbTrace
 10
245.5
 20
242.612687
 30
0.0
 11
245.5
 21
241.779354
 31
0.0
 12
248.0
 22
242.196021
 32
0.0
 13
248.0
 23
242.196021
 33
0.0
  0
MTEXT
  5
C2
100
AcDbEntity
  8
0
  6
BYBLOCK
 62
     0
100
AcDbMText
 10
228.072725
 20
242.196021
 30
0.0
 40
4.0
 41
0.0
 71
     5
 72
     1
  1
\A1;40
1001
ACAD
1000
MTEXTBEGIN
1070
    73
1070
     1
1070
    44
1040
1.0
1070
    74
1070
     0
1000
MTEXTEND
  0
POINT
  5
C3
100
AcDbEntity
  8
DEFPOINTS
  6
BYBLOCK
 62
     0
100
AcDbPoint
 10
208.0
 20
207.5
 30
0.0
  0
POINT
  5
C4
100
AcDbEntity
  8
DEFPOINTS
  6
BYBLOCK
 62
     0
100
AcDbPoint
 10
248.0
 20
179.0
 30
0.0
  0
POINT
  5
C5
100
AcDbEntity
  8
DEFPOINTS
  6
BYBLOCK
 62
     0
100
AcDbPoint
 10
248.0
 20
242.196021
 30
0.0
  0
ENDBLK
  5
C7
100
AcDbEntity
  8
0
100
AcDbBlockEnd
  0
BLOCK
  5
D3
100
AcDbEntity
  8
0
100
AcDbBlockBegin
  2
*D2
 70
     1
 10
0.0
 20
0.0
 30
0.0
  3
*D2
  1

  0
LINE
  5
C9
100
AcDbEntity
  8
0
  6
BYBLOCK
 62
     0
100
AcDbLine
 10
208.0
 20
208.5
 30
0.0
 11
208.0
 21
238.858935
 31
0.0
  0
LINE
  5
CA
100
AcDbEntity
  8
0
  6
BYBLOCK
 62
     0
100
AcDbLine
 10
223.0
 20
208.5
 30
0.0
 11
223.0
 21
238.858935
 31
0.0
  0
LINE
  5
CB
100
AcDbEntity
  8
0
  6
BYBLOCK
 62
     0
100
AcDbLine
 10
210.5
 20
237.858935
 30
0.0
 11
212.841867
 21
237.858935
 31
0.0
  0
LINE
  5
CC
100
AcDbEntity
  8
0
  6
BYBLOCK
 62
     0
100
AcDbLine
 10
220.5
 20
237.858935
 30
0.0
 11
218.355201
 21
237.858935
 31
0.0
  0
SOLID
  5
CD
100
AcDbEntity
  8
0
  6
BYBLOCK
 62
     0
100
AcDbTrace
 10
210.5
 20
238.275602
 30
0.0
 11
210.5
 21
237.442269
 31
0.0
 12
208.0
 22
237.858935
 32
0.0
 13
208.0
 23
237.858935
 33
0.0
  0
SOLID
  5
CE
100
AcDbEntity
  8
0
  6
BYBLOCK
 62
     0
100
AcDbTrace
 10
220.5
 20
238.275602
 30
0.0
 11
220.5
 21
237.442269
 31
0.0
 12
223.0
 22
237.858935
 32
0.0
 13
223.0
 23
237.858935
 33
0.0
  0
MTEXT
  5
CF
100
AcDbEntity
  8
0
  6
BYBLOCK
 62
     0
100
AcDbMText
 10
215.598534
 20
237.858935
 30
0.0
 40
4.0
 41
0.0
 71
     5
 72
     1
  1
\A1;15
1001
ACAD
1000
MTEXTBEGIN
1070
    73
1070
     1
1070
    44
1040
1.0
1070
    74
1070
     0
1000
MTEXTEND
  0
POINT
  5
D0
100
AcDbEntity
  8
DEFPOINTS
  6
BYBLOCK
 62
     0
100
AcDbPoint
 10
208.0
 20
207.5
 30
0.0
  0
POINT
  5
D1
100
AcDbEntity
  8
DEFPOINTS
  6
BYBLOCK
 62
     0
100
AcDbPoint
 10
223.0
 20
207.5
 30
0.0
  0
POINT
  5
D2
100
AcDbEntity
  8
DEFPOINTS
  6
BYBLOCK
 62
     0
100
AcDbPoint
 10
223.0
 20
237.858935
 30
0.0
  0
ENDBLK
  5
D4
100
AcDbEntity
  8
0
100
AcDbBlockEnd
  0
BLOCK
  5
E0
100
AcDbEntity
  8
0
100
AcDbBlockBegin
  2
*D3
 70
     1
 10
0.0
 20
0.0
 30
0.0
  3
*D3
  1

  0
LINE
  5
D6
100
AcDbEntity
  8
0
  6
BYBLOCK
 62
     0
100
AcDbLine
 10
239.0
 20
182.0
 30
0.0
 11
239.0
 21
189.253519
 31
0.0
  0
LINE
  5
D7
100
AcDbEntity
  8
0
  6
BYBLOCK
 62
     0
100
AcDbLine
 10
248.0
 20
180.0
 30
0.0
 11
248.0
 21
189.253519
 31
0.0
  0
LINE
  5
D8
100
AcDbEntity
  8
0
  6
BYBLOCK
 62
     0
100
AcDbLine
 10
241.5
 20
188.253519
 30
0.0
 11
245.5
 21
188.253519
 31
0.0
  0
LINE
  5
D9
100
AcDbEntity
  8
0
  6
BYBLOCK
 62
     0
100
AcDbLine
 10
248.0
 20
188.253519
 30
0.0
 11
250.5
 21
188.253519
 31
0.0
  0
SOLID
  5
DA
100
AcDbEntity
  8
0
  6
BYBLOCK
 62
     0
100
AcDbTrace
 10
241.5
 20
188.670186
 30
0.0
 11
241.5
 21
187.836853
 31
0.0
 12
239.0
 22
188.253519
 32
0.0
 13
239.0
 23
188.253519
 33
0.0
  0
SOLID
  5
DB
100
AcDbEntity
  8
0
  6
BYBLOCK
 62
     0
100
AcDbTrace
 10
245.5
 20
188.670186
 30
0.0
 11
245.5
 21
187.836853
 31
0.0
 12
248.0
 22
188.253519
 32
0.0
 13
248.0
 23
188.253519
 33
0.0
  0
MTEXT
  5
DC
100
AcDbEntity
  8
0
  6
BYBLOCK
 62
     0
100
AcDbMText
 10
251.923333
 20
188.253519
 30
0.0
 40
4.0
 41
0.0
 71
     5
 72
     1
  1
\A1;9
1001
ACAD
1000
MTEXTBEGIN
1070
    73
1070
     1
1070
    44
1040
1.0
1070
    74
1070
     0
1000
MTEXTEND
  0
POINT
  5
DD
100
AcDbEntity
  8
DEFPOINTS
  6
BYBLOCK
 62
     0
100
AcDbPoint
 10
239.0
 20
181.0
 30
0.0
  0
POINT
  5
DE
100
AcDbEntity
  8
DEFPOINTS
  6
BYBLOCK
 62
     0
100
AcDbPoint
 10
248.0
 20
179.0
 30
0.0
  0
POINT
  5
DF
100
AcDbEntity
  8
DEFPOINTS
  6
BYBLOCK
 62
     0
100
AcDbPoint
 10
248.0
 20
188.253519
 30
0.0
  0
ENDBLK
  5
E1
100
AcDbEntity
  8
0
100
AcDbBlockEnd
  0
BLOCK
  5
EB
100
AcDbEntity
  8
0
100
AcDbBlockBegin
  2
*D4
 70
     1
 10
0.0
 20
0.0
 30
0.0
  3
*D4
  1

  0
LINE
  5
E3
100
AcDbEntity
  8
0
  6
BYBLOCK
 62
     0
100
AcDbLine
 10
261.800699
 20
187.414018
 30
0.0
 11
259.300699
 21
187.414018
 31
0.0
  0
LINE
  5
E4
100
AcDbEntity
  8
0
  6
BYBLOCK
 62
     0
100
AcDbLine
 10
259.300699
 20
187.414018
 30
0.0
 11
247.825378
 21
179.564581
 31
0.0
  0
MTEXT
  5
E5
100
AcDbEntity
  8
0
  6
BYBLOCK
 62
     0
100
AcDbMText
 10
264.557366
 20
187.414018
 30
0.0
 40
4.0
 41
0.0
 71
     5
 72
     1
  1
\A1;R1
1001
ACAD
1000
MTEXTBEGIN
1070
    73
1070
     1
1070
    44
1040
1.0
1070
    74
1070
     0
1000
MTEXTEND
  0
SOLID
  5
E6
100
AcDbEntity
  8
0
  6
BYBLOCK
 62
     0
100
AcDbTrace
 10
249.653579
 20
181.319941
 30
0.0
 11
250.124064
 21
180.632127
 31
0.0
 12
247.825378
 22
179.564581
 32
0.0
 13
247.825378
 23
179.564581
 33
0.0
  0
LINE
  5
E7
100
AcDbEntity
  8
0
  6
BYBLOCK
 62
     0
100
AcDbLine
 10
246.91
 20
179.0
 30
0.0
 11
247.09
 21
179.0
 31
0.0
  0
LINE
  5
E8
100
AcDbEntity
  8
0
  6
BYBLOCK
 62
     0
100
AcDbLine
 10
247.0
 20
178.91
 30
0.0
 11
247.0
 21
179.09
 31
0.0
  0
POINT
  5
E9
100
AcDbEntity
  8
DEFPOINTS
  6
BYBLOCK
 62
     0
100
AcDbPoint
 10
247.825378
 20
179.564581
 30
0.0
  0
POINT
  5
EA
100
AcDbEntity
  8
DEFPOINTS
  6
BYBLOCK
 62
     0
100
AcDbPoint
 10
247.0
 20
179.0
 30
0.0
  0
ENDBLK
  5
EC
100
AcDbEntity
  8
0
100
AcDbBlockEnd
  0
BLOCK
  5
F8
100
AcDbEntity
  8
0
100
AcDbBlockBegin
  2
*D5
 70
     1
 10
0.0
 20
0.0
 30
0.0
  3
*D5
  1

  0
LINE
  5
EE
100
AcDbEntity
  8
0
  6
BYBLOCK
 62
     0
100
AcDbLine
 10
248.0
 20
180.0
 30
0.0
 11
266.766474
 21
180.0
 31
0.0
  0
LINE
  5
EF
100
AcDbEntity
  8
0
  6
BYBLOCK
 62
     0
100
AcDbLine
 10
248.0
 20
150.0
 30
0.0
 11
266.766474
 21
150.0
 31
0.0
  0
LINE
  5
F0
100
AcDbEntity
  8
0
  6
BYBLOCK
 62
     0
100
AcDbLine
 10
265.766474
 20
177.5
 30
0.0
 11
265.766474
 21
168.302752
 31
0.0
  0
LINE
  5
F1
100
AcDbEntity
  8
0
  6
BYBLOCK
 62
     0
100
AcDbLine
 10
265.766474
 20
152.5
 30
0.0
 11
265.766474
 21
162.122752
 31
0.0
  0
SOLID
  5
F2
100
AcDbEntity
  8
0
  6
BYBLOCK
 62
     0
100
AcDbTrace
 10
265.349807
 20
177.5
 30
0.0
 11
266.18314
 21
177.5
 31
0.0
 12
265.766474
 22
180.0
 32
0.0
 13
265.766474
 23
180.0
 33
0.0
  0
SOLID
  5
F3
100
AcDbEntity
  8
0
  6
BYBLOCK
 62
     0
100
AcDbTrace
 10
265.349807
 20
152.5
 30
0.0
 11
266.18314
 21
152.5
 31
0.0
 12
265.766474
 22
150.0
 32
0.0
 13
265.766474
 23
150.0
 33
0.0
  0
MTEXT
  5
F4
100
AcDbEntity
  8
0
  6
BYBLOCK
 62
     0
100
AcDbMText
 10
265.766474
 20
165.212752
 30
0.0
 40
4.0
 41
0.0
 71
     5
 72
     1
  1
\A1;30
 11
0.0
 21
1.0
 31
0.0
1001
ACAD
1000
MTEXTBEGIN
1070
    73
1070
     1
1070
    44
1040
1.0
1070
    74
1070
     0
1000
MTEXTEND
  0
POINT
  5
F5
100
AcDbEntity
  8
DEFPOINTS
  6
BYBLOCK
 62
     0
100
AcDbPoint
 10
247.0
 20
180.0
 30
0.0
  0
POINT
  5
F6
100
AcDbEntity
  8
DEFPOINTS
  6
BYBLOCK
 62
     0
100
AcDbPoint
 10
247.0
 20
150.0
 30
0.0
  0
POINT
  5
F7
100
AcDbEntity
  8
DEFPOINTS
  6
BYBLOCK
 62
     0
100
AcDbPoint
 10
265.766474
 20
150.0
 30
0.0
  0
ENDBLK
  5
F9
100
AcDbEntity
  8
0
100
AcDbBlockEnd
  0
BLOCK
  5
105
100
AcDbEntity
  8
0
100
AcDbBlockBegin
  2
*D6
 70
     1
 10
0.0
 20
0.0
 30
0.0
  3
*D6
  1

  0
LINE
  5
FB
100
AcDbEntity
  8
0
  6
BYBLOCK
 62
     0
100
AcDbLine
 10
49.0
 20
166.0
 30
0.0
 11
49.0
 21
247.0
 31
0.0
  0
LINE
  5
FC
100
AcDbEntity
  8
0
  6
BYBLOCK
 62
     0
100
AcDbLine
 10
149.0
 20
166.0
 30
0.0
 11
149.0
 21
247.0
 31
0.0
  0
LINE
  5
FD
100
AcDbEntity
  8
0
  6
BYBLOCK
 62
     0
100
AcDbLine
 10
51.5
 20
246.0
 30
0.0
 11
94.91
 21
246.0
 31
0.0
  0
LINE
  5
FE
100
AcDbEntity
  8
0
  6
BYBLOCK
 62
     0
100
AcDbLine
 10
146.5
 20
246.0
 30
0.0
 11
103.09
 21
246.0
 31
0.0
  0
SOLID
  5
FF
100
AcDbEntity
  8
0
  6
BYBLOCK
 62
     0
100
AcDbTrace
 10
51.5
 20
246.416667
 30
0.0
 11
51.5
 21
245.583333
 31
0.0
 12
49.0
 22
246.0
 32
0.0
 13
49.0
 23
246.0
 33
0.0
  0
SOLID
  5
100
100
AcDbEntity
  8
0
  6
BYBLOCK
 62
     0
100
AcDbTrace
 10
146.5
 20
246.416667
 30
0.0
 11
146.5
 21
245.583333
 31
0.0
 12
149.0
 22
246.0
 32
0.0
 13
149.0
 23
246.0
 33
0.0
  0
MTEXT
  5
101
100
AcDbEntity
  8
0
  6
BYBLOCK
 62
     0
100
AcDbMText
 10
99.0
 20
246.0
 30
0.0
 40
4.0
 41
0.0
 71
     5
 72
     1
  1
\A1;100
1001
ACAD
1000
MTEXTBEGIN
1070
    73
1070
     1
1070
    44
1040
1.0
1070
    74
1070
     0
1000
MTEXTEND
  0
POINT
  5
102
100
AcDbEntity
  8
DEFPOINTS
  6
BYBLOCK
 62
     0
100
AcDbPoint
 10
49.0
 20
165.0
 30
0.0
  0
POINT
  5
103
100
AcDbEntity
  8
DEFPOINTS
  6
BYBLOCK
 62
     0
100
AcDbPoint
 10
149.0
 20
165.0
 30
0.0
  0
POINT
  5
104
100
AcDbEntity
  8
DEFPOINTS
  6
BYBLOCK
 62
     0
100
AcDbPoint
 10
149.0
 20
246.0
 30
0.0
  0
ENDBLK
  5
106
100
AcDbEntity
  8
0
100
AcDbBlockEnd
  0
BLOCK
  5
112
100
AcDbEntity
  8
0
100
AcDbBlockBegin
  2
*D7
 70
     1
 10
0.0
 20
0.0
 30
0.0
  3
*D7
  1

  0
LINE
  5
108
100
AcDbEntity
  8
0
  6
BYBLOCK
 62
     0
100
AcDbLine
 10
254.5
 20
149.5
 30
0.0
 11
254.5
 21
84.484122
 31
0.0
  0
LINE
  5
109
100
AcDbEntity
  8
0
  6
BYBLOCK
 62
     0
100
AcDbLine
 10
279.5
 20
150.0
 30
0.0
 11
279.5
 21
84.484122
 31
0.0
  0
LINE
  5
10A
100
AcDbEntity
  8
0
  6
BYBLOCK
 62
     0
100
AcDbLine
 10
257.0
 20
85.484122
 30
0.0
 11
264.95093
 21
85.484122
 31
0.0
  0
LINE
  5
10B
100
AcDbEntity
  8
0
  6
BYBLOCK
 62
     0
100
AcDbLine
 10
277.0
 20
85.484122
 30
0.0
 11
271.797597
 21
85.484122
 31
0.0
  0
SOLID
  5
10C
100
AcDbEntity
  8
0
  6
BYBLOCK
 62
     0
100
AcDbTrace
 10
257.0
 20
85.900788
 30
0.0
 11
257.0
 21
85.067455
 31
0.0
 12
254.5
 22
85.484122
 32
0.0
 13
254.5
 23
85.484122
 33
0.0
  0
SOLID
  5
10D
100
AcDbEntity
  8
0
  6
BYBLOCK
 62
     0
100
AcDbTrace
 10
277.0
 20
85.900788
 30
0.0
 11
277.0
 21
85.067455
 31
0.0
 12
279.5
 22
85.484122
 32
0.0
 13
279.5
 23
85.484122
 33
0.0
  0
MTEXT
  5
10E
100
AcDbEntity
  8
0
  6
BYBLOCK
 62
     0
100
AcDbMText
 10
268.374263
 20
85.484122
 30
0.0
 40
4.0
 41
0.0
 71
     5
 72
     1
  1
\A1;25
1001
ACAD
1000
MTEXTBEGIN
1070
    73
1070
     1
1070
    44
1040
1.0
1070
    74
1070
     0
1000
MTEXTEND
  0
POINT
  5
10F
100
AcDbEntity
  8
DEFPOINTS
  6
BYBLOCK
 62
     0
100
AcDbPoint
 10
254.5
 20
150.5
 30
0.0
  0
POINT
  5
110
100
AcDbEntity
  8
DEFPOINTS
  6
BYBLOCK
 62
     0
100
AcDbPoint
 10
279.5
 20
151.0
 30
0.0
  0
POINT
  5
111
100
AcDbEntity
  8
DEFPOINTS
  6
BYBLOCK
 62
     0
100
AcDbPoint
 10
279.5
 20
85.484122
 30
0.0
  0
ENDBLK
  5
113
100
AcDbEntity
  8
0
100
AcDbBlockEnd
  0
BLOCK
  5
11F
100
AcDbEntity
  8
0
100
AcDbBlockBegin
  2
*D8
 70
     1
 10
0.0
 20
0.0
 30
0.0
  3
*D8
  1

  0
LINE
  5
115
100
AcDbEntity
  8
0
  6
BYBLOCK
 62
     0
100
AcDbLine
 10
254.5
 20
208.5
 30
0.0
 11
254.5
 21
232.106291
 31
0.0
  0
LINE
  5
116
100
AcDbEntity
  8
0
  6
BYBLOCK
 62
     0
100
AcDbLine
 10
270.5
 20
182.0
 30
0.0
 11
270.5
 21
232.106291
 31
0.0
  0
LINE
  5
117
100
AcDbEntity
  8
0
  6
BYBLOCK
 62
     0
100
AcDbLine
 10
257.0
 20
231.106291
 30
0.0
 11
260.415207
 21
231.106291
 31
0.0
  0
LINE
  5
118
100
AcDbEntity
  8
0
  6
BYBLOCK
 62
     0
100
AcDbLine
 10
268.0
 20
231.106291
 30
0.0
 11
265.928541
 21
231.106291
 31
0.0
  0
SOLID
  5
119
100
AcDbEntity
  8
0
  6
BYBLOCK
 62
     0
100
AcDbTrace
 10
257.0
 20
231.522958
 30
0.0
 11
257.0
 21
230.689625
 31
0.0
 12
254.5
 22
231.106291
 32
0.0
 13
254.5
 23
231.106291
 33
0.0
  0
SOLID
  5
11A
100
AcDbEntity
  8
0
  6
BYBLOCK
 62
     0
100
AcDbTrace
 10
268.0
 20
231.522958
 30
0.0
 11
268.0
 21
230.689625
 31
0.0
 12
270.5
 22
231.106291
 32
0.0
 13
270.5
 23
231.106291
 33
0.0
  0
MTEXT
  5
11B
100
AcDbEntity
  8
0
  6
BYBLOCK
 62
     0
100
AcDbMText
 10
263.171874
 20
231.106291
 30
0.0
 40
4.0
 41
0.0
 71
     5
 72
     1
  1
\A1;16
1001
ACAD
1000
MTEXTBEGIN
1070
    73
1070
     1
1070
    44
1040
1.0
1070
    74
1070
     0
1000
MTEXTEND
  0
POINT
  5
11C
100
AcDbEntity
  8
DEFPOINTS
  6
BYBLOCK
 62
     0
100
AcDbPoint
 10
254.5
 20
207.5
 30
0.0
  0
POINT
  5
11D
100
AcDbEntity
  8
DEFPOINTS
  6
BYBLOCK
 62
     0
100
AcDbPoint
 10
270.5
 20
181.0
 30
0.0
  0
POINT
  5
11E
100
AcDbEntity
  8
DEFPOINTS
  6
BYBLOCK
 62
     0
100
AcDbPoint
 10
270.5
 20
231.106291
 30
0.0
  0
ENDBLK
  5
120
100
AcDbEntity
  8
0
100
AcDbBlockEnd
  0
BLOCK
  5
190
100
AcDbEntity
  8
0
100
AcDbBlockBegin
  2
A$C7EEB078D
 70
     0
 10
0.0
 20
0.0
 30
0.0
  3
A$C7EEB078D
  1

  0
LINE
  5
122
100
AcDbEntity
  8
1
100
AcDbLine
 10
54.0
 20
81.515878
 30
0.0
 11
104.432368
 21
52.398737
 31
0.0
  0
ARC
  5
123
100
AcDbEntity
  8
3
100
AcDbCircle
 10
54.0
 20
81.515878
 30
0.0
 40
35.0
100
AcDbArc
 50
270.0
 51
318.463041
  0
ARC
  5
124
100
AcDbEntity
  8
3
100
AcDbCircle
 10
54.0
 20
81.515878
 30
0.0
 40
42.5
100
AcDbArc
 50
270.0
 51
78.463041
  0
ARC
  5
125
100
AcDbEntity
  8
3
100
AcDbCircle
 10
54.0
 20
81.515878
 30
0.0
 40
50.0
100
AcDbArc
 50
270.0
 51
90.0
  0
ARC
  5
126
100
AcDbEntity
  8
3
100
AcDbCircle
 10
54.0
 20
81.515878
 30
0.0
 40
35.0
100
AcDbArc
 50
221.536959
 51
270.0
  0
ARC
  5
127
100
AcDbEntity
  8
3
100
AcDbCircle
 10
54.0
 20
81.515878
 30
0.0
 40
42.5
100
AcDbArc
 50
101.536959
 51
270.0
  0
ARC
  5
128
100
AcDbEntity
  8
3
100
AcDbCircle
 10
54.0
 20
81.515878
 30
0.0
 40
50.0
100
AcDbArc
 50
90.0
 51
270.0
  0
LINE
  5
129
100
AcDbEntity
  8
1
100
AcDbLine
 10
54.0
 20
81.515878
 30
0.0
 11
54.0
 21
24.515878
 31
0.0
  0
LINE
  5
12A
100
AcDbEntity
  8
1
100
AcDbLine
 10
54.0
 20
81.515878
 30
0.0
 11
102.715862
 21
53.389762
 31
0.0
  0
LINE
  5
12B
100
AcDbEntity
  8
1
100
AcDbLine
 10
54.0
 20
81.515878
 30
0.0
 11
3.567631
 21
52.398737
 31
0.0
  0
DIMENSION
  5
12C
100
AcDbEntity
  8
0
100
AcDbDimension
  2
*D6
 10
104.0
 20
162.515878
 30
0.0
 11
54.0
 21
162.515878
 31
0.0
 12
-45.0
 22
-83.484122
 32
0.0
 70
   128
  3
STANDARD
100
AcDbAlignedDimension
 13
4.0
 23
81.515878
 33
0.0
 14
104.0
 24
81.515878
 34
0.0
100
AcDbRotatedDimension
1001
ACAD
1000
DSTYLE
1002
{
1070
    78
1070
     8
1070
   288
1070
     1
1070
   284
1070
     8
1070
   140
1040
4.0
1070
    73
1070
     0
1070
   272
1070
     1
1070
    42
1040
1.0
1070
    44
1040
1.0
1070
   271
1070
     1
1070
    41
1040
2.5
1002
}
  0
LINE
  5
12D
100
AcDbEntity
  8
1
100
AcDbLine
 10
0.0
 20
81.515878
 30
0.0
 11
108.0
 21
81.515878
 31
0.0
  0
LINE
  5
12E
100
AcDbEntity
  8
3
100
AcDbLine
 10
87.198485
 20
70.431628
 30
0.0
 11
71.0
 21
81.515878
 31
0.0
  0
LINE
  5
12F
100
AcDbEntity
  8
3
100
AcDbLine
 10
80.198485
 20
58.307272
 30
0.0
 11
62.5
 21
66.793446
 31
0.0
  0
ARC
  5
130
100
AcDbEntity
  8
3
100
AcDbCircle
 10
54.0
 20
81.515878
 30
0.0
 40
17.0
100
AcDbArc
 50
0.0
 51
60.0
  0
ARC
  5
131
100
AcDbEntity
  8
3
100
AcDbCircle
 10
54.0
 20
81.515878
 30
0.0
 40
35.0
100
AcDbArc
 50
341.536959
 51
78.463041
  0
LINE
  5
132
100
AcDbEntity
  8
3
100
AcDbLine
 10
61.0
 20
115.808735
 30
0.0
 11
62.5
 21
96.23831
 31
0.0
  0
ARC
  5
133
100
AcDbEntity
  8
3
100
AcDbCircle
 10
54.0
 20
81.515878
 30
0.0
 40
35.0
100
AcDbArc
 50
101.536959
 51
198.463041
  0
LINE
  5
134
100
AcDbEntity
  8
3
100
AcDbLine
 10
47.0
 20
115.808735
 30
0.0
 11
45.5
 21
96.23831
 31
0.0
  0
LINE
  5
135
100
AcDbEntity
  8
1
100
AcDbLine
 10
54.0
 20
81.515878
 30
0.0
 11
54.0
 21
139.515878
 31
0.0
  0
ARC
  5
136
100
AcDbEntity
  8
3
100
AcDbCircle
 10
54.0
 20
81.515878
 30
0.0
 40
16.0
100
AcDbArc
 50
270.0
 51
90.0
  0
ARC
  5
137
100
AcDbEntity
  8
3
100
AcDbCircle
 10
54.0
 20
81.515878
 30
0.0
 40
17.0
100
AcDbArc
 50
120.0
 51
180.0
  0
ARC
  5
138
100
AcDbEntity
  8
3
100
AcDbCircle
 10
54.185475
 20
81.622963
 30
0.0
 40
16.69355
100
AcDbArc
 50
182.214735
 51
237.785265
  0
LINE
  5
139
100
AcDbEntity
  8
3
100
AcDbLine
 10
27.801515
 20
58.307272
 30
0.0
 11
45.5
 21
66.793446
 31
0.0
  0
ARC
  5
13A
100
AcDbEntity
  8
3
100
AcDbCircle
 10
54.0
 20
81.515878
 30
0.0
 40
14.5
100
AcDbArc
 50
90.0
 51
270.0
  0
ARC
  5
13B
100
AcDbEntity
  8
3
100
AcDbCircle
 10
54.0
 20
81.515878
 30
0.0
 40
16.0
100
AcDbArc
 50
90.0
 51
270.0
  0
LINE
  5
13C
100
AcDbEntity
  8
3
100
AcDbLine
 10
20.801515
 20
70.431628
 30
0.0
 11
37.0
 21
81.515878
 31
0.0
  0
ARC
  5
13D
100
AcDbEntity
  8
3
100
AcDbCircle
 10
45.055259
 20
76.35163
 30
0.0
 40
25.882929
100
AcDbArc
 50
196.18594
 51
223.81406
  0
ARC
  5
13E
100
AcDbEntity
  8
3
100
AcDbCircle
 10
21.675682
 20
69.236419
 30
0.0
 40
1.480775
100
AcDbArc
 50
126.18147
 51
183.864361
  0
ARC
  5
13F
100
AcDbEntity
  8
3
100
AcDbCircle
 10
27.203517
 20
59.661928
 30
0.0
 40
1.480775
100
AcDbArc
 50
236.135639
 51
293.81853
  0
ARC
  5
140
100
AcDbEntity
  8
3
100
AcDbCircle
 10
36.950013
 20
80.96357
 30
0.0
 40
0.554565
100
AcDbArc
 50
1.474848
 51
84.828525
  0
ARC
  5
141
100
AcDbEntity
  8
3
100
AcDbCircle
 10
53.814524
 20
81.622963
 30
0.0
 40
16.69355
100
AcDbArc
 50
302.214735
 51
357.785265
  0
ARC
  5
142
100
AcDbEntity
  8
3
100
AcDbCircle
 10
54.0
 20
81.515878
 30
0.0
 40
14.5
100
AcDbArc
 50
270.0
 51
90.0
  0
ARC
  5
143
100
AcDbEntity
  8
3
100
AcDbCircle
 10
54.0
 20
81.515878
 30
0.0
 40
17.0
100
AcDbArc
 50
270.0
 51
300.0
  0
ARC
  5
144
100
AcDbEntity
  8
3
100
AcDbCircle
 10
44.996694
 20
67.026311
 30
0.0
 40
0.554565
100
AcDbArc
 50
335.171475
 51
58.525152
  0
ARC
  5
145
100
AcDbEntity
  8
3
100
AcDbCircle
 10
54.0
 20
81.515878
 30
0.0
 40
17.0
100
AcDbArc
 50
240.0
 51
270.0
  0
ARC
  5
146
100
AcDbEntity
  8
3
100
AcDbCircle
 10
63.003306
 20
67.026311
 30
0.0
 40
0.554565
100
AcDbArc
 50
121.474848
 51
204.828525
  0
ARC
  5
147
100
AcDbEntity
  8
3
100
AcDbCircle
 10
54.0
 20
81.30171
 30
0.0
 40
16.69355
100
AcDbArc
 50
62.214735
 51
90.0
  0
ARC
  5
148
100
AcDbEntity
  8
3
100
AcDbCircle
 10
54.0
 20
81.30171
 30
0.0
 40
16.69355
100
AcDbArc
 50
90.0
 51
117.785265
  0
ARC
  5
149
100
AcDbEntity
  8
3
100
AcDbCircle
 10
45.953319
 20
96.557754
 30
0.0
 40
0.554565
100
AcDbArc
 50
215.171475
 51
298.525152
  0
ARC
  5
14A
100
AcDbEntity
  8
3
100
AcDbCircle
 10
71.049987
 20
80.96357
 30
0.0
 40
0.554565
100
AcDbArc
 50
95.171475
 51
178.525152
  0
ARC
  5
14B
100
AcDbEntity
  8
3
100
AcDbCircle
 10
62.04668
 20
96.557754
 30
0.0
 40
0.554565
100
AcDbArc
 50
241.474848
 51
324.828525
  0
ARC
  5
14C
100
AcDbEntity
  8
3
100
AcDbCircle
 10
62.874605
 20
120.206196
 30
0.0
 40
2.974689
100
AcDbArc
 50
97.234512
 51
174.024359
  0
ARC
  5
14D
100
AcDbEntity
  8
3
100
AcDbCircle
 10
45.125395
 20
120.206196
 30
0.0
 40
2.974689
100
AcDbArc
 50
5.975641
 51
82.765488
  0
ARC
  5
14E
100
AcDbEntity
  8
3
100
AcDbCircle
 10
54.0
 20
121.515878
 30
0.0
 40
6.0
100
AcDbArc
 50
270.0
 51
352.804251
  0
ARC
  5
14F
100
AcDbEntity
  8
3
100
AcDbCircle
 10
54.0
 20
91.844375
 30
0.0
 40
25.882929
100
AcDbArc
 50
99.630602
 51
103.81406
  0
ARC
  5
150
100
AcDbEntity
  8
3
100
AcDbCircle
 10
54.0
 20
121.515878
 30
0.0
 40
6.0
100
AcDbArc
 50
187.195749
 51
270.0
  0
ARC
  5
151
100
AcDbEntity
  8
3
100
AcDbCircle
 10
48.472165
 20
115.649288
 30
0.0
 40
1.480775
100
AcDbArc
 50
116.135639
 51
173.81853
  0
ARC
  5
152
100
AcDbEntity
  8
3
100
AcDbCircle
 10
59.527834
 20
115.649288
 30
0.0
 40
1.480775
100
AcDbArc
 50
6.18147
 51
63.864361
  0
ARC
  5
153
100
AcDbEntity
  8
3
100
AcDbCircle
 10
54.0
 20
91.844375
 30
0.0
 40
25.882929
100
AcDbArc
 50
76.18594
 51
80.369398
  0
ARC
  5
154
100
AcDbEntity
  8
3
100
AcDbCircle
 10
62.944741
 20
76.35163
 30
0.0
 40
25.882929
100
AcDbArc
 50
316.18594
 51
343.81406
  0
ARC
  5
155
100
AcDbEntity
  8
3
100
AcDbCircle
 10
80.796482
 20
59.661928
 30
0.0
 40
1.480775
100
AcDbArc
 50
246.18147
 51
303.864361
  0
ARC
  5
156
100
AcDbEntity
  8
3
100
AcDbCircle
 10
86.324317
 20
69.236419
 30
0.0
 40
1.480775
100
AcDbArc
 50
356.135639
 51
53.81853
  0
DIMENSION
  5
157
100
AcDbEntity
  8
0
100
AcDbDimension
  2
*D7
 10
214.5
 20
2.0
 30
0.0
 11
203.374263
 21
2.0
 31
0.0
 12
-65.0
 22
-83.484122
 32
0.0
 70
   128
  3
STANDARD
100
AcDbAlignedDimension
 13
189.5
 23
67.015878
 33
0.0
 14
214.5
 24
67.515878
 34
0.0
100
AcDbRotatedDimension
1001
ACAD
1000
DSTYLE
1002
{
1070
    78
1070
     8
1070
   288
1070
     1
1070
   284
1070
     8
1070
   140
1040
4.0
1070
    73
1070
     0
1070
   272
1070
     1
1070
    42
1040
1.0
1070
    44
1040
1.0
1070
   271
1070
     1
1070
    41
1040
2.5
1002
}
  0
LINE
  5
158
100
AcDbEntity
  8
3
100
AcDbLine
 10
189.5
 20
61.984633
 30
0.0
 11
189.5
 21
39.015878
 31
0.0
  0
LINE
  5
159
100
AcDbEntity
  8
3
100
AcDbLine
 10
174.5
 20
81.515878
 30
0.0
 11
174.5
 21
39.015878
 31
0.0
  0
LINE
  5
15A
100
AcDbEntity
  8
1
100
AcDbLine
 10
182.0
 20
139.515878
 30
0.0
 11
182.0
 21
25.515878
 31
0.0
  0
ARC
  5
15B
100
AcDbEntity
  8
3
100
AcDbCircle
 10
182.0
 20
39.015878
 30
0.0
 40
7.5
100
AcDbArc
 50
180.0
 51
0.0
  0
ARC
  5
15C
100
AcDbEntity
  8
3
100
AcDbCircle
 10
182.0
 20
41.015878
 30
0.0
 40
5.5
100
AcDbArc
 50
3.894429
 51
176.105571
  0
ARC
  5
15D
100
AcDbEntity
  8
3
100
AcDbCircle
 10
173.882232
 20
41.579857
 30
0.0
 40
2.637352
100
AcDbArc
 50
283.54671
 51
355.859388
  0
ARC
  5
15E
100
AcDbEntity
  8
3
100
AcDbCircle
 10
190.058964
 20
41.529993
 30
0.0
 40
2.575503
100
AcDbArc
 50
183.128611
 51
257.465292
  0
DIMENSION
  5
15F
100
AcDbEntity
  8
0
100
AcDbDimension
  2
*D8
 10
205.5
 20
147.622169
 30
0.0
 11
198.171874
 21
147.622169
 31
0.0
 12
-65.0
 22
-83.484122
 32
0.0
 70
   128
  3
STANDARD
100
AcDbAlignedDimension
 13
189.5
 23
124.015878
 33
0.0
 14
205.5
 24
97.515878
 34
0.0
100
AcDbRotatedDimension
1001
ACAD
1000
DSTYLE
1002
{
1070
    78
1070
     8
1070
   288
1070
     1
1070
   284
1070
     8
1070
   140
1040
4.0
1070
    73
1070
     0
1070
   272
1070
     1
1070
    42
1040
1.0
1070
    44
1040
1.0
1070
   271
1070
     1
1070
    41
1040
2.5
1002
}
  0
DIMENSION
  5
160
100
AcDbEntity
  8
0
100
AcDbDimension
  2
*D2
 10
189.5
 20
154.374813
 30
0.0
 11
182.098534
 21
154.374813
 31
0.0
 12
-33.5
 22
-83.484122
 32
0.0
 70
   128
  3
STANDARD
100
AcDbAlignedDimension
 13
174.5
 23
124.015878
 33
0.0
 14
189.5
 24
124.015878
 34
0.0
100
AcDbRotatedDimension
1001
ACAD
1000
DSTYLE
1002
{
1070
    78
1070
     8
1070
   288
1070
     1
1070
   284
1070
     8
1070
   140
1040
4.0
1070
    73
1070
     0
1070
   272
1070
     1
1070
    42
1040
1.0
1070
    44
1040
1.0
1070
   271
1070
     1
1070
    41
1040
2.5
1002
}
  0
DIMENSION
  5
161
100
AcDbEntity
  8
0
100
AcDbDimension
  2
*D1
 10
214.5
 20
158.711899
 30
0.0
 11
194.572724
 21
158.711899
 31
0.0
 12
-33.5
 22
-83.484122
 32
0.0
 70
   128
  3
STANDARD
100
AcDbAlignedDimension
 13
174.5
 23
124.015878
 33
0.0
 14
214.5
 24
95.515878
 34
0.0
100
AcDbRotatedDimension
1001
ACAD
1000
DSTYLE
1002
{
1070
    78
1070
     8
1070
   288
1070
     1
1070
   284
1070
     8
1070
   140
1040
4.0
1070
    73
1070
     0
1070
   272
1070
     1
1070
    42
1040
1.0
1070
    44
1040
1.0
1070
   271
1070
     1
1070
    41
1040
2.5
1002
}
  0
LINE
  5
162
100
AcDbEntity
  8
2
100
AcDbLine
 10
198.881666
 20
67.076345
 30
0.0
 11
189.5
 21
61.984633
 31
0.0
  0
ARC
  5
163
100
AcDbEntity
  8
2
100
AcDbCircle
 10
197.5
 20
69.993446
 30
0.0
 40
3.2
100
AcDbArc
 50
203.908086
 51
339.511284
  0
ARC
  5
164
100
AcDbEntity
  8
2
100
AcDbCircle
 10
197.5
 20
78.315878
 30
0.0
 40
3.2
100
AcDbArc
 50
34.583858
 51
146.076759
  0
ARC
  5
165
100
AcDbEntity
  8
3
100
AcDbCircle
 10
197.1744
 20
99.620676
 30
0.0
 40
35.106308
100
AcDbArc
 50
259.040231
 51
283.718625
  0
LINE
  5
166
100
AcDbEntity
  8
1
100
AcDbLine
 10
169.0
 20
81.515878
 30
0.0
 11
220.0
 21
81.515878
 31
0.0
  0
LINE
  5
167
100
AcDbEntity
  8
3
100
AcDbLine
 10
199.844361
 20
102.71426
 30
0.0
 11
186.872543
 21
115.853409
 31
0.0
  0
ARC
  5
168
100
AcDbEntity
  8
3
100
AcDbCircle
 10
190.917639
 20
99.015149
 30
0.0
 40
2.082361
100
AcDbArc
 50
330.674193
 51
50.920919
  0
LINE
  5
169
100
AcDbEntity
  8
1
100
AcDbLine
 10
197.5
 20
81.515878
 30
0.0
 11
197.5
 21
110.015878
 31
0.0
  0
LINE
  5
16A
100
AcDbEntity
  8
3
100
AcDbLine
 10
189.5
 20
81.515878
 30
0.0
 11
189.5
 21
103.68004
 31
0.0
  0
LINE
  5
16B
100
AcDbEntity
  8
3
100
AcDbLine
 10
174.5
 20
81.515878
 30
0.0
 11
174.5
 21
124.015878
 31
0.0
  0
LINE
  5
16C
100
AcDbEntity
  8
2
100
AcDbLine
 10
195.726749
 20
80.933375
 30
0.0
 11
189.5
 21
76.890591
 31
0.0
  0
ARC
  5
16D
100
AcDbEntity
  8
2
100
AcDbCircle
 10
202.161452
 20
74.254117
 30
0.0
 40
9.404626
100
AcDbArc
 50
141.532325
 51
218.050357
  0
LINE
  5
16E
100
AcDbEntity
  8
3
100
AcDbLine
 10
189.5
 20
67.015878
 30
0.0
 11
189.5
 21
81.515878
 31
0.0
  0
LINE
  5
16F
100
AcDbEntity
  8
1
100
AcDbLine
 10
197.5
 20
81.515878
 30
0.0
 11
197.5
 21
61.592761
 31
0.0
  0
LINE
  5
170
100
AcDbEntity
  8
3
100
AcDbLine
 10
189.5
 20
81.515878
 30
0.0
 11
189.5
 21
76.890591
 31
0.0
  0
LINE
  5
171
100
AcDbEntity
  8
3
100
AcDbLine
 10
180.860399
 20
71.281237
 30
0.0
 11
189.5
 21
76.890591
 31
0.0
  0
ARC
  5
172
100
AcDbEntity
  8
3
100
AcDbCircle
 10
182.04076
 20
61.690625
 30
0.0
 40
3.319281
100
AcDbArc
 50
234.124396
 51
292.262839
  0
ARC
  5
173
100
AcDbEntity
  8
3
100
AcDbCircle
 10
187.446144
 20
64.707153
 30
0.0
 40
9.305409
100
AcDbArc
 50
135.050766
 51
217.821515
  0
LINE
  5
174
100
AcDbEntity
  8
3
100
AcDbLine
 10
189.5
 20
67.015878
 30
0.0
 11
190.5
 21
65.154675
 31
0.0
  0
LINE
  5
175
100
AcDbEntity
  8
3
100
AcDbLine
 10
183.298289
 20
58.618778
 30
0.0
 11
189.5
 21
61.984633
 31
0.0
  0
LINE
  5
176
100
AcDbEntity
  8
3
100
AcDbLine
 10
189.5
 20
97.515878
 30
0.0
 11
189.5
 21
81.515878
 31
0.0
  0
LINE
  5
177
100
AcDbEntity
  8
3
100
AcDbLine
 10
189.5
 20
96.015878
 30
0.0
 11
190.5
 21
97.877081
 31
0.0
  0
ARC
  5
178
100
AcDbEntity
  8
3
100
AcDbCircle
 10
192.702016
 20
77.425249
 30
0.0
 40
20.570034
100
AcDbArc
 50
89.913298
 51
96.145271
  0
LINE
  5
179
100
AcDbEntity
  8
3
100
AcDbLine
 10
189.5
 20
113.192059
 30
0.0
 11
189.5
 21
124.015878
 31
0.0
  0
LINE
  5
17A
100
AcDbEntity
  8
3
100
AcDbLine
 10
188.5
 20
122.90168
 30
0.0
 11
188.5
 21
116.658735
 31
0.0
  0
LINE
  5
17B
100
AcDbEntity
  8
3
100
AcDbLine
 10
192.230344
 20
100.631637
 30
0.0
 11
179.609541
 21
114.722645
 31
0.0
  0
LINE
  5
17C
100
AcDbEntity
  8
3
100
AcDbLine
 10
174.5
 20
115.515878
 30
0.0
 11
179.345039
 21
114.977541
 31
0.0
  0
ARC
  5
17D
100
AcDbEntity
  8
3
100
AcDbCircle
 10
182.25
 20
117.727304
 30
0.0
 40
4.0
100
AcDbArc
 50
223.427877
 51
228.691386
  0
LINE
  5
17E
100
AcDbEntity
  8
3
100
AcDbLine
 10
188.5
 20
116.658735
 30
0.0
 11
186.872543
 21
115.853409
 31
0.0
  0
ARC
  5
17F
100
AcDbEntity
  8
3
100
AcDbCircle
 10
182.0
 20
124.015878
 30
0.0
 40
7.5
100
AcDbArc
 50
0.0
 51
180.0
  0
ARC
  5
180
100
AcDbEntity
  8
3
100
AcDbCircle
 10
190.342167
 20
122.254176
 30
0.0
 40
1.95265
100
AcDbArc
 50
115.549736
 51
160.633911
  0
DIMENSION
  5
181
100
AcDbEntity
  8
0
100
AcDbDimension
  2
*D4
 10
213.5
 20
95.515878
 30
0.0
 11
231.057365
 21
103.929896
 31
0.0
 12
-33.5
 22
-83.484122
 32
0.0
 70
   132
  3
STANDARD
100
AcDbRadialDimension
 15
214.325377
 25
96.080459
 35
0.0
 40
0.0
1001
ACAD
1000
DSTYLE
1002
{
1070
    78
1070
     8
1070
   288
1070
     1
1070
   284
1070
     8
1070
   140
1040
4.0
1070
    73
1070
     0
1070
   272
1070
     1
1070
    42
1040
1.0
1070
    44
1040
1.0
1070
   271
1070
     1
1070
    41
1040
2.5
1002
}
  0
DIMENSION
  5
182
100
AcDbEntity
  8
0
100
AcDbDimension
  2
*D3
 10
214.5
 20
104.769398
 30
0.0
 11
218.423333
 21
104.769398
 31
0.0
 12
-33.5
 22
-83.484122
 32
0.0
 70
   128
  3
STANDARD
100
AcDbAlignedDimension
 13
205.5
 23
97.515878
 33
0.0
 14
214.5
 24
95.515878
 34
0.0
100
AcDbRotatedDimension
1001
ACAD
1000
DSTYLE
1002
{
1070
    78
1070
     8
1070
   288
1070
     1
1070
   284
1070
     8
1070
   140
1040
4.0
1070
    73
1070
     0
1070
   272
1070
     1
1070
    42
1040
1.0
1070
    44
1040
1.0
1070
   271
1070
     1
1070
    41
1040
2.5
1002
}
  0
ARC
  5
183
100
AcDbEntity
  8
3
100
AcDbCircle
 10
196.75
 20
98.786802
 30
0.0
 40
5.0
100
AcDbArc
 50
360.0
 51
51.766175
  0
DIMENSION
  5
184
100
AcDbEntity
  8
0
100
AcDbDimension
  2
*D5
 10
232.266474
 20
66.515878
 30
0.0
 11
232.266474
 21
81.728631
 31
0.0
 12
-33.5
 22
-83.484122
 32
0.0
 70
   128
  3
STANDARD
100
AcDbAlignedDimension
 13
213.5
 23
96.515878
 33
0.0
 14
213.5
 24
66.515878
 34
0.0
 50
90.0
100
AcDbRotatedDimension
1001
ACAD
1000
DSTYLE
1002
{
1070
    78
1070
     8
1070
   288
1070
     1
1070
   284
1070
     8
1070
   140
1040
4.0
1070
    73
1070
     0
1070
   272
1070
     1
1070
    42
1040
1.0
1070
    44
1040
1.0
1070
   271
1070
     1
1070
    41
1040
2.5
1002
}
  0
ARC
  5
185
100
AcDbEntity
  8
2
100
AcDbCircle
 10
189.656053
 20
74.18699
 30
0.0
 40
12.073651
100
AcDbArc
 50
331.670494
 51
29.580378
  0
LINE
  5
186
100
AcDbEntity
  8
3
100
AcDbLine
 10
214.5
 20
81.515878
 30
0.0
 11
214.5
 21
67.515878
 31
0.0
  0
LINE
  5
187
100
AcDbEntity
  8
3
100
AcDbLine
 10
213.5
 20
66.515878
 30
0.0
 11
205.5
 21
66.515878
 31
0.0
  0
LINE
  5
188
100
AcDbEntity
  8
3
100
AcDbLine
 10
205.5
 20
66.515878
 30
0.0
 11
205.5
 21
65.515878
 31
0.0
  0
ARC
  5
189
100
AcDbEntity
  8
3
100
AcDbCircle
 10
213.5
 20
67.515878
 30
0.0
 40
1.0
100
AcDbArc
 50
270.0
 51
0.0
  0
LINE
  5
18A
100
AcDbEntity
  8
3
100
AcDbLine
 10
213.5
 20
96.515878
 30
0.0
 11
205.5
 21
96.515878
 31
0.0
  0
ARC
  5
18B
100
AcDbEntity
  8
3
100
AcDbCircle
 10
200.409407
 20
77.273194
 30
0.0
 40
20.872958
100
AcDbArc
 50
75.884075
 51
86.317571
  0
LINE
  5
18C
100
AcDbEntity
  8
3
100
AcDbLine
 10
201.75
 20
98.103057
 30
0.0
 11
201.75
 21
98.786802
 31
0.0
  0
LINE
  5
18D
100
AcDbEntity
  8
3
100
AcDbLine
 10
205.5
 20
96.515878
 30
0.0
 11
205.5
 21
97.515878
 31
0.0
  0
LINE
  5
18E
100
AcDbEntity
  8
3
100
AcDbLine
 10
214.5
 20
81.515878
 30
0.0
 11
214.5
 21
95.515878
 31
0.0
  0
ARC
  5
18F
100
AcDbEntity
  8
3
100
AcDbCircle
 10
213.5
 20
95.515878
 30
0.0
 40
1.0
100
AcDbArc
 50
0.0
 51
90.0
  0
ENDBLK
  5
191
100
AcDbEntity
  8
0
100
AcDbBlockEnd
  0
BLOCK
  5
197
100
AcDbEntity
  8
0
100
AcDbBlockBegin
  2
A$C78220C5A
 70
     0
 10
0.0
 20
0.0
 30
0.0
  3
A$C78220C5A
  1

  0
INSERT
  5
196
100
AcDbEntity
  8
0
100
AcDbBlockReference
  2
A$C7EEB078D
 10
-0.403287
 20
-24.515878
 30
7.523852
  0
ENDBLK
  5
198
100
AcDbEntity
  8
0
100
AcDbBlockEnd
  0
BLOCK
  5
26A
100
AcDbEntity
  8
0
100
AcDbBlockBegin
  2
A$C56A93E4E
 70
     0
 10
0.0
 20
0.0
 30
0.0
  3
A$C56A93E4E
  1

  0
ARC
  5
205
100
AcDbEntity
  8
3
100
AcDbCircle
 10
62.541454
 20
51.835751
 30
7.523852
 40
25.882929
100
AcDbArc
 50
316.18594
 51
343.81406
  0
ARC
  5
206
100
AcDbEntity
  8
3
100
AcDbCircle
 10
53.596713
 20
57.0
 30
7.523852
 40
14.5
100
AcDbArc
 50
270.0
 51
90.0
  0
ARC
  5
207
100
AcDbEntity
  8
3
100
AcDbCircle
 10
53.411237
 20
57.107084
 30
7.523852
 40
16.69355
100
AcDbArc
 50
302.214735
 51
357.785265
  0
ARC
  5
208
100
AcDbEntity
  8
3
100
AcDbCircle
 10
44.651972
 20
51.835751
 30
7.523852
 40
25.882929
100
AcDbArc
 50
196.18594
 51
223.81406
  0
ARC
  5
209
100
AcDbEntity
  8
3
100
AcDbCircle
 10
53.596713
 20
57.0
 30
7.523852
 40
16.0
100
AcDbArc
 50
90.0
 51
270.0
  0
ARC
  5
20A
100
AcDbEntity
  8
3
100
AcDbCircle
 10
53.596713
 20
57.0
 30
7.523852
 40
14.5
100
AcDbArc
 50
90.0
 51
270.0
  0
ARC
  5
20B
100
AcDbEntity
  8
3
100
AcDbCircle
 10
53.782188
 20
57.107084
 30
7.523852
 40
16.69355
100
AcDbArc
 50
182.214735
 51
237.785265
  0
ARC
  5
20C
100
AcDbEntity
  8
3
100
AcDbCircle
 10
53.596713
 20
57.0
 30
7.523852
 40
16.0
100
AcDbArc
 50
270.0
 51
90.0
  0
LINE
  5
20D
100
AcDbEntity
  8
1
100
AcDbLine
 10
53.596713
 20
57.0
 30
7.523852
 11
3.164345
 21
27.882858
 31
7.523852
  0
LINE
  5
20E
100
AcDbEntity
  8
1
100
AcDbLine
 10
53.596713
 20
57.0
 30
7.523852
 11
102.312575
 21
28.873884
 31
7.523852
  0
LINE
  5
20F
100
AcDbEntity
  8
1
100
AcDbLine
 10
53.596713
 20
57.0
 30
7.523852
 11
53.596713
 21
0.0
 31
7.523852
  0
ARC
  5
210
100
AcDbEntity
  8
3
100
AcDbCircle
 10
53.596713
 20
57.0
 30
7.523852
 40
50.0
100
AcDbArc
 50
90.0
 51
270.0
  0
ARC
  5
211
100
AcDbEntity
  8
3
100
AcDbCircle
 10
53.596713
 20
57.0
 30
7.523852
 40
42.5
100
AcDbArc
 50
101.536959
 51
270.0
  0
ARC
  5
212
100
AcDbEntity
  8
3
100
AcDbCircle
 10
53.596713
 20
57.0
 30
7.523852
 40
50.0
100
AcDbArc
 50
270.0
 51
90.0
  0
ARC
  5
213
100
AcDbEntity
  8
3
100
AcDbCircle
 10
53.596713
 20
57.0
 30
7.523852
 40
42.5
100
AcDbArc
 50
270.0
 51
78.463041
  0
LINE
  5
214
100
AcDbEntity
  8
1
100
AcDbLine
 10
53.596713
 20
57.0
 30
7.523852
 11
104.029081
 21
27.882858
 31
7.523852
  0
LINE
  5
215
100
AcDbEntity
  8
3
100
AcDbLine
 10
79.795198
 20
33.791394
 30
7.523852
 11
62.096713
 21
42.277568
 31
7.523852
  0
ARC
  5
216
100
AcDbEntity
  8
3
100
AcDbCircle
 10
53.596713
 20
57.0
 30
7.523852
 40
35.0
100
AcDbArc
 50
270.0
 51
318.463041
  0
LINE
  5
217
100
AcDbEntity
  8
3
100
AcDbLine
 10
27.398228
 20
33.791394
 30
7.523852
 11
45.096713
 21
42.277568
 31
7.523852
  0
ARC
  5
218
100
AcDbEntity
  8
3
100
AcDbCircle
 10
53.596713
 20
57.0
 30
7.523852
 40
35.0
100
AcDbArc
 50
221.536959
 51
270.0
  0
ARC
  5
219
100
AcDbEntity
  8
3
100
AcDbCircle
 10
26.80023
 20
35.14605
 30
7.523852
 40
1.480775
100
AcDbArc
 50
236.135639
 51
293.81853
  0
ARC
  5
21A
100
AcDbEntity
  8
3
100
AcDbCircle
 10
53.596713
 20
57.0
 30
7.523852
 40
17.0
100
AcDbArc
 50
240.0
 51
270.0
  0
ARC
  5
21B
100
AcDbEntity
  8
3
100
AcDbCircle
 10
44.593407
 20
42.510432
 30
7.523852
 40
0.554565
100
AcDbArc
 50
335.171475
 51
58.525152
  0
ARC
  5
21C
100
AcDbEntity
  8
3
100
AcDbCircle
 10
53.596713
 20
57.0
 30
7.523852
 40
17.0
100
AcDbArc
 50
270.0
 51
300.0
  0
ARC
  5
21D
100
AcDbEntity
  8
3
100
AcDbCircle
 10
62.600019
 20
42.510432
 30
7.523852
 40
0.554565
100
AcDbArc
 50
121.474848
 51
204.828525
  0
ARC
  5
21E
100
AcDbEntity
  8
3
100
AcDbCircle
 10
80.393196
 20
35.14605
 30
7.523852
 40
1.480775
100
AcDbArc
 50
246.18147
 51
303.864361
  0
LINE
  5
21F
100
AcDbEntity
  8
1
100
AcDbLine
 10
-0.403287
 20
57.0
 30
7.523852
 11
107.596713
 21
57.0
 31
7.523852
  0
ARC
  5
220
100
AcDbEntity
  8
3
100
AcDbCircle
 10
53.596713
 20
57.0
 30
7.523852
 40
35.0
100
AcDbArc
 50
341.536959
 51
78.463041
  0
ARC
  5
221
100
AcDbEntity
  8
3
100
AcDbCircle
 10
53.596713
 20
57.0
 30
7.523852
 40
17.0
100
AcDbArc
 50
0.0
 51
60.0
  0
LINE
  5
222
100
AcDbEntity
  8
1
100
AcDbLine
 10
53.596713
 20
57.0
 30
7.523852
 11
53.596713
 21
115.0
 31
7.523852
  0
LINE
  5
223
100
AcDbEntity
  8
3
100
AcDbLine
 10
46.596713
 20
91.292856
 30
7.523852
 11
45.096713
 21
71.722432
 31
7.523852
  0
ARC
  5
224
100
AcDbEntity
  8
3
100
AcDbCircle
 10
53.596713
 20
57.0
 30
7.523852
 40
35.0
100
AcDbArc
 50
101.536959
 51
198.463041
  0
LINE
  5
225
100
AcDbEntity
  8
3
100
AcDbLine
 10
60.596713
 20
91.292856
 30
7.523852
 11
62.096713
 21
71.722432
 31
7.523852
  0
LINE
  5
226
100
AcDbEntity
  8
3
100
AcDbLine
 10
20.398228
 20
45.915749
 30
7.523852
 11
36.596713
 21
57.0
 31
7.523852
  0
ARC
  5
227
100
AcDbEntity
  8
3
100
AcDbCircle
 10
53.596713
 20
57.0
 30
7.523852
 40
17.0
100
AcDbArc
 50
120.0
 51
180.0
  0
ARC
  5
228
100
AcDbEntity
  8
3
100
AcDbCircle
 10
21.272396
 20
44.72054
 30
7.523852
 40
1.480775
100
AcDbArc
 50
126.18147
 51
183.864361
  0
ARC
  5
229
100
AcDbEntity
  8
3
100
AcDbCircle
 10
36.546726
 20
56.447692
 30
7.523852
 40
0.554565
100
AcDbArc
 50
1.474848
 51
84.828525
  0
ARC
  5
22A
100
AcDbEntity
  8
3
100
AcDbCircle
 10
53.596713
 20
56.785831
 30
7.523852
 40
16.69355
100
AcDbArc
 50
90.0
 51
117.785265
  0
ARC
  5
22B
100
AcDbEntity
  8
3
100
AcDbCircle
 10
45.550032
 20
72.041875
 30
7.523852
 40
0.554565
100
AcDbArc
 50
215.171475
 51
298.525152
  0
ARC
  5
22C
100
AcDbEntity
  8
3
100
AcDbCircle
 10
53.596713
 20
56.785831
 30
7.523852
 40
16.69355
100
AcDbArc
 50
62.214735
 51
90.0
  0
ARC
  5
22D
100
AcDbEntity
  8
3
100
AcDbCircle
 10
61.643394
 20
72.041875
 30
7.523852
 40
0.554565
100
AcDbArc
 50
241.474848
 51
324.828525
  0
ARC
  5
22E
100
AcDbEntity
  8
3
100
AcDbCircle
 10
53.596713
 20
97.0
 30
7.523852
 40
6.0
100
AcDbArc
 50
187.195749
 51
270.0
  0
ARC
  5
22F
100
AcDbEntity
  8
3
100
AcDbCircle
 10
44.722108
 20
95.690318
 30
7.523852
 40
2.974689
100
AcDbArc
 50
5.975641
 51
82.765488
  0
ARC
  5
230
100
AcDbEntity
  8
3
100
AcDbCircle
 10
48.068878
 20
91.13341
 30
7.523852
 40
1.480775
100
AcDbArc
 50
116.135639
 51
173.81853
  0
ARC
  5
231
100
AcDbEntity
  8
3
100
AcDbCircle
 10
53.596713
 20
67.328497
 30
7.523852
 40
25.882929
100
AcDbArc
 50
99.630602
 51
103.81406
  0
ARC
  5
232
100
AcDbEntity
  8
3
100
AcDbCircle
 10
62.471318
 20
95.690318
 30
7.523852
 40
2.974689
100
AcDbArc
 50
97.234512
 51
174.024359
  0
ARC
  5
233
100
AcDbEntity
  8
3
100
AcDbCircle
 10
53.596713
 20
67.328497
 30
7.523852
 40
25.882929
100
AcDbArc
 50
76.18594
 51
80.369398
  0
ARC
  5
234
100
AcDbEntity
  8
3
100
AcDbCircle
 10
53.596713
 20
97.0
 30
7.523852
 40
6.0
100
AcDbArc
 50
270.0
 51
352.804251
  0
ARC
  5
235
100
AcDbEntity
  8
3
100
AcDbCircle
 10
59.124548
 20
91.13341
 30
7.523852
 40
1.480775
100
AcDbArc
 50
6.18147
 51
63.864361
  0
LINE
  5
236
100
AcDbEntity
  8
3
100
AcDbLine
 10
86.795198
 20
45.915749
 30
7.523852
 11
70.596713
 21
57.0
 31
7.523852
  0
ARC
  5
237
100
AcDbEntity
  8
3
100
AcDbCircle
 10
70.6467
 20
56.447692
 30
7.523852
 40
0.554565
100
AcDbArc
 50
95.171475
 51
178.525152
  0
ARC
  5
238
100
AcDbEntity
  8
3
100
AcDbCircle
 10
85.92103
 20
44.72054
 30
7.523852
 40
1.480775
100
AcDbArc
 50
356.135639
 51
53.81853
  0
LINE
  5
239
100
AcDbEntity
  8
3
100
AcDbLine
 10
214.096713
 20
57.0
 30
7.523852
 11
214.096713
 21
43.0
 31
7.523852
  0
ARC
  5
23A
100
AcDbEntity
  8
3
100
AcDbCircle
 10
187.042857
 20
40.191274
 30
7.523852
 40
9.305409
100
AcDbArc
 50
135.050766
 51
217.821515
  0
LINE
  5
23B
100
AcDbEntity
  8
1
100
AcDbLine
 10
197.096713
 20
57.0
 30
7.523852
 11
197.096713
 21
37.076883
 31
7.523852
  0
LINE
  5
23C
100
AcDbEntity
  8
3
100
AcDbLine
 10
189.096713
 20
42.5
 30
7.523852
 11
189.096713
 21
57.0
 31
7.523852
  0
ARC
  5
23D
100
AcDbEntity
  8
2
100
AcDbCircle
 10
197.096713
 20
45.477568
 30
7.523852
 40
3.2
100
AcDbArc
 50
203.908086
 51
339.511284
  0
LINE
  5
23E
100
AcDbEntity
  8
1
100
AcDbLine
 10
181.596713
 20
115.0
 30
7.523852
 11
181.596713
 21
1.0
 31
7.523852
  0
LINE
  5
23F
100
AcDbEntity
  8
3
100
AcDbLine
 10
174.096713
 20
57.0
 30
7.523852
 11
174.096713
 21
14.5
 31
7.523852
  0
LINE
  5
240
100
AcDbEntity
  8
3
100
AcDbLine
 10
189.096713
 20
42.5
 30
7.523852
 11
190.096713
 21
40.638797
 31
7.523852
  0
LINE
  5
241
100
AcDbEntity
  8
2
100
AcDbLine
 10
198.47838
 20
42.560466
 30
7.523852
 11
189.096713
 21
37.468754
 31
7.523852
  0
LINE
  5
242
100
AcDbEntity
  8
3
100
AcDbLine
 10
189.096713
 20
37.468754
 30
7.523852
 11
189.096713
 21
14.5
 31
7.523852
  0
ARC
  5
243
100
AcDbEntity
  8
3
100
AcDbCircle
 10
173.478945
 20
17.063979
 30
7.523852
 40
2.637352
100
AcDbArc
 50
283.54671
 51
355.859388
  0
ARC
  5
244
100
AcDbEntity
  8
3
100
AcDbCircle
 10
181.596713
 20
14.5
 30
7.523852
 40
7.5
100
AcDbArc
 50
180.0
 51
0.0
  0
ARC
  5
245
100
AcDbEntity
  8
3
100
AcDbCircle
 10
181.596713
 20
16.5
 30
7.523852
 40
5.5
100
AcDbArc
 50
3.894429
 51
176.105571
  0
ARC
  5
246
100
AcDbEntity
  8
3
100
AcDbCircle
 10
189.655677
 20
17.014115
 30
7.523852
 40
2.575503
100
AcDbArc
 50
183.128611
 51
257.465292
  0
ARC
  5
247
100
AcDbEntity
  8
3
100
AcDbCircle
 10
181.637473
 20
37.174747
 30
7.523852
 40
3.319281
100
AcDbArc
 50
234.124396
 51
292.262839
  0
LINE
  5
248
100
AcDbEntity
  8
3
100
AcDbLine
 10
182.895002
 20
34.1029
 30
7.523852
 11
189.096713
 21
37.468754
 31
7.523852
  0
ARC
  5
249
100
AcDbEntity
  8
3
100
AcDbCircle
 10
196.771113
 20
75.104798
 30
7.523852
 40
35.106308
100
AcDbArc
 50
259.040231
 51
283.718625
  0
LINE
  5
24A
100
AcDbEntity
  8
3
100
AcDbLine
 10
213.096713
 20
42.0
 30
7.523852
 11
205.096713
 21
42.0
 31
7.523852
  0
LINE
  5
24B
100
AcDbEntity
  8
3
100
AcDbLine
 10
205.096713
 20
42.0
 30
7.523852
 11
205.096713
 21
41.0
 31
7.523852
  0
ARC
  5
24C
100
AcDbEntity
  8
3
100
AcDbCircle
 10
213.096713
 20
43.0
 30
7.523852
 40
1.0
100
AcDbArc
 50
270.0
 51
0.0
  0
LINE
  5
24D
100
AcDbEntity
  8
3
100
AcDbLine
 10
191.827057
 20
76.115758
 30
7.523852
 11
179.206254
 21
90.206766
 31
7.523852
  0
LINE
  5
24E
100
AcDbEntity
  8
3
100
AcDbLine
 10
189.096713
 20
71.5
 30
7.523852
 11
190.096713
 21
73.361203
 31
7.523852
  0
LINE
  5
24F
100
AcDbEntity
  8
2
100
AcDbLine
 10
195.323462
 20
56.417497
 30
7.523852
 11
189.096713
 21
52.374713
 31
7.523852
  0
LINE
  5
250
100
AcDbEntity
  8
3
100
AcDbLine
 10
199.441074
 20
78.198382
 30
7.523852
 11
186.469256
 21
91.33753
 31
7.523852
  0
LINE
  5
251
100
AcDbEntity
  8
3
100
AcDbLine
 10
174.096713
 20
57.0
 30
7.523852
 11
174.096713
 21
99.5
 31
7.523852
  0
LINE
  5
252
100
AcDbEntity
  8
3
100
AcDbLine
 10
189.096713
 20
73.0
 30
7.523852
 11
189.096713
 21
57.0
 31
7.523852
  0
LINE
  5
253
100
AcDbEntity
  8
3
100
AcDbLine
 10
189.096713
 20
57.0
 30
7.523852
 11
189.096713
 21
79.164162
 31
7.523852
  0
LINE
  5
254
100
AcDbEntity
  8
3
100
AcDbLine
 10
189.096713
 20
57.0
 30
7.523852
 11
189.096713
 21
52.374713
 31
7.523852
  0
LINE
  5
255
100
AcDbEntity
  8
3
100
AcDbLine
 10
180.457112
 20
46.765359
 30
7.523852
 11
189.096713
 21
52.374713
 31
7.523852
  0
ARC
  5
256
100
AcDbEntity
  8
3
100
AcDbCircle
 10
181.596713
 20
99.5
 30
7.523852
 40
7.5
100
AcDbArc
 50
0.0
 51
180.0
  0
LINE
  5
257
100
AcDbEntity
  8
3
100
AcDbLine
 10
174.096713
 20
91.0
 30
7.523852
 11
178.941752
 21
90.461662
 31
7.523852
  0
LINE
  5
258
100
AcDbEntity
  8
3
100
AcDbLine
 10
188.096713
 20
98.385801
 30
7.523852
 11
188.096713
 21
92.142857
 31
7.523852
  0
LINE
  5
259
100
AcDbEntity
  8
3
100
AcDbLine
 10
189.096713
 20
88.67618
 30
7.523852
 11
189.096713
 21
99.5
 31
7.523852
  0
ARC
  5
25A
100
AcDbEntity
  8
3
100
AcDbCircle
 10
181.846713
 20
93.211426
 30
7.523852
 40
4.0
100
AcDbArc
 50
223.427877
 51
228.691386
  0
LINE
  5
25B
100
AcDbEntity
  8
3
100
AcDbLine
 10
188.096713
 20
92.142857
 30
7.523852
 11
186.469256
 21
91.33753
 31
7.523852
  0
ARC
  5
25C
100
AcDbEntity
  8
3
100
AcDbCircle
 10
189.93888
 20
97.738297
 30
7.523852
 40
1.95265
100
AcDbArc
 50
115.549736
 51
160.633911
  0
LINE
  5
25D
100
AcDbEntity
  8
3
100
AcDbLine
 10
214.096713
 20
57.0
 30
7.523852
 11
214.096713
 21
71.0
 31
7.523852
  0
LINE
  5
25E
100
AcDbEntity
  8
1
100
AcDbLine
 10
197.096713
 20
57.0
 30
7.523852
 11
197.096713
 21
85.5
 31
7.523852
  0
ARC
  5
25F
100
AcDbEntity
  8
2
100
AcDbCircle
 10
189.252766
 20
49.671111
 30
7.523852
 40
12.073651
100
AcDbArc
 50
331.670494
 51
29.580378
  0
ARC
  5
260
100
AcDbEntity
  8
2
100
AcDbCircle
 10
201.758165
 20
49.738239
 30
7.523852
 40
9.404626
100
AcDbArc
 50
141.532325
 51
218.050357
  0
ARC
  5
261
100
AcDbEntity
  8
2
100
AcDbCircle
 10
197.096713
 20
53.8
 30
7.523852
 40
3.2
100
AcDbArc
 50
34.583858
 51
146.076759
  0
ARC
  5
262
100
AcDbEntity
  8
3
100
AcDbCircle
 10
200.006121
 20
52.757316
 30
7.523852
 40
20.872958
100
AcDbArc
 50
75.884075
 51
86.317571
  0
ARC
  5
263
100
AcDbEntity
  8
3
100
AcDbCircle
 10
196.346713
 20
74.270924
 30
7.523852
 40
5.0
100
AcDbArc
 50
360.0
 51
51.766175
  0
ARC
  5
264
100
AcDbEntity
  8
3
100
AcDbCircle
 10
190.514352
 20
74.49927
 30
7.523852
 40
2.082361
100
AcDbArc
 50
330.674193
 51
50.920919
  0
ARC
  5
265
100
AcDbEntity
  8
3
100
AcDbCircle
 10
192.298729
 20
52.909371
 30
7.523852
 40
20.570034
100
AcDbArc
 50
89.913298
 51
96.145271
  0
LINE
  5
266
100
AcDbEntity
  8
3
100
AcDbLine
 10
201.346713
 20
73.587179
 30
7.523852
 11
201.346713
 21
74.270924
 31
7.523852
  0
LINE
  5
267
100
AcDbEntity
  8
3
100
AcDbLine
 10
213.096713
 20
72.0
 30
7.523852
 11
205.096713
 21
72.0
 31
7.523852
  0
LINE
  5
268
100
AcDbEntity
  8
3
100
AcDbLine
 10
205.096713
 20
72.0
 30
7.523852
 11
205.096713
 21
73.0
 31
7.523852
  0
ARC
  5
269
100
AcDbEntity
  8
3
100
AcDbCircle
 10
213.096713
 20
71.0
 30
7.523852
 40
1.0
100
AcDbArc
 50
0.0
 51
90.0
  0
ENDBLK
  5
26B
100
AcDbEntity
  8
0
100
AcDbBlockEnd
  0
BLOCK
  5
2FB
100
AcDbEntity
  8
0
100
AcDbBlockBegin
  2
A$C442E7360
 70
     0
 10
0.0
 20
0.0
 30
0.0
  3
A$C442E7360
  1

  0
LINE
  5
275
100
AcDbEntity
  8
3
100
AcDbLine
 10
173.5
 20
93.5
 30
0.0
 11
177.5
 21
93.5
 31
0.0
  0
LINE
  5
276
100
AcDbEntity
  8
3
100
AcDbLine
 10
178.5
 20
101.5
 30
0.0
 11
173.5
 21
101.5
 31
0.0
  0
LINE
  5
277
100
AcDbEntity
  8
1
100
AcDbLine
 10
172.887852
 20
97.5
 30
0.0
 11
194.5
 21
97.5
 31
0.0
  0
LINE
  5
278
100
AcDbEntity
  8
1
100
AcDbLine
 10
172.0
 20
57.5
 30
0.0
 11
223.0
 21
57.5
 31
0.0
  0
LINE
  5
279
100
AcDbEntity
  8
1
100
AcDbLine
 10
54.0
 20
57.0
 30
0.0
 11
104.432368
 21
27.882858
 31
0.0
  0
ARC
  5
27A
100
AcDbEntity
  8
3
100
AcDbCircle
 10
54.0
 20
57.0
 30
0.0
 40
35.0
100
AcDbArc
 50
270.0
 51
318.463041
  0
ARC
  5
27B
100
AcDbEntity
  8
3
100
AcDbCircle
 10
54.0
 20
57.0
 30
0.0
 40
42.5
100
AcDbArc
 50
270.0
 51
78.463041
  0
ARC
  5
27C
100
AcDbEntity
  8
3
100
AcDbCircle
 10
54.0
 20
57.0
 30
0.0
 40
50.0
100
AcDbArc
 50
270.0
 51
90.0
  0
ARC
  5
27D
100
AcDbEntity
  8
3
100
AcDbCircle
 10
54.0
 20
57.0
 30
0.0
 40
35.0
100
AcDbArc
 50
221.536959
 51
270.0
  0
ARC
  5
27E
100
AcDbEntity
  8
3
100
AcDbCircle
 10
54.0
 20
57.0
 30
0.0
 40
42.5
100
AcDbArc
 50
101.536959
 51
270.0
  0
ARC
  5
27F
100
AcDbEntity
  8
3
100
AcDbCircle
 10
54.0
 20
57.0
 30
0.0
 40
50.0
100
AcDbArc
 50
90.0
 51
270.0
  0
LINE
  5
280
100
AcDbEntity
  8
1
100
AcDbLine
 10
54.0
 20
57.0
 30
0.0
 11
54.0
 21
0.0
 31
0.0
  0
LINE
  5
281
100
AcDbEntity
  8
1
100
AcDbLine
 10
54.0
 20
57.0
 30
0.0
 11
102.715862
 21
28.873884
 31
0.0
  0
LINE
  5
282
100
AcDbEntity
  8
1
100
AcDbLine
 10
54.0
 20
57.0
 30
0.0
 11
3.567631
 21
27.882858
 31
0.0
  0
CIRCLE
  5
283
100
AcDbEntity
  8
3
100
AcDbCircle
 10
54.0
 20
97.0
 30
0.0
 40
6.5
  0
LINE
  5
284
100
AcDbEntity
  8
1
100
AcDbLine
 10
64.0
 20
97.0
 30
0.0
 11
43.5
 21
97.0
 31
0.0
  0
ARC
  5
285
100
AcDbEntity
  8
3
100
AcDbCircle
 10
54.0
 20
57.0
 30
0.0
 40
16.0
100
AcDbArc
 50
270.0
 51
90.0
  0
ARC
  5
286
100
AcDbEntity
  8
3
100
AcDbCircle
 10
54.0
 20
56.785831
 30
0.0
 40
16.69355
100
AcDbArc
 50
90.0
 51
117.785265
  0
ARC
  5
287
100
AcDbEntity
  8
3
100
AcDbCircle
 10
54.0
 20
57.0
 30
0.0
 40
17.0
100
AcDbArc
 50
240.0
 51
270.0
  0
ARC
  5
288
100
AcDbEntity
  8
3
100
AcDbCircle
 10
54.0
 20
57.0
 30
0.0
 40
14.5
100
AcDbArc
 50
90.0
 51
270.0
  0
ARC
  5
289
100
AcDbEntity
  8
3
100
AcDbCircle
 10
54.0
 20
57.0
 30
0.0
 40
16.0
100
AcDbArc
 50
90.0
 51
270.0
  0
LINE
  5
28A
100
AcDbEntity
  8
1
100
AcDbLine
 10
44.0
 20
97.0
 30
0.0
 11
64.5
 21
97.0
 31
0.0
  0
LINE
  5
28B
100
AcDbEntity
  8
1
100
AcDbLine
 10
0.0
 20
57.0
 30
0.0
 11
108.0
 21
57.0
 31
0.0
  0
ARC
  5
28C
100
AcDbEntity
  8
3
100
AcDbCircle
 10
54.0
 20
57.0
 30
0.0
 40
35.0
100
AcDbArc
 50
101.536959
 51
198.463041
  0
LINE
  5
28D
100
AcDbEntity
  8
3
100
AcDbLine
 10
47.0
 20
91.292856
 30
0.0
 11
45.5
 21
71.722432
 31
0.0
  0
ARC
  5
28E
100
AcDbEntity
  8
3
100
AcDbCircle
 10
54.185475
 20
57.107084
 30
0.0
 40
16.69355
100
AcDbArc
 50
182.214735
 51
237.785265
  0
LINE
  5
28F
100
AcDbEntity
  8
3
100
AcDbLine
 10
20.801515
 20
45.915749
 30
0.0
 11
37.0
 21
57.0
 31
0.0
  0
LINE
  5
290
100
AcDbEntity
  8
3
100
AcDbLine
 10
27.801515
 20
33.791394
 30
0.0
 11
45.5
 21
42.277568
 31
0.0
  0
ARC
  5
291
100
AcDbEntity
  8
3
100
AcDbCircle
 10
45.055259
 20
51.835751
 30
0.0
 40
25.882929
100
AcDbArc
 50
196.18594
 51
223.81406
  0
ARC
  5
292
100
AcDbEntity
  8
3
100
AcDbCircle
 10
27.203517
 20
35.14605
 30
0.0
 40
1.480775
100
AcDbArc
 50
236.135639
 51
293.81853
  0
ARC
  5
293
100
AcDbEntity
  8
3
100
AcDbCircle
 10
21.675682
 20
44.72054
 30
0.0
 40
1.480775
100
AcDbArc
 50
126.18147
 51
183.864361
  0
ARC
  5
294
100
AcDbEntity
  8
3
100
AcDbCircle
 10
44.996694
 20
42.510432
 30
0.0
 40
0.554565
100
AcDbArc
 50
335.171475
 51
58.525152
  0
ARC
  5
295
100
AcDbEntity
  8
3
100
AcDbCircle
 10
54.0
 20
57.0
 30
0.0
 40
17.0
100
AcDbArc
 50
120.0
 51
180.0
  0
ARC
  5
296
100
AcDbEntity
  8
3
100
AcDbCircle
 10
36.950013
 20
56.447692
 30
0.0
 40
0.554565
100
AcDbArc
 50
1.474848
 51
84.828525
  0
ARC
  5
297
100
AcDbEntity
  8
3
100
AcDbCircle
 10
45.953319
 20
72.041875
 30
0.0
 40
0.554565
100
AcDbArc
 50
215.171475
 51
298.525152
  0
ARC
  5
298
100
AcDbEntity
  8
3
100
AcDbCircle
 10
45.125395
 20
95.690318
 30
0.0
 40
2.974689
100
AcDbArc
 50
36.510071
 51
82.765488
  0
ARC
  5
299
100
AcDbEntity
  8
3
100
AcDbCircle
 10
48.472165
 20
91.13341
 30
0.0
 40
1.480775
100
AcDbArc
 50
116.135639
 51
173.81853
  0
ARC
  5
29A
100
AcDbEntity
  8
3
100
AcDbCircle
 10
54.0
 20
67.328497
 30
0.0
 40
25.882929
100
AcDbArc
 50
100.936595
 51
103.81406
  0
ARC
  5
29B
100
AcDbEntity
  8
3
100
AcDbCircle
 10
54.0
 20
57.0
 30
0.0
 40
35.0
100
AcDbArc
 50
341.536959
 51
78.463041
  0
LINE
  5
29C
100
AcDbEntity
  8
3
100
AcDbLine
 10
61.0
 20
91.292856
 30
0.0
 11
62.5
 21
71.722432
 31
0.0
  0
LINE
  5
29D
100
AcDbEntity
  8
1
100
AcDbLine
 10
54.0
 20
57.0
 30
0.0
 11
54.0
 21
115.0
 31
0.0
  0
ARC
  5
29E
100
AcDbEntity
  8
3
100
AcDbCircle
 10
80.796482
 20
35.14605
 30
0.0
 40
1.480775
100
AcDbArc
 50
246.18147
 51
303.864361
  0
LINE
  5
29F
100
AcDbEntity
  8
3
100
AcDbLine
 10
87.198485
 20
45.915749
 30
0.0
 11
71.0
 21
57.0
 31
0.0
  0
ARC
  5
2A0
100
AcDbEntity
  8
3
100
AcDbCircle
 10
53.814524
 20
57.107084
 30
0.0
 40
16.69355
100
AcDbArc
 50
302.214735
 51
357.785265
  0
ARC
  5
2A1
100
AcDbEntity
  8
3
100
AcDbCircle
 10
54.0
 20
57.0
 30
0.0
 40
14.5
100
AcDbArc
 50
270.0
 51
90.0
  0
LINE
  5
2A2
100
AcDbEntity
  8
3
100
AcDbLine
 10
80.198485
 20
33.791394
 30
0.0
 11
62.5
 21
42.277568
 31
0.0
  0
ARC
  5
2A3
100
AcDbEntity
  8
3
100
AcDbCircle
 10
63.003306
 20
42.510432
 30
0.0
 40
0.554565
100
AcDbArc
 50
121.474848
 51
204.828525
  0
ARC
  5
2A4
100
AcDbEntity
  8
3
100
AcDbCircle
 10
54.0
 20
57.0
 30
0.0
 40
17.0
100
AcDbArc
 50
270.0
 51
300.0
  0
ARC
  5
2A5
100
AcDbEntity
  8
3
100
AcDbCircle
 10
54.0
 20
57.0
 30
0.0
 40
17.0
100
AcDbArc
 50
0.0
 51
60.0
  0
ARC
  5
2A6
100
AcDbEntity
  8
3
100
AcDbCircle
 10
54.0
 20
56.785831
 30
0.0
 40
16.69355
100
AcDbArc
 50
62.214735
 51
90.0
  0
ARC
  5
2A7
100
AcDbEntity
  8
3
100
AcDbCircle
 10
62.04668
 20
72.041875
 30
0.0
 40
0.554565
100
AcDbArc
 50
241.474848
 51
324.828525
  0
ARC
  5
2A8
100
AcDbEntity
  8
3
100
AcDbCircle
 10
71.049986
 20
56.447692
 30
0.0
 40
0.554565
100
AcDbArc
 50
95.171475
 51
178.525152
  0
ARC
  5
2A9
100
AcDbEntity
  8
3
100
AcDbCircle
 10
62.944741
 20
51.835751
 30
0.0
 40
25.882929
100
AcDbArc
 50
316.18594
 51
343.81406
  0
ARC
  5
2AA
100
AcDbEntity
  8
3
100
AcDbCircle
 10
86.324317
 20
44.72054
 30
0.0
 40
1.480775
100
AcDbArc
 50
356.135639
 51
53.81853
  0
ARC
  5
2AB
100
AcDbEntity
  8
3
100
AcDbCircle
 10
62.874605
 20
95.690318
 30
0.0
 40
2.974689
100
AcDbArc
 50
97.234512
 51
143.489929
  0
ARC
  5
2AC
100
AcDbEntity
  8
3
100
AcDbCircle
 10
59.527834
 20
91.13341
 30
0.0
 40
1.480775
100
AcDbArc
 50
6.18147
 51
63.864361
  0
ARC
  5
2AD
100
AcDbEntity
  8
3
100
AcDbCircle
 10
54.0
 20
67.328497
 30
0.0
 40
25.882929
100
AcDbArc
 50
76.18594
 51
79.063405
  0
ARC
  5
2AE
100
AcDbEntity
  8
3
100
AcDbCircle
 10
153.104166
 20
111.833333
 30
0.0
 40
20.833594
100
AcDbArc
 50
227.391004
 51
298.358963
  0
ARC
  5
2AF
100
AcDbEntity
  8
3
100
AcDbCircle
 10
153.104166
 20
83.166666
 30
0.0
 40
20.833594
100
AcDbArc
 50
61.641037
 51
132.608996
  0
LINE
  5
2B0
100
AcDbEntity
  8
1
100
AcDbLine
 10
172.887852
 20
97.5
 30
0.0
 11
136.0
 21
97.5
 31
0.0
  0
ARC
  5
2B1
100
AcDbEntity
  8
3
100
AcDbCircle
 10
139.75
 20
97.5
 30
0.0
 40
1.25
100
AcDbArc
 50
126.869898
 51
233.130102
  0
LINE
  5
2B2
100
AcDbEntity
  8
3
100
AcDbLine
 10
173.5
 20
101.5
 30
0.0
 11
173.5
 21
93.5
 31
0.0
  0
ARC
  5
2B3
100
AcDbEntity
  8
3
100
AcDbCircle
 10
168.25
 20
80.25
 30
0.0
 40
14.252193
100
AcDbArc
 50
68.385221
 51
111.614779
  0
ARC
  5
2B4
100
AcDbEntity
  8
3
100
AcDbCircle
 10
168.25
 20
114.75
 30
0.0
 40
14.252193
100
AcDbArc
 50
248.385221
 51
291.614779
  0
LINE
  5
2B5
100
AcDbEntity
  8
3
100
AcDbLine
 10
192.5
 20
39.231384
 30
0.0
 11
192.5
 21
15.0
 31
0.0
  0
LINE
  5
2B6
100
AcDbEntity
  8
3
100
AcDbLine
 10
177.5
 20
57.5
 30
0.0
 11
177.5
 21
15.0
 31
0.0
  0
LINE
  5
2B7
100
AcDbEntity
  8
1
100
AcDbLine
 10
185.0
 20
115.5
 30
0.0
 11
185.0
 21
1.5
 31
0.0
  0
ARC
  5
2B8
100
AcDbEntity
  8
3
100
AcDbCircle
 10
185.0
 20
15.0
 30
0.0
 40
7.5
100
AcDbArc
 50
180.0
 51
0.0
  0
ARC
  5
2B9
100
AcDbEntity
  8
3
100
AcDbCircle
 10
192.971268
 20
17.439752
 30
0.0
 40
2.484851
100
AcDbArc
 50
181.526655
 51
259.067247
  0
LINE
  5
2BA
100
AcDbEntity
  8
1
100
AcDbLine
 10
185.0
 20
15.0
 30
0.0
 11
191.366706
 21
15.0
 31
0.0
  0
ARC
  5
2BB
100
AcDbEntity
  8
3
100
AcDbCircle
 10
185.0
 20
17.0
 30
0.0
 40
5.5
100
AcDbArc
 50
3.894429
 51
176.105571
  0
LINE
  5
2BC
100
AcDbEntity
  8
1
100
AcDbLine
 10
185.0
 20
15.0
 30
0.0
 11
178.680323
 21
15.0
 31
0.0
  0
ARC
  5
2BD
100
AcDbEntity
  8
3
100
AcDbCircle
 10
176.977059
 20
17.483568
 30
0.0
 40
2.538026
100
AcDbArc
 50
281.890519
 51
357.515579
  0
ARC
  5
2BE
100
AcDbEntity
  8
3
100
AcDbCircle
 10
193.917639
 20
74.99927
 30
0.0
 40
2.082361
100
AcDbArc
 50
330.674193
 51
50.920919
  0
ARC
  5
2BF
100
AcDbEntity
  8
3
100
AcDbCircle
 10
199.75
 20
74.770924
 30
0.0
 40
5.0
100
AcDbArc
 50
360.0
 51
51.766175
  0
LINE
  5
2C0
100
AcDbEntity
  8
3
100
AcDbLine
 10
192.5
 20
57.5
 30
0.0
 11
192.5
 21
79.664162
 31
0.0
  0
LINE
  5
2C1
100
AcDbEntity
  8
3
100
AcDbLine
 10
177.5
 20
57.5
 30
0.0
 11
177.5
 21
93.5
 31
0.0
  0
ARC
  5
2C2
100
AcDbEntity
  8
3
100
AcDbCircle
 10
200.1744
 20
75.604798
 30
0.0
 40
35.106308
100
AcDbArc
 50
259.040231
 51
283.718625
  0
ARC
  5
2C3
100
AcDbEntity
  8
3
100
AcDbCircle
 10
203.409407
 20
53.257316
 30
0.0
 40
20.872958
100
AcDbArc
 50
75.884075
 51
86.317571
  0
LINE
  5
2C4
100
AcDbEntity
  8
2
100
AcDbLine
 10
192.5
 20
52.787043
 30
0.0
 11
196.67283
 21
55.291978
 31
0.0
  0
ARC
  5
2C5
100
AcDbEntity
  8
2
100
AcDbCircle
 10
192.656052
 20
50.171111
 30
0.0
 40
12.073651
100
AcDbArc
 50
331.670494
 51
29.580378
  0
ARC
  5
2C6
100
AcDbEntity
  8
2
100
AcDbCircle
 10
205.161452
 20
50.238239
 30
0.0
 40
9.404626
100
AcDbArc
 50
141.532325
 51
218.050357
  0
LINE
  5
2C7
100
AcDbEntity
  8
3
100
AcDbLine
 10
192.5
 20
43.0
 30
0.0
 11
192.5
 21
57.5
 31
0.0
  0
LINE
  5
2C8
100
AcDbEntity
  8
3
100
AcDbLine
 10
192.5
 20
57.5
 30
0.0
 11
192.5
 21
43.0
 31
0.0
  0
LINE
  5
2C9
100
AcDbEntity
  8
3
100
AcDbLine
 10
189.203375
 20
37.816231
 30
0.0
 11
192.5
 21
39.231384
 31
0.0
  0
LINE
  5
2CA
100
AcDbEntity
  8
3
100
AcDbLine
 10
184.06136
 20
47.338619
 30
0.0
 11
192.5
 21
52.787043
 31
0.0
  0
ARC
  5
2CB
100
AcDbEntity
  8
3
100
AcDbCircle
 10
190.211363
 20
40.348029
 30
0.0
 40
8.945333
100
AcDbArc
 50
149.635716
 51
210.740217
  0
ARC
  5
2CC
100
AcDbEntity
  8
3
100
AcDbCircle
 10
193.107654
 20
32.704718
 30
0.0
 40
6.432026
100
AcDbArc
 50
127.373334
 51
153.268108
  0
ARC
  5
2CD
100
AcDbEntity
  8
3
100
AcDbCircle
 10
185.0
 20
37.091394
 30
0.0
 40
2.8
100
AcDbArc
 50
203.130121
 51
335.981104
  0
ARC
  5
2CE
100
AcDbEntity
  8
3
100
AcDbCircle
 10
190.172027
 20
41.449189
 30
0.0
 40
8.486792
100
AcDbArc
 50
136.056197
 51
159.531339
  0
ARC
  5
2CF
100
AcDbEntity
  8
2
100
AcDbCircle
 10
197.46331
 20
48.325576
 30
0.0
 40
7.065378
100
AcDbArc
 50
284.82323
 51
320.966006
  0
ARC
  5
2D0
100
AcDbEntity
  8
2
100
AcDbCircle
 10
200.5
 20
45.977568
 30
0.0
 40
3.2
100
AcDbArc
 50
203.908086
 51
339.511284
  0
LINE
  5
2D1
100
AcDbEntity
  8
3
100
AcDbLine
 10
192.5
 20
43.0
 30
0.0
 11
193.5
 21
41.138797
 31
0.0
  0
LINE
  5
2D2
100
AcDbEntity
  8
2
100
AcDbLine
 10
192.5
 20
39.231384
 30
0.0
 11
199.2709
 21
41.495336
 31
0.0
  0
LINE
  5
2D3
100
AcDbEntity
  8
3
100
AcDbLine
 10
192.5
 20
73.5
 30
0.0
 11
192.5
 21
57.5
 31
0.0
  0
ARC
  5
2D4
100
AcDbEntity
  8
2
100
AcDbCircle
 10
191.108964
 20
63.615695
 30
0.0
 40
10.012036
100
AcDbArc
 50
303.76016
 51
315.438338
  0
ARC
  5
2D5
100
AcDbEntity
  8
2
100
AcDbCircle
 10
200.5
 20
54.3
 30
0.0
 40
3.2
100
AcDbArc
 50
34.583858
 51
146.076759
  0
ARC
  5
2D6
100
AcDbEntity
  8
3
100
AcDbCircle
 10
195.702016
 20
53.409371
 30
0.0
 40
20.570034
100
AcDbArc
 50
89.913298
 51
96.145271
  0
LINE
  5
2D7
100
AcDbEntity
  8
3
100
AcDbLine
 10
192.5
 20
72.0
 30
0.0
 11
193.5
 21
73.861203
 31
0.0
  0
LINE
  5
2D8
100
AcDbEntity
  8
3
100
AcDbLine
 10
204.75
 20
74.087179
 30
0.0
 11
204.75
 21
74.770924
 31
0.0
  0
LINE
  5
2D9
100
AcDbEntity
  8
3
100
AcDbLine
 10
217.5
 20
57.5
 30
0.0
 11
217.5
 21
43.5
 31
0.0
  0
ARC
  5
2DA
100
AcDbEntity
  8
3
100
AcDbCircle
 10
216.5
 20
43.5
 30
0.0
 40
1.0
100
AcDbArc
 50
270.0
 51
0.0
  0
LINE
  5
2DB
100
AcDbEntity
  8
3
100
AcDbLine
 10
216.5
 20
42.5
 30
0.0
 11
208.5
 21
42.5
 31
0.0
  0
LINE
  5
2DC
100
AcDbEntity
  8
3
100
AcDbLine
 10
208.5
 20
42.5
 30
0.0
 11
208.5
 21
41.5
 31
0.0
  0
LINE
  5
2DD
100
AcDbEntity
  8
3
100
AcDbLine
 10
217.5
 20
57.5
 30
0.0
 11
217.5
 21
71.5
 31
0.0
  0
LINE
  5
2DE
100
AcDbEntity
  8
3
100
AcDbLine
 10
216.5
 20
72.5
 30
0.0
 11
208.5
 21
72.5
 31
0.0
  0
LINE
  5
2DF
100
AcDbEntity
  8
3
100
AcDbLine
 10
208.5
 20
72.5
 30
0.0
 11
208.5
 21
73.5
 31
0.0
  0
ARC
  5
2E0
100
AcDbEntity
  8
3
100
AcDbCircle
 10
216.5
 20
71.5
 30
0.0
 40
1.0
100
AcDbArc
 50
0.0
 51
90.0
  0
LINE
  5
2E1
100
AcDbEntity
  8
3
100
AcDbLine
 10
188.0
 20
100.0
 30
0.0
 11
188.0
 21
95.0
 31
0.0
  0
LINE
  5
2E2
100
AcDbEntity
  8
3
100
AcDbLine
 10
188.5
 20
95.5
 30
0.0
 11
188.5
 21
99.5
 31
0.0
  0
LINE
  5
2E3
100
AcDbEntity
  8
3
100
AcDbLine
 10
178.5
 20
97.5
 30
0.0
 11
178.5
 21
101.5
 31
0.0
  0
LINE
  5
2E4
100
AcDbEntity
  8
3
100
AcDbLine
 10
192.5
 20
89.17618
 30
0.0
 11
192.5
 21
100.0
 31
0.0
  0
LINE
  5
2E5
100
AcDbEntity
  8
3
100
AcDbLine
 10
178.825
 20
99.35
 30
0.0
 11
178.825
 21
95.65
 31
0.0
  0
LINE
  5
2E6
100
AcDbEntity
  8
3
100
AcDbLine
 10
178.5
 20
100.0
 30
0.0
 11
178.5
 21
95.0
 31
0.0
  0
LINE
  5
2E7
100
AcDbEntity
  8
3
100
AcDbLine
 10
178.5
 20
97.5
 30
0.0
 11
178.5
 21
101.5
 31
0.0
  0
LINE
  5
2E8
100
AcDbEntity
  8
3
100
AcDbLine
 10
191.5
 20
98.885801
 30
0.0
 11
191.5
 21
92.642857
 31
0.0
  0
LINE
  5
2E9
100
AcDbEntity
  8
3
100
AcDbLine
 10
178.825
 20
95.65
 30
0.0
 11
191.5
 21
95.65
 31
0.0
  0
LINE
  5
2EA
100
AcDbEntity
  8
3
100
AcDbLine
 10
178.5
 20
95.0
 30
0.0
 11
191.5
 21
95.0
 31
0.0
  0
LINE
  5
2EB
100
AcDbEntity
  8
3
100
AcDbLine
 10
191.5
 20
92.642857
 30
0.0
 11
189.872543
 21
91.83753
 31
0.0
  0
LINE
  5
2EC
100
AcDbEntity
  8
3
100
AcDbLine
 10
202.844361
 20
78.698382
 30
0.0
 11
189.872543
 21
91.83753
 31
0.0
  0
LINE
  5
2ED
100
AcDbEntity
  8
3
100
AcDbLine
 10
195.230344
 20
76.615758
 30
0.0
 11
182.609541
 21
90.706766
 31
0.0
  0
LINE
  5
2EE
100
AcDbEntity
  8
3
100
AcDbLine
 10
177.5
 20
91.5
 30
0.0
 11
182.345039
 21
90.961662
 31
0.0
  0
LINE
  5
2EF
100
AcDbEntity
  8
3
100
AcDbLine
 10
178.5
 20
93.5
 30
0.0
 11
177.5
 21
93.5
 31
0.0
  0
LINE
  5
2F0
100
AcDbEntity
  8
3
100
AcDbLine
 10
178.825
 20
95.65
 30
0.0
 11
178.5
 21
95.0
 31
0.0
  0
LINE
  5
2F1
100
AcDbEntity
  8
3
100
AcDbLine
 10
178.5
 20
97.5
 30
0.0
 11
178.5
 21
93.5
 31
0.0
  0
ARC
  5
2F2
100
AcDbEntity
  8
3
100
AcDbCircle
 10
185.25
 20
93.711426
 30
0.0
 40
4.0
100
AcDbArc
 50
223.427877
 51
228.691386
  0
LINE
  5
2F3
100
AcDbEntity
  8
3
100
AcDbLine
 10
188.0
 20
95.0
 30
0.0
 11
188.5
 21
95.5
 31
0.0
  0
LINE
  5
2F4
100
AcDbEntity
  8
3
100
AcDbLine
 10
178.825
 20
99.35
 30
0.0
 11
191.736876
 21
99.35
 31
0.0
  0
LINE
  5
2F5
100
AcDbEntity
  8
3
100
AcDbLine
 10
178.5
 20
100.0
 30
0.0
 11
192.5
 21
100.0
 31
0.0
  0
ARC
  5
2F6
100
AcDbEntity
  8
3
100
AcDbCircle
 10
185.0
 20
100.0
 30
0.0
 40
7.5
100
AcDbArc
 50
0.0
 51
168.463041
  0
LINE
  5
2F7
100
AcDbEntity
  8
3
100
AcDbLine
 10
178.5
 20
101.5
 30
0.0
 11
177.651531
 21
101.5
 31
0.0
  0
LINE
  5
2F8
100
AcDbEntity
  8
3
100
AcDbLine
 10
178.825
 20
99.35
 30
0.0
 11
178.5
 21
100.0
 31
0.0
  0
LINE
  5
2F9
100
AcDbEntity
  8
3
100
AcDbLine
 10
188.5
 20
99.5
 30
0.0
 11
188.0
 21
100.0
 31
0.0
  0
ARC
  5
2FA
100
AcDbEntity
  8
3
100
AcDbCircle
 10
193.342167
 20
98.238297
 30
0.0
 40
1.95265
100
AcDbArc
 50
115.549736
 51
160.633911
  0
ENDBLK
  5
2FC
100
AcDbEntity
  8
0
100
AcDbBlockEnd
  0
BLOCK
  5
319
100
AcDbEntity
  8
0
100
AcDbBlockBegin
  2
*D13
 70
     1
 10
0.0
 20
0.0
 30
0.0
  3
*D13
  1

  0
LINE
  5
30F
100
AcDbEntity
  8
0
  6
BYBLOCK
 62
     0
100
AcDbLine
 10
457.0
 20
456.0
 30
0.0
 11
457.0
 21
512.540541
 31
0.0
  0
LINE
  5
310
100
AcDbEntity
  8
0
  6
BYBLOCK
 62
     0
100
AcDbLine
 10
478.0
 20
456.0
 30
0.0
 11
478.0
 21
512.540541
 31
0.0
  0
LINE
  5
311
100
AcDbEntity
  8
0
  6
BYBLOCK
 62
     0
100
AcDbLine
 10
459.0
 20
511.540541
 30
0.0
 11
465.365485
 21
511.540541
 31
0.0
  0
LINE
  5
312
100
AcDbEntity
  8
0
  6
BYBLOCK
 62
     0
100
AcDbLine
 10
476.0
 20
511.540541
 30
0.0
 11
471.948818
 21
511.540541
 31
0.0
  0
SOLID
  5
313
100
AcDbEntity
  8
0
  6
BYBLOCK
 62
     0
100
AcDbTrace
 10
459.0
 20
511.873875
 30
0.0
 11
459.0
 21
511.207208
 31
0.0
 12
457.0
 22
511.540541
 32
0.0
 13
457.0
 23
511.540541
 33
0.0
  0
SOLID
  5
314
100
AcDbEntity
  8
0
  6
BYBLOCK
 62
     0
100
AcDbTrace
 10
476.0
 20
511.873875
 30
0.0
 11
476.0
 21
511.207208
 31
0.0
 12
478.0
 22
511.540541
 32
0.0
 13
478.0
 23
511.540541
 33
0.0
  0
MTEXT
  5
315
100
AcDbEntity
  8
0
  6
BYBLOCK
 62
     0
100
AcDbMText
 10
468.657151
 20
511.540541
 30
0.0
 40
4.0
 41
0.0
 71
     5
 72
     1
  1
\A1;21
1001
ACAD
1000
MTEXTBEGIN
1070
    73
1070
     1
1070
    44
1040
1.0
1070
    74
1070
     0
1000
MTEXTEND
  0
POINT
  5
316
100
AcDbEntity
  8
DEFPOINTS
  6
BYBLOCK
 62
     0
100
AcDbPoint
 10
457.0
 20
455.0
 30
0.0
  0
POINT
  5
317
100
AcDbEntity
  8
DEFPOINTS
  6
BYBLOCK
 62
     0
100
AcDbPoint
 10
478.0
 20
455.0
 30
0.0
  0
POINT
  5
318
100
AcDbEntity
  8
DEFPOINTS
  6
BYBLOCK
 62
     0
100
AcDbPoint
 10
478.0
 20
511.540541
 30
0.0
  0
ENDBLK
  5
31A
100
AcDbEntity
  8
0
100
AcDbBlockEnd
  0
BLOCK
  5
326
100
AcDbEntity
  8
0
100
AcDbBlockBegin
  2
*D14
 70
     1
 10
0.0
 20
0.0
 30
0.0
  3
*D14
  1

  0
LINE
  5
31C
100
AcDbEntity
  8
0
  6
BYBLOCK
 62
     0
100
AcDbLine
 10
478.0
 20
456.0
 30
0.0
 11
478.0
 21
498.545455
 31
0.0
  0
LINE
  5
31D
100
AcDbEntity
  8
0
  6
BYBLOCK
 62
     0
100
AcDbLine
 10
501.0
 20
360.0
 30
0.0
 11
501.0
 21
498.545455
 31
0.0
  0
LINE
  5
31E
100
AcDbEntity
  8
0
  6
BYBLOCK
 62
     0
100
AcDbLine
 10
480.0
 20
497.545455
 30
0.0
 11
486.603859
 21
497.545455
 31
0.0
  0
LINE
  5
31F
100
AcDbEntity
  8
0
  6
BYBLOCK
 62
     0
100
AcDbLine
 10
499.0
 20
497.545455
 30
0.0
 11
494.520526
 21
497.545455
 31
0.0
  0
SOLID
  5
320
100
AcDbEntity
  8
0
  6
BYBLOCK
 62
     0
100
AcDbTrace
 10
480.0
 20
497.878789
 30
0.0
 11
480.0
 21
497.212122
 31
0.0
 12
478.0
 22
497.545455
 32
0.0
 13
478.0
 23
497.545455
 33
0.0
  0
SOLID
  5
321
100
AcDbEntity
  8
0
  6
BYBLOCK
 62
     0
100
AcDbTrace
 10
499.0
 20
497.878789
 30
0.0
 11
499.0
 21
497.212122
 31
0.0
 12
501.0
 22
497.545455
 32
0.0
 13
501.0
 23
497.545455
 33
0.0
  0
MTEXT
  5
322
100
AcDbEntity
  8
0
  6
BYBLOCK
 62
     0
100
AcDbMText
 10
490.562193
 20
497.545455
 30
0.0
 40
4.0
 41
0.0
 71
     5
 72
     1
  1
\A1;23
1001
ACAD
1000
MTEXTBEGIN
1070
    73
1070
     1
1070
    44
1040
1.0
1070
    74
1070
     0
1000
MTEXTEND
  0
POINT
  5
323
100
AcDbEntity
  8
DEFPOINTS
  6
BYBLOCK
 62
     0
100
AcDbPoint
 10
478.0
 20
455.0
 30
0.0
  0
POINT
  5
324
100
AcDbEntity
  8
DEFPOINTS
  6
BYBLOCK
 62
     0
100
AcDbPoint
 10
501.0
 20
359.0
 30
0.0
  0
POINT
  5
325
100
AcDbEntity
  8
DEFPOINTS
  6
BYBLOCK
 62
     0
100
AcDbPoint
 10
501.0
 20
497.545455
 30
0.0
  0
ENDBLK
  5
327
100
AcDbEntity
  8
0
100
AcDbBlockEnd
  0
BLOCK
  5
333
100
AcDbEntity
  8
0
100
AcDbBlockBegin
  2
*D15
 70
     1
 10
0.0
 20
0.0
 30
0.0
  3
*D15
  1

  0
LINE
  5
329
100
AcDbEntity
  8
0
  6
BYBLOCK
 62
     0
100
AcDbLine
 10
501.0
 20
360.0
 30
0.0
 11
501.0
 21
484.550369
 31
0.0
  0
LINE
  5
32A
100
AcDbEntity
  8
0
  6
BYBLOCK
 62
     0
100
AcDbLine
 10
521.0
 20
354.0
 30
0.0
 11
521.0
 21
484.550369
 31
0.0
  0
LINE
  5
32B
100
AcDbEntity
  8
0
  6
BYBLOCK
 62
     0
100
AcDbLine
 10
503.0
 20
483.550369
 30
0.0
 11
507.966033
 21
483.550369
 31
0.0
  0
LINE
  5
32C
100
AcDbEntity
  8
0
  6
BYBLOCK
 62
     0
100
AcDbLine
 10
519.0
 20
483.550369
 30
0.0
 11
515.216033
 21
483.550369
 31
0.0
  0
SOLID
  5
32D
100
AcDbEntity
  8
0
  6
BYBLOCK
 62
     0
100
AcDbTrace
 10
503.0
 20
483.883702
 30
0.0
 11
503.0
 21
483.217036
 31
0.0
 12
501.0
 22
483.550369
 32
0.0
 13
501.0
 23
483.550369
 33
0.0
  0
SOLID
  5
32E
100
AcDbEntity
  8
0
  6
BYBLOCK
 62
     0
100
AcDbTrace
 10
519.0
 20
483.883702
 30
0.0
 11
519.0
 21
483.217036
 31
0.0
 12
521.0
 22
483.550369
 32
0.0
 13
521.0
 23
483.550369
 33
0.0
  0
MTEXT
  5
32F
100
AcDbEntity
  8
0
  6
BYBLOCK
 62
     0
100
AcDbMText
 10
511.591033
 20
483.550369
 30
0.0
 40
4.0
 41
0.0
 71
     5
 72
     1
  1
\A1;20
1001
ACAD
1000
MTEXTBEGIN
1070
    73
1070
     1
1070
    44
1040
1.0
1070
    74
1070
     0
1000
MTEXTEND
  0
POINT
  5
330
100
AcDbEntity
  8
DEFPOINTS
  6
BYBLOCK
 62
     0
100
AcDbPoint
 10
501.0
 20
359.0
 30
0.0
  0
POINT
  5
331
100
AcDbEntity
  8
DEFPOINTS
  6
BYBLOCK
 62
     0
100
AcDbPoint
 10
521.0
 20
353.0
 30
0.0
  0
POINT
  5
332
100
AcDbEntity
  8
DEFPOINTS
  6
BYBLOCK
 62
     0
100
AcDbPoint
 10
521.0
 20
483.550369
 30
0.0
  0
ENDBLK
  5
334
100
AcDbEntity
  8
0
100
AcDbBlockEnd
  0
BLOCK
  5
340
100
AcDbEntity
  8
0
100
AcDbBlockBegin
  2
*D16
 70
     1
 10
0.0
 20
0.0
 30
0.0
  3
*D16
  1

  0
LINE
  5
336
100
AcDbEntity
  8
0
  6
BYBLOCK
 62
     0
100
AcDbLine
 10
456.0
 20
455.0
 30
0.0
 11
410.704043
 21
455.0
 31
0.0
  0
LINE
  5
337
100
AcDbEntity
  8
0
  6
BYBLOCK
 62
     0
100
AcDbLine
 10
456.0
 20
205.0
 30
0.0
 11
410.704043
 21
205.0
 31
0.0
  0
LINE
  5
338
100
AcDbEntity
  8
0
  6
BYBLOCK
 62
     0
100
AcDbLine
 10
411.704043
 20
453.0
 30
0.0
 11
411.704043
 21
336.541462
 31
0.0
  0
LINE
  5
339
100
AcDbEntity
  8
0
  6
BYBLOCK
 62
     0
100
AcDbLine
 10
411.704043
 20
207.0
 30
0.0
 11
411.704043
 21
325.291462
 31
0.0
  0
SOLID
  5
33A
100
AcDbEntity
  8
0
  6
BYBLOCK
 62
     0
100
AcDbTrace
 10
411.37071
 20
453.0
 30
0.0
 11
412.037377
 21
453.0
 31
0.0
 12
411.704043
 22
455.0
 32
0.0
 13
411.704043
 23
455.0
 33
0.0
  0
SOLID
  5
33B
100
AcDbEntity
  8
0
  6
BYBLOCK
 62
     0
100
AcDbTrace
 10
411.37071
 20
207.0
 30
0.0
 11
412.037377
 21
207.0
 31
0.0
 12
411.704043
 22
205.0
 32
0.0
 13
411.704043
 23
205.0
 33
0.0
  0
MTEXT
  5
33C
100
AcDbEntity
  8
0
  6
BYBLOCK
 62
     0
100
AcDbMText
 10
411.704043
 20
330.916462
 30
0.0
 40
4.0
 41
0.0
 71
     5
 72
     1
  1
\A1;250
 11
0.0
 21
1.0
 31
0.0
1001
ACAD
1000
MTEXTBEGIN
1070
    73
1070
     1
1070
    44
1040
1.0
1070
    74
1070
     0
1000
MTEXTEND
  0
POINT
  5
33D
100
AcDbEntity
  8
DEFPOINTS
  6
BYBLOCK
 62
     0
100
AcDbPoint
 10
457.0
 20
455.0
 30
0.0
  0
POINT
  5
33E
100
AcDbEntity
  8
DEFPOINTS
  6
BYBLOCK
 62
     0
100
AcDbPoint
 10
457.0
 20
205.0
 30
0.0
  0
POINT
  5
33F
100
AcDbEntity
  8
DEFPOINTS
  6
BYBLOCK
 62
     0
100
AcDbPoint
 10
411.704043
 20
205.0
 30
0.0
  0
ENDBLK
  5
341
100
AcDbEntity
  8
0
100
AcDbBlockEnd
  0
BLOCK
  5
34D
100
AcDbEntity
  8
0
100
AcDbBlockBegin
  2
*D17
 70
     1
 10
0.0
 20
0.0
 30
0.0
  3
*D17
  1

  0
LINE
  5
343
100
AcDbEntity
  8
0
  6
BYBLOCK
 62
     0
100
AcDbLine
 10
481.0
 20
300.0
 30
0.0
 11
481.0
 21
192.152334
 31
0.0
  0
LINE
  5
344
100
AcDbEntity
  8
0
  6
BYBLOCK
 62
     0
100
AcDbLine
 10
521.0
 20
306.0
 30
0.0
 11
521.0
 21
192.152334
 31
0.0
  0
LINE
  5
345
100
AcDbEntity
  8
0
  6
BYBLOCK
 62
     0
100
AcDbLine
 10
483.0
 20
193.152334
 30
0.0
 11
496.575411
 21
193.152334
 31
0.0
  0
LINE
  5
346
100
AcDbEntity
  8
0
  6
BYBLOCK
 62
     0
100
AcDbLine
 10
519.0
 20
193.152334
 30
0.0
 11
503.825411
 21
193.152334
 31
0.0
  0
SOLID
  5
347
100
AcDbEntity
  8
0
  6
BYBLOCK
 62
     0
100
AcDbTrace
 10
483.0
 20
193.485667
 30
0.0
 11
483.0
 21
192.819001
 31
0.0
 12
481.0
 22
193.152334
 32
0.0
 13
481.0
 23
193.152334
 33
0.0
  0
SOLID
  5
348
100
AcDbEntity
  8
0
  6
BYBLOCK
 62
     0
100
AcDbTrace
 10
519.0
 20
193.485667
 30
0.0
 11
519.0
 21
192.819001
 31
0.0
 12
521.0
 22
193.152334
 32
0.0
 13
521.0
 23
193.152334
 33
0.0
  0
MTEXT
  5
349
100
AcDbEntity
  8
0
  6
BYBLOCK
 62
     0
100
AcDbMText
 10
500.200411
 20
193.152334
 30
0.0
 40
4.0
 41
0.0
 71
     5
 72
     1
  1
\A1;40
1001
ACAD
1000
MTEXTBEGIN
1070
    73
1070
     1
1070
    44
1040
1.0
1070
    74
1070
     0
1000
MTEXTEND
  0
POINT
  5
34A
100
AcDbEntity
  8
DEFPOINTS
  6
BYBLOCK
 62
     0
100
AcDbPoint
 10
481.0
 20
301.0
 30
0.0
  0
POINT
  5
34B
100
AcDbEntity
  8
DEFPOINTS
  6
BYBLOCK
 62
     0
100
AcDbPoint
 10
521.0
 20
307.0
 30
0.0
  0
POINT
  5
34C
100
AcDbEntity
  8
DEFPOINTS
  6
BYBLOCK
 62
     0
100
AcDbPoint
 10
521.0
 20
193.152334
 30
0.0
  0
ENDBLK
  5
34E
100
AcDbEntity
  8
0
100
AcDbBlockEnd
  0
BLOCK
  5
3B2
100
AcDbEntity
  8
0
100
AcDbBlockBegin
  2
A$C09684561
 70
     0
 10
0.0
 20
0.0
 30
0.0
  3
A$C09684561
  1

  0
ARC
  5
350
100
AcDbEntity
  8
3
100
AcDbCircle
 10
129.68486
 20
140.0
 30
5.879365
 40
99.984999
100
AcDbArc
 50
321.950938
 51
338.049062
  0
LINE
  5
351
100
AcDbEntity
  8
3
100
AcDbLine
 10
143.634804
 20
112.316086
 30
5.879365
 11
206.931541
 21
78.081099
 31
5.879365
  0
LINE
  5
352
100
AcDbEntity
  8
3
100
AcDbLine
 10
143.335495
 20
113.643593
 30
5.879365
 11
208.421375
 21
78.375644
 31
5.879365
  0
ARC
  5
353
100
AcDbEntity
  8
3
100
AcDbCircle
 10
129.68486
 20
140.0
 30
5.879365
 40
99.984999
100
AcDbArc
 50
201.950938
 51
218.049062
  0
LINE
  5
354
100
AcDbEntity
  8
3
100
AcDbLine
 10
116.034224
 20
113.643593
 30
5.879365
 11
50.948345
 21
78.375644
 31
5.879365
  0
LINE
  5
355
100
AcDbEntity
  8
3
100
AcDbLine
 10
115.734915
 20
112.316086
 30
5.879365
 11
52.438178
 21
78.081099
 31
5.879365
  0
CIRCLE
  5
356
100
AcDbEntity
  8
3
100
AcDbCircle
 10
129.68486
 20
140.0
 30
5.879365
 40
101.0
  0
CIRCLE
  5
357
100
AcDbEntity
  8
3
100
AcDbCircle
 10
129.68486
 20
140.0
 30
5.879365
 40
125.0
  0
LINE
  5
358
100
AcDbEntity
  8
1
100
AcDbLine
 10
129.68486
 20
270.0
 30
5.879365
 11
129.68486
 21
0.0
 31
5.879365
  0
ARC
  5
359
100
AcDbEntity
  8
3
100
AcDbCircle
 10
129.68486
 20
140.0
 30
5.879365
 40
99.0
100
AcDbArc
 50
218.714742
 51
321.285258
  0
LINE
  5
35A
100
AcDbEntity
  8
3
100
AcDbLine
 10
52.438178
 20
78.081099
 30
5.879365
 11
50.948345
 21
78.375644
 31
5.879365
  0
LINE
  5
35B
100
AcDbEntity
  8
3
100
AcDbLine
 10
206.931541
 20
78.081099
 30
5.879365
 11
208.421375
 21
78.375644
 31
5.879365
  0
LINE
  5
35C
100
AcDbEntity
  8
3
100
AcDbLine
 10
98.734915
 20
141.76095
 30
5.879365
 11
37.438178
 21
104.061861
 31
5.879365
  0
LINE
  5
35D
100
AcDbEntity
  8
3
100
AcDbLine
 10
100.034224
 20
141.356406
 30
5.879365
 11
36.948345
 21
102.624355
 31
5.879365
  0
ARC
  5
35E
100
AcDbEntity
  8
3
100
AcDbCircle
 10
129.68486
 20
140.0
 30
5.879365
 40
99.0
100
AcDbArc
 50
98.714742
 51
201.285258
  0
LINE
  5
35F
100
AcDbEntity
  8
1
100
AcDbLine
 10
-0.31514
 20
140.0
 30
5.879365
 11
264.963097
 21
140.0
 31
5.879365
  0
LINE
  5
360
100
AcDbEntity
  8
3
100
AcDbLine
 10
37.438178
 20
104.061861
 30
5.879365
 11
36.948345
 21
102.624355
 31
5.879365
  0
ARC
  5
361
100
AcDbEntity
  8
3
100
AcDbCircle
 10
129.68486
 20
140.0
 30
5.879365
 40
99.0
100
AcDbArc
 50
338.714742
 51
81.285258
  0
ARC
  5
362
100
AcDbEntity
  8
3
100
AcDbCircle
 10
129.68486
 20
140.0
 30
5.879365
 40
31.0
100
AcDbArc
 50
3.256431
 51
56.743569
  0
ARC
  5
363
100
AcDbEntity
  8
3
100
AcDbCircle
 10
129.68486
 20
140.0
 30
5.879365
 40
29.681644
100
AcDbArc
 50
297.380757
 51
2.619243
  0
LINE
  5
364
100
AcDbEntity
  8
3
100
AcDbLine
 10
159.335495
 20
141.356406
 30
5.879365
 11
222.421375
 21
102.624355
 31
5.879365
  0
LINE
  5
365
100
AcDbEntity
  8
3
100
AcDbLine
 10
160.634804
 20
141.76095
 30
5.879365
 11
221.931541
 21
104.061861
 31
5.879365
  0
LINE
  5
366
100
AcDbEntity
  8
3
100
AcDbLine
 10
112.68486
 20
165.922962
 30
5.879365
 11
114.68486
 21
237.857038
 31
5.879365
  0
LINE
  5
367
100
AcDbEntity
  8
3
100
AcDbLine
 10
113.68486
 20
165.0
 30
5.879365
 11
115.68486
 21
239.0
 31
5.879365
  0
LINE
  5
368
100
AcDbEntity
  8
3
100
AcDbLine
 10
145.68486
 20
165.0
 30
5.879365
 11
143.68486
 21
239.0
 31
5.879365
  0
LINE
  5
369
100
AcDbEntity
  8
3
100
AcDbLine
 10
146.68486
 20
165.922962
 30
5.879365
 11
144.68486
 21
237.857038
 31
5.879365
  0
ARC
  5
36A
100
AcDbEntity
  8
3
100
AcDbCircle
 10
129.68486
 20
140.0
 30
5.879365
 40
29.681644
100
AcDbArc
 50
177.380757
 51
242.619243
  0
ARC
  5
36B
100
AcDbEntity
  8
3
100
AcDbCircle
 10
129.68486
 20
140.0
 30
5.879365
 40
31.0
100
AcDbArc
 50
123.256431
 51
176.743569
  0
LINE
  5
36C
100
AcDbEntity
  8
3
100
AcDbLine
 10
98.734915
 20
141.76095
 30
5.879365
 11
100.034224
 21
141.356406
 31
5.879365
  0
CIRCLE
  5
36D
100
AcDbEntity
  8
3
100
AcDbCircle
 10
129.68486
 20
140.0
 30
5.879365
 40
26.0
  0
ARC
  5
36E
100
AcDbEntity
  8
3
100
AcDbCircle
 10
129.68486
 20
140.0
 30
5.879365
 40
31.0
100
AcDbArc
 50
243.256431
 51
296.743569
  0
LINE
  5
36F
100
AcDbEntity
  8
3
100
AcDbLine
 10
115.734915
 20
112.316086
 30
5.879365
 11
116.034224
 21
113.643593
 31
5.879365
  0
LINE
  5
370
100
AcDbEntity
  8
3
100
AcDbLine
 10
143.634804
 20
112.316086
 30
5.879365
 11
143.335495
 21
113.643593
 31
5.879365
  0
ARC
  5
371
100
AcDbEntity
  8
3
100
AcDbCircle
 10
129.68486
 20
140.0
 30
5.879365
 40
29.681644
100
AcDbArc
 50
57.380757
 51
122.619243
  0
LINE
  5
372
100
AcDbEntity
  8
3
100
AcDbLine
 10
112.68486
 20
165.922962
 30
5.879365
 11
113.68486
 21
165.0
 31
5.879365
  0
LINE
  5
373
100
AcDbEntity
  8
3
100
AcDbLine
 10
160.634804
 20
141.76095
 30
5.879365
 11
159.335495
 21
141.356406
 31
5.879365
  0
LINE
  5
374
100
AcDbEntity
  8
3
100
AcDbLine
 10
146.68486
 20
165.922962
 30
5.879365
 11
145.68486
 21
165.0
 31
5.879365
  0
ARC
  5
375
100
AcDbEntity
  8
3
100
AcDbCircle
 10
129.68486
 20
140.0
 30
5.879365
 40
99.984999
100
AcDbArc
 50
81.950938
 51
98.049062
  0
LINE
  5
376
100
AcDbEntity
  8
3
100
AcDbLine
 10
114.68486
 20
237.857038
 30
5.879365
 11
115.68486
 21
239.0
 31
5.879365
  0
LINE
  5
377
100
AcDbEntity
  8
3
100
AcDbLine
 10
144.68486
 20
237.857038
 30
5.879365
 11
143.68486
 21
239.0
 31
5.879365
  0
LINE
  5
378
100
AcDbEntity
  8
3
100
AcDbLine
 10
221.931541
 20
104.061861
 30
5.879365
 11
222.421375
 21
102.624355
 31
5.879365
  0
DIMENSION
  5
379
100
AcDbEntity
  8
0
100
AcDbDimension
  2
*D17
 10
420.68486
 20
3.152334
 30
5.879365
 11
399.885271
 21
3.152334
 31
5.879365
 12
-100.31514
 22
-190.0
 32
5.879365
 70
   128
  3
STANDARD
100
AcDbAlignedDimension
 13
380.68486
 23
111.0
 33
5.879365
 14
420.68486
 24
117.0
 34
5.879365
100
AcDbRotatedDimension
1001
ACAD
1000
DSTYLE
1002
{
1070
   140
1040
4.0
1070
    77
1070
     0
1070
    40
1040
1.0
1070
   141
1040
0.0
1070
    41
1040
2.0
1002
}
  0
DIMENSION
  5
37A
100
AcDbEntity
  8
0
100
AcDbDimension
  2
*D16
 10
311.388903
 20
15.0
 30
5.879365
 11
311.388903
 21
140.916462
 31
5.879365
 12
-100.31514
 22
-190.0
 32
5.879365
 70
   128
  3
STANDARD
100
AcDbAlignedDimension
 13
356.68486
 23
265.0
 33
5.879365
 14
356.68486
 24
15.0
 34
5.879365
 50
90.0
100
AcDbRotatedDimension
1001
ACAD
1000
DSTYLE
1002
{
1070
   140
1040
4.0
1070
    77
1070
     0
1070
    40
1040
1.0
1070
   141
1040
0.0
1070
    41
1040
2.0
1002
}
  0
LINE
  5
37B
100
AcDbEntity
  8
3
100
AcDbLine
 10
373.752275
 20
78.375644
 30
5.879365
 11
392.767633
 21
109.083556
 31
5.879365
  0
LINE
  5
37C
100
AcDbEntity
  8
3
100
AcDbLine
 10
371.443896
 20
78.081099
 30
5.879365
 11
387.99247
 21
109.139778
 31
5.879365
  0
LINE
  5
37D
100
AcDbEntity
  8
3
100
AcDbLine
 10
366.44486
 20
78.375644
 30
5.879365
 11
382.290645
 21
110.392335
 31
5.879365
  0
LINE
  5
37E
100
AcDbEntity
  8
3
100
AcDbLine
 10
366.44486
 20
102.624355
 30
5.879365
 11
366.44486
 21
78.375644
 31
5.879365
  0
LINE
  5
37F
100
AcDbEntity
  8
3
100
AcDbLine
 10
356.68486
 20
140.0
 30
5.879365
 11
356.68486
 21
15.0
 31
5.879365
  0
LINE
  5
380
100
AcDbEntity
  8
3
100
AcDbLine
 10
373.752275
 20
38.910112
 30
5.879365
 11
373.752275
 21
78.375644
 31
5.879365
  0
LINE
  5
381
100
AcDbEntity
  8
3
100
AcDbLine
 10
371.443896
 20
41.987951
 30
5.879365
 11
371.443896
 21
78.081099
 31
5.879365
  0
LINE
  5
382
100
AcDbEntity
  8
3
100
AcDbLine
 10
377.68486
 20
15.0
 30
5.879365
 11
377.68486
 21
84.726376
 31
5.879365
  0
LINE
  5
383
100
AcDbEntity
  8
3
100
AcDbLine
 10
366.44486
 20
41.0
 30
5.879365
 11
371.443896
 21
41.987951
 31
5.879365
  0
LINE
  5
384
100
AcDbEntity
  8
3
100
AcDbLine
 10
356.68486
 20
15.0
 30
5.879365
 11
377.68486
 21
15.0
 31
5.879365
  0
LINE
  5
385
100
AcDbEntity
  8
3
100
AcDbLine
 10
356.68486
 20
39.0
 30
5.879365
 11
366.44486
 21
41.0
 31
5.879365
  0
ARC
  5
386
100
AcDbEntity
  8
3
100
AcDbCircle
 10
389.589621
 20
32.269841
 30
5.879365
 40
17.095975
100
AcDbArc
 50
163.937689
 51
225.865202
  0
LINE
  5
387
100
AcDbEntity
  8
3
100
AcDbLine
 10
371.443896
 20
41.987951
 30
5.879365
 11
373.752275
 21
38.910112
 31
5.879365
  0
LINE
  5
388
100
AcDbEntity
  8
3
100
AcDbLine
 10
373.752275
 20
38.910112
 30
5.879365
 11
373.16105
 21
37.0
 31
5.879365
  0
LINE
  5
389
100
AcDbEntity
  8
3
100
AcDbLine
 10
366.44486
 20
78.375644
 30
5.879365
 11
371.443896
 21
78.081099
 31
5.879365
  0
LINE
  5
38A
100
AcDbEntity
  8
3
100
AcDbLine
 10
371.443896
 20
78.081099
 30
5.879365
 11
373.752275
 21
78.375644
 31
5.879365
  0
DIMENSION
  5
38B
100
AcDbEntity
  8
0
100
AcDbDimension
  2
*D15
 10
420.68486
 20
293.550369
 30
5.879365
 11
411.275892
 21
293.550369
 31
5.879365
 12
-100.31514
 22
-190.0
 32
5.879365
 70
   128
  3
STANDARD
100
AcDbAlignedDimension
 13
400.68486
 23
169.0
 33
5.879365
 14
420.68486
 24
163.0
 34
5.879365
100
AcDbRotatedDimension
1001
ACAD
1000
DSTYLE
1002
{
1070
   140
1040
4.0
1070
    77
1070
     0
1070
    40
1040
1.0
1070
   141
1040
0.0
1070
    41
1040
2.0
1002
}
  0
DIMENSION
  5
38C
100
AcDbEntity
  8
0
100
AcDbDimension
  2
*D14
 10
400.68486
 20
307.545455
 30
5.879365
 11
390.247052
 21
307.545455
 31
5.879365
 12
-100.31514
 22
-190.0
 32
5.879365
 70
   128
  3
STANDARD
100
AcDbAlignedDimension
 13
377.68486
 23
265.0
 33
5.879365
 14
400.68486
 24
169.0
 34
5.879365
100
AcDbRotatedDimension
1001
ACAD
1000
DSTYLE
1002
{
1070
   140
1040
4.0
1070
    77
1070
     0
1070
    40
1040
1.0
1070
   141
1040
0.0
1070
    41
1040
2.0
1002
}
  0
DIMENSION
  5
38D
100
AcDbEntity
  8
0
100
AcDbDimension
  2
*D13
 10
377.68486
 20
321.540541
 30
5.879365
 11
368.342011
 21
321.540541
 31
5.879365
 12
-100.31514
 22
-190.0
 32
5.879365
 70
   128
  3
STANDARD
100
AcDbAlignedDimension
 13
356.68486
 23
265.0
 33
5.879365
 14
377.68486
 24
265.0
 34
5.879365
100
AcDbRotatedDimension
1001
ACAD
1000
DSTYLE
1002
{
1070
   140
1040
4.0
1070
    77
1070
     0
1070
    40
1040
1.0
1070
   141
1040
0.0
1070
    41
1040
2.0
1002
}
  0
ARC
  5
38E
100
AcDbEntity
  8
3
100
AcDbCircle
 10
390.68486
 20
135.0
 30
5.879365
 40
26.0
100
AcDbArc
 50
247.380135
 51
292.619865
  0
ARC
  5
38F
100
AcDbEntity
  8
3
100
AcDbCircle
 10
390.68486
 20
145.0
 30
5.879365
 40
26.0
100
AcDbArc
 50
67.380135
 51
112.619865
  0
LINE
  5
390
100
AcDbEntity
  8
3
100
AcDbLine
 10
371.443896
 20
113.328635
 30
5.879365
 11
371.443896
 21
219.266962
 31
5.879365
  0
LINE
  5
391
100
AcDbEntity
  8
3
100
AcDbLine
 10
373.752275
 20
118.271496
 30
5.879365
 11
373.752275
 21
210.154937
 31
5.879365
  0
LINE
  5
392
100
AcDbEntity
  8
3
100
AcDbLine
 10
377.68486
 20
194.631578
 30
5.879365
 11
377.68486
 21
140.0
 31
5.879365
  0
LINE
  5
393
100
AcDbEntity
  8
3
100
AcDbLine
 10
395.591359
 20
170.532846
 30
5.879365
 11
373.16105
 21
243.0
 31
5.879365
  0
LINE
  5
394
100
AcDbEntity
  8
3
100
AcDbLine
 10
383.899766
 20
170.099053
 30
5.879365
 11
366.44486
 21
239.0
 31
5.879365
  0
LINE
  5
395
100
AcDbEntity
  8
3
100
AcDbLine
 10
356.68486
 20
140.0
 30
5.879365
 11
356.68486
 21
265.0
 31
5.879365
  0
LINE
  5
396
100
AcDbEntity
  8
2
100
AcDbLine
 10
380.68486
 20
133.116021
 30
5.879365
 11
383.899766
 21
140.0
 31
5.879365
  0
LINE
  5
397
100
AcDbEntity
  8
3
100
AcDbLine
 10
377.68486
 20
126.692215
 30
5.879365
 11
377.68486
 21
140.0
 31
5.879365
  0
LINE
  5
398
100
AcDbEntity
  8
2
100
AcDbLine
 10
383.899766
 20
140.0
 30
5.879365
 11
383.899766
 21
113.643593
 31
5.879365
  0
LINE
  5
399
100
AcDbEntity
  8
2
100
AcDbLine
 10
395.591359
 20
113.643593
 30
5.879365
 11
395.591359
 21
140.0
 31
5.879365
  0
LINE
  5
39A
100
AcDbEntity
  8
3
100
AcDbLine
 10
380.68486
 20
111.0
 30
5.879365
 11
380.68486
 21
140.0
 31
5.879365
  0
LINE
  5
39B
100
AcDbEntity
  8
3
100
AcDbLine
 10
366.44486
 20
102.624355
 30
5.879365
 11
380.68486
 21
133.116021
 31
5.879365
  0
LINE
  5
39C
100
AcDbEntity
  8
2
100
AcDbLine
 10
382.290645
 20
110.392335
 30
5.879365
 11
383.899766
 21
113.643593
 31
5.879365
  0
LINE
  5
39D
100
AcDbEntity
  8
2
100
AcDbLine
 10
389.68486
 20
112.316086
 30
5.879365
 11
395.591359
 21
113.643593
 31
5.879365
  0
LINE
  5
39E
100
AcDbEntity
  8
2
100
AcDbLine
 10
387.99247
 20
109.139778
 30
5.879365
 11
389.68486
 21
112.316086
 31
5.879365
  0
LINE
  5
39F
100
AcDbEntity
  8
2
100
AcDbLine
 10
383.899766
 20
113.643593
 30
5.879365
 11
389.68486
 21
112.316086
 31
5.879365
  0
LINE
  5
3A0
100
AcDbEntity
  8
2
100
AcDbLine
 10
392.767633
 20
109.083556
 30
5.879365
 11
395.591359
 21
113.643593
 31
5.879365
  0
LINE
  5
3A1
100
AcDbEntity
  8
3
100
AcDbLine
 10
380.68486
 20
169.0
 30
5.879365
 11
380.68486
 21
140.0
 31
5.879365
  0
LINE
  5
3A2
100
AcDbEntity
  8
2
100
AcDbLine
 10
395.591359
 20
140.0
 30
5.879365
 11
389.68486
 21
141.76095
 31
5.879365
  0
LINE
  5
3A3
100
AcDbEntity
  8
2
100
AcDbLine
 10
389.68486
 20
141.76095
 30
5.879365
 11
383.899766
 21
140.0
 31
5.879365
  0
LINE
  5
3A4
100
AcDbEntity
  8
3
100
AcDbLine
 10
377.68486
 20
265.0
 30
5.879365
 11
377.68486
 21
228.384615
 31
5.879365
  0
LINE
  5
3A5
100
AcDbEntity
  8
3
100
AcDbLine
 10
356.68486
 20
265.0
 30
5.879365
 11
377.68486
 21
265.0
 31
5.879365
  0
LINE
  5
3A6
100
AcDbEntity
  8
3
100
AcDbLine
 10
356.68486
 20
241.0
 30
5.879365
 11
366.44486
 21
239.0
 31
5.879365
  0
ARC
  5
3A7
100
AcDbEntity
  8
3
100
AcDbCircle
 10
389.589621
 20
247.730158
 30
5.879365
 40
17.095975
100
AcDbArc
 50
134.134798
 51
196.062311
  0
LINE
  5
3A8
100
AcDbEntity
  8
3
100
AcDbLine
 10
420.68486
 20
140.0
 30
5.879365
 11
420.68486
 21
117.0
 31
5.879365
  0
LINE
  5
3A9
100
AcDbEntity
  8
3
100
AcDbLine
 10
400.68486
 20
114.0
 30
5.879365
 11
400.68486
 21
140.0
 31
5.879365
  0
LINE
  5
3AA
100
AcDbEntity
  8
3
100
AcDbLine
 10
400.68486
 20
140.0
 30
5.879365
 11
400.68486
 21
111.0
 31
5.879365
  0
LINE
  5
3AB
100
AcDbEntity
  8
3
100
AcDbLine
 10
417.68486
 20
114.0
 30
5.879365
 11
400.68486
 21
114.0
 31
5.879365
  0
ARC
  5
3AC
100
AcDbEntity
  8
3
100
AcDbCircle
 10
417.68486
 20
117.0
 30
5.879365
 40
3.0
100
AcDbArc
 50
270.0
 51
0.0
  0
LINE
  5
3AD
100
AcDbEntity
  8
3
100
AcDbLine
 10
400.68486
 20
140.0
 30
5.879365
 11
400.68486
 21
169.0
 31
5.879365
  0
LINE
  5
3AE
100
AcDbEntity
  8
3
100
AcDbLine
 10
400.68486
 20
166.0
 30
5.879365
 11
400.68486
 21
140.0
 31
5.879365
  0
LINE
  5
3AF
100
AcDbEntity
  8
3
100
AcDbLine
 10
420.68486
 20
140.0
 30
5.879365
 11
420.68486
 21
163.0
 31
5.879365
  0
LINE
  5
3B0
100
AcDbEntity
  8
3
100
AcDbLine
 10
417.68486
 20
166.0
 30
5.879365
 11
400.68486
 21
166.0
 31
5.879365
  0
ARC
  5
3B1
100
AcDbEntity
  8
3
100
AcDbCircle
 10
417.68486
 20
163.0
 30
5.879365
 40
3.0
100
AcDbArc
 50
0.0
 51
90.0
  0
ENDBLK
  5
3B3
100
AcDbEntity
  8
0
100
AcDbBlockEnd
  0
BLOCK
  5
4A1
100
AcDbEntity
  8
0
100
AcDbBlockBegin
  2
*D19
 70
     1
 10
0.0
 20
0.0
 30
0.0
  3
*D19
  1

  0
LINE
  5
497
100
AcDbEntity
  8
0
  6
BYBLOCK
 62
     0
100
AcDbLine
 10
185.21437
 20
203.5
 30
0.0
 11
154.500522
 21
203.5
 31
0.0
  0
LINE
  5
498
100
AcDbEntity
  8
0
  6
BYBLOCK
 62
     0
100
AcDbLine
 10
185.21437
 20
103.5
 30
0.0
 11
154.500522
 21
103.5
 31
0.0
  0
LINE
  5
499
100
AcDbEntity
  8
0
  6
BYBLOCK
 62
     0
100
AcDbLine
 10
155.500522
 20
201.5
 30
0.0
 11
155.500522
 21
158.43059
 31
0.0
  0
LINE
  5
49A
100
AcDbEntity
  8
0
  6
BYBLOCK
 62
     0
100
AcDbLine
 10
155.500522
 20
105.5
 30
0.0
 11
155.500522
 21
149.18059
 31
0.0
  0
SOLID
  5
49B
100
AcDbEntity
  8
0
  6
BYBLOCK
 62
     0
100
AcDbTrace
 10
155.167188
 20
201.5
 30
0.0
 11
155.833855
 21
201.5
 31
0.0
 12
155.500522
 22
203.5
 32
0.0
 13
155.500522
 23
203.5
 33
0.0
  0
SOLID
  5
49C
100
AcDbEntity
  8
0
  6
BYBLOCK
 62
     0
100
AcDbTrace
 10
155.167188
 20
105.5
 30
0.0
 11
155.833855
 21
105.5
 31
0.0
 12
155.500522
 22
103.5
 32
0.0
 13
155.500522
 23
103.5
 33
0.0
  0
MTEXT
  5
49D
100
AcDbEntity
  8
0
  6
BYBLOCK
 62
     0
100
AcDbMText
 10
155.500522
 20
153.80559
 30
0.0
 40
4.0
 41
0.0
 71
     5
 72
     1
  1
\A1;100
 11
0.0
 21
1.0
 31
0.0
1001
ACAD
1000
MTEXTBEGIN
1070
    73
1070
     1
1070
    44
1040
1.0
1070
    74
1070
     0
1000
MTEXTEND
  0
POINT
  5
49E
100
AcDbEntity
  8
DEFPOINTS
  6
BYBLOCK
 62
     0
100
AcDbPoint
 10
186.21437
 20
203.5
 30
10.705048
  0
POINT
  5
49F
100
AcDbEntity
  8
DEFPOINTS
  6
BYBLOCK
 62
     0
100
AcDbPoint
 10
186.21437
 20
103.5
 30
10.705048
  0
POINT
  5
4A0
100
AcDbEntity
  8
DEFPOINTS
  6
BYBLOCK
 62
     0
100
AcDbPoint
 10
155.500522
 20
103.5
 30
0.0
  0
ENDBLK
  5
4A2
100
AcDbEntity
  8
0
100
AcDbBlockEnd
  0
BLOCK
  5
514
100
AcDbEntity
  8
0
100
AcDbBlockBegin
  2
A$C77A32249
 70
     0
 10
0.0
 20
0.0
 30
0.0
  3
A$C77A32249
  1

  0
ARC
  5
4A4
100
AcDbEntity
  8
3
100
AcDbCircle
 10
180.658581
 20
105.5
 30
21.074008
 40
1.5
100
AcDbArc
 50
0.0
 51
90.0
  0
ARC
  5
4A5
100
AcDbEntity
  8
3
100
AcDbCircle
 10
186.621931
 20
96.027488
 30
21.074008
 40
7.862246
100
AcDbArc
 50
124.589578
 51
139.33031
  0
LINE
  5
4A6
100
AcDbEntity
  8
1
100
AcDbLine
 10
165.796071
 20
99.0
 30
21.074008
 11
183.326679
 21
99.0
 31
21.074008
  0
LINE
  5
4A7
100
AcDbEntity
  8
2
100
AcDbLine
 10
179.041201
 20
56.702455
 30
21.074008
 11
182.158581
 21
57.290063
 31
21.074008
  0
LINE
  5
4A8
100
AcDbEntity
  8
2
100
AcDbLine
 10
182.158581
 20
41.701606
 30
21.074008
 11
179.044104
 21
42.885322
 31
21.074008
  0
LINE
  5
4A9
100
AcDbEntity
  8
3
100
AcDbLine
 10
177.536359
 20
33.695525
 30
21.074008
 11
181.205147
 21
40.050177
 31
21.074008
  0
ARC
  5
4AA
100
AcDbEntity
  8
3
100
AcDbCircle
 10
182.158581
 20
49.083333
 30
21.074008
 40
9.083333
100
AcDbArc
 50
236.601512
 51
303.398488
  0
LINE
  5
4AB
100
AcDbEntity
  8
3
100
AcDbLine
 10
179.792594
 20
33.92147
 30
21.074008
 11
183.403982
 21
40.085782
 31
21.074008
  0
LINE
  5
4AC
100
AcDbEntity
  8
1
100
AcDbLine
 10
170.918225
 20
112.908924
 30
21.074008
 11
183.685049
 21
68.716072
 31
21.074008
  0
LINE
  5
4AD
100
AcDbEntity
  8
3
100
AcDbLine
 10
184.950922
 20
75.118139
 30
21.074008
 11
179.792594
 21
91.546129
 31
21.074008
  0
ARC
  5
4AE
100
AcDbEntity
  8
3
100
AcDbCircle
 10
186.621931
 20
17.972512
 30
21.074008
 40
7.862246
100
AcDbArc
 50
164.408726
 51
235.410422
  0
ARC
  5
4AF
100
AcDbEntity
  8
3
100
AcDbCircle
 10
180.658581
 20
8.5
 30
21.074008
 40
1.5
100
AcDbArc
 50
270.0
 51
0.0
  0
LINE
  5
4B0
100
AcDbEntity
  8
1
100
AcDbLine
 10
163.63305
 20
57.0
 30
21.074008
 11
206.762881
 21
57.0
 31
21.074008
  0
DIMENSION
  5
4B1
100
AcDbEntity
  8
0
100
AcDbDimension
  2
*D19
 10
138.944733
 20
7.0
 30
10.36896
 11
138.944733
 21
57.30559
 31
10.36896
 12
-16.555788
 22
-96.5
 32
10.36896
 70
   128
  3
STANDARD
100
AcDbAlignedDimension
 13
169.658581
 23
107.0
 33
21.074008
 14
169.658581
 24
7.0
 34
21.074008
 50
90.0
100
AcDbRotatedDimension
1001
ACAD
1000
DSTYLE
1002
{
1070
   140
1040
4.0
1070
    77
1070
     0
1070
    40
1040
1.0
1070
   141
1040
0.0
1070
    41
1040
2.0
1002
}
  0
LINE
  5
4B2
100
AcDbEntity
  8
3
100
AcDbLine
 10
174.826686
 20
33.92147
 30
21.074008
 11
178.129917
 21
40.942276
 31
21.074008
  0
LINE
  5
4B3
100
AcDbEntity
  8
3
100
AcDbLine
 10
174.826686
 20
47.777876
 30
21.074008
 11
174.826686
 21
33.92147
 31
21.074008
  0
ARC
  5
4B4
100
AcDbEntity
  8
3
100
AcDbCircle
 10
54.158581
 20
57.0
 30
21.074008
 40
33.276602
100
AcDbArc
 50
316.089309
 51
343.910691
  0
ARC
  5
4B5
100
AcDbEntity
  8
3
100
AcDbCircle
 10
54.158581
 20
57.0
 30
21.074008
 40
33.276602
100
AcDbArc
 50
196.089309
 51
223.910691
  0
LINE
  5
4B6
100
AcDbEntity
  8
3
100
AcDbLine
 10
30.794047
 20
33.695525
 30
21.074008
 11
45.660985
 21
41.701606
 31
21.074008
  0
LINE
  5
4B7
100
AcDbEntity
  8
3
100
AcDbLine
 10
45.711242
 20
42.885322
 30
21.074008
 11
30.185394
 21
33.92147
 31
21.074008
  0
LINE
  5
4B8
100
AcDbEntity
  8
3
100
AcDbLine
 10
77.523115
 20
33.695525
 30
21.074008
 11
62.656177
 21
41.701606
 31
21.074008
  0
LINE
  5
4B9
100
AcDbEntity
  8
3
100
AcDbLine
 10
62.60592
 20
42.885322
 30
21.074008
 11
78.131768
 21
33.92147
 31
21.074008
  0
LINE
  5
4BA
100
AcDbEntity
  8
1
100
AcDbLine
 10
54.158581
 20
113.5
 30
21.074008
 11
54.158581
 21
0.0
 31
21.074008
  0
CIRCLE
  5
4BB
100
AcDbEntity
  8
3
100
AcDbCircle
 10
54.158581
 20
57.0
 30
21.074008
 40
50.0
  0
CIRCLE
  5
4BC
100
AcDbEntity
  8
3
100
AcDbCircle
 10
54.158581
 20
57.0
 30
21.074008
 40
34.0
  0
LINE
  5
4BD
100
AcDbEntity
  8
3
100
AcDbLine
 10
168.158581
 20
57.0
 30
21.074008
 11
168.158581
 21
8.5
 31
21.074008
  0
LINE
  5
4BE
100
AcDbEntity
  8
1
100
AcDbLine
 10
54.158581
 20
57.0
 30
21.074008
 11
6.25093
 21
29.340505
 31
21.074008
  0
LINE
  5
4BF
100
AcDbEntity
  8
1
100
AcDbLine
 10
54.158581
 20
57.0
 30
21.074008
 11
102.440963
 21
29.124154
 31
21.074008
  0
ARC
  5
4C0
100
AcDbEntity
  8
3
100
AcDbCircle
 10
54.158581
 20
57.0
 30
21.074008
 40
33.0
100
AcDbArc
 50
224.926265
 51
315.073735
  0
LINE
  5
4C1
100
AcDbEntity
  8
3
100
AcDbLine
 10
30.185394
 20
33.92147
 30
21.074008
 11
30.794047
 21
33.695525
 31
21.074008
  0
LINE
  5
4C2
100
AcDbEntity
  8
3
100
AcDbLine
 10
78.131768
 20
33.92147
 30
21.074008
 11
77.523115
 21
33.695525
 31
21.074008
  0
ARC
  5
4C3
100
AcDbEntity
  8
3
100
AcDbCircle
 10
169.658581
 20
8.5
 30
21.074008
 40
1.5
100
AcDbArc
 50
180.0
 51
270.0
  0
LINE
  5
4C4
100
AcDbEntity
  8
3
100
AcDbLine
 10
169.658581
 20
7.0
 30
21.074008
 11
180.658581
 21
7.0
 31
21.074008
  0
LINE
  5
4C5
100
AcDbEntity
  8
3
100
AcDbLine
 10
177.536359
 20
24.0
 30
21.074008
 11
177.536359
 21
33.695525
 31
21.074008
  0
LINE
  5
4C6
100
AcDbEntity
  8
3
100
AcDbLine
 10
179.792594
 20
22.453871
 30
21.074008
 11
179.792594
 21
33.92147
 31
21.074008
  0
LINE
  5
4C7
100
AcDbEntity
  8
3
100
AcDbLine
 10
168.158581
 20
23.0
 30
21.074008
 11
177.536359
 21
24.0
 31
21.074008
  0
LINE
  5
4C8
100
AcDbEntity
  8
3
100
AcDbLine
 10
177.536359
 20
24.0
 30
21.074008
 11
179.792594
 21
22.453871
 31
21.074008
  0
LINE
  5
4C9
100
AcDbEntity
  8
3
100
AcDbLine
 10
179.792594
 20
22.453871
 30
21.074008
 11
179.048988
 21
20.085673
 31
21.074008
  0
LINE
  5
4CA
100
AcDbEntity
  8
3
100
AcDbLine
 10
174.826686
 20
33.92147
 30
21.074008
 11
177.536359
 21
33.695525
 31
21.074008
  0
LINE
  5
4CB
100
AcDbEntity
  8
3
100
AcDbLine
 10
177.536359
 20
33.695525
 30
21.074008
 11
179.792594
 21
33.92147
 31
21.074008
  0
ARC
  5
4CC
100
AcDbEntity
  8
3
100
AcDbCircle
 10
54.158581
 20
57.0
 30
21.074008
 40
33.276602
100
AcDbArc
 50
76.089309
 51
103.910691
  0
ARC
  5
4CD
100
AcDbEntity
  8
3
100
AcDbCircle
 10
54.158581
 20
57.0
 30
21.074008
 40
16.449367
100
AcDbArc
 50
60.899638
 51
119.100362
  0
ARC
  5
4CE
100
AcDbEntity
  8
3
100
AcDbCircle
 10
54.158581
 20
57.0
 30
21.074008
 40
17.5
100
AcDbArc
 50
240.949723
 51
299.050277
  0
LINE
  5
4CF
100
AcDbEntity
  8
1
100
AcDbLine
 10
-1.129591
 20
57.0
 30
21.074008
 11
110.340846
 21
57.0
 31
21.074008
  0
LINE
  5
4D0
100
AcDbEntity
  8
1
100
AcDbLine
 10
34.158581
 20
99.0
 30
21.074008
 11
75.158581
 21
99.0
 31
21.074008
  0
CIRCLE
  5
4D1
100
AcDbEntity
  8
3
100
AcDbCircle
 10
54.158581
 20
57.0
 30
21.074008
 40
14.0
  0
CIRCLE
  5
4D2
100
AcDbEntity
  8
3
100
AcDbCircle
 10
54.158581
 20
57.0
 30
21.074008
 40
15.5
  0
ARC
  5
4D3
100
AcDbEntity
  8
3
100
AcDbCircle
 10
54.158581
 20
57.0
 30
21.074008
 40
33.0
100
AcDbArc
 50
104.926265
 51
195.073735
  0
LINE
  5
4D4
100
AcDbEntity
  8
3
100
AcDbLine
 10
45.658581
 20
88.886517
 30
21.074008
 11
45.158581
 21
72.008331
 31
21.074008
  0
LINE
  5
4D5
100
AcDbEntity
  8
3
100
AcDbLine
 10
46.158581
 20
71.372949
 30
21.074008
 11
46.158581
 21
89.300654
 31
21.074008
  0
LINE
  5
4D6
100
AcDbEntity
  8
3
100
AcDbLine
 10
22.294047
 20
48.417957
 30
21.074008
 11
36.660985
 21
57.290063
 31
21.074008
  0
LINE
  5
4D7
100
AcDbEntity
  8
3
100
AcDbLine
 10
37.711242
 20
56.741729
 30
21.074008
 11
22.185394
 21
47.777876
 31
21.074008
  0
LINE
  5
4D8
100
AcDbEntity
  8
3
100
AcDbLine
 10
22.185394
 20
47.777876
 30
21.074008
 11
22.294047
 21
48.417957
 31
21.074008
  0
ARC
  5
4D9
100
AcDbEntity
  8
3
100
AcDbCircle
 10
54.158581
 20
57.0
 30
21.074008
 40
17.5
100
AcDbArc
 50
120.949723
 51
179.050278
  0
ARC
  5
4DA
100
AcDbEntity
  8
3
100
AcDbCircle
 10
54.158581
 20
57.0
 30
21.074008
 40
16.449367
100
AcDbArc
 50
180.899638
 51
239.100362
  0
LINE
  5
4DB
100
AcDbEntity
  8
3
100
AcDbLine
 10
36.660985
 20
57.290063
 30
21.074008
 11
37.711242
 21
56.741729
 31
21.074008
  0
LINE
  5
4DC
100
AcDbEntity
  8
3
100
AcDbLine
 10
45.660985
 20
41.701606
 30
21.074008
 11
45.711242
 21
42.885322
 31
21.074008
  0
LINE
  5
4DD
100
AcDbEntity
  8
3
100
AcDbLine
 10
45.158581
 20
72.008331
 30
21.074008
 11
46.158581
 21
71.372949
 31
21.074008
  0
LINE
  5
4DE
100
AcDbEntity
  8
3
100
AcDbLine
 10
46.158581
 20
89.300654
 30
21.074008
 11
45.658581
 21
88.886517
 31
21.074008
  0
LINE
  5
4DF
100
AcDbEntity
  8
3
100
AcDbLine
 10
62.658581
 20
88.886517
 30
21.074008
 11
63.158581
 21
72.008331
 31
21.074008
  0
LINE
  5
4E0
100
AcDbEntity
  8
3
100
AcDbLine
 10
62.158581
 20
71.372949
 30
21.074008
 11
62.158581
 21
89.300654
 31
21.074008
  0
ARC
  5
4E1
100
AcDbEntity
  8
3
100
AcDbCircle
 10
54.158581
 20
57.0
 30
21.074008
 40
33.0
100
AcDbArc
 50
344.926265
 51
75.073735
  0
ARC
  5
4E2
100
AcDbEntity
  8
3
100
AcDbCircle
 10
54.158581
 20
57.0
 30
21.074008
 40
17.5
100
AcDbArc
 50
0.949722
 51
59.050277
  0
LINE
  5
4E3
100
AcDbEntity
  8
3
100
AcDbLine
 10
86.023115
 20
48.417957
 30
21.074008
 11
71.656177
 21
57.290063
 31
21.074008
  0
LINE
  5
4E4
100
AcDbEntity
  8
3
100
AcDbLine
 10
70.60592
 20
56.741729
 30
21.074008
 11
86.131768
 21
47.777876
 31
21.074008
  0
ARC
  5
4E5
100
AcDbEntity
  8
3
100
AcDbCircle
 10
54.158581
 20
57.0
 30
21.074008
 40
16.449367
100
AcDbArc
 50
300.899638
 51
359.100362
  0
LINE
  5
4E6
100
AcDbEntity
  8
3
100
AcDbLine
 10
62.656177
 20
41.701606
 30
21.074008
 11
62.60592
 21
42.885322
 31
21.074008
  0
LINE
  5
4E7
100
AcDbEntity
  8
3
100
AcDbLine
 10
71.656177
 20
57.290063
 30
21.074008
 11
70.60592
 21
56.741729
 31
21.074008
  0
LINE
  5
4E8
100
AcDbEntity
  8
3
100
AcDbLine
 10
86.131768
 20
47.777876
 30
21.074008
 11
86.023115
 21
48.417957
 31
21.074008
  0
LINE
  5
4E9
100
AcDbEntity
  8
3
100
AcDbLine
 10
63.158581
 20
72.008331
 30
21.074008
 11
62.158581
 21
71.372949
 31
21.074008
  0
LINE
  5
4EA
100
AcDbEntity
  8
3
100
AcDbLine
 10
62.158581
 20
89.300654
 30
21.074008
 11
62.658581
 21
88.886517
 31
21.074008
  0
LINE
  5
4EB
100
AcDbEntity
  8
3
100
AcDbLine
 10
168.158581
 20
57.0
 30
21.074008
 11
168.158581
 21
105.5
 31
21.074008
  0
LINE
  5
4EC
100
AcDbEntity
  8
3
100
AcDbLine
 10
179.044104
 20
74.060769
 30
21.074008
 11
174.826686
 21
90.288946
 31
21.074008
  0
LINE
  5
4ED
100
AcDbEntity
  8
3
100
AcDbLine
 10
177.158581
 20
71.0
 30
21.074008
 11
177.158581
 21
57.0
 31
21.074008
  0
LINE
  5
4EE
100
AcDbEntity
  8
3
100
AcDbLine
 10
174.826686
 20
47.777876
 30
21.074008
 11
177.158581
 21
52.715854
 31
21.074008
  0
LINE
  5
4EF
100
AcDbEntity
  8
3
100
AcDbLine
 10
177.158581
 20
43.0
 30
21.074008
 11
177.158581
 21
57.0
 31
21.074008
  0
LINE
  5
4F0
100
AcDbEntity
  8
2
100
AcDbLine
 10
179.044104
 20
42.885322
 30
21.074008
 11
179.041201
 21
56.702455
 31
21.074008
  0
LINE
  5
4F1
100
AcDbEntity
  8
3
100
AcDbLine
 10
177.158581
 20
41.5
 30
21.074008
 11
177.158581
 21
43.0
 31
21.074008
  0
LINE
  5
4F2
100
AcDbEntity
  8
2
100
AcDbLine
 10
178.129917
 20
40.942276
 30
21.074008
 11
179.044104
 21
42.885322
 31
21.074008
  0
LINE
  5
4F3
100
AcDbEntity
  8
2
100
AcDbLine
 10
179.041201
 20
56.702455
 30
21.074008
 11
177.158581
 21
52.715854
 31
21.074008
  0
LINE
  5
4F4
100
AcDbEntity
  8
3
100
AcDbLine
 10
177.536359
 20
72.736002
 30
21.074008
 11
177.536359
 21
79.862411
 31
21.074008
  0
LINE
  5
4F5
100
AcDbEntity
  8
3
100
AcDbLine
 10
177.158581
 20
72.5
 30
21.074008
 11
177.158581
 21
71.0
 31
21.074008
  0
ARC
  5
4F6
100
AcDbEntity
  8
3
100
AcDbCircle
 10
182.158581
 20
64.916667
 30
21.074008
 40
9.083333
100
AcDbArc
 50
110.052332
 51
123.398488
  0
LINE
  5
4F7
100
AcDbEntity
  8
3
100
AcDbLine
 10
179.044104
 20
74.060769
 30
21.074008
 11
179.044104
 21
73.449367
 31
21.074008
  0
LINE
  5
4F8
100
AcDbEntity
  8
3
100
AcDbLine
 10
168.158581
 20
91.0
 30
21.074008
 11
174.826686
 21
90.288946
 31
21.074008
  0
LINE
  5
4F9
100
AcDbEntity
  8
3
100
AcDbLine
 10
180.658581
 20
101.151292
 30
21.074008
 11
180.658581
 21
92.139564
 31
21.074008
  0
LINE
  5
4FA
100
AcDbEntity
  8
3
100
AcDbLine
 10
179.792594
 20
91.546129
 30
21.074008
 11
180.658581
 21
92.139564
 31
21.074008
  0
LINE
  5
4FB
100
AcDbEntity
  8
3
100
AcDbLine
 10
180.658581
 20
97.0
 30
21.074008
 11
179.158581
 21
99.0
 31
21.074008
  0
LINE
  5
4FC
100
AcDbEntity
  8
3
100
AcDbLine
 10
179.158581
 20
99.0
 30
21.074008
 11
180.658581
 21
101.0
 31
21.074008
  0
LINE
  5
4FD
100
AcDbEntity
  8
3
100
AcDbLine
 10
169.658581
 20
107.0
 30
21.074008
 11
180.658581
 21
107.0
 31
21.074008
  0
ARC
  5
4FE
100
AcDbEntity
  8
3
100
AcDbCircle
 10
169.658581
 20
105.5
 30
21.074008
 40
1.5
100
AcDbArc
 50
90.0
 51
180.0
  0
LINE
  5
4FF
100
AcDbEntity
  8
3
100
AcDbLine
 10
182.158581
 20
8.5
 30
21.074008
 11
182.158581
 21
37.959996
 31
21.074008
  0
LINE
  5
500
100
AcDbEntity
  8
3
100
AcDbLine
 10
202.158581
 20
57.0
 30
21.074008
 11
202.158581
 21
69.0
 31
21.074008
  0
LINE
  5
501
100
AcDbEntity
  8
1
100
AcDbLine
 10
182.158581
 20
57.0
 30
21.074008
 11
182.158581
 21
79.0
 31
21.074008
  0
LINE
  5
502
100
AcDbEntity
  8
3
100
AcDbLine
 10
200.158581
 20
43.0
 30
21.074008
 11
187.158581
 21
43.0
 31
21.074008
  0
LINE
  5
503
100
AcDbEntity
  8
3
100
AcDbLine
 10
187.158581
 20
43.0
 30
21.074008
 11
187.158581
 21
57.0
 31
21.074008
  0
LINE
  5
504
100
AcDbEntity
  8
2
100
AcDbLine
 10
185.049985
 20
56.702455
 30
21.074008
 11
185.044104
 21
42.885322
 31
21.074008
  0
LINE
  5
505
100
AcDbEntity
  8
1
100
AcDbLine
 10
182.158581
 20
57.290063
 30
21.074008
 11
182.158581
 21
39.246537
 31
21.074008
  0
LINE
  5
506
100
AcDbEntity
  8
2
100
AcDbLine
 10
183.403982
 20
40.085782
 30
21.074008
 11
185.044104
 21
42.885322
 31
21.074008
  0
LINE
  5
507
100
AcDbEntity
  8
2
100
AcDbLine
 10
185.044104
 20
42.885322
 30
21.074008
 11
182.158581
 21
41.701606
 31
21.074008
  0
LINE
  5
508
100
AcDbEntity
  8
2
100
AcDbLine
 10
181.205147
 20
40.050177
 30
21.074008
 11
182.158581
 21
41.701606
 31
21.074008
  0
LINE
  5
509
100
AcDbEntity
  8
3
100
AcDbLine
 10
187.158581
 20
43.0
 30
21.074008
 11
187.158581
 21
41.5
 31
21.074008
  0
LINE
  5
50A
100
AcDbEntity
  8
2
100
AcDbLine
 10
182.158581
 20
57.290063
 30
21.074008
 11
185.049985
 21
56.702455
 31
21.074008
  0
LINE
  5
50B
100
AcDbEntity
  8
3
100
AcDbLine
 10
202.158581
 20
57.0
 30
21.074008
 11
202.158581
 21
45.0
 31
21.074008
  0
ARC
  5
50C
100
AcDbEntity
  8
3
100
AcDbCircle
 10
200.158581
 20
45.0
 30
21.074008
 40
2.0
100
AcDbArc
 50
270.0
 51
0.0
  0
LINE
  5
50D
100
AcDbEntity
  8
3
100
AcDbLine
 10
200.158581
 20
71.0
 30
21.074008
 11
187.158581
 21
71.0
 31
21.074008
  0
ARC
  5
50E
100
AcDbEntity
  8
3
100
AcDbCircle
 10
183.042777
 20
74.518988
 30
21.074008
 40
2.0
100
AcDbArc
 50
0.076717
 51
17.432096
  0
LINE
  5
50F
100
AcDbEntity
  8
3
100
AcDbLine
 10
187.158581
 20
71.0
 30
21.074008
 11
187.158581
 21
72.5
 31
21.074008
  0
ARC
  5
510
100
AcDbEntity
  8
3
100
AcDbCircle
 10
182.158581
 20
64.916667
 30
21.074008
 40
9.083333
100
AcDbArc
 50
56.601512
 51
71.477794
  0
LINE
  5
511
100
AcDbEntity
  8
3
100
AcDbLine
 10
185.042775
 20
74.521666
 30
21.074008
 11
185.044104
 21
73.529489
 31
21.074008
  0
ARC
  5
512
100
AcDbEntity
  8
3
100
AcDbCircle
 10
200.158581
 20
69.0
 30
21.074008
 40
2.0
100
AcDbArc
 50
0.0
 51
90.0
  0
LINE
  5
513
100
AcDbEntity
  8
3
100
AcDbLine
 10
182.158581
 20
105.5
 30
21.074008
 11
182.158581
 21
84.011049
 31
21.074008
  0
ENDBLK
  5
515
100
AcDbEntity
  8
0
100
AcDbBlockEnd
  0
BLOCK
  5
5AD
100
AcDbEntity
  8
0
100
AcDbBlockBegin
  2
*D21
 70
     1
 10
0.0
 20
0.0
 30
0.0
  3
*D21
  1

  0
LINE
  5
5A3
100
AcDbEntity
  8
0
  6
BYBLOCK
 62
     0
100
AcDbLine
 10
170.5
 20
193.0
 30
0.0
 11
170.5
 21
230.755836
 31
0.0
  0
LINE
  5
5A4
100
AcDbEntity
  8
0
  6
BYBLOCK
 62
     0
100
AcDbLine
 10
182.5
 20
193.0
 30
0.0
 11
182.5
 21
230.755836
 31
0.0
  0
LINE
  5
5A5
100
AcDbEntity
  8
0
  6
BYBLOCK
 62
     0
100
AcDbLine
 10
172.5
 20
229.755836
 30
0.0
 11
174.156567
 21
229.755836
 31
0.0
  0
LINE
  5
5A6
100
AcDbEntity
  8
0
  6
BYBLOCK
 62
     0
100
AcDbLine
 10
180.5
 20
229.755836
 30
0.0
 11
179.875
 21
229.755836
 31
0.0
  0
SOLID
  5
5A7
100
AcDbEntity
  8
0
  6
BYBLOCK
 62
     0
100
AcDbTrace
 10
172.5
 20
230.089169
 30
0.0
 11
172.5
 21
229.422502
 31
0.0
 12
170.5
 22
229.755836
 32
0.0
 13
170.5
 23
229.755836
 33
0.0
  0
SOLID
  5
5A8
100
AcDbEntity
  8
0
  6
BYBLOCK
 62
     0
100
AcDbTrace
 10
180.5
 20
230.089169
 30
0.0
 11
180.5
 21
229.422502
 31
0.0
 12
182.5
 22
229.755836
 32
0.0
 13
182.5
 23
229.755836
 33
0.0
  0
MTEXT
  5
5A9
100
AcDbEntity
  8
0
  6
BYBLOCK
 62
     0
100
AcDbMText
 10
177.448233
 20
229.755836
 30
0.0
 40
4.0
 41
0.0
 71
     5
 72
     1
  1
\A1;12
1001
ACAD
1000
MTEXTBEGIN
1070
    73
1070
     1
1070
    44
1040
1.0
1070
    74
1070
     0
1000
MTEXTEND
  0
POINT
  5
5AA
100
AcDbEntity
  8
DEFPOINTS
  6
BYBLOCK
 62
     0
100
AcDbPoint
 10
170.5
 20
192.0
 30
0.0
  0
POINT
  5
5AB
100
AcDbEntity
  8
DEFPOINTS
  6
BYBLOCK
 62
     0
100
AcDbPoint
 10
182.5
 20
192.0
 30
0.0
  0
POINT
  5
5AC
100
AcDbEntity
  8
DEFPOINTS
  6
BYBLOCK
 62
     0
100
AcDbPoint
 10
182.5
 20
229.755836
 30
0.0
  0
ENDBLK
  5
5AE
100
AcDbEntity
  8
0
100
AcDbBlockEnd
  0
BLOCK
  5
5BA
100
AcDbEntity
  8
0
100
AcDbBlockBegin
  2
*D22
 70
     1
 10
0.0
 20
0.0
 30
0.0
  3
*D22
  1

  0
LINE
  5
5B0
100
AcDbEntity
  8
0
  6
BYBLOCK
 62
     0
100
AcDbLine
 10
182.5
 20
193.0
 30
0.0
 11
182.5
 21
223.996622
 31
0.0
  0
LINE
  5
5B1
100
AcDbEntity
  8
0
  6
BYBLOCK
 62
     0
100
AcDbLine
 10
193.5
 20
166.5
 30
0.0
 11
193.5
 21
223.996622
 31
0.0
  0
LINE
  5
5B2
100
AcDbEntity
  8
0
  6
BYBLOCK
 62
     0
100
AcDbLine
 10
184.5
 20
222.996622
 30
0.0
 11
185.704993
 21
222.996622
 31
0.0
  0
LINE
  5
5B3
100
AcDbEntity
  8
0
  6
BYBLOCK
 62
     0
100
AcDbLine
 10
191.5
 20
222.996622
 30
0.0
 11
190.875
 21
222.996622
 31
0.0
  0
SOLID
  5
5B4
100
AcDbEntity
  8
0
  6
BYBLOCK
 62
     0
100
AcDbTrace
 10
184.5
 20
223.329955
 30
0.0
 11
184.5
 21
222.663288
 31
0.0
 12
182.5
 22
222.996622
 32
0.0
 13
182.5
 23
222.996622
 33
0.0
  0
SOLID
  5
5B5
100
AcDbEntity
  8
0
  6
BYBLOCK
 62
     0
100
AcDbTrace
 10
191.5
 20
223.329955
 30
0.0
 11
191.5
 21
222.663288
 31
0.0
 12
193.5
 22
222.996622
 32
0.0
 13
193.5
 23
222.996622
 33
0.0
  0
MTEXT
  5
5B6
100
AcDbEntity
  8
0
  6
BYBLOCK
 62
     0
100
AcDbMText
 10
188.329993
 20
222.996622
 30
0.0
 40
4.0
 41
0.0
 71
     5
 72
     1
  1
\A1;11
1001
ACAD
1000
MTEXTBEGIN
1070
    73
1070
     1
1070
    44
1040
1.0
1070
    74
1070
     0
1000
MTEXTEND
  0
POINT
  5
5B7
100
AcDbEntity
  8
DEFPOINTS
  6
BYBLOCK
 62
     0
100
AcDbPoint
 10
182.5
 20
192.0
 30
0.0
  0
POINT
  5
5B8
100
AcDbEntity
  8
DEFPOINTS
  6
BYBLOCK
 62
     0
100
AcDbPoint
 10
193.5
 20
165.5
 30
0.0
  0
POINT
  5
5B9
100
AcDbEntity
  8
DEFPOINTS
  6
BYBLOCK
 62
     0
100
AcDbPoint
 10
193.5
 20
222.996622
 30
0.0
  0
ENDBLK
  5
5BB
100
AcDbEntity
  8
0
100
AcDbBlockEnd
  0
BLOCK
  5
5C7
100
AcDbEntity
  8
0
100
AcDbBlockBegin
  2
*D23
 70
     1
 10
0.0
 20
0.0
 30
0.0
  3
*D23
  1

  0
LINE
  5
5BD
100
AcDbEntity
  8
0
  6
BYBLOCK
 62
     0
100
AcDbLine
 10
193.5
 20
166.5
 30
0.0
 11
193.5
 21
214.823403
 31
0.0
  0
LINE
  5
5BE
100
AcDbEntity
  8
0
  6
BYBLOCK
 62
     0
100
AcDbLine
 10
205.5
 20
164.5
 30
0.0
 11
205.5
 21
214.823403
 31
0.0
  0
LINE
  5
5BF
100
AcDbEntity
  8
0
  6
BYBLOCK
 62
     0
100
AcDbLine
 10
195.5
 20
213.823403
 30
0.0
 11
197.129171
 21
213.823403
 31
0.0
  0
LINE
  5
5C0
100
AcDbEntity
  8
0
  6
BYBLOCK
 62
     0
100
AcDbLine
 10
203.5
 20
213.823403
 30
0.0
 11
202.875
 21
213.823403
 31
0.0
  0
SOLID
  5
5C1
100
AcDbEntity
  8
0
  6
BYBLOCK
 62
     0
100
AcDbTrace
 10
195.5
 20
214.156737
 30
0.0
 11
195.5
 21
213.49007
 31
0.0
 12
193.5
 22
213.823403
 32
0.0
 13
193.5
 23
213.823403
 33
0.0
  0
SOLID
  5
5C2
100
AcDbEntity
  8
0
  6
BYBLOCK
 62
     0
100
AcDbTrace
 10
203.5
 20
214.156737
 30
0.0
 11
203.5
 21
213.49007
 31
0.0
 12
205.5
 22
213.823403
 32
0.0
 13
205.5
 23
213.823403
 33
0.0
  0
MTEXT
  5
5C3
100
AcDbEntity
  8
0
  6
BYBLOCK
 62
     0
100
AcDbMText
 10
200.420838
 20
213.823403
 30
0.0
 40
4.0
 41
0.0
 71
     5
 72
     1
  1
\A1;12
1001
ACAD
1000
MTEXTBEGIN
1070
    73
1070
     1
1070
    44
1040
1.0
1070
    74
1070
     0
1000
MTEXTEND
  0
POINT
  5
5C4
100
AcDbEntity
  8
DEFPOINTS
  6
BYBLOCK
 62
     0
100
AcDbPoint
 10
193.5
 20
165.5
 30
0.0
  0
POINT
  5
5C5
100
AcDbEntity
  8
DEFPOINTS
  6
BYBLOCK
 62
     0
100
AcDbPoint
 10
205.5
 20
163.5
 30
0.0
  0
POINT
  5
5C6
100
AcDbEntity
  8
DEFPOINTS
  6
BYBLOCK
 62
     0
100
AcDbPoint
 10
205.5
 20
213.823403
 30
0.0
  0
ENDBLK
  5
5C8
100
AcDbEntity
  8
0
100
AcDbBlockEnd
  0
BLOCK
  5
5D4
100
AcDbEntity
  8
0
100
AcDbBlockBegin
  2
*D24
 70
     1
 10
0.0
 20
0.0
 30
0.0
  3
*D24
  1

  0
LINE
  5
5CA
100
AcDbEntity
  8
0
  6
BYBLOCK
 62
     0
100
AcDbLine
 10
170.5
 20
193.0
 30
0.0
 11
146.221121
 21
193.0
 31
0.0
  0
LINE
  5
5CB
100
AcDbEntity
  8
0
  6
BYBLOCK
 62
     0
100
AcDbLine
 10
170.5
 20
113.0
 30
0.0
 11
146.221121
 21
113.0
 31
0.0
  0
LINE
  5
5CC
100
AcDbEntity
  8
0
  6
BYBLOCK
 62
     0
100
AcDbLine
 10
147.221121
 20
191.0
 30
0.0
 11
147.221121
 21
156.374079
 31
0.0
  0
LINE
  5
5CD
100
AcDbEntity
  8
0
  6
BYBLOCK
 62
     0
100
AcDbLine
 10
147.221121
 20
115.0
 30
0.0
 11
147.221121
 21
149.124079
 31
0.0
  0
SOLID
  5
5CE
100
AcDbEntity
  8
0
  6
BYBLOCK
 62
     0
100
AcDbTrace
 10
146.887788
 20
191.0
 30
0.0
 11
147.554455
 21
191.0
 31
0.0
 12
147.221121
 22
193.0
 32
0.0
 13
147.221121
 23
193.0
 33
0.0
  0
SOLID
  5
5CF
100
AcDbEntity
  8
0
  6
BYBLOCK
 62
     0
100
AcDbTrace
 10
146.887788
 20
115.0
 30
0.0
 11
147.554455
 21
115.0
 31
0.0
 12
147.221121
 22
113.0
 32
0.0
 13
147.221121
 23
113.0
 33
0.0
  0
MTEXT
  5
5D0
100
AcDbEntity
  8
0
  6
BYBLOCK
 62
     0
100
AcDbMText
 10
147.221121
 20
152.749079
 30
0.0
 40
4.0
 41
0.0
 71
     5
 72
     1
  1
\A1;80
 11
0.0
 21
1.0
 31
0.0
1001
ACAD
1000
MTEXTBEGIN
1070
    73
1070
     1
1070
    44
1040
1.0
1070
    74
1070
     0
1000
MTEXTEND
  0
POINT
  5
5D1
100
AcDbEntity
  8
DEFPOINTS
  6
BYBLOCK
 62
     0
100
AcDbPoint
 10
171.5
 20
193.0
 30
0.0
  0
POINT
  5
5D2
100
AcDbEntity
  8
DEFPOINTS
  6
BYBLOCK
 62
     0
100
AcDbPoint
 10
171.5
 20
113.0
 30
0.0
  0
POINT
  5
5D3
100
AcDbEntity
  8
DEFPOINTS
  6
BYBLOCK
 62
     0
100
AcDbPoint
 10
147.221121
 20
113.0
 30
0.0
  0
ENDBLK
  5
5D5
100
AcDbEntity
  8
0
100
AcDbBlockEnd
  0
BLOCK
  5
5E1
100
AcDbEntity
  8
0
100
AcDbBlockBegin
  2
*D25
 70
     1
 10
0.0
 20
0.0
 30
0.0
  3
*D25
  1

  0
LINE
  5
5D7
100
AcDbEntity
  8
0
  6
BYBLOCK
 62
     0
100
AcDbLine
 10
184.5
 20
140.0
 30
0.0
 11
184.5
 21
98.158169
 31
0.0
  0
LINE
  5
5D8
100
AcDbEntity
  8
0
  6
BYBLOCK
 62
     0
100
AcDbLine
 10
205.5
 20
141.5
 30
0.0
 11
205.5
 21
98.158169
 31
0.0
  0
LINE
  5
5D9
100
AcDbEntity
  8
0
  6
BYBLOCK
 62
     0
100
AcDbLine
 10
186.5
 20
99.158169
 30
0.0
 11
191.567382
 21
99.158169
 31
0.0
  0
LINE
  5
5DA
100
AcDbEntity
  8
0
  6
BYBLOCK
 62
     0
100
AcDbLine
 10
203.5
 20
99.158169
 30
0.0
 11
198.150716
 21
99.158169
 31
0.0
  0
SOLID
  5
5DB
100
AcDbEntity
  8
0
  6
BYBLOCK
 62
     0
100
AcDbTrace
 10
186.5
 20
99.491502
 30
0.0
 11
186.5
 21
98.824835
 31
0.0
 12
184.5
 22
99.158169
 32
0.0
 13
184.5
 23
99.158169
 33
0.0
  0
SOLID
  5
5DC
100
AcDbEntity
  8
0
  6
BYBLOCK
 62
     0
100
AcDbTrace
 10
203.5
 20
99.491502
 30
0.0
 11
203.5
 21
98.824835
 31
0.0
 12
205.5
 22
99.158169
 32
0.0
 13
205.5
 23
99.158169
 33
0.0
  0
MTEXT
  5
5DD
100
AcDbEntity
  8
0
  6
BYBLOCK
 62
     0
100
AcDbMText
 10
194.859049
 20
99.158169
 30
0.0
 40
4.0
 41
0.0
 71
     5
 72
     1
  1
\A1;21
1001
ACAD
1000
MTEXTBEGIN
1070
    73
1070
     1
1070
    44
1040
1.0
1070
    74
1070
     0
1000
MTEXTEND
  0
POINT
  5
5DE
100
AcDbEntity
  8
DEFPOINTS
  6
BYBLOCK
 62
     0
100
AcDbPoint
 10
184.5
 20
141.0
 30
0.0
  0
POINT
  5
5DF
100
AcDbEntity
  8
DEFPOINTS
  6
BYBLOCK
 62
     0
100
AcDbPoint
 10
205.5
 20
142.5
 30
0.0
  0
POINT
  5
5E0
100
AcDbEntity
  8
DEFPOINTS
  6
BYBLOCK
 62
     0
100
AcDbPoint
 10
205.5
 20
99.158169
 30
0.0
  0
ENDBLK
  5
5E2
100
AcDbEntity
  8
0
100
AcDbBlockEnd
  0
BLOCK
  5
646
100
AcDbEntity
  8
0
100
AcDbBlockBegin
  2
A$C424615F3
 70
     0
 10
0.0
 20
0.0
 30
0.0
  3
A$C424615F3
  1

  0
DIMENSION
  5
5E4
100
AcDbEntity
  8
0
100
AcDbDimension
  2
*D25
 10
184.955672
 20
2.0
 30
10.15517
 11
174.314721
 21
2.0
 31
10.15517
 12
-20.544328
 22
-97.158169
 32
10.15517
 70
   128
  3
STANDARD
100
AcDbAlignedDimension
 13
163.955672
 23
43.841831
 33
10.15517
 14
184.955672
 24
45.341831
 34
10.15517
100
AcDbRotatedDimension
1001
ACAD
1000
DSTYLE
1002
{
1070
   140
1040
4.0
1070
    77
1070
     0
1070
    40
1040
1.0
1070
   141
1040
0.0
1070
    41
1040
2.0
1002
}
  0
DIMENSION
  5
5E5
100
AcDbEntity
  8
0
100
AcDbDimension
  2
*D23
 10
184.955672
 20
116.665234
 30
10.15517
 11
179.87651
 21
116.665234
 31
10.15517
 12
-20.544328
 22
-97.158169
 32
10.15517
 70
   128
  3
STANDARD
100
AcDbAlignedDimension
 13
172.955672
 23
68.341831
 33
10.15517
 14
184.955672
 24
66.341831
 34
10.15517
100
AcDbRotatedDimension
1001
ACAD
1000
DSTYLE
1002
{
1070
   140
1040
4.0
1070
    77
1070
     0
1070
    40
1040
1.0
1070
   141
1040
0.0
1070
    41
1040
2.0
1002
}
  0
LINE
  5
5E6
100
AcDbEntity
  8
3
100
AcDbLine
 10
172.955672
 20
44.341831
 30
10.15517
 11
183.955672
 21
44.341831
 31
10.15517
  0
LINE
  5
5E7
100
AcDbEntity
  8
3
100
AcDbLine
 10
172.955672
 20
67.341831
 30
10.15517
 11
183.955672
 21
67.341831
 31
10.15517
  0
LINE
  5
5E8
100
AcDbEntity
  8
1
100
AcDbLine
 10
144.955672
 20
55.841831
 30
10.15517
 11
189.955672
 21
55.841831
 31
10.15517
  0
DIMENSION
  5
5E9
100
AcDbEntity
  8
0
100
AcDbDimension
  2
*D24
 10
126.676793
 20
15.841831
 30
10.15517
 11
126.676793
 21
55.59091
 31
10.15517
 12
-20.544328
 22
-97.158169
 32
10.15517
 70
   128
  3
STANDARD
100
AcDbAlignedDimension
 13
150.955672
 23
95.841831
 33
10.15517
 14
150.955672
 24
15.841831
 34
10.15517
 50
90.0
100
AcDbRotatedDimension
1001
ACAD
1000
DSTYLE
1002
{
1070
   140
1040
4.0
1070
    77
1070
     0
1070
    40
1040
1.0
1070
   141
1040
0.0
1070
    41
1040
2.0
1002
}
  0
LINE
  5
5EA
100
AcDbEntity
  8
3
100
AcDbLine
 10
161.383141
 20
33.165326
 30
10.15517
 11
161.383141
 21
40.314554
 31
10.15517
  0
LINE
  5
5EB
100
AcDbEntity
  8
3
100
AcDbLine
 10
159.955672
 20
35.841831
 30
10.15517
 11
159.955672
 21
40.314554
 31
10.15517
  0
LINE
  5
5EC
100
AcDbEntity
  8
3
100
AcDbLine
 10
149.955672
 20
55.841831
 30
10.15517
 11
149.955672
 21
16.841831
 31
10.15517
  0
LINE
  5
5ED
100
AcDbEntity
  8
3
100
AcDbLine
 10
161.955672
 20
16.841831
 30
10.15517
 11
161.955672
 21
40.609367
 31
10.15517
  0
ARC
  5
5EE
100
AcDbEntity
  8
3
100
AcDbCircle
 10
49.455672
 20
55.841831
 30
10.15517
 40
21.515774
100
AcDbArc
 50
226.192486
 51
313.807514
  0
CIRCLE
  5
5EF
100
AcDbEntity
  8
3
100
AcDbCircle
 10
49.455672
 20
55.841831
 30
10.15517
 40
23.0
  0
CIRCLE
  5
5F0
100
AcDbEntity
  8
3
100
AcDbCircle
 10
49.455672
 20
55.841831
 30
10.15517
 40
40.0
  0
LINE
  5
5F1
100
AcDbEntity
  8
1
100
AcDbLine
 10
49.455672
 20
55.841831
 30
10.15517
 11
49.455672
 21
5.841831
 31
10.15517
  0
ARC
  5
5F2
100
AcDbEntity
  8
3
100
AcDbCircle
 10
150.955672
 20
16.841831
 30
10.15517
 40
1.0
100
AcDbArc
 50
180.0
 51
270.0
  0
ARC
  5
5F3
100
AcDbEntity
  8
3
100
AcDbCircle
 10
160.955672
 20
16.841831
 30
10.15517
 40
1.0
100
AcDbArc
 50
270.0
 51
0.0
  0
LINE
  5
5F4
100
AcDbEntity
  8
3
100
AcDbLine
 10
150.955672
 20
15.841831
 30
10.15517
 11
160.955672
 21
15.841831
 31
10.15517
  0
ARC
  5
5F5
100
AcDbEntity
  8
3
100
AcDbCircle
 10
164.655672
 20
27.101831
 30
10.15517
 40
6.817448
100
AcDbArc
 50
146.729504
 51
246.668985
  0
LINE
  5
5F6
100
AcDbEntity
  8
3
100
AcDbLine
 10
149.955672
 20
32.841831
 30
10.15517
 11
159.955672
 21
35.841831
 31
10.15517
  0
LINE
  5
5F7
100
AcDbEntity
  8
3
100
AcDbLine
 10
161.383141
 20
33.165326
 30
10.15517
 11
158.955672
 21
30.841831
 31
10.15517
  0
LINE
  5
5F8
100
AcDbEntity
  8
3
100
AcDbLine
 10
159.955672
 20
35.841831
 30
10.15517
 11
161.383141
 21
33.165326
 31
10.15517
  0
ARC
  5
5F9
100
AcDbEntity
  8
3
100
AcDbCircle
 10
49.455672
 20
55.841831
 30
10.15517
 40
14.0
100
AcDbArc
 50
237.664004
 51
302.335996
  0
ARC
  5
5FA
100
AcDbEntity
  8
3
100
AcDbCircle
 10
49.455672
 20
55.841831
 30
10.15517
 40
12.864941
100
AcDbArc
 50
63.188844
 51
116.811156
  0
ARC
  5
5FB
100
AcDbEntity
  8
3
100
AcDbCircle
 10
49.455672
 20
55.841831
 30
10.15517
 40
22.608511
100
AcDbArc
 50
76.443212
 51
103.556788
  0
CIRCLE
  5
5FC
100
AcDbEntity
  8
3
100
AcDbCircle
 10
49.455672
 20
55.841831
 30
10.15517
 40
12.0
  0
LINE
  5
5FD
100
AcDbEntity
  8
1
100
AcDbLine
 10
-0.544328
 20
55.841831
 30
10.15517
 11
99.455672
 21
55.841831
 31
10.15517
  0
LINE
  5
5FE
100
AcDbEntity
  8
1
100
AcDbLine
 10
49.455672
 20
55.841831
 30
10.15517
 11
49.455672
 21
105.341831
 31
10.15517
  0
ARC
  5
5FF
100
AcDbEntity
  8
3
100
AcDbCircle
 10
49.455672
 20
55.841831
 30
10.15517
 40
21.515774
100
AcDbArc
 50
106.192486
 51
193.807514
  0
ARC
  5
600
100
AcDbEntity
  8
3
100
AcDbCircle
 10
49.455672
 20
55.841831
 30
10.15517
 40
14.0
100
AcDbArc
 50
117.664004
 51
182.335996
  0
LINE
  5
601
100
AcDbEntity
  8
3
100
AcDbLine
 10
34.561639
 20
40.314554
 30
10.15517
 11
41.967306
 21
44.012868
 31
10.15517
  0
LINE
  5
602
100
AcDbEntity
  8
3
100
AcDbLine
 10
42.413399
 20
45.075536
 30
10.15517
 11
33.07147
 21
40.262913
 31
10.15517
  0
ARC
  5
603
100
AcDbEntity
  8
3
100
AcDbCircle
 10
49.455672
 20
55.841831
 30
10.15517
 40
12.864941
100
AcDbArc
 50
183.188844
 51
236.811156
  0
ARC
  5
604
100
AcDbEntity
  8
3
100
AcDbCircle
 10
49.455672
 20
55.841831
 30
10.15517
 40
22.608511
100
AcDbArc
 50
196.443212
 51
223.556788
  0
LINE
  5
605
100
AcDbEntity
  8
3
100
AcDbLine
 10
33.07147
 20
40.262913
 30
10.15517
 11
34.561639
 21
40.314554
 31
10.15517
  0
LINE
  5
606
100
AcDbEntity
  8
3
100
AcDbLine
 10
35.467306
 20
55.271198
 30
10.15517
 11
28.561639
 21
50.706859
 31
10.15517
  0
LINE
  5
607
100
AcDbEntity
  8
3
100
AcDbLine
 10
27.771832
 20
49.442155
 30
10.15517
 11
36.61065
 21
55.126192
 31
10.15517
  0
LINE
  5
608
100
AcDbEntity
  8
3
100
AcDbLine
 10
28.561639
 20
50.706859
 30
10.15517
 11
27.771832
 21
49.442155
 31
10.15517
  0
LINE
  5
609
100
AcDbEntity
  8
3
100
AcDbLine
 10
36.61065
 20
55.126192
 30
10.15517
 11
35.467306
 21
55.271198
 31
10.15517
  0
LINE
  5
60A
100
AcDbEntity
  8
3
100
AcDbLine
 10
41.967306
 20
44.012868
 30
10.15517
 11
42.413399
 21
45.075536
 31
10.15517
  0
LINE
  5
60B
100
AcDbEntity
  8
3
100
AcDbLine
 10
43.652923
 20
67.323766
 30
10.15517
 11
44.156033
 21
77.820425
 31
10.15517
  0
LINE
  5
60C
100
AcDbEntity
  8
3
100
AcDbLine
 10
43.455672
 20
76.50408
 30
10.15517
 11
42.955672
 21
68.241428
 31
10.15517
  0
LINE
  5
60D
100
AcDbEntity
  8
3
100
AcDbLine
 10
42.955672
 20
68.241428
 30
10.15517
 11
43.652923
 21
67.323766
 31
10.15517
  0
LINE
  5
60E
100
AcDbEntity
  8
3
100
AcDbLine
 10
44.156033
 20
77.820425
 30
10.15517
 11
43.455672
 21
76.50408
 31
10.15517
  0
DIMENSION
  5
60F
100
AcDbEntity
  8
0
100
AcDbDimension
  2
*D22
 10
172.955672
 20
125.838453
 30
10.15517
 11
167.785665
 21
125.838453
 31
10.15517
 12
-20.544328
 22
-97.158169
 32
10.15517
 70
   128
  3
STANDARD
100
AcDbAlignedDimension
 13
161.955672
 23
94.841831
 33
10.15517
 14
172.955672
 24
68.341831
 34
10.15517
100
AcDbRotatedDimension
1001
ACAD
1000
DSTYLE
1002
{
1070
   140
1040
4.0
1070
    77
1070
     0
1070
    40
1040
1.0
1070
   141
1040
0.0
1070
    41
1040
2.0
1002
}
  0
DIMENSION
  5
610
100
AcDbEntity
  8
0
100
AcDbDimension
  2
*D21
 10
161.955672
 20
132.597667
 30
10.15517
 11
156.903905
 21
132.597667
 31
10.15517
 12
-20.544328
 22
-97.158169
 32
10.15517
 70
   128
  3
STANDARD
100
AcDbAlignedDimension
 13
149.955672
 23
94.841831
 33
10.15517
 14
161.955672
 24
94.841831
 34
10.15517
100
AcDbRotatedDimension
1001
ACAD
1000
DSTYLE
1002
{
1070
   140
1040
4.0
1070
    77
1070
     0
1070
    40
1040
1.0
1070
   141
1040
0.0
1070
    41
1040
2.0
1002
}
  0
ARC
  5
611
100
AcDbEntity
  8
3
100
AcDbCircle
 10
49.455672
 20
55.841831
 30
10.15517
 40
21.515774
100
AcDbArc
 50
346.192486
 51
73.807514
  0
ARC
  5
612
100
AcDbEntity
  8
3
100
AcDbCircle
 10
49.455672
 20
55.841831
 30
10.15517
 40
14.0
100
AcDbArc
 50
357.664004
 51
62.335996
  0
LINE
  5
613
100
AcDbEntity
  8
3
100
AcDbLine
 10
70.349705
 20
50.706859
 30
10.15517
 11
63.444038
 21
55.271198
 31
10.15517
  0
LINE
  5
614
100
AcDbEntity
  8
3
100
AcDbLine
 10
62.300693
 20
55.126192
 30
10.15517
 11
71.139512
 21
49.442155
 31
10.15517
  0
ARC
  5
615
100
AcDbEntity
  8
3
100
AcDbCircle
 10
49.455672
 20
55.841831
 30
10.15517
 40
22.608511
100
AcDbArc
 50
316.443212
 51
343.556788
  0
ARC
  5
616
100
AcDbEntity
  8
3
100
AcDbCircle
 10
49.455672
 20
55.841831
 30
10.15517
 40
12.864941
100
AcDbArc
 50
303.188844
 51
356.811156
  0
LINE
  5
617
100
AcDbEntity
  8
3
100
AcDbLine
 10
56.944038
 20
44.012868
 30
10.15517
 11
64.349705
 21
40.314554
 31
10.15517
  0
LINE
  5
618
100
AcDbEntity
  8
3
100
AcDbLine
 10
65.839874
 20
40.262913
 30
10.15517
 11
56.497944
 21
45.075536
 31
10.15517
  0
LINE
  5
619
100
AcDbEntity
  8
3
100
AcDbLine
 10
56.497944
 20
45.075536
 30
10.15517
 11
56.944038
 21
44.012868
 31
10.15517
  0
LINE
  5
61A
100
AcDbEntity
  8
3
100
AcDbLine
 10
64.349705
 20
40.314554
 30
10.15517
 11
65.839874
 21
40.262913
 31
10.15517
  0
LINE
  5
61B
100
AcDbEntity
  8
3
100
AcDbLine
 10
63.444038
 20
55.271198
 30
10.15517
 11
62.300693
 21
55.126192
 31
10.15517
  0
LINE
  5
61C
100
AcDbEntity
  8
3
100
AcDbLine
 10
71.139512
 20
49.442155
 30
10.15517
 11
70.349705
 21
50.706859
 31
10.15517
  0
LINE
  5
61D
100
AcDbEntity
  8
3
100
AcDbLine
 10
54.75531
 20
77.820425
 30
10.15517
 11
55.25842
 21
67.323766
 31
10.15517
  0
LINE
  5
61E
100
AcDbEntity
  8
3
100
AcDbLine
 10
55.955672
 20
68.241428
 30
10.15517
 11
55.455672
 21
76.50408
 31
10.15517
  0
LINE
  5
61F
100
AcDbEntity
  8
3
100
AcDbLine
 10
55.25842
 20
67.323766
 30
10.15517
 11
55.955672
 21
68.241428
 31
10.15517
  0
LINE
  5
620
100
AcDbEntity
  8
3
100
AcDbLine
 10
55.455672
 20
76.50408
 30
10.15517
 11
54.75531
 21
77.820425
 31
10.15517
  0
LINE
  5
621
100
AcDbEntity
  8
3
100
AcDbLine
 10
161.955672
 20
94.841831
 30
10.15517
 11
161.955672
 21
77.970329
 31
10.15517
  0
LINE
  5
622
100
AcDbEntity
  8
3
100
AcDbLine
 10
149.955672
 20
55.841831
 30
10.15517
 11
149.955672
 21
94.841831
 31
10.15517
  0
LINE
  5
623
100
AcDbEntity
  8
3
100
AcDbLine
 10
161.383141
 20
52.858603
 30
10.15517
 11
161.383141
 21
72.32211
 31
10.15517
  0
LINE
  5
624
100
AcDbEntity
  8
3
100
AcDbLine
 10
159.955672
 20
52.035844
 30
10.15517
 11
159.955672
 21
73.530973
 31
10.15517
  0
LINE
  5
625
100
AcDbEntity
  8
1
100
AcDbLine
 10
167.955672
 20
39.341831
 30
10.15517
 11
167.955672
 21
73.841831
 31
10.15517
  0
LINE
  5
626
100
AcDbEntity
  8
3
100
AcDbLine
 10
161.955672
 20
71.837258
 30
10.15517
 11
161.955672
 21
55.841831
 31
10.15517
  0
LINE
  5
627
100
AcDbEntity
  8
3
100
AcDbLine
 10
172.955672
 20
55.841831
 30
10.15517
 11
172.955672
 21
68.341831
 31
10.15517
  0
LINE
  5
628
100
AcDbEntity
  8
3
100
AcDbLine
 10
163.955672
 20
55.841831
 30
10.15517
 11
163.955672
 21
67.841831
 31
10.15517
  0
LINE
  5
629
100
AcDbEntity
  8
3
100
AcDbLine
 10
161.383141
 20
40.314554
 30
10.15517
 11
165.637377
 21
42.505189
 31
10.15517
  0
LINE
  5
62A
100
AcDbEntity
  8
3
100
AcDbLine
 10
155.455672
 20
40.314554
 30
10.15517
 11
163.955672
 21
44.418145
 31
10.15517
  0
LINE
  5
62B
100
AcDbEntity
  8
3
100
AcDbLine
 10
155.455672
 20
49.442155
 30
10.15517
 11
163.955672
 21
54.341346
 31
10.15517
  0
LINE
  5
62C
100
AcDbEntity
  8
3
100
AcDbLine
 10
155.455672
 20
49.442155
 30
10.15517
 11
155.455672
 21
40.314554
 31
10.15517
  0
LINE
  5
62D
100
AcDbEntity
  8
3
100
AcDbLine
 10
155.455672
 20
40.314554
 30
10.15517
 11
161.383141
 21
40.314554
 31
10.15517
  0
LINE
  5
62E
100
AcDbEntity
  8
2
100
AcDbLine
 10
165.317364
 20
55.126192
 30
10.15517
 11
165.317364
 21
45.075536
 31
10.15517
  0
LINE
  5
62F
100
AcDbEntity
  8
2
100
AcDbLine
 10
170.629016
 20
45.075536
 30
10.15517
 11
170.629016
 21
55.126192
 31
10.15517
  0
LINE
  5
630
100
AcDbEntity
  8
3
100
AcDbLine
 10
163.955672
 20
55.841831
 30
10.15517
 11
163.955672
 21
43.841831
 31
10.15517
  0
LINE
  5
631
100
AcDbEntity
  8
3
100
AcDbLine
 10
172.955672
 20
55.841831
 30
10.15517
 11
172.955672
 21
43.341831
 31
10.15517
  0
LINE
  5
632
100
AcDbEntity
  8
2
100
AcDbLine
 10
165.637377
 20
42.505189
 30
10.15517
 11
170.629016
 21
45.075536
 31
10.15517
  0
LINE
  5
633
100
AcDbEntity
  8
2
100
AcDbLine
 10
167.955672
 20
44.012868
 30
10.15517
 11
170.629016
 21
45.075536
 31
10.15517
  0
ARC
  5
634
100
AcDbEntity
  8
3
100
AcDbCircle
 10
168.705672
 20
48.091831
 30
10.15517
 40
6.373774
100
AcDbArc
 50
221.82017
 51
311.82017
  0
LINE
  5
635
100
AcDbEntity
  8
2
100
AcDbLine
 10
165.317364
 20
45.075536
 30
10.15517
 11
167.955672
 21
44.012868
 31
10.15517
  0
LINE
  5
636
100
AcDbEntity
  8
2
100
AcDbLine
 10
163.955672
 20
44.418145
 30
10.15517
 11
165.317364
 21
45.075536
 31
10.15517
  0
LINE
  5
637
100
AcDbEntity
  8
2
100
AcDbLine
 10
170.629016
 20
55.126192
 30
10.15517
 11
167.955672
 21
55.271198
 31
10.15517
  0
LINE
  5
638
100
AcDbEntity
  8
3
100
AcDbLine
 10
161.955672
 20
53.188595
 30
10.15517
 11
161.955672
 21
55.841831
 31
10.15517
  0
LINE
  5
639
100
AcDbEntity
  8
2
100
AcDbLine
 10
167.955672
 20
55.271198
 30
10.15517
 11
165.317364
 21
55.126192
 31
10.15517
  0
LINE
  5
63A
100
AcDbEntity
  8
2
100
AcDbLine
 10
163.955672
 20
54.341346
 30
10.15517
 11
165.317364
 21
55.126192
 31
10.15517
  0
LINE
  5
63B
100
AcDbEntity
  8
3
100
AcDbLine
 10
165.317364
 20
68.990384
 30
10.15517
 11
155.455672
 21
77.341831
 31
10.15517
  0
LINE
  5
63C
100
AcDbEntity
  8
3
100
AcDbLine
 10
155.455672
 20
77.341831
 30
10.15517
 11
149.955672
 21
78.841831
 31
10.15517
  0
ARC
  5
63D
100
AcDbEntity
  8
3
100
AcDbCircle
 10
168.705672
 20
63.591831
 30
10.15517
 40
6.373774
100
AcDbArc
 50
48.17983
 51
138.17983
  0
LINE
  5
63E
100
AcDbEntity
  8
3
100
AcDbLine
 10
170.629016
 20
69.668487
 30
10.15517
 11
161.955672
 21
77.970329
 31
10.15517
  0
ARC
  5
63F
100
AcDbEntity
  8
3
100
AcDbCircle
 10
160.955672
 20
94.841831
 30
10.15517
 40
1.0
100
AcDbArc
 50
0.0
 51
90.0
  0
LINE
  5
640
100
AcDbEntity
  8
3
100
AcDbLine
 10
150.955672
 20
95.841831
 30
10.15517
 11
160.955672
 21
95.841831
 31
10.15517
  0
ARC
  5
641
100
AcDbEntity
  8
3
100
AcDbCircle
 10
150.955672
 20
94.841831
 30
10.15517
 40
1.0
100
AcDbArc
 50
90.0
 51
180.0
  0
LINE
  5
642
100
AcDbEntity
  8
3
100
AcDbLine
 10
184.955672
 20
66.341831
 30
10.15517
 11
184.955672
 21
55.841831
 31
10.15517
  0
LINE
  5
643
100
AcDbEntity
  8
3
100
AcDbLine
 10
184.955672
 20
45.341831
 30
10.15517
 11
184.955672
 21
55.841831
 31
10.15517
  0
ARC
  5
644
100
AcDbEntity
  8
3
100
AcDbCircle
 10
183.955672
 20
45.341831
 30
10.15517
 40
1.0
100
AcDbArc
 50
270.0
 51
0.0
  0
ARC
  5
645
100
AcDbEntity
  8
3
100
AcDbCircle
 10
183.955672
 20
66.341831
 30
10.15517
 40
1.0
100
AcDbArc
 50
0.0
 51
90.0
  0
ENDBLK
  5
647
100
AcDbEntity
  8
0
100
AcDbBlockEnd
  0
BLOCK
  5
7A8
100
AcDbEntity
  8
0
100
AcDbBlockBegin
  2
A$C2DA60589
 70
     0
 10
0.0
 20
0.0
 30
0.0
  3
A$C2DA60589
  1

  0
TEXT
  5
726
100
AcDbEntity
  8
3
100
AcDbText
 10
93.551473
 20
57.207804
 30
10.716369
 40
4.9
  1
K/KN-125
 50
330.0
 41
0.7
  7
BIGFONT
100
AcDbText
  0
ARC
  5
727
100
AcDbEntity
  8
3
100
AcDbCircle
 10
71.925591
 20
70.0
 30
10.716369
 40
62.5
100
AcDbArc
 50
270.0
 51
90.0
  0
ARC
  5
728
100
AcDbEntity
  8
3
100
AcDbCircle
 10
71.925591
 20
70.0
 30
10.716369
 40
57.5
100
AcDbArc
 50
270.0
 51
90.0
  0
LINE
  5
729
100
AcDbEntity
  8
1
100
AcDbLine
 10
71.925591
 20
70.0
 30
10.716369
 11
131.576612
 21
35.560467
 31
10.716369
  0
LINE
  5
72A
100
AcDbEntity
  8
1
100
AcDbLine
 10
71.925591
 20
70.0
 30
10.716369
 11
12.213295
 21
35.52509
 31
10.716369
  0
LINE
  5
72B
100
AcDbEntity
  8
3
100
AcDbLine
 10
103.738037
 20
41.818122
 30
10.716369
 11
83.400572
 21
52.405262
 31
10.716369
  0
LINE
  5
72C
100
AcDbEntity
  8
3
100
AcDbLine
 10
105.697182
 20
41.841709
 30
10.716369
 11
83.351718
 21
53.588168
 31
10.716369
  0
LINE
  5
72D
100
AcDbEntity
  8
3
100
AcDbLine
 10
38.56764
 20
42.080524
 30
10.716369
 11
60.499464
 21
53.588168
 31
10.716369
  0
LINE
  5
72E
100
AcDbEntity
  8
3
100
AcDbLine
 10
40.113145
 20
41.818122
 30
10.716369
 11
60.45061
 21
52.405262
 31
10.716369
  0
ARC
  5
72F
100
AcDbEntity
  8
3
100
AcDbCircle
 10
71.925591
 20
70.0
 30
10.716369
 40
43.5
100
AcDbArc
 50
200.071808
 51
219.928192
  0
ARC
  5
730
100
AcDbEntity
  8
3
100
AcDbCircle
 10
71.925591
 20
70.0
 30
10.716369
 40
45.5
100
AcDbArc
 50
90.0
 51
270.0
  0
ARC
  5
731
100
AcDbEntity
  8
3
100
AcDbCircle
 10
71.925591
 20
70.0
 30
10.716369
 40
62.5
100
AcDbArc
 50
90.0
 51
270.0
  0
LINE
  5
732
100
AcDbEntity
  8
1
100
AcDbLine
 10
71.925591
 20
70.0
 30
10.716369
 11
71.925591
 21
0.0
 31
10.716369
  0
ARC
  5
733
100
AcDbEntity
  8
3
100
AcDbCircle
 10
71.925591
 20
70.0
 30
10.716369
 40
42.5
100
AcDbArc
 50
221.536959
 51
270.0
  0
LINE
  5
734
100
AcDbEntity
  8
3
100
AcDbLine
 10
40.113145
 20
41.818122
 30
10.716369
 11
38.56764
 21
42.080524
 31
10.716369
  0
ARC
  5
735
100
AcDbEntity
  8
3
100
AcDbCircle
 10
71.925591
 20
70.0
 30
10.716369
 40
43.970555
100
AcDbArc
 50
270.0
 51
320.179114
  0
ARC
  5
736
100
AcDbEntity
  8
3
100
AcDbCircle
 10
71.925591
 20
70.0
 30
10.716369
 40
42.5
100
AcDbArc
 50
270.0
 51
318.463041
  0
LINE
  5
737
100
AcDbEntity
  8
3
100
AcDbLine
 10
103.738037
 20
41.818122
 30
10.716369
 11
105.697182
 21
41.841709
 31
10.716369
  0
LINE
  5
738
100
AcDbEntity
  8
1
100
AcDbLine
 10
53.427312
 20
124.0
 30
10.716369
 11
71.925591
 21
124.0
 31
10.716369
  0
ARC
  5
739
100
AcDbEntity
  8
3
100
AcDbCircle
 10
71.925591
 20
70.0
 30
10.716369
 40
21.005952
100
AcDbArc
 50
236.888312
 51
270.0
  0
ARC
  5
73A
100
AcDbEntity
  8
3
100
AcDbCircle
 10
71.925591
 20
70.0
 30
10.716369
 40
20.0
100
AcDbArc
 50
90.0
 51
270.0
  0
ARC
  5
73B
100
AcDbEntity
  8
3
100
AcDbCircle
 10
71.925591
 20
70.0
 30
10.716369
 40
18.498279
100
AcDbArc
 50
90.0
 51
270.0
  0
ARC
  5
73C
100
AcDbEntity
  8
3
100
AcDbCircle
 10
71.925591
 20
70.0
 30
10.716369
 40
43.5
100
AcDbArc
 50
90.0
 51
99.928192
  0
LINE
  5
73D
100
AcDbEntity
  8
1
100
AcDbLine
 10
-0.574409
 20
70.0
 30
10.716369
 11
71.925591
 21
70.0
 31
10.716369
  0
LINE
  5
73E
100
AcDbEntity
  8
3
100
AcDbLine
 10
63.425591
 20
111.641326
 30
10.716369
 11
62.425591
 21
88.734994
 31
10.716369
  0
LINE
  5
73F
100
AcDbEntity
  8
3
100
AcDbLine
 10
64.425591
 20
112.848571
 30
10.716369
 11
63.425591
 21
88.101232
 31
10.716369
  0
ARC
  5
740
100
AcDbEntity
  8
3
100
AcDbCircle
 10
71.925591
 20
70.0
 30
10.716369
 40
42.5
100
AcDbArc
 50
101.536959
 51
198.463041
  0
LINE
  5
741
100
AcDbEntity
  8
3
100
AcDbLine
 10
31.613145
 20
56.540553
 30
10.716369
 11
50.95061
 21
68.859745
 31
10.716369
  0
LINE
  5
742
100
AcDbEntity
  8
3
100
AcDbLine
 10
31.06764
 20
55.070906
 30
10.716369
 11
51.999464
 21
68.3106
 31
10.716369
  0
LINE
  5
743
100
AcDbEntity
  8
3
100
AcDbLine
 10
31.613145
 20
56.540553
 30
10.716369
 11
31.06764
 21
55.070906
 31
10.716369
  0
ARC
  5
744
100
AcDbEntity
  8
3
100
AcDbCircle
 10
71.925591
 20
70.0
 30
10.716369
 40
21.005952
100
AcDbArc
 50
116.888312
 51
183.111688
  0
LINE
  5
745
100
AcDbEntity
  8
3
100
AcDbLine
 10
50.95061
 20
68.859745
 30
10.716369
 11
51.999464
 21
68.3106
 31
10.716369
  0
LINE
  5
746
100
AcDbEntity
  8
3
100
AcDbLine
 10
60.45061
 20
52.405262
 30
10.716369
 11
60.499464
 21
53.588168
 31
10.716369
  0
LINE
  5
747
100
AcDbEntity
  8
3
100
AcDbLine
 10
62.425591
 20
88.734994
 30
10.716369
 11
63.425591
 21
88.101232
 31
10.716369
  0
LINE
  5
748
100
AcDbEntity
  8
3
100
AcDbLine
 10
63.425591
 20
111.641326
 30
10.716369
 11
64.425591
 21
112.848571
 31
10.716369
  0
LINE
  5
749
100
AcDbEntity
  8
1
100
AcDbLine
 10
71.925591
 20
70.0
 30
10.716369
 11
71.925591
 21
140.0
 31
10.716369
  0
LINE
  5
74A
100
AcDbEntity
  8
1
100
AcDbLine
 10
71.925591
 20
70.0
 30
10.716369
 11
139.637419
 21
70.0
 31
10.716369
  0
ARC
  5
74B
100
AcDbEntity
  8
3
100
AcDbCircle
 10
71.925591
 20
70.0
 30
10.716369
 40
43.970555
100
AcDbArc
 50
339.820886
 51
80.179114
  0
LINE
  5
74C
100
AcDbEntity
  8
3
100
AcDbLine
 10
80.425591
 20
111.641326
 30
10.716369
 11
81.425591
 21
88.734994
 31
10.716369
  0
LINE
  5
74D
100
AcDbEntity
  8
3
100
AcDbLine
 10
79.425591
 20
113.326202
 30
10.716369
 11
80.425591
 21
88.101232
 31
10.716369
  0
ARC
  5
74E
100
AcDbEntity
  8
3
100
AcDbCircle
 10
71.925591
 20
70.0
 30
10.716369
 40
42.5
100
AcDbArc
 50
341.536959
 51
78.463041
  0
LINE
  5
74F
100
AcDbEntity
  8
3
100
AcDbLine
 10
112.238037
 20
56.540553
 30
10.716369
 11
92.900572
 21
68.859745
 31
10.716369
  0
LINE
  5
750
100
AcDbEntity
  8
3
100
AcDbLine
 10
113.197182
 20
54.83209
 30
10.716369
 11
91.851718
 21
68.3106
 31
10.716369
  0
ARC
  5
751
100
AcDbEntity
  8
3
100
AcDbCircle
 10
71.925591
 20
70.0
 30
10.716369
 40
20.0
100
AcDbArc
 50
270.0
 51
90.0
  0
ARC
  5
752
100
AcDbEntity
  8
3
100
AcDbCircle
 10
71.925591
 20
70.0
 30
10.716369
 40
18.498279
100
AcDbArc
 50
270.0
 51
90.0
  0
ARC
  5
753
100
AcDbEntity
  8
3
100
AcDbCircle
 10
71.925591
 20
70.0
 30
10.716369
 40
21.005952
100
AcDbArc
 50
356.888312
 51
63.111688
  0
ARC
  5
754
100
AcDbEntity
  8
3
100
AcDbCircle
 10
71.925591
 20
70.0
 30
10.716369
 40
21.005952
100
AcDbArc
 50
270.0
 51
303.111688
  0
LINE
  5
755
100
AcDbEntity
  8
3
100
AcDbLine
 10
83.400572
 20
52.405262
 30
10.716369
 11
83.351718
 21
53.588168
 31
10.716369
  0
LINE
  5
756
100
AcDbEntity
  8
3
100
AcDbLine
 10
83.400572
 20
52.405262
 30
10.716369
 11
83.351718
 21
53.588168
 31
10.716369
  0
LINE
  5
757
100
AcDbEntity
  8
3
100
AcDbLine
 10
92.900572
 20
68.859745
 30
10.716369
 11
91.851718
 21
68.3106
 31
10.716369
  0
LINE
  5
758
100
AcDbEntity
  8
3
100
AcDbLine
 10
92.900572
 20
68.859745
 30
10.716369
 11
91.851718
 21
68.3106
 31
10.716369
  0
LINE
  5
759
100
AcDbEntity
  8
3
100
AcDbLine
 10
81.425591
 20
88.734994
 30
10.716369
 11
80.425591
 21
88.101232
 31
10.716369
  0
LINE
  5
75A
100
AcDbEntity
  8
3
100
AcDbLine
 10
112.238037
 20
56.540553
 30
10.716369
 11
113.197182
 21
54.83209
 31
10.716369
  0
ARC
  5
75B
100
AcDbEntity
  8
3
100
AcDbCircle
 10
71.925591
 20
124.0
 30
10.716369
 40
9.5
100
AcDbArc
 50
270.0
 51
359.999998
  0
ARC
  5
75C
100
AcDbEntity
  8
3
100
AcDbCircle
 10
71.925591
 20
124.0
 30
10.716369
 40
8.470588
100
AcDbArc
 50
270.0
 51
359.999997
  0
LINE
  5
75D
100
AcDbEntity
  8
3
100
AcDbLine
 10
80.425591
 20
111.641326
 30
10.716369
 11
79.425591
 21
113.326202
 31
10.716369
  0
LINE
  5
75E
100
AcDbEntity
  8
1
100
AcDbLine
 10
71.925591
 20
124.0
 30
10.716369
 11
87.925591
 21
124.0
 31
10.716369
  0
ARC
  5
75F
100
AcDbEntity
  8
3
100
AcDbCircle
 10
71.925591
 20
124.0
 30
10.716369
 40
2.0
100
AcDbArc
 50
269.999998
 51
90.000002
  0
ARC
  5
760
100
AcDbEntity
  8
3
100
AcDbCircle
 10
83.504074
 20
122.994783
 30
10.716369
 40
3.266416
100
AcDbArc
 50
82.585548
 51
162.07672
  0
ARC
  5
761
100
AcDbEntity
  8
3
100
AcDbCircle
 10
84.591661
 20
122.97262
 30
10.716369
 40
3.32859
100
AcDbArc
 50
101.543149
 51
162.021913
  0
LINE
  5
762
100
AcDbEntity
  8
2
100
AcDbLine
 10
226.253734
 20
42.080524
 30
10.716369
 11
226.253734
 21
113.750985
 31
10.716369
  0
LINE
  5
763
100
AcDbEntity
  8
3
100
AcDbLine
 10
226.303562
 20
50.618069
 30
10.716369
 11
220.134253
 21
42.080524
 31
10.716369
  0
LINE
  5
764
100
AcDbEntity
  8
3
100
AcDbLine
 10
223.743207
 20
41.818122
 30
10.716369
 11
229.763733
 21
49.159441
 31
10.716369
  0
LINE
  5
765
100
AcDbEntity
  8
3
100
AcDbLine
 10
226.253734
 20
42.080524
 30
10.716369
 11
232.365486
 21
48.994133
 31
10.716369
  0
LINE
  5
766
100
AcDbEntity
  8
3
100
AcDbLine
 10
220.134253
 20
55.070906
 30
10.716369
 11
220.134253
 21
42.080524
 31
10.716369
  0
LINE
  5
767
100
AcDbEntity
  8
3
100
AcDbLine
 10
212.425591
 20
70.0
 30
10.716369
 11
212.425591
 21
9.5
 31
10.716369
  0
LINE
  5
768
100
AcDbEntity
  8
1
100
AcDbLine
 10
232.425591
 20
70.0
 30
10.716369
 11
232.425591
 21
31.5
 31
10.716369
  0
ARC
  5
769
100
AcDbEntity
  8
3
100
AcDbCircle
 10
230.510702
 20
18.948262
 30
10.716369
 40
7.148286
100
AcDbArc
 50
144.186368
 51
244.431654
  0
LINE
  5
76A
100
AcDbEntity
  8
3
100
AcDbLine
 10
227.425591
 20
9.5
 30
10.716369
 11
227.425591
 21
43.235769
 31
10.716369
  0
LINE
  5
76B
100
AcDbEntity
  8
3
100
AcDbLine
 10
214.425591
 20
7.5
 30
10.716369
 11
225.425591
 21
7.5
 31
10.716369
  0
ARC
  5
76C
100
AcDbEntity
  8
3
100
AcDbCircle
 10
214.425591
 20
9.5
 30
10.716369
 40
2.0
100
AcDbArc
 50
180.0
 51
270.0
  0
ARC
  5
76D
100
AcDbEntity
  8
3
100
AcDbCircle
 10
225.425591
 20
9.5
 30
10.716369
 40
2.0
100
AcDbArc
 50
270.0
 51
0.0
  0
LINE
  5
76E
100
AcDbEntity
  8
3
100
AcDbLine
 10
223.743207
 20
27.5
 30
10.716369
 11
212.425591
 21
24.5
 31
10.716369
  0
LINE
  5
76F
100
AcDbEntity
  8
3
100
AcDbLine
 10
226.253734
 20
26.029445
 30
10.716369
 11
226.253734
 21
42.080524
 31
10.716369
  0
LINE
  5
770
100
AcDbEntity
  8
3
100
AcDbLine
 10
223.743207
 20
27.5
 30
10.716369
 11
223.743207
 21
41.818122
 31
10.716369
  0
LINE
  5
771
100
AcDbEntity
  8
3
100
AcDbLine
 10
223.743207
 20
27.5
 30
10.716369
 11
226.253734
 21
26.029445
 31
10.716369
  0
LINE
  5
772
100
AcDbEntity
  8
3
100
AcDbLine
 10
226.253734
 20
26.029445
 30
10.716369
 11
224.713981
 21
23.131086
 31
10.716369
  0
LINE
  5
773
100
AcDbEntity
  8
3
100
AcDbLine
 10
223.743207
 20
41.818122
 30
10.716369
 11
226.253734
 21
42.080524
 31
10.716369
  0
LINE
  5
774
100
AcDbEntity
  8
3
100
AcDbLine
 10
220.134253
 20
42.080524
 30
10.716369
 11
223.743207
 21
41.818122
 31
10.716369
  0
LINE
  5
775
100
AcDbEntity
  8
3
100
AcDbLine
 10
227.425591
 20
43.235769
 30
10.716369
 11
227.425591
 21
43.406128
 31
10.716369
  0
LINE
  5
776
100
AcDbEntity
  8
1
100
AcDbLine
 10
233.209417
 20
89.411111
 30
10.716369
 11
217.484663
 21
126.231451
 31
10.716369
  0
LINE
  5
777
100
AcDbEntity
  8
1
100
AcDbLine
 10
232.425591
 20
70.0
 30
10.716369
 11
232.425591
 21
103.052745
 31
10.716369
  0
ARC
  5
778
100
AcDbEntity
  8
3
100
AcDbCircle
 10
233.425591
 20
91.252587
 30
10.716369
 40
3.0
100
AcDbArc
 50
0.0
 51
27.979474
  0
LINE
  5
779
100
AcDbEntity
  8
3
100
AcDbLine
 10
223.743207
 20
103.846185
 30
10.716369
 11
223.743207
 21
70.0
 31
10.716369
  0
LINE
  5
77A
100
AcDbEntity
  8
3
100
AcDbLine
 10
228.16579
 20
92.069079
 30
10.716369
 11
220.134253
 21
113.456638
 31
10.716369
  0
LINE
  5
77B
100
AcDbEntity
  8
3
100
AcDbLine
 10
212.425591
 20
70.0
 30
10.716369
 11
212.425591
 21
130.5
 31
10.716369
  0
LINE
  5
77C
100
AcDbEntity
  8
2
100
AcDbLine
 10
232.425591
 20
49.062123
 30
10.716369
 11
236.425591
 21
53.586919
 31
10.716369
  0
LINE
  5
77D
100
AcDbEntity
  8
2
100
AcDbLine
 10
236.425591
 20
53.586919
 30
10.716369
 11
232.425591
 21
52.405262
 31
10.716369
  0
LINE
  5
77E
100
AcDbEntity
  8
2
100
AcDbLine
 10
232.425591
 20
68.859745
 30
10.716369
 11
236.425591
 21
68.311912
 31
10.716369
  0
ARC
  5
77F
100
AcDbEntity
  8
3
100
AcDbCircle
 10
232.425591
 20
70.497041
 30
10.716369
 40
21.502992
100
AcDbArc
 50
254.453661
 51
287.594808
  0
LINE
  5
780
100
AcDbEntity
  8
1
100
AcDbLine
 10
206.425591
 20
70.0
 30
10.716369
 11
261.925591
 21
70.0
 31
10.716369
  0
LINE
  5
781
100
AcDbEntity
  8
3
100
AcDbLine
 10
225.925591
 20
88.5
 30
10.716369
 11
225.925591
 21
51.5
 31
10.716369
  0
LINE
  5
782
100
AcDbEntity
  8
3
100
AcDbLine
 10
223.743207
 20
61.215434
 30
10.716369
 11
223.743207
 21
70.0
 31
10.716369
  0
LINE
  5
783
100
AcDbEntity
  8
3
100
AcDbLine
 10
220.134253
 20
55.070906
 30
10.716369
 11
225.925591
 21
64.31949
 31
10.716369
  0
LINE
  5
784
100
AcDbEntity
  8
2
100
AcDbLine
 10
228.425591
 20
53.586919
 30
10.716369
 11
228.425591
 21
68.311912
 31
10.716369
  0
LINE
  5
785
100
AcDbEntity
  8
2
100
AcDbLine
 10
229.763733
 20
49.159441
 30
10.716369
 11
232.425591
 21
52.405262
 31
10.716369
  0
LINE
  5
786
100
AcDbEntity
  8
2
100
AcDbLine
 10
226.303562
 20
50.618069
 30
10.716369
 11
228.425591
 21
53.586919
 31
10.716369
  0
LINE
  5
787
100
AcDbEntity
  8
3
100
AcDbLine
 10
225.925591
 20
51.5
 30
10.716369
 11
226.66241
 21
49.780757
 31
10.716369
  0
LINE
  5
788
100
AcDbEntity
  8
2
100
AcDbLine
 10
232.425591
 20
52.405262
 30
10.716369
 11
228.425591
 21
53.586919
 31
10.716369
  0
LINE
  5
789
100
AcDbEntity
  8
3
100
AcDbLine
 10
223.743207
 20
61.215434
 30
10.716369
 11
223.743207
 21
60.834291
 31
10.716369
  0
LINE
  5
78A
100
AcDbEntity
  8
2
100
AcDbLine
 10
228.425591
 20
68.311912
 30
10.716369
 11
232.425591
 21
68.859745
 31
10.716369
  0
LINE
  5
78B
100
AcDbEntity
  8
2
100
AcDbLine
 10
225.925591
 20
64.31949
 30
10.716369
 11
228.425591
 21
68.311912
 31
10.716369
  0
ARC
  5
78C
100
AcDbEntity
  8
3
100
AcDbCircle
 10
232.425591
 20
69.50296
 30
10.716369
 40
21.502992
100
AcDbArc
 50
100.720643
 51
105.546339
  0
ARC
  5
78D
100
AcDbEntity
  8
3
100
AcDbCircle
 10
225.425591
 20
90.847888
 30
10.716369
 40
3.0
100
AcDbArc
 50
0.0
 51
24.020526
  0
LINE
  5
78E
100
AcDbEntity
  8
3
100
AcDbLine
 10
225.925591
 20
88.5
 30
10.716369
 11
226.66241
 21
90.219243
 31
10.716369
  0
LINE
  5
78F
100
AcDbEntity
  8
3
100
AcDbLine
 10
228.425591
 20
90.630635
 30
10.716369
 11
228.425591
 21
90.847888
 31
10.716369
  0
LINE
  5
790
100
AcDbEntity
  8
3
100
AcDbLine
 10
253.925591
 20
70.0
 30
10.716369
 11
253.925591
 21
53.5
 31
10.716369
  0
LINE
  5
791
100
AcDbEntity
  8
3
100
AcDbLine
 10
238.925591
 20
70.0
 30
10.716369
 11
238.925591
 21
50.0
 31
10.716369
  0
LINE
  5
792
100
AcDbEntity
  8
3
100
AcDbLine
 10
251.925591
 20
51.5
 30
10.716369
 11
238.925591
 21
51.5
 31
10.716369
  0
LINE
  5
793
100
AcDbEntity
  8
2
100
AcDbLine
 10
236.425591
 20
68.311912
 30
10.716369
 11
236.425591
 21
53.586919
 31
10.716369
  0
ARC
  5
794
100
AcDbEntity
  8
3
100
AcDbCircle
 10
251.925591
 20
53.5
 30
10.716369
 40
2.0
100
AcDbArc
 50
270.000001
 51
0.0
  0
LINE
  5
795
100
AcDbEntity
  8
3
100
AcDbLine
 10
251.925591
 20
88.5
 30
10.716369
 11
238.925591
 21
88.5
 31
10.716369
  0
ARC
  5
796
100
AcDbEntity
  8
3
100
AcDbCircle
 10
232.425591
 20
69.50296
 30
10.716369
 40
21.502992
100
AcDbArc
 50
72.405192
 51
79.279357
  0
LINE
  5
797
100
AcDbEntity
  8
3
100
AcDbLine
 10
236.425591
 20
90.630635
 30
10.716369
 11
236.425591
 21
91.252587
 31
10.716369
  0
LINE
  5
798
100
AcDbEntity
  8
3
100
AcDbLine
 10
238.925591
 20
88.5
 30
10.716369
 11
238.925591
 21
90.0
 31
10.716369
  0
LINE
  5
799
100
AcDbEntity
  8
3
100
AcDbLine
 10
253.925591
 20
70.0
 30
10.716369
 11
253.925591
 21
86.5
 31
10.716369
  0
ARC
  5
79A
100
AcDbEntity
  8
3
100
AcDbCircle
 10
251.925591
 20
86.5
 30
10.716369
 40
2.0
100
AcDbArc
 50
0.0
 51
89.999999
  0
LINE
  5
79B
100
AcDbEntity
  8
3
100
AcDbLine
 10
236.074938
 20
92.660053
 30
10.716369
 11
225.425591
 21
115.529412
 31
10.716369
  0
LINE
  5
79C
100
AcDbEntity
  8
3
100
AcDbLine
 10
225.425591
 20
126.075646
 30
10.716369
 11
225.425591
 21
115.529412
 31
10.716369
  0
LINE
  5
79D
100
AcDbEntity
  8
3
100
AcDbLine
 10
227.425591
 20
130.5
 30
10.716369
 11
227.425591
 21
111.764706
 31
10.716369
  0
LINE
  5
79E
100
AcDbEntity
  8
3
100
AcDbLine
 10
220.134253
 20
113.456638
 30
10.716369
 11
212.425591
 21
115.5
 31
10.716369
  0
LINE
  5
79F
100
AcDbEntity
  8
3
100
AcDbLine
 10
227.425591
 20
111.764706
 30
10.716369
 11
227.425591
 21
111.234433
 31
10.716369
  0
LINE
  5
7A0
100
AcDbEntity
  8
1
100
AcDbLine
 10
206.925591
 20
124.0
 30
10.716369
 11
230.925591
 21
124.0
 31
10.716369
  0
LINE
  5
7A1
100
AcDbEntity
  8
3
100
AcDbLine
 10
214.425591
 20
132.5
 30
10.716369
 11
225.425591
 21
132.5
 31
10.716369
  0
ARC
  5
7A2
100
AcDbEntity
  8
3
100
AcDbCircle
 10
214.425591
 20
130.5
 30
10.716369
 40
2.0
100
AcDbArc
 50
90.0
 51
180.0
  0
ARC
  5
7A3
100
AcDbEntity
  8
3
100
AcDbCircle
 10
230.510701
 20
121.051738
 30
10.716369
 40
7.148286
100
AcDbArc
 50
115.568347
 51
135.346879
  0
LINE
  5
7A4
100
AcDbEntity
  8
3
100
AcDbLine
 10
223.425591
 20
124.0
 30
10.716369
 11
225.425591
 21
122.0
 31
10.716369
  0
LINE
  5
7A5
100
AcDbEntity
  8
3
100
AcDbLine
 10
223.425591
 20
124.0
 30
10.716369
 11
225.425591
 21
126.0
 31
10.716369
  0
LINE
  5
7A6
100
AcDbEntity
  8
3
100
AcDbLine
 10
225.425591
 20
124.0
 30
10.716369
 11
225.425591
 21
121.5
 31
10.716369
  0
ARC
  5
7A7
100
AcDbEntity
  8
3
100
AcDbCircle
 10
225.425591
 20
130.5
 30
10.716369
 40
2.0
100
AcDbArc
 50
360.0
 51
90.0
  0
ENDBLK
  5
7A9
100
AcDbEntity
  8
0
100
AcDbBlockEnd
  0
BLOCK
  5
85B
100
AcDbEntity
  8
0
100
AcDbBlockBegin
  2
*D28
 70
     1
 10
0.0
 20
0.0
 30
0.0
  3
*D28
  1

  0
LINE
  5
851
100
AcDbEntity
  8
0
  6
BYBLOCK
 62
     0
100
AcDbLine
 10
264.5
 20
221.0
 30
0.0
 11
236.106116
 21
221.0
 31
0.0
  0
LINE
  5
852
100
AcDbEntity
  8
0
  6
BYBLOCK
 62
     0
100
AcDbLine
 10
264.5
 20
81.0
 30
0.0
 11
236.106116
 21
81.0
 31
0.0
  0
LINE
  5
853
100
AcDbEntity
  8
0
  6
BYBLOCK
 62
     0
100
AcDbLine
 10
237.106116
 20
219.0
 30
0.0
 11
237.106116
 21
156.446355
 31
0.0
  0
LINE
  5
854
100
AcDbEntity
  8
0
  6
BYBLOCK
 62
     0
100
AcDbLine
 10
237.106116
 20
83.0
 30
0.0
 11
237.106116
 21
146.529689
 31
0.0
  0
SOLID
  5
855
100
AcDbEntity
  8
0
  6
BYBLOCK
 62
     0
100
AcDbTrace
 10
236.772783
 20
219.0
 30
0.0
 11
237.439449
 21
219.0
 31
0.0
 12
237.106116
 22
221.0
 32
0.0
 13
237.106116
 23
221.0
 33
0.0
  0
SOLID
  5
856
100
AcDbEntity
  8
0
  6
BYBLOCK
 62
     0
100
AcDbTrace
 10
236.772783
 20
83.0
 30
0.0
 11
237.439449
 21
83.0
 31
0.0
 12
237.106116
 22
81.0
 32
0.0
 13
237.106116
 23
81.0
 33
0.0
  0
MTEXT
  5
857
100
AcDbEntity
  8
0
  6
BYBLOCK
 62
     0
100
AcDbMText
 10
237.106116
 20
151.488022
 30
0.0
 40
4.0
 41
0.0
 71
     5
 72
     1
  1
\A1;140
 11
0.0
 21
1.0
 31
0.0
1001
ACAD
1000
MTEXTBEGIN
1070
    73
1070
     1
1070
    44
1040
1.0
1070
    74
1070
     0
1000
MTEXTEND
  0
POINT
  5
858
100
AcDbEntity
  8
DEFPOINTS
  6
BYBLOCK
 62
     0
100
AcDbPoint
 10
265.5
 20
221.0
 30
0.0
  0
POINT
  5
859
100
AcDbEntity
  8
DEFPOINTS
  6
BYBLOCK
 62
     0
100
AcDbPoint
 10
265.5
 20
81.0
 30
0.0
  0
POINT
  5
85A
100
AcDbEntity
  8
DEFPOINTS
  6
BYBLOCK
 62
     0
100
AcDbPoint
 10
237.106116
 20
81.0
 30
0.0
  0
ENDBLK
  5
85C
100
AcDbEntity
  8
0
100
AcDbBlockEnd
  0
BLOCK
  5
8BD
100
AcDbEntity
  8
0
100
AcDbBlockBegin
  2
A$C7FF44580
 70
     0
 10
0.0
 20
0.0
 30
0.0
  3
A$C7FF44580
  1

  0
ARC
  5
85E
100
AcDbEntity
  8
3
100
AcDbCircle
 10
75.588887
 20
75.0
 30
7.669859
 40
50.0
100
AcDbArc
 50
340.952784
 51
79.047216
  0
CIRCLE
  5
85F
100
AcDbEntity
  8
3
100
AcDbCircle
 10
75.588887
 20
75.0
 30
7.669859
 40
70.0
  0
LINE
  5
860
100
AcDbEntity
  8
1
100
AcDbLine
 10
-0.411113
 20
75.0
 30
7.669859
 11
150.088887
 21
75.0
 31
7.669859
  0
LINE
  5
861
100
AcDbEntity
  8
3
100
AcDbLine
 10
97.842408
 20
72.544229
 30
7.669859
 11
123.57317
 21
57.111216
 31
7.669859
  0
LINE
  5
862
100
AcDbEntity
  8
3
100
AcDbLine
 10
99.483331
 20
72.751542
 30
7.669859
 11
122.851385
 21
58.682639
 31
7.669859
  0
ARC
  5
863
100
AcDbEntity
  8
3
100
AcDbCircle
 10
75.588887
 20
75.0
 30
7.669859
 40
22.388613
100
AcDbArc
 50
306.297354
 51
353.702646
  0
LINE
  5
864
100
AcDbEntity
  8
3
100
AcDbLine
 10
51.694443
 20
72.751542
 30
7.669859
 11
28.326389
 21
58.682639
 31
7.669859
  0
LINE
  5
865
100
AcDbEntity
  8
3
100
AcDbLine
 10
53.335366
 20
72.544229
 30
7.669859
 11
27.604604
 21
57.111216
 31
7.669859
  0
ARC
  5
866
100
AcDbEntity
  8
3
100
AcDbCircle
 10
75.588887
 20
75.0
 30
7.669859
 40
22.388613
100
AcDbArc
 50
186.297354
 51
233.702646
  0
CIRCLE
  5
867
100
AcDbEntity
  8
3
100
AcDbCircle
 10
75.588887
 20
75.0
 30
7.669859
 40
22.0
  0
CIRCLE
  5
868
100
AcDbEntity
  8
3
100
AcDbCircle
 10
75.588887
 20
75.0
 30
7.669859
 40
21.0
  0
ARC
  5
869
100
AcDbEntity
  8
3
100
AcDbCircle
 10
75.588887
 20
75.0
 30
7.669859
 40
50.0
100
AcDbArc
 50
100.952784
 51
199.047216
  0
CIRCLE
  5
86A
100
AcDbEntity
  8
3
100
AcDbCircle
 10
75.588887
 20
75.0
 30
7.669859
 40
52.5
  0
LINE
  5
86B
100
AcDbEntity
  8
1
100
AcDbLine
 10
75.588887
 20
150.0
 30
7.669859
 11
75.588887
 21
0.0
 31
7.669859
  0
ARC
  5
86C
100
AcDbEntity
  8
3
100
AcDbCircle
 10
75.588887
 20
75.0
 30
7.669859
 40
50.0
100
AcDbArc
 50
220.952784
 51
319.047216
  0
ARC
  5
86D
100
AcDbEntity
  8
3
100
AcDbCircle
 10
75.588887
 20
75.0
 30
7.669859
 40
24.0
100
AcDbArc
 50
234.624318
 51
305.375682
  0
LINE
  5
86E
100
AcDbEntity
  8
3
100
AcDbLine
 10
62.335366
 20
56.955772
 30
7.669859
 11
36.104604
 21
42.388784
 31
7.669859
  0
LINE
  5
86F
100
AcDbEntity
  8
3
100
AcDbLine
 10
61.694443
 20
55.431034
 30
7.669859
 11
37.826389
 21
42.228157
 31
7.669859
  0
ARC
  5
870
100
AcDbEntity
  8
3
100
AcDbCircle
 10
75.588887
 20
75.0
 30
7.669859
 40
51.210351
100
AcDbArc
 50
200.44571
 51
219.55429
  0
LINE
  5
871
100
AcDbEntity
  8
3
100
AcDbLine
 10
37.826389
 20
42.228157
 30
7.669859
 11
36.104604
 21
42.388784
 31
7.669859
  0
LINE
  5
872
100
AcDbEntity
  8
3
100
AcDbLine
 10
28.326389
 20
58.682639
 30
7.669859
 11
27.604604
 21
57.111216
 31
7.669859
  0
LINE
  5
873
100
AcDbEntity
  8
3
100
AcDbLine
 10
61.694443
 20
55.431034
 30
7.669859
 11
62.335366
 21
56.955772
 31
7.669859
  0
LINE
  5
874
100
AcDbEntity
  8
3
100
AcDbLine
 10
89.483331
 20
55.431034
 30
7.669859
 11
113.351385
 21
42.228157
 31
7.669859
  0
LINE
  5
875
100
AcDbEntity
  8
3
100
AcDbLine
 10
88.842408
 20
56.955772
 30
7.669859
 11
115.07317
 21
42.388784
 31
7.669859
  0
LINE
  5
876
100
AcDbEntity
  8
3
100
AcDbLine
 10
89.483331
 20
55.431034
 30
7.669859
 11
88.842408
 21
56.955772
 31
7.669859
  0
ARC
  5
877
100
AcDbEntity
  8
3
100
AcDbCircle
 10
75.588887
 20
75.0
 30
7.669859
 40
51.210351
100
AcDbArc
 50
320.44571
 51
339.55429
  0
LINE
  5
878
100
AcDbEntity
  8
3
100
AcDbLine
 10
113.351385
 20
42.228157
 30
7.669859
 11
115.07317
 21
42.388784
 31
7.669859
  0
LINE
  5
879
100
AcDbEntity
  8
3
100
AcDbLine
 10
122.851385
 20
58.682639
 30
7.669859
 11
123.57317
 21
57.111216
 31
7.669859
  0
ARC
  5
87A
100
AcDbEntity
  8
3
100
AcDbCircle
 10
75.588887
 20
75.0
 30
7.669859
 40
51.210351
100
AcDbArc
 50
80.44571
 51
99.55429
  0
ARC
  5
87B
100
AcDbEntity
  8
3
100
AcDbCircle
 10
75.588887
 20
75.0
 30
7.669859
 40
22.388613
100
AcDbArc
 50
66.297354
 51
113.702646
  0
LINE
  5
87C
100
AcDbEntity
  8
3
100
AcDbLine
 10
65.588887
 20
96.817424
 30
7.669859
 11
66.088887
 21
124.089205
 31
7.669859
  0
LINE
  5
87D
100
AcDbEntity
  8
3
100
AcDbLine
 10
66.588887
 20
95.5
 30
7.669859
 11
67.088887
 21
125.5
 31
7.669859
  0
ARC
  5
87E
100
AcDbEntity
  8
3
100
AcDbCircle
 10
75.588887
 20
75.0
 30
7.669859
 40
24.0
100
AcDbArc
 50
114.624318
 51
185.375682
  0
LINE
  5
87F
100
AcDbEntity
  8
3
100
AcDbLine
 10
51.694443
 20
72.751542
 30
7.669859
 11
53.335366
 21
72.544229
 31
7.669859
  0
LINE
  5
880
100
AcDbEntity
  8
3
100
AcDbLine
 10
65.588887
 20
96.817424
 30
7.669859
 11
66.588887
 21
95.5
 31
7.669859
  0
LINE
  5
881
100
AcDbEntity
  8
3
100
AcDbLine
 10
66.088887
 20
124.089205
 30
7.669859
 11
67.088887
 21
125.5
 31
7.669859
  0
LINE
  5
882
100
AcDbEntity
  8
3
100
AcDbLine
 10
84.588887
 20
95.5
 30
7.669859
 11
84.088887
 21
125.5
 31
7.669859
  0
LINE
  5
883
100
AcDbEntity
  8
3
100
AcDbLine
 10
85.588887
 20
96.817424
 30
7.669859
 11
85.088887
 21
124.089205
 31
7.669859
  0
ARC
  5
884
100
AcDbEntity
  8
3
100
AcDbCircle
 10
75.588887
 20
75.0
 30
7.669859
 40
24.0
100
AcDbArc
 50
354.624318
 51
65.375682
  0
LINE
  5
885
100
AcDbEntity
  8
3
100
AcDbLine
 10
99.483331
 20
72.751542
 30
7.669859
 11
97.842408
 21
72.544229
 31
7.669859
  0
LINE
  5
886
100
AcDbEntity
  8
3
100
AcDbLine
 10
85.588887
 20
96.817424
 30
7.669859
 11
84.588887
 21
95.5
 31
7.669859
  0
LINE
  5
887
100
AcDbEntity
  8
3
100
AcDbLine
 10
85.088887
 20
124.089205
 30
7.669859
 11
84.088887
 21
125.5
 31
7.669859
  0
DIMENSION
  5
888
100
AcDbEntity
  8
0
100
AcDbDimension
  2
*D28
 10
170.195003
 20
5.0
 30
7.669859
 11
170.195003
 21
75.488022
 31
7.669859
 12
-66.911113
 22
-76.0
 32
7.669859
 70
   128
  3
STANDARD
100
AcDbAlignedDimension
 13
198.588887
 23
145.0
 33
7.669859
 14
198.588887
 24
5.0
 34
7.669859
 50
90.0
100
AcDbRotatedDimension
1001
ACAD
1000
DSTYLE
1002
{
1070
   140
1040
4.0
1070
    77
1070
     0
1070
    40
1040
1.0
1070
   141
1040
0.0
1070
    41
1040
2.0
1002
}
  0
LINE
  5
889
100
AcDbEntity
  8
3
100
AcDbLine
 10
205.912416
 20
56.955772
 30
7.669859
 11
209.588887
 21
66.567814
 31
7.669859
  0
LINE
  5
88A
100
AcDbEntity
  8
2
100
AcDbLine
 10
211.874782
 20
72.544229
 30
7.669859
 11
211.874782
 21
56.955772
 31
7.669859
  0
LINE
  5
88B
100
AcDbEntity
  8
2
100
AcDbLine
 10
222.585647
 20
56.955772
 30
7.669859
 11
222.585647
 21
72.544229
 31
7.669859
  0
LINE
  5
88C
100
AcDbEntity
  8
3
100
AcDbLine
 10
226.588887
 20
54.0
 30
7.669859
 11
226.588887
 21
75.0
 31
7.669859
  0
LINE
  5
88D
100
AcDbEntity
  8
3
100
AcDbLine
 10
226.588887
 20
75.0
 30
7.669859
 11
226.588887
 21
52.5
 31
7.669859
  0
LINE
  5
88E
100
AcDbEntity
  8
3
100
AcDbLine
 10
241.588887
 20
75.0
 30
7.669859
 11
241.588887
 21
56.0
 31
7.669859
  0
LINE
  5
88F
100
AcDbEntity
  8
3
100
AcDbLine
 10
209.588887
 20
52.5
 30
7.669859
 11
209.588887
 21
75.0
 31
7.669859
  0
LINE
  5
890
100
AcDbEntity
  8
3
100
AcDbLine
 10
196.588887
 20
75.0
 30
7.669859
 11
196.588887
 21
7.0
 31
7.669859
  0
ARC
  5
891
100
AcDbEntity
  8
3
100
AcDbCircle
 10
223.340664
 20
16.822191
 30
7.669859
 40
10.511494
100
AcDbArc
 50
163.765566
 51
213.634156
  0
LINE
  5
892
100
AcDbEntity
  8
3
100
AcDbLine
 10
214.588887
 20
7.0
 30
7.669859
 11
214.588887
 21
42.90534
 31
7.669859
  0
LINE
  5
893
100
AcDbEntity
  8
3
100
AcDbLine
 10
198.588887
 20
5.0
 30
7.669859
 11
212.588887
 21
5.0
 31
7.669859
  0
ARC
  5
894
100
AcDbEntity
  8
3
100
AcDbCircle
 10
198.588887
 20
7.0
 30
7.669859
 40
2.0
100
AcDbArc
 50
180.0
 51
270.0
  0
ARC
  5
895
100
AcDbEntity
  8
3
100
AcDbCircle
 10
212.588887
 20
7.0
 30
7.669859
 40
2.0
100
AcDbArc
 50
270.0
 51
0.0
  0
ARC
  5
896
100
AcDbEntity
  8
3
100
AcDbCircle
 10
218.088887
 20
88.0
 30
7.669859
 40
36.503424
100
AcDbArc
 50
256.534792
 51
283.465208
  0
LINE
  5
897
100
AcDbEntity
  8
3
100
AcDbLine
 10
214.20347
 20
23.035715
 30
7.669859
 11
214.20347
 21
42.228157
 31
7.669859
  0
LINE
  5
898
100
AcDbEntity
  8
3
100
AcDbLine
 10
211.60962
 20
26.611531
 30
7.669859
 11
211.60962
 21
42.228157
 31
7.669859
  0
LINE
  5
899
100
AcDbEntity
  8
3
100
AcDbLine
 10
205.912416
 20
25.0
 30
7.669859
 11
211.60962
 21
26.611531
 31
7.669859
  0
LINE
  5
89A
100
AcDbEntity
  8
3
100
AcDbLine
 10
196.588887
 20
22.5
 30
7.669859
 11
205.912416
 21
25.0
 31
7.669859
  0
LINE
  5
89B
100
AcDbEntity
  8
3
100
AcDbLine
 10
214.20347
 20
23.035715
 30
7.669859
 11
213.248307
 21
19.76087
 31
7.669859
  0
LINE
  5
89C
100
AcDbEntity
  8
3
100
AcDbLine
 10
211.60962
 20
26.611531
 30
7.669859
 11
214.20347
 21
23.035715
 31
7.669859
  0
LINE
  5
89D
100
AcDbEntity
  8
3
100
AcDbLine
 10
205.912416
 20
42.228157
 30
7.669859
 11
210.029365
 21
52.397415
 31
7.669859
  0
LINE
  5
89E
100
AcDbEntity
  8
3
100
AcDbLine
 10
205.912416
 20
42.228157
 30
7.669859
 11
214.20347
 21
42.228157
 31
7.669859
  0
LINE
  5
89F
100
AcDbEntity
  8
3
100
AcDbLine
 10
205.912416
 20
56.955772
 30
7.669859
 11
205.912416
 21
42.228157
 31
7.669859
  0
LINE
  5
8A0
100
AcDbEntity
  8
3
100
AcDbLine
 10
211.60962
 20
42.228157
 30
7.669859
 11
215.838509
 21
51.566008
 31
7.669859
  0
LINE
  5
8A1
100
AcDbEntity
  8
3
100
AcDbLine
 10
214.20347
 20
42.228157
 30
7.669859
 11
219.493959
 21
51.523627
 31
7.669859
  0
LINE
  5
8A2
100
AcDbEntity
  8
2
100
AcDbLine
 10
211.874782
 20
56.955772
 30
7.669859
 11
217.588887
 21
55.431034
 31
7.669859
  0
LINE
  5
8A3
100
AcDbEntity
  8
2
100
AcDbLine
 10
210.029365
 20
52.397415
 30
7.669859
 11
211.874782
 21
56.955772
 31
7.669859
  0
LINE
  5
8A4
100
AcDbEntity
  8
2
100
AcDbLine
 10
219.493959
 20
51.523627
 30
7.669859
 11
222.585647
 21
56.955772
 31
7.669859
  0
LINE
  5
8A5
100
AcDbEntity
  8
2
100
AcDbLine
 10
215.838509
 20
51.566008
 30
7.669859
 11
217.588887
 21
55.431034
 31
7.669859
  0
LINE
  5
8A6
100
AcDbEntity
  8
2
100
AcDbLine
 10
217.588887
 20
55.431034
 30
7.669859
 11
222.585647
 21
56.955772
 31
7.669859
  0
LINE
  5
8A7
100
AcDbEntity
  8
3
100
AcDbLine
 10
239.588887
 20
54.0
 30
7.669859
 11
226.588887
 21
54.0
 31
7.669859
  0
ARC
  5
8A8
100
AcDbEntity
  8
3
100
AcDbCircle
 10
239.588887
 20
56.0
 30
7.669859
 40
2.0
100
AcDbArc
 50
270.0
 51
0.0
  0
ARC
  5
8A9
100
AcDbEntity
  8
3
100
AcDbCircle
 10
212.588887
 20
143.0
 30
7.669859
 40
2.0
100
AcDbArc
 50
0.0
 51
90.0
  0
ARC
  5
8AA
100
AcDbEntity
  8
3
100
AcDbCircle
 10
198.588887
 20
143.0
 30
7.669859
 40
2.0
100
AcDbArc
 50
90.0
 51
180.0
  0
LINE
  5
8AB
100
AcDbEntity
  8
1
100
AcDbLine
 10
188.088887
 20
75.0
 30
7.669859
 11
250.086122
 21
75.0
 31
7.669859
  0
LINE
  5
8AC
100
AcDbEntity
  8
3
100
AcDbLine
 10
222.585647
 20
98.225394
 30
7.669859
 11
213.248307
 21
130.239131
 31
7.669859
  0
LINE
  5
8AD
100
AcDbEntity
  8
3
100
AcDbLine
 10
211.874782
 20
97.970612
 30
7.669859
 11
205.912416
 21
125.0
 31
7.669859
  0
LINE
  5
8AE
100
AcDbEntity
  8
3
100
AcDbLine
 10
196.588887
 20
75.0
 30
7.669859
 11
196.588887
 21
143.0
 31
7.669859
  0
ARC
  5
8AF
100
AcDbEntity
  8
3
100
AcDbCircle
 10
218.088887
 20
62.0
 30
7.669859
 40
36.503424
100
AcDbArc
 50
76.534792
 51
103.465208
  0
LINE
  5
8B0
100
AcDbEntity
  8
3
100
AcDbLine
 10
209.588887
 20
97.5
 30
7.669859
 11
209.588887
 21
75.0
 31
7.669859
  0
LINE
  5
8B1
100
AcDbEntity
  8
2
100
AcDbLine
 10
209.588887
 20
66.567814
 30
7.669859
 11
211.874782
 21
72.544229
 31
7.669859
  0
LINE
  5
8B2
100
AcDbEntity
  8
2
100
AcDbLine
 10
217.588887
 20
72.751542
 30
7.669859
 11
211.874782
 21
72.544229
 31
7.669859
  0
LINE
  5
8B3
100
AcDbEntity
  8
2
100
AcDbLine
 10
222.585647
 20
72.544229
 30
7.669859
 11
217.588887
 21
72.751542
 31
7.669859
  0
LINE
  5
8B4
100
AcDbEntity
  8
3
100
AcDbLine
 10
226.588887
 20
75.0
 30
7.669859
 11
226.588887
 21
97.5
 31
7.669859
  0
LINE
  5
8B5
100
AcDbEntity
  8
3
100
AcDbLine
 10
226.588887
 20
96.0
 30
7.669859
 11
226.588887
 21
75.0
 31
7.669859
  0
LINE
  5
8B6
100
AcDbEntity
  8
3
100
AcDbLine
 10
241.588887
 20
75.0
 30
7.669859
 11
241.588887
 21
94.0
 31
7.669859
  0
LINE
  5
8B7
100
AcDbEntity
  8
3
100
AcDbLine
 10
239.588887
 20
96.0
 30
7.669859
 11
226.588887
 21
96.0
 31
7.669859
  0
ARC
  5
8B8
100
AcDbEntity
  8
3
100
AcDbCircle
 10
239.588887
 20
94.0
 30
7.669859
 40
2.0
100
AcDbArc
 50
0.0
 51
90.0
  0
LINE
  5
8B9
100
AcDbEntity
  8
3
100
AcDbLine
 10
196.588887
 20
127.5
 30
7.669859
 11
205.912416
 21
125.0
 31
7.669859
  0
ARC
  5
8BA
100
AcDbEntity
  8
3
100
AcDbCircle
 10
223.340664
 20
133.17781
 30
7.669859
 40
10.511494
100
AcDbArc
 50
146.365844
 51
196.234434
  0
LINE
  5
8BB
100
AcDbEntity
  8
3
100
AcDbLine
 10
214.588887
 20
143.0
 30
7.669859
 11
214.588887
 21
125.642857
 31
7.669859
  0
LINE
  5
8BC
100
AcDbEntity
  8
3
100
AcDbLine
 10
198.588887
 20
145.0
 30
7.669859
 11
212.588887
 21
145.0
 31
7.669859
  0
ENDBLK
  5
8BE
100
AcDbEntity
  8
0
100
AcDbBlockEnd
  0
BLOCK
  5
947
100
AcDbEntity
  8
0
100
AcDbBlockBegin
  2
*D30
 70
     1
 10
0.0
 20
0.0
 30
0.0
  3
*D30
  1

  0
LINE
  5
93D
100
AcDbEntity
  8
0
  6
BYBLOCK
 62
     0
100
AcDbLine
 10
308.671123
 20
174.526169
 30
0.0
 11
308.671123
 21
240.180906
 31
0.0
  0
LINE
  5
93E
100
AcDbEntity
  8
0
  6
BYBLOCK
 62
     0
100
AcDbLine
 10
324.671123
 20
170.526169
 30
0.0
 11
324.671123
 21
240.180906
 31
0.0
  0
LINE
  5
93F
100
AcDbEntity
  8
0
  6
BYBLOCK
 62
     0
100
AcDbLine
 10
310.671123
 20
239.180906
 30
0.0
 11
313.878968
 21
239.180906
 31
0.0
  0
LINE
  5
940
100
AcDbEntity
  8
0
  6
BYBLOCK
 62
     0
100
AcDbLine
 10
322.671123
 20
239.180906
 30
0.0
 11
320.462302
 21
239.180906
 31
0.0
  0
SOLID
  5
941
100
AcDbEntity
  8
0
  6
BYBLOCK
 62
     0
100
AcDbTrace
 10
310.671123
 20
239.514239
 30
0.0
 11
310.671123
 21
238.847573
 31
0.0
 12
308.671123
 22
239.180906
 32
0.0
 13
308.671123
 23
239.180906
 33
0.0
  0
SOLID
  5
942
100
AcDbEntity
  8
0
  6
BYBLOCK
 62
     0
100
AcDbTrace
 10
322.671123
 20
239.514239
 30
0.0
 11
322.671123
 21
238.847573
 31
0.0
 12
324.671123
 22
239.180906
 32
0.0
 13
324.671123
 23
239.180906
 33
0.0
  0
MTEXT
  5
943
100
AcDbEntity
  8
0
  6
BYBLOCK
 62
     0
100
AcDbMText
 10
317.170635
 20
239.180906
 30
0.0
 40
4.0
 41
0.0
 71
     5
 72
     1
  1
\A1;16
1001
ACAD
1000
MTEXTBEGIN
1070
    73
1070
     1
1070
    44
1040
1.0
1070
    74
1070
     0
1000
MTEXTEND
  0
POINT
  5
944
100
AcDbEntity
  8
DEFPOINTS
  6
BYBLOCK
 62
     0
100
AcDbPoint
 10
308.671123
 20
173.526169
 30
0.0
  0
POINT
  5
945
100
AcDbEntity
  8
DEFPOINTS
  6
BYBLOCK
 62
     0
100
AcDbPoint
 10
324.671123
 20
169.526169
 30
0.0
  0
POINT
  5
946
100
AcDbEntity
  8
DEFPOINTS
  6
BYBLOCK
 62
     0
100
AcDbPoint
 10
324.671123
 20
239.180906
 30
0.0
  0
ENDBLK
  5
948
100
AcDbEntity
  8
0
100
AcDbBlockEnd
  0
BLOCK
  5
954
100
AcDbEntity
  8
0
100
AcDbBlockBegin
  2
*D31
 70
     1
 10
0.0
 20
0.0
 30
0.0
  3
*D31
  1

  0
LINE
  5
94A
100
AcDbEntity
  8
0
  6
BYBLOCK
 62
     0
100
AcDbLine
 10
276.671123
 20
229.526169
 30
0.0
 11
245.601207
 21
229.526169
 31
0.0
  0
LINE
  5
94B
100
AcDbEntity
  8
0
  6
BYBLOCK
 62
     0
100
AcDbLine
 10
276.671123
 20
69.526169
 30
0.0
 11
245.601207
 21
69.526169
 31
0.0
  0
LINE
  5
94C
100
AcDbEntity
  8
0
  6
BYBLOCK
 62
     0
100
AcDbLine
 10
246.601207
 20
227.526169
 30
0.0
 11
246.601207
 21
153.936095
 31
0.0
  0
LINE
  5
94D
100
AcDbEntity
  8
0
  6
BYBLOCK
 62
     0
100
AcDbLine
 10
246.601207
 20
71.526169
 30
0.0
 11
246.601207
 21
144.019428
 31
0.0
  0
SOLID
  5
94E
100
AcDbEntity
  8
0
  6
BYBLOCK
 62
     0
100
AcDbTrace
 10
246.267874
 20
227.526169
 30
0.0
 11
246.93454
 21
227.526169
 31
0.0
 12
246.601207
 22
229.526169
 32
0.0
 13
246.601207
 23
229.526169
 33
0.0
  0
SOLID
  5
94F
100
AcDbEntity
  8
0
  6
BYBLOCK
 62
     0
100
AcDbTrace
 10
246.267874
 20
71.526169
 30
0.0
 11
246.93454
 21
71.526169
 31
0.0
 12
246.601207
 22
69.526169
 32
0.0
 13
246.601207
 23
69.526169
 33
0.0
  0
MTEXT
  5
950
100
AcDbEntity
  8
0
  6
BYBLOCK
 62
     0
100
AcDbMText
 10
246.601207
 20
148.977762
 30
0.0
 40
4.0
 41
0.0
 71
     5
 72
     1
  1
\A1;160
 11
0.0
 21
1.0
 31
0.0
1001
ACAD
1000
MTEXTBEGIN
1070
    73
1070
     1
1070
    44
1040
1.0
1070
    74
1070
     0
1000
MTEXTEND
  0
POINT
  5
951
100
AcDbEntity
  8
DEFPOINTS
  6
BYBLOCK
 62
     0
100
AcDbPoint
 10
277.671123
 20
229.526169
 30
0.0
  0
POINT
  5
952
100
AcDbEntity
  8
DEFPOINTS
  6
BYBLOCK
 62
     0
100
AcDbPoint
 10
277.671123
 20
69.526169
 30
0.0
  0
POINT
  5
953
100
AcDbEntity
  8
DEFPOINTS
  6
BYBLOCK
 62
     0
100
AcDbPoint
 10
246.601207
 20
69.526169
 30
0.0
  0
ENDBLK
  5
955
100
AcDbEntity
  8
0
100
AcDbBlockEnd
  0
BLOCK
  5
9E1
100
AcDbEntity
  8
0
100
AcDbBlockBegin
  2
A$C75E32E12
 70
     0
 10
0.0
 20
0.0
 30
0.0
  3
A$C75E32E12
  1

  0
LINE
  5
957
100
AcDbEntity
  8
1
100
AcDbLine
 10
84.467419
 20
81.5
 30
9.074605
 11
171.967419
 21
81.5
 31
9.074605
  0
ARC
  5
958
100
AcDbEntity
  8
3
100
AcDbCircle
 10
84.467419
 20
81.5
 30
9.074605
 40
80.0
100
AcDbArc
 50
270.0
 51
90.0
  0
LINE
  5
959
100
AcDbEntity
  8
3
100
AcDbLine
 10
138.457187
 20
63.030699
 30
9.074605
 11
111.413779
 21
79.798918
 31
9.074605
  0
LINE
  5
95A
100
AcDbEntity
  8
3
100
AcDbLine
 10
109.597562
 20
79.692811
 30
9.074605
 11
139.100709
 21
61.504461
 31
9.074605
  0
ARC
  5
95B
100
AcDbEntity
  8
3
100
AcDbCircle
 10
84.467419
 20
81.5
 30
9.074605
 40
57.06146
100
AcDbArc
 50
341.114751
 51
78.885249
  0
LINE
  5
95C
100
AcDbEntity
  8
3
100
AcDbLine
 10
30.477651
 20
63.030699
 30
9.074605
 11
57.521059
 21
79.798918
 31
9.074605
  0
LINE
  5
95D
100
AcDbEntity
  8
3
100
AcDbLine
 10
59.337276
 20
79.692811
 30
9.074605
 11
29.111188
 21
61.087071
 31
9.074605
  0
ARC
  5
95E
100
AcDbEntity
  8
3
100
AcDbCircle
 10
84.467419
 20
81.5
 30
9.074605
 40
57.06146
100
AcDbArc
 50
101.114751
 51
198.885249
  0
ARC
  5
95F
100
AcDbEntity
  8
3
100
AcDbCircle
 10
84.467419
 20
81.5
 30
9.074605
 40
59.0
100
AcDbArc
 50
99.758257
 51
200.241743
  0
ARC
  5
960
100
AcDbEntity
  8
3
100
AcDbCircle
 10
84.467419
 20
81.5
 30
9.074605
 40
60.0
100
AcDbArc
 50
270.0
 51
90.0
  0
LINE
  5
961
100
AcDbEntity
  8
1
100
AcDbLine
 10
84.467419
 20
164.0
 30
9.074605
 11
84.467419
 21
0.0
 31
9.074605
  0
ARC
  5
962
100
AcDbEntity
  8
3
100
AcDbCircle
 10
84.467419
 20
81.5
 30
9.074605
 40
24.0
100
AcDbArc
 50
270.0
 51
90.0
  0
ARC
  5
963
100
AcDbEntity
  8
3
100
AcDbCircle
 10
84.467419
 20
81.5
 30
9.074605
 40
22.0
100
AcDbArc
 50
270.0
 51
90.0
  0
ARC
  5
964
100
AcDbEntity
  8
3
100
AcDbCircle
 10
84.467419
 20
81.5
 30
9.074605
 40
25.19504
100
AcDbArc
 50
304.113242
 51
355.886758
  0
LINE
  5
965
100
AcDbEntity
  8
1
100
AcDbLine
 10
84.467419
 20
164.0
 30
9.074605
 11
84.467419
 21
0.0
 31
9.074605
  0
ARC
  5
966
100
AcDbEntity
  8
3
100
AcDbCircle
 10
84.467419
 20
81.5
 30
9.074605
 40
80.0
100
AcDbArc
 50
90.0
 51
270.0
  0
LINE
  5
967
100
AcDbEntity
  8
1
100
AcDbLine
 10
84.467419
 20
81.5
 30
9.074605
 11
11.201259
 21
39.199763
 31
9.074605
  0
ARC
  5
968
100
AcDbEntity
  8
3
100
AcDbCircle
 10
84.467419
 20
81.5
 30
9.074605
 40
25.19504
100
AcDbArc
 50
184.113242
 51
235.886758
  0
ARC
  5
969
100
AcDbEntity
  8
3
100
AcDbCircle
 10
84.467419
 20
81.5
 30
9.074605
 40
22.0
100
AcDbArc
 50
90.0
 51
270.0
  0
ARC
  5
96A
100
AcDbEntity
  8
3
100
AcDbCircle
 10
84.467419
 20
81.5
 30
9.074605
 40
24.0
100
AcDbArc
 50
90.0
 51
270.0
  0
ARC
  5
96B
100
AcDbEntity
  8
3
100
AcDbCircle
 10
84.467419
 20
81.5
 30
9.074605
 40
75.259744
100
AcDbArc
 50
90.0
 51
270.0
  0
TEXT
  5
96C
100
AcDbEntity
  8
3
100
AcDbText
 10
54.376208
 20
67.193398
 30
9.074605
 40
6.0
  1
K/KN-160
 50
210.0
 41
0.7
  7
BIGFONT
100
AcDbText
  0
LINE
  5
96D
100
AcDbEntity
  8
3
100
AcDbLine
 10
30.477651
 20
63.030699
 30
9.074605
 11
29.111188
 21
61.087071
 31
9.074605
  0
ARC
  5
96E
100
AcDbEntity
  8
3
100
AcDbCircle
 10
84.467419
 20
81.5
 30
9.074605
 40
27.0
100
AcDbArc
 50
270.0
 51
303.6122
  0
ARC
  5
96F
100
AcDbEntity
  8
3
100
AcDbCircle
 10
84.467419
 20
81.5
 30
9.074605
 40
57.06146
100
AcDbArc
 50
270.0
 51
318.885249
  0
ARC
  5
970
100
AcDbEntity
  8
3
100
AcDbCircle
 10
84.467419
 20
81.5
 30
9.074605
 40
57.06146
100
AcDbArc
 50
221.114751
 51
270.0
  0
ARC
  5
971
100
AcDbEntity
  8
3
100
AcDbCircle
 10
84.467419
 20
81.5
 30
9.074605
 40
59.0
100
AcDbArc
 50
219.758257
 51
270.0
  0
LINE
  5
972
100
AcDbEntity
  8
3
100
AcDbLine
 10
41.477651
 20
43.97814
 30
9.074605
 11
69.521059
 21
59.014309
 31
9.074605
  0
LINE
  5
973
100
AcDbEntity
  8
3
100
AcDbLine
 10
70.337276
 20
60.640252
 30
9.074605
 11
39.111188
 21
43.766563
 31
9.074605
  0
LINE
  5
974
100
AcDbEntity
  8
3
100
AcDbLine
 10
41.477651
 20
43.97814
 30
9.074605
 11
39.111188
 21
43.766563
 31
9.074605
  0
ARC
  5
975
100
AcDbEntity
  8
3
100
AcDbCircle
 10
84.467419
 20
81.5
 30
9.074605
 40
27.0
100
AcDbArc
 50
236.3878
 51
270.0
  0
LINE
  5
976
100
AcDbEntity
  8
3
100
AcDbLine
 10
69.521059
 20
59.014309
 30
9.074605
 11
70.337276
 21
60.640252
 31
9.074605
  0
LINE
  5
977
100
AcDbEntity
  8
3
100
AcDbLine
 10
127.457187
 20
43.97814
 30
9.074605
 11
99.413779
 21
59.014309
 31
9.074605
  0
LINE
  5
978
100
AcDbEntity
  8
3
100
AcDbLine
 10
98.597562
 20
60.640252
 30
9.074605
 11
129.100709
 21
44.183953
 31
9.074605
  0
LINE
  5
979
100
AcDbEntity
  8
3
100
AcDbLine
 10
99.413779
 20
59.014309
 30
9.074605
 11
98.597562
 21
60.640252
 31
9.074605
  0
ARC
  5
97A
100
AcDbEntity
  8
3
100
AcDbCircle
 10
84.467419
 20
81.5
 30
9.074605
 40
58.177469
100
AcDbArc
 50
320.102399
 51
339.897601
  0
LINE
  5
97B
100
AcDbEntity
  8
3
100
AcDbLine
 10
129.100709
 20
44.183953
 30
9.074605
 11
127.457187
 21
43.97814
 31
9.074605
  0
LINE
  5
97C
100
AcDbEntity
  8
3
100
AcDbLine
 10
139.100709
 20
61.504461
 30
9.074605
 11
138.457187
 21
63.030699
 31
9.074605
  0
LINE
  5
97D
100
AcDbEntity
  8
1
100
AcDbLine
 10
-0.486409
 20
81.5
 30
9.074605
 11
84.467419
 21
81.5
 31
9.074605
  0
ARC
  5
97E
100
AcDbEntity
  8
3
100
AcDbCircle
 10
84.467419
 20
151.5
 30
9.074605
 40
10.0
100
AcDbArc
 50
180.0
 51
270.0
  0
LINE
  5
97F
100
AcDbEntity
  8
3
100
AcDbLine
 10
94.467419
 20
138.811586
 30
9.074605
 11
95.467419
 21
137.491162
 31
9.074605
  0
ARC
  5
980
100
AcDbEntity
  8
3
100
AcDbCircle
 10
84.467419
 20
81.5
 30
9.074605
 40
25.19504
100
AcDbArc
 50
64.113242
 51
90.0
  0
LINE
  5
981
100
AcDbEntity
  8
3
100
AcDbLine
 10
95.467419
 20
104.166937
 30
9.074605
 11
94.467419
 21
138.811586
 31
9.074605
  0
LINE
  5
982
100
AcDbEntity
  8
3
100
AcDbLine
 10
73.467419
 20
137.491162
 30
9.074605
 11
72.467419
 21
105.686773
 31
9.074605
  0
LINE
  5
983
100
AcDbEntity
  8
3
100
AcDbLine
 10
73.467419
 20
104.166937
 30
9.074605
 11
74.467419
 21
139.646367
 31
9.074605
  0
ARC
  5
984
100
AcDbEntity
  8
3
100
AcDbCircle
 10
84.467419
 20
81.5
 30
9.074605
 40
27.0
100
AcDbArc
 50
116.3878
 51
183.6122
  0
LINE
  5
985
100
AcDbEntity
  8
3
100
AcDbLine
 10
57.521059
 20
79.798918
 30
9.074605
 11
59.337276
 21
79.692811
 31
9.074605
  0
ARC
  5
986
100
AcDbEntity
  8
3
100
AcDbCircle
 10
84.467419
 20
81.5
 30
9.074605
 40
25.19504
100
AcDbArc
 50
90.0
 51
115.886758
  0
LINE
  5
987
100
AcDbEntity
  8
3
100
AcDbLine
 10
72.467419
 20
105.686773
 30
9.074605
 11
73.467419
 21
104.166937
 31
9.074605
  0
LINE
  5
988
100
AcDbEntity
  8
3
100
AcDbLine
 10
73.467419
 20
137.491162
 30
9.074605
 11
74.467419
 21
139.646367
 31
9.074605
  0
ARC
  5
989
100
AcDbEntity
  8
3
100
AcDbCircle
 10
84.467419
 20
81.5
 30
9.074605
 40
58.177469
100
AcDbArc
 50
80.102399
 51
90.0
  0
LINE
  5
98A
100
AcDbEntity
  8
3
100
AcDbLine
 10
95.467419
 20
137.491162
 30
9.074605
 11
96.467419
 21
105.686773
 31
9.074605
  0
ARC
  5
98B
100
AcDbEntity
  8
3
100
AcDbCircle
 10
84.467419
 20
81.5
 30
9.074605
 40
27.0
100
AcDbArc
 50
356.3878
 51
63.6122
  0
LINE
  5
98C
100
AcDbEntity
  8
3
100
AcDbLine
 10
111.413779
 20
79.798918
 30
9.074605
 11
109.597562
 21
79.692811
 31
9.074605
  0
LINE
  5
98D
100
AcDbEntity
  8
3
100
AcDbLine
 10
96.467419
 20
105.686773
 30
9.074605
 11
95.467419
 21
104.166937
 31
9.074605
  0
LINE
  5
98E
100
AcDbEntity
  8
1
100
AcDbLine
 10
84.467419
 20
151.5
 30
9.074605
 11
99.967419
 21
151.5
 31
9.074605
  0
LINE
  5
98F
100
AcDbEntity
  8
1
100
AcDbLine
 10
70.467419
 20
151.5
 30
9.074605
 11
87.467419
 21
151.5
 31
9.074605
  0
ARC
  5
990
100
AcDbEntity
  8
3
100
AcDbCircle
 10
70.311379
 20
151.287584
 30
9.074605
 40
4.161465
100
AcDbArc
 50
2.925854
 51
87.851105
  0
DIMENSION
  5
991
100
AcDbEntity
  8
0
100
AcDbDimension
  2
*D31
 10
205.897504
 20
1.5
 30
9.074605
 11
205.897504
 21
80.951593
 31
9.074605
 12
-40.703703
 22
-68.026169
 32
9.074605
 70
   128
  3
STANDARD
100
AcDbAlignedDimension
 13
236.967419
 23
161.5
 33
9.074605
 14
236.967419
 24
1.5
 34
9.074605
 50
90.0
100
AcDbRotatedDimension
1001
ACAD
1000
DSTYLE
1002
{
1070
   140
1040
4.0
1070
    77
1070
     0
1070
    40
1040
1.0
1070
   141
1040
0.0
1070
    41
1040
2.0
1002
}
  0
LINE
  5
992
100
AcDbEntity
  8
3
100
AcDbLine
 10
283.967419
 20
81.5
 30
9.074605
 11
283.967419
 21
61.5
 31
9.074605
  0
LINE
  5
993
100
AcDbEntity
  8
2
100
AcDbLine
 10
253.967419
 20
79.692811
 30
9.074605
 11
253.967419
 21
60.640252
 31
9.074605
  0
LINE
  5
994
100
AcDbEntity
  8
2
100
AcDbLine
 10
265.467419
 20
60.640252
 30
9.074605
 11
265.467419
 21
79.692811
 31
9.074605
  0
LINE
  5
995
100
AcDbEntity
  8
2
100
AcDbLine
 10
265.467419
 20
79.692811
 30
9.074605
 11
251.467419
 21
61.504461
 31
9.074605
  0
LINE
  5
996
100
AcDbEntity
  8
2
100
AcDbLine
 10
259.967419
 20
79.798918
 30
9.074605
 11
248.074973
 21
62.983798
 31
9.074605
  0
LINE
  5
997
100
AcDbEntity
  8
2
100
AcDbLine
 10
253.967419
 20
79.692811
 30
9.074605
 11
243.257543
 21
61.504461
 31
9.074605
  0
LINE
  5
998
100
AcDbEntity
  8
3
100
AcDbLine
 10
267.967419
 20
81.5
 30
9.074605
 11
267.967419
 21
57.5
 31
9.074605
  0
LINE
  5
999
100
AcDbEntity
  8
3
100
AcDbLine
 10
235.967419
 20
143.061553
 30
9.074605
 11
235.967419
 21
19.938447
 31
9.074605
  0
LINE
  5
99A
100
AcDbEntity
  8
3
100
AcDbLine
 10
253.967419
 20
47.122578
 30
9.074605
 11
253.967419
 21
81.5
 31
9.074605
  0
LINE
  5
99B
100
AcDbEntity
  8
2
100
AcDbLine
 10
251.967419
 20
81.5
 30
9.074605
 11
251.967419
 21
59.5
 31
9.074605
  0
LINE
  5
99C
100
AcDbEntity
  8
3
100
AcDbLine
 10
281.967419
 20
59.5
 30
9.074605
 11
267.967419
 21
59.5
 31
9.074605
  0
LINE
  5
99D
100
AcDbEntity
  8
2
100
AcDbLine
 10
248.00426
 20
44.024302
 30
9.074605
 11
247.967419
 21
24.5
 31
9.074605
  0
LINE
  5
99E
100
AcDbEntity
  8
3
100
AcDbLine
 10
253.967419
 20
4.315538
 30
9.074605
 11
253.967419
 21
47.122578
 31
9.074605
  0
LINE
  5
99F
100
AcDbEntity
  8
2
100
AcDbLine
 10
247.967419
 20
24.5
 30
9.074605
 11
249.907046
 21
23.391642
 31
9.074605
  0
ARC
  5
9A0
100
AcDbEntity
  8
2
100
AcDbCircle
 10
253.649356
 20
12.246004
 30
9.074605
 40
6.112684
100
AcDbArc
 50
158.362021
 51
259.267061
  0
LINE
  5
9A1
100
AcDbEntity
  8
3
100
AcDbLine
 10
236.967419
 20
1.5
 30
9.074605
 11
252.967419
 21
1.5
 31
9.074605
  0
LINE
  5
9A2
100
AcDbEntity
  8
2
100
AcDbLine
 10
250.747083
 20
20.853518
 30
9.074605
 11
247.967419
 21
14.5
 31
9.074605
  0
LINE
  5
9A3
100
AcDbEntity
  8
3
100
AcDbLine
 10
235.967419
 20
19.938447
 30
9.074605
 11
235.967419
 21
2.5
 31
9.074605
  0
ARC
  5
9A4
100
AcDbEntity
  8
3
100
AcDbCircle
 10
236.967419
 20
2.5
 30
9.074605
 40
1.0
100
AcDbArc
 50
180.0
 51
270.0
  0
LINE
  5
9A5
100
AcDbEntity
  8
2
100
AcDbLine
 10
237.482348
 20
21.878732
 30
9.074605
 11
247.967419
 21
24.5
 31
9.074605
  0
ARC
  5
9A6
100
AcDbEntity
  8
2
100
AcDbCircle
 10
237.982242
 20
19.926874
 30
9.074605
 40
2.014856
100
AcDbArc
 50
104.365352
 51
179.670891
  0
LINE
  5
9A7
100
AcDbEntity
  8
3
100
AcDbLine
 10
253.967419
 20
2.5
 30
9.074605
 11
253.967419
 21
4.315538
 31
9.074605
  0
ARC
  5
9A8
100
AcDbEntity
  8
3
100
AcDbCircle
 10
252.967419
 20
2.5
 30
9.074605
 40
1.0
100
AcDbArc
 50
270.0
 51
0.0
  0
ARC
  5
9A9
100
AcDbEntity
  8
2
100
AcDbCircle
 10
251.965278
 20
4.313918
 30
9.074605
 40
2.002141
100
AcDbArc
 50
0.046359
 51
74.183345
  0
ARC
  5
9AA
100
AcDbEntity
  8
2
100
AcDbCircle
 10
248.902435
 20
21.651074
 30
9.074605
 40
2.009682
100
AcDbArc
 50
336.618171
 51
60.00757
  0
LINE
  5
9AB
100
AcDbEntity
  8
2
100
AcDbLine
 10
248.074973
 20
62.983798
 30
9.074605
 11
251.467419
 21
61.504461
 31
9.074605
  0
LINE
  5
9AC
100
AcDbEntity
  8
2
100
AcDbLine
 10
247.967419
 20
43.97814
 30
9.074605
 11
251.467419
 21
44.183953
 31
9.074605
  0
LINE
  5
9AD
100
AcDbEntity
  8
2
100
AcDbLine
 10
243.257543
 20
44.183953
 30
9.074605
 11
252.513955
 21
58.406928
 31
9.074605
  0
LINE
  5
9AE
100
AcDbEntity
  8
2
100
AcDbLine
 10
247.967419
 20
43.97814
 30
9.074605
 11
256.856937
 21
55.116831
 31
9.074605
  0
LINE
  5
9AF
100
AcDbEntity
  8
2
100
AcDbLine
 10
243.257543
 20
61.504461
 30
9.074605
 11
243.257543
 21
44.183953
 31
9.074605
  0
LINE
  5
9B0
100
AcDbEntity
  8
2
100
AcDbLine
 10
243.257543
 20
44.183953
 30
9.074605
 11
247.967419
 21
43.97814
 31
9.074605
  0
LINE
  5
9B1
100
AcDbEntity
  8
2
100
AcDbLine
 10
243.257543
 20
61.504461
 30
9.074605
 11
248.074973
 21
62.983798
 31
9.074605
  0
LINE
  5
9B2
100
AcDbEntity
  8
2
100
AcDbLine
 10
251.467419
 20
44.183953
 30
9.074605
 11
260.245598
 21
54.502263
 31
9.074605
  0
LINE
  5
9B3
100
AcDbEntity
  8
2
100
AcDbLine
 10
251.467419
 20
61.504461
 30
9.074605
 11
251.467419
 21
44.183953
 31
9.074605
  0
ARC
  5
9B4
100
AcDbEntity
  8
3
100
AcDbCircle
 10
260.467419
 20
65.375
 30
9.074605
 40
10.875
100
AcDbArc
 50
233.294569
 51
313.602819
  0
LINE
  5
9B5
100
AcDbEntity
  8
2
100
AcDbLine
 10
265.467419
 20
60.640252
 30
9.074605
 11
260.245598
 21
54.502263
 31
9.074605
  0
LINE
  5
9B6
100
AcDbEntity
  8
2
100
AcDbLine
 10
259.967419
 20
59.014309
 30
9.074605
 11
265.467419
 21
60.640252
 31
9.074605
  0
LINE
  5
9B7
100
AcDbEntity
  8
2
100
AcDbLine
 10
259.967419
 20
59.014309
 30
9.074605
 11
256.856937
 21
55.116831
 31
9.074605
  0
LINE
  5
9B8
100
AcDbEntity
  8
3
100
AcDbLine
 10
260.245598
 20
54.502263
 30
9.074605
 11
253.967419
 21
47.122578
 31
9.074605
  0
LINE
  5
9B9
100
AcDbEntity
  8
3
100
AcDbLine
 10
256.856937
 20
55.116831
 30
9.074605
 11
253.967419
 21
51.496224
 31
9.074605
  0
LINE
  5
9BA
100
AcDbEntity
  8
2
100
AcDbLine
 10
253.967419
 20
60.640252
 30
9.074605
 11
259.967419
 21
59.014309
 31
9.074605
  0
ARC
  5
9BB
100
AcDbEntity
  8
2
100
AcDbCircle
 10
260.171837
 20
65.024657
 30
9.074605
 40
10.41749
100
AcDbArc
 50
226.245528
 51
233.446222
  0
LINE
  5
9BC
100
AcDbEntity
  8
2
100
AcDbLine
 10
253.967419
 20
60.640252
 30
9.074605
 11
252.513955
 21
58.406928
 31
9.074605
  0
LINE
  5
9BD
100
AcDbEntity
  8
2
100
AcDbLine
 10
251.967419
 20
59.5
 30
9.074605
 11
252.967419
 21
57.5
 31
9.074605
  0
ARC
  5
9BE
100
AcDbEntity
  8
3
100
AcDbCircle
 10
281.967419
 20
61.5
 30
9.074605
 40
2.0
100
AcDbArc
 50
270.0
 51
0.0
  0
DIMENSION
  5
9BF
100
AcDbEntity
  8
0
100
AcDbDimension
  2
*D30
 10
283.967419
 20
171.154737
 30
9.074605
 11
276.466932
 21
171.154737
 31
9.074605
 12
-40.703703
 22
-68.026169
 32
9.074605
 70
   128
  3
STANDARD
100
AcDbAlignedDimension
 13
267.967419
 23
105.5
 33
9.074605
 14
283.967419
 24
101.5
 34
9.074605
100
AcDbRotatedDimension
1001
ACAD
1000
DSTYLE
1002
{
1070
   140
1040
4.0
1070
    77
1070
     0
1070
    40
1040
1.0
1070
   141
1040
0.0
1070
    41
1040
2.0
1002
}
  0
LINE
  5
9C0
100
AcDbEntity
  8
3
100
AcDbLine
 10
281.967419
 20
103.5
 30
9.074605
 11
267.967419
 21
103.5
 31
9.074605
  0
LINE
  5
9C1
100
AcDbEntity
  8
1
100
AcDbLine
 10
229.467419
 20
81.5
 30
9.074605
 11
289.967419
 21
81.5
 31
9.074605
  0
LINE
  5
9C2
100
AcDbEntity
  8
1
100
AcDbLine
 10
259.967419
 20
108.5
 30
9.074605
 11
241.967419
 21
154.0
 31
9.074605
  0
LINE
  5
9C3
100
AcDbEntity
  8
3
100
AcDbLine
 10
235.967419
 20
143.061553
 30
9.074605
 11
235.967419
 21
160.5
 31
9.074605
  0
LINE
  5
9C4
100
AcDbEntity
  8
3
100
AcDbLine
 10
251.029919
 20
141.5
 30
9.074605
 11
251.029919
 21
156.27804
 31
9.074605
  0
LINE
  5
9C5
100
AcDbEntity
  8
3
100
AcDbLine
 10
253.967419
 20
158.684462
 30
9.074605
 11
253.967419
 21
134.785715
 31
9.074605
  0
ARC
  5
9C6
100
AcDbEntity
  8
3
100
AcDbCircle
 10
260.467419
 20
107.454108
 30
9.074605
 40
5.0
100
AcDbArc
 50
0.0
 51
23.629378
  0
ARC
  5
9C7
100
AcDbEntity
  8
3
100
AcDbCircle
 10
249.467419
 20
107.628436
 30
9.074605
 40
5.0
100
AcDbArc
 50
360.0
 51
19.776077
  0
LINE
  5
9C8
100
AcDbEntity
  8
3
100
AcDbLine
 10
253.967419
 20
109.890625
 30
9.074605
 11
253.967419
 21
106.343694
 31
9.074605
  0
LINE
  5
9C9
100
AcDbEntity
  8
1
100
AcDbLine
 10
259.967419
 20
81.5
 30
9.074605
 11
259.967419
 21
133.5
 31
9.074605
  0
LINE
  5
9CA
100
AcDbEntity
  8
2
100
AcDbLine
 10
248.074973
 20
81.5
 30
9.074605
 11
248.052609
 21
69.647819
 31
9.074605
  0
LINE
  5
9CB
100
AcDbEntity
  8
3
100
AcDbLine
 10
251.967419
 20
81.5
 30
9.074605
 11
251.967419
 21
103.5
 31
9.074605
  0
LINE
  5
9CC
100
AcDbEntity
  8
2
100
AcDbLine
 10
265.467419
 20
79.692811
 30
9.074605
 11
259.967419
 21
79.798918
 31
9.074605
  0
LINE
  5
9CD
100
AcDbEntity
  8
2
100
AcDbLine
 10
259.967419
 20
79.798918
 30
9.074605
 11
253.967419
 21
79.692811
 31
9.074605
  0
LINE
  5
9CE
100
AcDbEntity
  8
3
100
AcDbLine
 10
251.967419
 20
103.5
 30
9.074605
 11
252.967419
 21
105.5
 31
9.074605
  0
ARC
  5
9CF
100
AcDbEntity
  8
3
100
AcDbCircle
 10
260.467419
 20
97.625
 30
9.074605
 40
10.875
100
AcDbArc
 50
123.485377
 51
133.602819
  0
LINE
  5
9D0
100
AcDbEntity
  8
3
100
AcDbLine
 10
254.467419
 20
106.69504
 30
9.074605
 11
254.467419
 21
107.628436
 31
9.074605
  0
LINE
  5
9D1
100
AcDbEntity
  8
3
100
AcDbLine
 10
267.967419
 20
103.5
 30
9.074605
 11
267.967419
 21
105.5
 31
9.074605
  0
ARC
  5
9D2
100
AcDbEntity
  8
3
100
AcDbCircle
 10
260.467419
 20
97.625
 30
9.074605
 40
10.875
100
AcDbArc
 50
46.397181
 51
62.627726
  0
LINE
  5
9D3
100
AcDbEntity
  8
3
100
AcDbLine
 10
265.467419
 20
107.282413
 30
9.074605
 11
265.467419
 21
107.454108
 31
9.074605
  0
LINE
  5
9D4
100
AcDbEntity
  8
3
100
AcDbLine
 10
254.17253
 20
109.320161
 30
9.074605
 11
243.257543
 21
139.677469
 31
9.074605
  0
LINE
  5
9D5
100
AcDbEntity
  8
3
100
AcDbLine
 10
237.482348
 20
141.121268
 30
9.074605
 11
243.257543
 21
139.677469
 31
9.074605
  0
ARC
  5
9D6
100
AcDbEntity
  8
3
100
AcDbCircle
 10
237.967419
 20
143.061553
 30
9.074605
 40
2.0
100
AcDbArc
 50
180.0
 51
255.963757
  0
LINE
  5
9D7
100
AcDbEntity
  8
3
100
AcDbLine
 10
265.048206
 20
109.458202
 30
9.074605
 11
251.029919
 21
141.5
 31
9.074605
  0
LINE
  5
9D8
100
AcDbEntity
  8
1
100
AcDbLine
 10
231.467419
 20
151.5
 30
9.074605
 11
261.967419
 21
151.5
 31
9.074605
  0
LINE
  5
9D9
100
AcDbEntity
  8
3
100
AcDbLine
 10
236.967419
 20
161.5
 30
9.074605
 11
252.967419
 21
161.5
 31
9.074605
  0
ARC
  5
9DA
100
AcDbEntity
  8
3
100
AcDbCircle
 10
236.967419
 20
160.5
 30
9.074605
 40
1.0
100
AcDbArc
 50
90.0
 51
180.0
  0
ARC
  5
9DB
100
AcDbEntity
  8
3
100
AcDbCircle
 10
253.644583
 20
150.756622
 30
9.074605
 40
6.109217
100
AcDbArc
 50
100.693542
 51
115.339861
  0
ARC
  5
9DC
100
AcDbEntity
  8
3
100
AcDbCircle
 10
251.967419
 20
158.684462
 30
9.074605
 40
2.0
100
AcDbArc
 50
285.770296
 51
0.0
  0
ARC
  5
9DD
100
AcDbEntity
  8
3
100
AcDbCircle
 10
252.967419
 20
160.5
 30
9.074605
 40
1.0
100
AcDbArc
 50
0.0
 51
90.0
  0
LINE
  5
9DE
100
AcDbEntity
  8
3
100
AcDbLine
 10
253.967419
 20
160.5
 30
9.074605
 11
253.967419
 21
158.684462
 31
9.074605
  0
LINE
  5
9DF
100
AcDbEntity
  8
3
100
AcDbLine
 10
283.967419
 20
81.5
 30
9.074605
 11
283.967419
 21
101.5
 31
9.074605
  0
ARC
  5
9E0
100
AcDbEntity
  8
3
100
AcDbCircle
 10
281.967419
 20
101.5
 30
9.074605
 40
2.0
100
AcDbArc
 50
0.0
 51
90.0
  0
ENDBLK
  5
9E2
100
AcDbEntity
  8
0
100
AcDbBlockEnd
  0
ENDSEC
  0
SECTION
  2
ENTITIES
  0
LINE
  5
9E4
100
AcDbEntity
  8
1
100
AcDbLine
 10
204.406329
 20
216.236076
 30
9.074605
 11
291.906329
 21
216.236076
 31
9.074605
  0
ARC
  5
9E5
100
AcDbEntity
  8
3
100
AcDbCircle
 10
204.406329
 20
216.236076
 30
9.074605
 40
80.0
100
AcDbArc
 50
270.0
 51
90.0
  0
LINE
  5
9E6
100
AcDbEntity
  8
3
100
AcDbLine
 10
258.396098
 20
197.766775
 30
9.074605
 11
231.35269
 21
214.534994
 31
9.074605
  0
LINE
  5
9E7
100
AcDbEntity
  8
3
100
AcDbLine
 10
229.536473
 20
214.428887
 30
9.074605
 11
259.039619
 21
196.240537
 31
9.074605
  0
ARC
  5
9E8
100
AcDbEntity
  8
3
100
AcDbCircle
 10
204.406329
 20
216.236076
 30
9.074605
 40
57.06146
100
AcDbArc
 50
341.114751
 51
78.885249
  0
ARC
  5
9ED
100
AcDbEntity
  8
3
100
AcDbCircle
 10
204.406329
 20
216.236076
 30
9.074605
 40
60.0
100
AcDbArc
 50
270.0
 51
90.0
  0
LINE
  5
9EE
100
AcDbEntity
  8
1
100
AcDbLine
 10
204.406329
 20
298.736076
 30
9.074605
 11
204.406329
 21
134.736076
 31
9.074605
  0
ARC
  5
9EF
100
AcDbEntity
  8
3
100
AcDbCircle
 10
204.406329
 20
216.236076
 30
9.074605
 40
24.0
100
AcDbArc
 50
270.0
 51
90.0
  0
ARC
  5
9F0
100
AcDbEntity
  8
3
100
AcDbCircle
 10
204.406329
 20
216.236076
 30
9.074605
 40
22.0
100
AcDbArc
 50
270.0
 51
90.0
  0
ARC
  5
9F1
100
AcDbEntity
  8
3
100
AcDbCircle
 10
204.406329
 20
216.236076
 30
9.074605
 40
25.19504
100
AcDbArc
 50
304.113242
 51
355.886758
  0
LINE
  5
9F2
100
AcDbEntity
  8
1
100
AcDbLine
 10
204.406329
 20
298.736076
 30
9.074605
 11
204.406329
 21
134.736076
 31
9.074605
  0
ARC
  5
9FB
100
AcDbEntity
  8
3
100
AcDbCircle
 10
204.406329
 20
216.236076
 30
9.074605
 40
27.0
100
AcDbArc
 50
270.0
 51
303.6122
  0
ARC
  5
9FC
100
AcDbEntity
  8
3
100
AcDbCircle
 10
204.406329
 20
216.236076
 30
9.074605
 40
57.06146
100
AcDbArc
 50
270.0
 51
318.885249
  0
LINE
  5
A04
100
AcDbEntity
  8
3
100
AcDbLine
 10
247.396098
 20
178.714216
 30
9.074605
 11
219.35269
 21
193.750385
 31
9.074605
  0
LINE
  5
A05
100
AcDbEntity
  8
3
100
AcDbLine
 10
218.536473
 20
195.376328
 30
9.074605
 11
249.039619
 21
178.920029
 31
9.074605
  0
LINE
  5
A06
100
AcDbEntity
  8
3
100
AcDbLine
 10
219.35269
 20
193.750385
 30
9.074605
 11
218.536473
 21
195.376328
 31
9.074605
  0
ARC
  5
A07
100
AcDbEntity
  8
3
100
AcDbCircle
 10
204.406329
 20
216.236076
 30
9.074605
 40
58.177469
100
AcDbArc
 50
320.102399
 51
339.897601
  0
LINE
  5
A08
100
AcDbEntity
  8
3
100
AcDbLine
 10
249.039619
 20
178.920029
 30
9.074605
 11
247.396098
 21
178.714216
 31
9.074605
  0
LINE
  5
A09
100
AcDbEntity
  8
3
100
AcDbLine
 10
259.039619
 20
196.240537
 30
9.074605
 11
258.396098
 21
197.766775
 31
9.074605
  0
LINE
  5
A0C
100
AcDbEntity
  8
3
100
AcDbLine
 10
214.406329
 20
273.547662
 30
9.074605
 11
215.406329
 21
272.227238
 31
9.074605
  0
ARC
  5
A0D
100
AcDbEntity
  8
3
100
AcDbCircle
 10
204.406329
 20
216.236076
 30
9.074605
 40
25.19504
100
AcDbArc
 50
64.113242
 51
90.0
  0
LINE
  5
A0E
100
AcDbEntity
  8
3
100
AcDbLine
 10
215.406329
 20
238.903013
 30
9.074605
 11
214.406329
 21
273.547662
 31
9.074605
  0
ARC
  5
A16
100
AcDbEntity
  8
3
100
AcDbCircle
 10
204.406329
 20
216.236076
 30
9.074605
 40
58.177469
100
AcDbArc
 50
80.102399
 51
90.0
  0
LINE
  5
A17
100
AcDbEntity
  8
3
100
AcDbLine
 10
215.406329
 20
272.227238
 30
9.074605
 11
216.406329
 21
240.422849
 31
9.074605
  0
ARC
  5
A18
100
AcDbEntity
  8
3
100
AcDbCircle
 10
204.406329
 20
216.236076
 30
9.074605
 40
27.0
100
AcDbArc
 50
356.3878
 51
63.6122
  0
LINE
  5
A19
100
AcDbEntity
  8
3
100
AcDbLine
 10
231.35269
 20
214.534994
 30
9.074605
 11
229.536473
 21
214.428887
 31
9.074605
  0
LINE
  5
A1A
100
AcDbEntity
  8
3
100
AcDbLine
 10
216.406329
 20
240.422849
 30
9.074605
 11
215.406329
 21
238.903013
 31
9.074605
  0
LINE
  5
A1B
100
AcDbEntity
  8
1
100
AcDbLine
 10
204.406329
 20
286.236076
 30
9.074605
 11
219.906329
 21
286.236076
 31
9.074605
  0
LINE
  5
A1C
100
AcDbEntity
  8
1
100
AcDbLine
 10
204.406329
 20
286.236076
 30
9.074605
 11
207.406329
 21
286.236076
 31
9.074605
  0
LINE
  5
A1F
100
AcDbEntity
  8
3
100
AcDbLine
 10
403.906329
 20
216.236076
 30
9.074605
 11
403.906329
 21
196.236076
 31
9.074605
  0
LINE
  5
A20
100
AcDbEntity
  8
2
100
AcDbLine
 10
373.906329
 20
214.428887
 30
9.074605
 11
373.906329
 21
195.376328
 31
9.074605
  0
LINE
  5
A21
100
AcDbEntity
  8
2
100
AcDbLine
 10
385.406329
 20
195.376328
 30
9.074605
 11
385.406329
 21
214.428887
 31
9.074605
  0
LINE
  5
A22
100
AcDbEntity
  8
2
100
AcDbLine
 10
385.406329
 20
214.428887
 30
9.074605
 11
371.406329
 21
196.240537
 31
9.074605
  0
LINE
  5
A23
100
AcDbEntity
  8
2
100
AcDbLine
 10
379.906329
 20
214.534994
 30
9.074605
 11
368.013884
 21
197.719874
 31
9.074605
  0
LINE
  5
A24
100
AcDbEntity
  8
2
100
AcDbLine
 10
373.906329
 20
214.428887
 30
9.074605
 11
363.196453
 21
196.240537
 31
9.074605
  0
LINE
  5
A25
100
AcDbEntity
  8
3
100
AcDbLine
 10
387.906329
 20
216.236076
 30
9.074605
 11
387.906329
 21
192.236076
 31
9.074605
  0
LINE
  5
A26
100
AcDbEntity
  8
3
100
AcDbLine
 10
355.906329
 20
277.797629
 30
9.074605
 11
355.906329
 21
154.674523
 31
9.074605
  0
LINE
  5
A27
100
AcDbEntity
  8
3
100
AcDbLine
 10
373.906329
 20
181.858654
 30
9.074605
 11
373.906329
 21
216.236076
 31
9.074605
  0
LINE
  5
A28
100
AcDbEntity
  8
2
100
AcDbLine
 10
371.906329
 20
216.236076
 30
9.074605
 11
371.906329
 21
194.236076
 31
9.074605
  0
LINE
  5
A29
100
AcDbEntity
  8
3
100
AcDbLine
 10
401.906329
 20
194.236076
 30
9.074605
 11
387.906329
 21
194.236076
 31
9.074605
  0
LINE
  5
A2A
100
AcDbEntity
  8
2
100
AcDbLine
 10
367.94317
 20
178.760378
 30
9.074605
 11
367.906329
 21
159.236076
 31
9.074605
  0
LINE
  5
A2B
100
AcDbEntity
  8
3
100
AcDbLine
 10
373.906329
 20
139.051614
 30
9.074605
 11
373.906329
 21
181.858654
 31
9.074605
  0
LINE
  5
A2C
100
AcDbEntity
  8
2
100
AcDbLine
 10
367.906329
 20
159.236076
 30
9.074605
 11
369.845957
 21
158.127718
 31
9.074605
  0
ARC
  5
A2D
100
AcDbEntity
  8
2
100
AcDbCircle
 10
373.588266
 20
146.98208
 30
9.074605
 40
6.112684
100
AcDbArc
 50
158.362021
 51
259.267061
  0
LINE
  5
A2E
100
AcDbEntity
  8
3
100
AcDbLine
 10
356.906329
 20
136.236076
 30
9.074605
 11
372.906329
 21
136.236076
 31
9.074605
  0
LINE
  5
A2F
100
AcDbEntity
  8
2
100
AcDbLine
 10
370.685993
 20
155.589594
 30
9.074605
 11
367.906329
 21
149.236076
 31
9.074605
  0
LINE
  5
A30
100
AcDbEntity
  8
3
100
AcDbLine
 10
355.906329
 20
154.674523
 30
9.074605
 11
355.906329
 21
137.236076
 31
9.074605
  0
ARC
  5
A31
100
AcDbEntity
  8
3
100
AcDbCircle
 10
356.906329
 20
137.236076
 30
9.074605
 40
1.0
100
AcDbArc
 50
180.0
 51
270.0
  0
LINE
  5
A32
100
AcDbEntity
  8
2
100
AcDbLine
 10
357.421258
 20
156.614808
 30
9.074605
 11
367.906329
 21
159.236076
 31
9.074605
  0
ARC
  5
A33
100
AcDbEntity
  8
2
100
AcDbCircle
 10
357.921152
 20
154.66295
 30
9.074605
 40
2.014856
100
AcDbArc
 50
104.365352
 51
179.670891
  0
LINE
  5
A34
100
AcDbEntity
  8
3
100
AcDbLine
 10
373.906329
 20
137.236076
 30
9.074605
 11
373.906329
 21
139.051614
 31
9.074605
  0
ARC
  5
A35
100
AcDbEntity
  8
3
100
AcDbCircle
 10
372.906329
 20
137.236076
 30
9.074605
 40
1.0
100
AcDbArc
 50
270.0
 51
0.0
  0
ARC
  5
A36
100
AcDbEntity
  8
2
100
AcDbCircle
 10
371.904189
 20
139.049994
 30
9.074605
 40
2.002141
100
AcDbArc
 50
0.046359
 51
74.183345
  0
ARC
  5
A37
100
AcDbEntity
  8
2
100
AcDbCircle
 10
368.841346
 20
156.38715
 30
9.074605
 40
2.009682
100
AcDbArc
 50
336.618171
 51
60.00757
  0
LINE
  5
A38
100
AcDbEntity
  8
2
100
AcDbLine
 10
368.013884
 20
197.719874
 30
9.074605
 11
371.406329
 21
196.240537
 31
9.074605
  0
LINE
  5
A39
100
AcDbEntity
  8
2
100
AcDbLine
 10
367.906329
 20
178.714216
 30
9.074605
 11
371.406329
 21
178.920029
 31
9.074605
  0
LINE
  5
A3A
100
AcDbEntity
  8
2
100
AcDbLine
 10
363.196453
 20
178.920029
 30
9.074605
 11
372.452866
 21
193.143003
 31
9.074605
  0
LINE
  5
A3B
100
AcDbEntity
  8
2
100
AcDbLine
 10
367.906329
 20
178.714216
 30
9.074605
 11
376.795847
 21
189.852907
 31
9.074605
  0
LINE
  5
A3C
100
AcDbEntity
  8
2
100
AcDbLine
 10
363.196453
 20
196.240537
 30
9.074605
 11
363.196453
 21
178.920029
 31
9.074605
  0
LINE
  5
A3D
100
AcDbEntity
  8
2
100
AcDbLine
 10
363.196453
 20
178.920029
 30
9.074605
 11
367.906329
 21
178.714216
 31
9.074605
  0
LINE
  5
A3E
100
AcDbEntity
  8
2
100
AcDbLine
 10
363.196453
 20
196.240537
 30
9.074605
 11
368.013884
 21
197.719874
 31
9.074605
  0
LINE
  5
A3F
100
AcDbEntity
  8
2
100
AcDbLine
 10
371.406329
 20
178.920029
 30
9.074605
 11
380.184508
 21
189.238339
 31
9.074605
  0
LINE
  5
A40
100
AcDbEntity
  8
2
100
AcDbLine
 10
371.406329
 20
196.240537
 30
9.074605
 11
371.406329
 21
178.920029
 31
9.074605
  0
ARC
  5
A41
100
AcDbEntity
  8
3
100
AcDbCircle
 10
380.406329
 20
200.111076
 30
9.074605
 40
10.875
100
AcDbArc
 50
233.294569
 51
313.602819
  0
LINE
  5
A42
100
AcDbEntity
  8
2
100
AcDbLine
 10
385.406329
 20
195.376328
 30
9.074605
 11
380.184508
 21
189.238339
 31
9.074605
  0
LINE
  5
A43
100
AcDbEntity
  8
2
100
AcDbLine
 10
379.906329
 20
193.750385
 30
9.074605
 11
385.406329
 21
195.376328
 31
9.074605
  0
LINE
  5
A44
100
AcDbEntity
  8
2
100
AcDbLine
 10
379.906329
 20
193.750385
 30
9.074605
 11
376.795847
 21
189.852907
 31
9.074605
  0
LINE
  5
A45
100
AcDbEntity
  8
3
100
AcDbLine
 10
380.184508
 20
189.238339
 30
9.074605
 11
373.906329
 21
181.858654
 31
9.074605
  0
LINE
  5
A46
100
AcDbEntity
  8
3
100
AcDbLine
 10
376.795847
 20
189.852907
 30
9.074605
 11
373.906329
 21
186.2323
 31
9.074605
  0
LINE
  5
A47
100
AcDbEntity
  8
2
100
AcDbLine
 10
373.906329
 20
195.376328
 30
9.074605
 11
379.906329
 21
193.750385
 31
9.074605
  0
ARC
  5
A48
100
AcDbEntity
  8
2
100
AcDbCircle
 10
380.110747
 20
199.760733
 30
9.074605
 40
10.41749
100
AcDbArc
 50
226.245528
 51
233.446222
  0
LINE
  5
A49
100
AcDbEntity
  8
2
100
AcDbLine
 10
373.906329
 20
195.376328
 30
9.074605
 11
372.452866
 21
193.143003
 31
9.074605
  0
LINE
  5
A4A
100
AcDbEntity
  8
2
100
AcDbLine
 10
371.906329
 20
194.236076
 30
9.074605
 11
372.906329
 21
192.236076
 31
9.074605
  0
ARC
  5
A4B
100
AcDbEntity
  8
3
100
AcDbCircle
 10
401.906329
 20
196.236076
 30
9.074605
 40
2.0
100
AcDbArc
 50
270.0
 51
0.0
  0
LINE
  5
A4D
100
AcDbEntity
  8
3
100
AcDbLine
 10
401.906329
 20
238.236076
 30
9.074605
 11
387.906329
 21
238.236076
 31
9.074605
  0
LINE
  5
A4E
100
AcDbEntity
  8
1
100
AcDbLine
 10
349.406329
 20
216.236076
 30
9.074605
 11
409.906329
 21
216.236076
 31
9.074605
  0
LINE
  5
A4F
100
AcDbEntity
  8
1
100
AcDbLine
 10
379.906329
 20
243.236076
 30
9.074605
 11
361.906329
 21
288.736076
 31
9.074605
  0
LINE
  5
A50
100
AcDbEntity
  8
3
100
AcDbLine
 10
355.906329
 20
277.797629
 30
9.074605
 11
355.906329
 21
295.236076
 31
9.074605
  0
LINE
  5
A51
100
AcDbEntity
  8
3
100
AcDbLine
 10
370.968829
 20
276.236076
 30
9.074605
 11
370.968829
 21
291.014116
 31
9.074605
  0
LINE
  5
A52
100
AcDbEntity
  8
3
100
AcDbLine
 10
373.906329
 20
293.420538
 30
9.074605
 11
373.906329
 21
269.52179
 31
9.074605
  0
ARC
  5
A53
100
AcDbEntity
  8
3
100
AcDbCircle
 10
380.406329
 20
242.190184
 30
9.074605
 40
5.0
100
AcDbArc
 50
0.0
 51
23.629378
  0
ARC
  5
A54
100
AcDbEntity
  8
3
100
AcDbCircle
 10
369.406329
 20
242.364512
 30
9.074605
 40
5.0
100
AcDbArc
 50
360.0
 51
19.776077
  0
LINE
  5
A55
100
AcDbEntity
  8
3
100
AcDbLine
 10
373.906329
 20
244.626701
 30
9.074605
 11
373.906329
 21
241.07977
 31
9.074605
  0
LINE
  5
A56
100
AcDbEntity
  8
1
100
AcDbLine
 10
379.906329
 20
216.236076
 30
9.074605
 11
379.906329
 21
268.236076
 31
9.074605
  0
LINE
  5
A57
100
AcDbEntity
  8
2
100
AcDbLine
 10
368.013884
 20
216.236076
 30
9.074605
 11
367.99152
 21
204.383895
 31
9.074605
  0
LINE
  5
A58
100
AcDbEntity
  8
3
100
AcDbLine
 10
371.906329
 20
216.236076
 30
9.074605
 11
371.906329
 21
238.236076
 31
9.074605
  0
LINE
  5
A59
100
AcDbEntity
  8
2
100
AcDbLine
 10
385.406329
 20
214.428887
 30
9.074605
 11
379.906329
 21
214.534994
 31
9.074605
  0
LINE
  5
A5A
100
AcDbEntity
  8
2
100
AcDbLine
 10
379.906329
 20
214.534994
 30
9.074605
 11
373.906329
 21
214.428887
 31
9.074605
  0
LINE
  5
A5B
100
AcDbEntity
  8
3
100
AcDbLine
 10
371.906329
 20
238.236076
 30
9.074605
 11
372.906329
 21
240.236076
 31
9.074605
  0
ARC
  5
A5C
100
AcDbEntity
  8
3
100
AcDbCircle
 10
380.406329
 20
232.361076
 30
9.074605
 40
10.875
100
AcDbArc
 50
123.485377
 51
133.602819
  0
LINE
  5
A5D
100
AcDbEntity
  8
3
100
AcDbLine
 10
374.406329
 20
241.431116
 30
9.074605
 11
374.406329
 21
242.364512
 31
9.074605
  0
LINE
  5
A5E
100
AcDbEntity
  8
3
100
AcDbLine
 10
387.906329
 20
238.236076
 30
9.074605
 11
387.906329
 21
240.236076
 31
9.074605
  0
ARC
  5
A5F
100
AcDbEntity
  8
3
100
AcDbCircle
 10
380.406329
 20
232.361076
 30
9.074605
 40
10.875
100
AcDbArc
 50
46.397181
 51
62.627726
  0
LINE
  5
A60
100
AcDbEntity
  8
3
100
AcDbLine
 10
385.406329
 20
242.018489
 30
9.074605
 11
385.406329
 21
242.190184
 31
9.074605
  0
LINE
  5
A61
100
AcDbEntity
  8
3
100
AcDbLine
 10
374.11144
 20
244.056237
 30
9.074605
 11
363.196453
 21
274.413545
 31
9.074605
  0
LINE
  5
A62
100
AcDbEntity
  8
3
100
AcDbLine
 10
357.421258
 20
275.857344
 30
9.074605
 11
363.196453
 21
274.413545
 31
9.074605
  0
ARC
  5
A63
100
AcDbEntity
  8
3
100
AcDbCircle
 10
357.906329
 20
277.797629
 30
9.074605
 40
2.0
100
AcDbArc
 50
180.0
 51
255.963757
  0
LINE
  5
A64
100
AcDbEntity
  8
3
100
AcDbLine
 10
384.987116
 20
244.194278
 30
9.074605
 11
370.968829
 21
276.236076
 31
9.074605
  0
LINE
  5
A65
100
AcDbEntity
  8
1
100
AcDbLine
 10
351.406329
 20
286.236076
 30
9.074605
 11
381.906329
 21
286.236076
 31
9.074605
  0
LINE
  5
A66
100
AcDbEntity
  8
3
100
AcDbLine
 10
356.906329
 20
296.236076
 30
9.074605
 11
372.906329
 21
296.236076
 31
9.074605
  0
ARC
  5
A67
100
AcDbEntity
  8
3
100
AcDbCircle
 10
356.906329
 20
295.236076
 30
9.074605
 40
1.0
100
AcDbArc
 50
90.0
 51
180.0
  0
ARC
  5
A68
100
AcDbEntity
  8
3
100
AcDbCircle
 10
373.583493
 20
285.492698
 30
9.074605
 40
6.109217
100
AcDbArc
 50
100.693542
 51
115.339861
  0
ARC
  5
A69
100
AcDbEntity
  8
3
100
AcDbCircle
 10
371.906329
 20
293.420538
 30
9.074605
 40
2.0
100
AcDbArc
 50
285.770296
 51
0.0
  0
ARC
  5
A6A
100
AcDbEntity
  8
3
100
AcDbCircle
 10
372.906329
 20
295.236076
 30
9.074605
 40
1.0
100
AcDbArc
 50
0.0
 51
90.0
  0
LINE
  5
A6B
100
AcDbEntity
  8
3
100
AcDbLine
 10
373.906329
 20
295.236076
 30
9.074605
 11
373.906329
 21
293.420538
 31
9.074605
  0
LINE
  5
A6C
100
AcDbEntity
  8
3
100
AcDbLine
 10
403.906329
 20
216.236076
 30
9.074605
 11
403.906329
 21
236.236076
 31
9.074605
  0
ARC
  5
A6D
100
AcDbEntity
  8
3
100
AcDbCircle
 10
401.906329
 20
236.236076
 30
9.074605
 40
2.0
100
AcDbArc
 50
0.0
 51
90.0
  0
LINE
  5
A9E
100
AcDbEntity
  8
1
100
AcDbLine
 10
204.406329
 20
286.236076
 30
9.074605
 11
188.906329
 21
286.236076
 31
9.074605
  0
ARC
  5
A9F
100
AcDbEntity
  8
3
100
AcDbCircle
 10
204.406329
 20
216.236076
 30
9.074605
 40
58.177469
100
AcDbArc
 50
90.0
 51
99.897601
  0
ARC
  5
AA0
100
AcDbEntity
  8
3
100
AcDbCircle
 10
204.406329
 20
216.236076
 30
9.074605
 40
25.19504
100
AcDbArc
 50
90.0
 51
115.886758
  0
ARC
  5
AA1
100
AcDbEntity
  8
3
100
AcDbCircle
 10
204.406329
 20
216.236076
 30
9.074605
 40
57.06146
100
AcDbArc
 50
221.114751
 51
270.0
  0
ARC
  5
AA2
100
AcDbEntity
  8
3
100
AcDbCircle
 10
204.406329
 20
216.236076
 30
9.074605
 40
27.0
100
AcDbArc
 50
236.3878
 51
270.0
  0
ARC
  5
AA3
100
AcDbEntity
  8
3
100
AcDbCircle
 10
204.406329
 20
216.236076
 30
9.074605
 40
22.0
100
AcDbArc
 50
90.0
 51
270.0
  0
ARC
  5
AA4
100
AcDbEntity
  8
3
100
AcDbCircle
 10
204.406329
 20
216.236076
 30
9.074605
 40
24.0
100
AcDbArc
 50
90.0
 51
270.0
  0
ARC
  5
AA5
100
AcDbEntity
  8
3
100
AcDbCircle
 10
204.406329
 20
216.236076
 30
9.074605
 40
60.0
100
AcDbArc
 50
90.0
 51
270.0
  0
ARC
  5
AA6
100
AcDbEntity
  8
3
100
AcDbCircle
 10
204.406329
 20
216.236076
 30
9.074605
 40
80.0
100
AcDbArc
 50
90.0
 51
270.0
  0
LINE
  5
AA7
100
AcDbEntity
  8
1
100
AcDbLine
 10
204.406329
 20
216.236076
 30
9.074605
 11
116.906329
 21
216.236076
 31
9.074605
  0
LINE
  5
AA8
100
AcDbEntity
  8
1
100
AcDbLine
 10
204.406329
 20
286.236076
 30
9.074605
 11
201.406329
 21
286.236076
 31
9.074605
  0
LINE
  5
AA9
100
AcDbEntity
  8
3
100
AcDbLine
 10
193.406329
 20
272.227238
 30
9.074605
 11
192.406329
 21
240.422849
 31
9.074605
  0
LINE
  5
AAA
100
AcDbEntity
  8
3
100
AcDbLine
 10
193.406329
 20
238.903013
 30
9.074605
 11
194.406329
 21
273.547662
 31
9.074605
  0
ARC
  5
AAB
100
AcDbEntity
  8
3
100
AcDbCircle
 10
204.406329
 20
216.236076
 30
9.074605
 40
57.06146
100
AcDbArc
 50
101.114751
 51
198.885249
  0
ARC
  5
AAC
100
AcDbEntity
  8
3
100
AcDbCircle
 10
204.406329
 20
216.236076
 30
9.074605
 40
25.19504
100
AcDbArc
 50
184.113242
 51
235.886758
  0
LINE
  5
AAD
100
AcDbEntity
  8
3
100
AcDbLine
 10
179.276186
 20
214.428887
 30
9.074605
 11
149.77304
 21
196.240537
 31
9.074605
  0
LINE
  5
AAE
100
AcDbEntity
  8
3
100
AcDbLine
 10
150.416561
 20
197.766775
 30
9.074605
 11
177.459969
 21
214.534994
 31
9.074605
  0
ARC
  5
AAF
100
AcDbEntity
  8
3
100
AcDbCircle
 10
204.406329
 20
216.236076
 30
9.074605
 40
58.177469
100
AcDbArc
 50
200.102399
 51
219.897601
  0
LINE
  5
AB0
100
AcDbEntity
  8
3
100
AcDbLine
 10
190.276186
 20
195.376328
 30
9.074605
 11
159.77304
 21
178.920029
 31
9.074605
  0
LINE
  5
AB1
100
AcDbEntity
  8
3
100
AcDbLine
 10
161.416561
 20
178.714216
 30
9.074605
 11
189.459969
 21
193.750385
 31
9.074605
  0
LINE
  5
AB2
100
AcDbEntity
  8
3
100
AcDbLine
 10
189.459969
 20
193.750385
 30
9.074605
 11
190.276186
 21
195.376328
 31
9.074605
  0
LINE
  5
AB3
100
AcDbEntity
  8
3
100
AcDbLine
 10
159.77304
 20
178.920029
 30
9.074605
 11
161.416561
 21
178.714216
 31
9.074605
  0
LINE
  5
AB4
100
AcDbEntity
  8
3
100
AcDbLine
 10
149.77304
 20
196.240537
 30
9.074605
 11
150.416561
 21
197.766775
 31
9.074605
  0
ARC
  5
AB5
100
AcDbEntity
  8
3
100
AcDbCircle
 10
204.406329
 20
216.236076
 30
9.074605
 40
27.0
100
AcDbArc
 50
116.3878
 51
183.6122
  0
LINE
  5
AB6
100
AcDbEntity
  8
3
100
AcDbLine
 10
177.459969
 20
214.534994
 30
9.074605
 11
179.276186
 21
214.428887
 31
9.074605
  0
LINE
  5
AB7
100
AcDbEntity
  8
3
100
AcDbLine
 10
192.406329
 20
240.422849
 30
9.074605
 11
193.406329
 21
238.903013
 31
9.074605
  0
LINE
  5
AB8
100
AcDbEntity
  8
3
100
AcDbLine
 10
194.406329
 20
273.547662
 30
9.074605
 11
193.406329
 21
272.227238
 31
9.074605
  0
ENDSEC
  0
SECTION
  2
OBJECTS
  0
DICTIONARY
  5
C
102
{ACAD_XDICTIONARY
360
B1A
102
}
100
AcDbDictionary
  3
ACAD_GROUP
350
D
  3
ACAD_LAYOUT
350
ABF
  3
ACAD_MLINESTYLE
350
E
  3
ACAD_PLOTSETTINGS
350
AC0
  3
ACAD_PLOTSTYLENAME
350
ABD
  3
ACDBHEADERROUNDTRIPXREC
350
AFA
  3
ACDBVARIABLEDICTIONARY
350
AF1
1001
ACAD
1000
TREAT_AS_HARD
1070
     0
  0
DICTIONARY
  5
B1E
100
AcDbDictionary
  3
ACAD_XREC_ROUNDTRIP
360
B1F
  0
DICTIONARY
  5
AEB
100
AcDbDictionary
  3
ACAD_LAYOUTSELFREF
360
B1D
1001
ACAD
1000
TREAT_AS_HARD
1070
     1
  0
DICTIONARY
  5
AE9
100
AcDbDictionary
  3
ACAD_LAYOUTSELFREF
360
B1C
1001
ACAD
1000
TREAT_AS_HARD
1070
     1
  0
DICTIONARY
  5
B1A
100
AcDbDictionary
  3
ACAD_XREC_ROUNDTRIP
360
B1B
  0
DICTIONARY
  5
D
102
{ACAD_REACTORS
330
C
102
}
100
AcDbDictionary
1001
ACAD
1000
TREAT_AS_HARD
1070
     0
  0
DICTIONARY
  5
ABF
102
{ACAD_XDICTIONARY
360
B20
102
}
102
{ACAD_REACTORS
330
C
102
}
100
AcDbDictionary
  3
MODEL
350
AC1
  3
ﾚｲｱｳﾄ1
350
AC2
1001
ACAD
1000
TREAT_AS_HARD
1070
     0
  0
DICTIONARY
  5
E
102
{ACAD_REACTORS
330
C
102
}
100
AcDbDictionary
  3
STANDARD
350
1C
1001
ACAD
1000
TREAT_AS_HARD
1070
     0
  0
DICTIONARY
  5
AC0
102
{ACAD_REACTORS
330
C
102
}
100
AcDbDictionary
1001
ACAD
1000
TREAT_AS_HARD
1070
     0
  0
ACAD_ZOMBIE_OBJECT
  5
ABD
102
{ACAD_REACTORS
330
C
102
}
100
AcDbZombieObject
 90
      499
 91
      501
 93
       86
310
405010041939BDC9B585B0
350
ABE
340
ABE
 94
        0
1001
ACAD
1000
TREAT_AS_HARD
1070
     0
1000
TREAT_AS_HARD
1070
     0
  0
DICTIONARY
  5
AFA
102
{ACAD_REACTORS
330
C
102
}
100
AcDbDictionary
  3
CEPSNTYPE
350
B04
  3
FINGERPRINTGUID
350
B05
  3
HYPERLINKBASE
350
AFD
  3
INSUNITS
350
B03
  3
LAYOUTDICT
350
AFF
  3
LWETCUNION
350
B02
  3
PLOTSETDICT
350
B00
  3
PLOTSTYLNAMDICT
350
B01
  3
PSVPSCALE
350
B07
  3
PUCSBASE
350
B0A
  3
PUCSORGBACK
350
B10
  3
PUCSORGBOTTOM
350
B0C
  3
PUCSORGFRONT
350
B0F
  3
PUCSORGLEFT
350
B0D
  3
PUCSORGRIGHT
350
B0E
  3
PUCSORGTOP
350
B0B
  3
PUCSORTHOREF
350
B08
  3
PUCSORTHOVIEW
350
B09
  3
STYLESHEET
350
AFE
  3
TSTACKALIGN
350
AFB
  3
TSTACKSIZE
350
AFC
  3
UCSBASE
350
B13
  3
UCSORGBACK
350
B19
  3
UCSORGBOTTOM
350
B15
  3
UCSORGFRONT
350
B18
  3
UCSORGLEFT
350
B16
  3
UCSORGRIGHT
350
B17
  3
UCSORGTOP
350
B14
  3
UCSORTHOREF
350
B11
  3
UCSORTHOVIEW
350
B12
  3
VERSIONGUID
350
B06
1001
ACAD
1000
TREAT_AS_HARD
1070
     0
  0
DICTIONARY
  5
AF1
102
{ACAD_REACTORS
330
C
102
}
100
AcDbDictionary
  3
DIMASSOC
350
AF2
1001
ACAD
1000
TREAT_AS_HARD
1070
     0
  0
XRECORD
  5
B1F
102
{ACAD_REACTORS
330
B1E
102
}
100
AcDbXrecord
102
PLOTBIT
280
     0
  0
XRECORD
  5
B1D
102
{ACAD_REACTORS
330
AEB
102
}
100
AcDbXrecord
340
19
  0
XRECORD
  5
B1C
102
{ACAD_REACTORS
330
AE9
102
}
100
AcDbXrecord
340
16
  0
XRECORD
  5
B1B
102
{ACAD_REACTORS
330
B1A
102
}
100
AcDbXrecord
102
EXTNAMES
  1
ACDBVARIABLEDICTIONARY
  2
AcDbVariableDictionary
  0
DICTIONARY
  5
B20
100
AcDbDictionary
  3
ACAD_XREC_ROUNDTRIP
360
B21
  0
ACAD_ZOMBIE_OBJECT
  5
AC1
102
{ACAD_REACTORS
330
ABF
102
}
100
AcDbZombieObject
 90
      499
 91
      503
 93
      836
310
932433A5C50524F4752414D2046494C45535C4D4454365C706C6F74746572735C526F6C616E64204458592D313235302E7063332C01AAAAAAAAA5A69054D6F64656C901A800000000000000000000000000000000000000000000A1000000000000008902A6A6AAAAD
330
19
330
0
340
0
340
0
 94
        0
  0
ACAD_ZOMBIE_OBJECT
  5
AC2
102
{ACAD_REACTORS
330
ABF
102
}
100
AcDbZombieObject
 90
      499
 91
      503
 93
     1252
310
932433A5C50524F4752414D2046494C45535C4D4454365C706C6F74746572735C526F6C616E64204458592D313235302E7063332C00AAAAAA416AA59106906DAB2B1B3C43140501A800000000000000000000000000000000000000000000A1000000000000008902A6A6A10232D5E076BC5510408CB5781DAF154410232D5
310
E076BC5510408CB5781DAF15C410232D5E076BC5710408CB5781DAF15C40
330
16
330
0
340
0
340
0
 94
        0
  0
MLINESTYLE
  5
1C
102
{ACAD_REACTORS
330
E
102
}
100
AcDbMlineStyle
  2
STANDARD
 70
     0
  3

 62
     0
 51
90.0
 52
90.0
 71
     2
 49
0.5
 62
   256
  6
BYLAYER
 49
-0.5
 62
   256
  6
BYLAYER
  0
ACAD_ZOMBIE_OBJECT
  5
ABE
102
{ACAD_REACTORS
330
ABD
102
}
100
AcDbZombieObject
 90
      499
 91
      502
 93
        0
 94
        0
  0
XRECORD
  5
B04
102
{ACAD_REACTORS
330
AFA
102
}
100
AcDbXrecord
 90
        0
  0
XRECORD
  5
B05
102
{ACAD_REACTORS
330
AFA
102
}
100
AcDbXrecord
  1
{753A112E-A853-11D6-B916-0090997ED171}
  0
XRECORD
  5
AFD
102
{ACAD_REACTORS
330
AFA
102
}
100
AcDbXrecord
  1

  0
XRECORD
  5
B03
102
{ACAD_REACTORS
330
AFA
102
}
100
AcDbXrecord
 90
        0
  0
XRECORD
  5
AFF
102
{ACAD_REACTORS
330
AFA
102
}
100
AcDbXrecord
340
ABF
  0
XRECORD
  5
B02
102
{ACAD_REACTORS
330
AFA
102
}
100
AcDbXrecord
 90
    14877
  0
XRECORD
  5
B00
102
{ACAD_REACTORS
330
AFA
102
}
100
AcDbXrecord
340
AC0
  0
XRECORD
  5
B01
102
{ACAD_REACTORS
330
AFA
102
}
100
AcDbXrecord
340
ABD
  0
XRECORD
  5
B07
102
{ACAD_REACTORS
330
AFA
102
}
100
AcDbXrecord
 40
0.0
  0
XRECORD
  5
B0A
102
{ACAD_REACTORS
330
AFA
102
}
100
AcDbXrecord
340
0
  0
XRECORD
  5
B10
102
{ACAD_REACTORS
330
AFA
102
}
100
AcDbXrecord
 10
0.0
 20
0.0
 30
0.0
  0
XRECORD
  5
B0C
102
{ACAD_REACTORS
330
AFA
102
}
100
AcDbXrecord
 10
0.0
 20
0.0
 30
0.0
  0
XRECORD
  5
B0F
102
{ACAD_REACTORS
330
AFA
102
}
100
AcDbXrecord
 10
0.0
 20
0.0
 30
0.0
  0
XRECORD
  5
B0D
102
{ACAD_REACTORS
330
AFA
102
}
100
AcDbXrecord
 10
0.0
 20
0.0
 30
0.0
  0
XRECORD
  5
B0E
102
{ACAD_REACTORS
330
AFA
102
}
100
AcDbXrecord
 10
0.0
 20
0.0
 30
0.0
  0
XRECORD
  5
B0B
102
{ACAD_REACTORS
330
AFA
102
}
100
AcDbXrecord
 10
0.0
 20
0.0
 30
0.0
  0
XRECORD
  5
B08
102
{ACAD_REACTORS
330
AFA
102
}
100
AcDbXrecord
340
0
  0
XRECORD
  5
B09
102
{ACAD_REACTORS
330
AFA
102
}
100
AcDbXrecord
 70
     0
  0
XRECORD
  5
AFE
102
{ACAD_REACTORS
330
AFA
102
}
100
AcDbXrecord
  1

  0
XRECORD
  5
AFB
102
{ACAD_REACTORS
330
AFA
102
}
100
AcDbXrecord
 90
        1
  0
XRECORD
  5
AFC
102
{ACAD_REACTORS
330
AFA
102
}
100
AcDbXrecord
 90
       70
  0
XRECORD
  5
B13
102
{ACAD_REACTORS
330
AFA
102
}
100
AcDbXrecord
340
0
  0
XRECORD
  5
B19
102
{ACAD_REACTORS
330
AFA
102
}
100
AcDbXrecord
 10
0.0
 20
0.0
 30
0.0
  0
XRECORD
  5
B15
102
{ACAD_REACTORS
330
AFA
102
}
100
AcDbXrecord
 10
0.0
 20
0.0
 30
0.0
  0
XRECORD
  5
B18
102
{ACAD_REACTORS
330
AFA
102
}
100
AcDbXrecord
 10
0.0
 20
0.0
 30
0.0
  0
XRECORD
  5
B16
102
{ACAD_REACTORS
330
AFA
102
}
100
AcDbXrecord
 10
0.0
 20
0.0
 30
0.0
  0
XRECORD
  5
B17
102
{ACAD_REACTORS
330
AFA
102
}
100
AcDbXrecord
 10
0.0
 20
0.0
 30
0.0
  0
XRECORD
  5
B14
102
{ACAD_REACTORS
330
AFA
102
}
100
AcDbXrecord
 10
0.0
 20
0.0
 30
0.0
  0
XRECORD
  5
B11
102
{ACAD_REACTORS
330
AFA
102
}
100
AcDbXrecord
340
0
  0
XRECORD
  5
B12
102
{ACAD_REACTORS
330
AFA
102
}
100
AcDbXrecord
 70
     0
  0
XRECORD
  5
B06
102
{ACAD_REACTORS
330
AFA
102
}
100
AcDbXrecord
  1
{753A112F-A853-11D6-B916-0090997ED171}
  0
DICTIONARYVAR
  5
AF2
102
{ACAD_REACTORS
330
AF1
102
}
100
DictionaryVariables
280
     0
  1
1
  0
XRECORD
  5
B21
102
{ACAD_REACTORS
330
B20
102
}
100
AcDbXrecord
102
EXTNAMES
  1
MODEL
  2
Model
  0
ENDSEC
  0
EOF
