  0
SECTION
  2
HEADER
  9
$ACADVER
  1
AC1015
  9
$ACADMAINTVER
 70
    13
  9
$DWGCODEPAGE
  3
ANSI_932
  9
$INSBASE
 10
0.0
 20
0.0
 30
0.0
  9
$EXTMIN
 10
-48.185489
 20
71.66972099999999
 30
0.0
  9
$EXTMAX
 10
371.1455439999999
 20
340.2418579999999
 30
0.0
  9
$LIMMIN
 10
0.0
 20
0.0
  9
$LIMMAX
 10
400.0
 20
280.0
  9
$ORTHOMODE
 70
     1
  9
$REGENMODE
 70
     1
  9
$FILLMODE
 70
     0
  9
$QTEXTMODE
 70
     0
  9
$MIRRTEXT
 70
     1
  9
$LTSCALE
 40
1.0
  9
$ATTMODE
 70
     1
  9
$TEXTSIZE
 40
5.0
  9
$TRACEWID
 40
0.05
  9
$TEXTSTYLE
  7
BIGFONT
  9
$CLAYER
  8
3
  9
$CELTYPE
  6
BYLAYER
  9
$CECOLOR
 62
   256
  9
$CELTSCALE
 40
1.0
  9
$DISPSILH
 70
     0
  9
$DIMSCALE
 40
0.0
  9
$DIMASZ
 40
2.5
  9
$DIMEXO
 40
1.0
  9
$DIMDLI
 40
0.38
  9
$DIMRND
 40
0.0
  9
$DIMDLE
 40
0.0
  9
$DIMEXE
 40
1.0
  9
$DIMTP
 40
0.0
  9
$DIMTM
 40
0.0
  9
$DIMTXT
 40
5.0
  9
$DIMCEN
 40
0.09
  9
$DIMTSZ
 40
0.0
  9
$DIMTOL
 70
     0
  9
$DIMLIM
 70
     0
  9
$DIMTIH
 70
     0
  9
$DIMTOH
 70
     1
  9
$DIMSE1
 70
     0
  9
$DIMSE2
 70
     0
  9
$DIMTAD
 70
     0
  9
$DIMZIN
 70
     8
  9
$DIMBLK
  1

  9
$DIMASO
 70
     1
  9
$DIMSHO
 70
     1
  9
$DIMPOST
  1

  9
$DIMAPOST
  1

  9
$DIMALT
 70
     0
  9
$DIMALTD
 70
     2
  9
$DIMALTF
 40
25.4
  9
$DIMLFAC
 40
1.0
  9
$DIMTOFL
 70
     0
  9
$DIMTVP
 40
0.0
  9
$DIMTIX
 70
     0
  9
$DIMSOXD
 70
     0
  9
$DIMSAH
 70
     0
  9
$DIMBLK1
  1

  9
$DIMBLK2
  1

  9
$DIMSTYLE
  2
STANDARD
  9
$DIMCLRD
 70
     0
  9
$DIMCLRE
 70
     0
  9
$DIMCLRT
 70
     0
  9
$DIMTFAC
 40
1.0
  9
$DIMGAP
 40
0.09
  9
$DIMJUST
 70
     0
  9
$DIMSD1
 70
     0
  9
$DIMSD2
 70
     0
  9
$DIMTOLJ
 70
     1
  9
$DIMTZIN
 70
     8
  9
$DIMALTZ
 70
     0
  9
$DIMALTTZ
 70
     0
  9
$DIMUPT
 70
     1
  9
$DIMDEC
 70
     1
  9
$DIMTDEC
 70
     1
  9
$DIMALTU
 70
     2
  9
$DIMALTTD
 70
     2
  9
$DIMTXSTY
  7
STANDARD
  9
$DIMAUNIT
 70
     0
  9
$DIMADEC
 70
     0
  9
$DIMALTRND
 40
0.0
  9
$DIMAZIN
 70
     0
  9
$DIMDSEP
 70
    46
  9
$DIMATFIT
 70
     3
  9
$DIMFRAC
 70
     0
  9
$DIMLDRBLK
  1

  9
$DIMLUNIT
 70
     2
  9
$DIMLWD
 70
    -2
  9
$DIMLWE
 70
    -2
  9
$DIMTMOVE
 70
     0
  9
$LUNITS
 70
     2
  9
$LUPREC
 70
     2
  9
$SKETCHINC
 40
0.1
  9
$FILLETRAD
 40
1.5
  9
$AUNITS
 70
     0
  9
$AUPREC
 70
     0
  9
$MENU
  1
acad
  9
$ELEVATION
 40
0.0
  9
$PELEVATION
 40
0.0
  9
$THICKNESS
 40
0.0
  9
$LIMCHECK
 70
     0
  9
$CHAMFERA
 40
0.0
  9
$CHAMFERB
 40
0.0
  9
$CHAMFERC
 40
0.0
  9
$CHAMFERD
 40
0.0
  9
$SKPOLY
 70
     0
  9
$TDCREATE
 40
2449283.567812500
  9
$TDUCREATE
 40
2449283.192812500
  9
$TDUPDATE
 40
2458204.416353796
  9
$TDUUPDATE
 40
2458204.041353796
  9
$TDINDWG
 40
1.0091776042
  9
$TDUSRTIMER
 40
1.0091776042
  9
$USRTIMER
 70
     1
  9
$ANGBASE
 50
0.0
  9
$ANGDIR
 70
     0
  9
$PDMODE
 70
     0
  9
$PDSIZE
 40
0.0
  9
$PLINEWID
 40
0.0
  9
$SPLFRAME
 70
     0
  9
$SPLINETYPE
 70
     6
  9
$SPLINESEGS
 70
     8
  9
$HANDSEED
  5
1D3B
  9
$SURFTAB1
 70
     6
  9
$SURFTAB2
 70
     6
  9
$SURFTYPE
 70
     6
  9
$SURFU
 70
     6
  9
$SURFV
 70
     6
  9
$UCSBASE
  2

  9
$UCSNAME
  2

  9
$UCSORG
 10
0.0
 20
0.0
 30
0.0
  9
$UCSXDIR
 10
1.0
 20
0.0
 30
0.0
  9
$UCSYDIR
 10
0.0
 20
1.0
 30
0.0
  9
$UCSORTHOREF
  2

  9
$UCSORTHOVIEW
 70
     0
  9
$UCSORGTOP
 10
0.0
 20
0.0
 30
0.0
  9
$UCSORGBOTTOM
 10
0.0
 20
0.0
 30
0.0
  9
$UCSORGLEFT
 10
0.0
 20
0.0
 30
0.0
  9
$UCSORGRIGHT
 10
0.0
 20
0.0
 30
0.0
  9
$UCSORGFRONT
 10
0.0
 20
0.0
 30
0.0
  9
$UCSORGBACK
 10
0.0
 20
0.0
 30
0.0
  9
$PUCSBASE
  2

  9
$PUCSNAME
  2

  9
$PUCSORG
 10
0.0
 20
0.0
 30
0.0
  9
$PUCSXDIR
 10
1.0
 20
0.0
 30
0.0
  9
$PUCSYDIR
 10
0.0
 20
1.0
 30
0.0
  9
$PUCSORTHOREF
  2

  9
$PUCSORTHOVIEW
 70
     0
  9
$PUCSORGTOP
 10
0.0
 20
0.0
 30
0.0
  9
$PUCSORGBOTTOM
 10
0.0
 20
0.0
 30
0.0
  9
$PUCSORGLEFT
 10
0.0
 20
0.0
 30
0.0
  9
$PUCSORGRIGHT
 10
0.0
 20
0.0
 30
0.0
  9
$PUCSORGFRONT
 10
0.0
 20
0.0
 30
0.0
  9
$PUCSORGBACK
 10
0.0
 20
0.0
 30
0.0
  9
$USERI1
 70
     0
  9
$USERI2
 70
     0
  9
$USERI3
 70
     0
  9
$USERI4
 70
     0
  9
$USERI5
 70
     0
  9
$USERR1
 40
0.0
  9
$USERR2
 40
0.0
  9
$USERR3
 40
0.0
  9
$USERR4
 40
0.0
  9
$USERR5
 40
0.0
  9
$WORLDVIEW
 70
     1
  9
$SHADEDGE
 70
     3
  9
$SHADEDIF
 70
    70
  9
$TILEMODE
 70
     1
  9
$MAXACTVP
 70
    16
  9
$PINSBASE
 10
0.0
 20
0.0
 30
0.0
  9
$PLIMCHECK
 70
     0
  9
$PEXTMIN
 10
1.000000000000000E+20
 20
1.000000000000000E+20
 30
1.000000000000000E+20
  9
$PEXTMAX
 10
-1.000000000000000E+20
 20
-1.000000000000000E+20
 30
-1.000000000000000E+20
  9
$PLIMMIN
 10
0.0
 20
0.0
  9
$PLIMMAX
 10
12.0
 20
9.0
  9
$UNITMODE
 70
     0
  9
$VISRETAIN
 70
     0
  9
$PLINEGEN
 70
     0
  9
$PSLTSCALE
 70
     1
  9
$TREEDEPTH
 70
  3020
  9
$CMLSTYLE
  2
STANDARD
  9
$CMLJUST
 70
     0
  9
$CMLSCALE
 40
1.0
  9
$PROXYGRAPHICS
 70
     1
  9
$MEASUREMENT
 70
     0
  9
$CELWEIGHT
370
    -1
  9
$ENDCAPS
280
     0
  9
$JOINSTYLE
280
     0
  9
$LWDISPLAY
290
     0
  9
$INSUNITS
 70
     0
  9
$HYPERLINKBASE
  1

  9
$STYLESHEET
  1

  9
$XEDIT
290
     1
  9
$CEPSNTYPE
380
     0
  9
$PSTYLEMODE
290
     1
  9
$FINGERPRINTGUID
  2
{D50BFF66-B725-433B-9FA2-F7BCAAF1934A}
  9
$VERSIONGUID
  2
{02F76174-8A8E-4EB2-A925-D443CCCAA7BD}
  9
$EXTNAMES
290
     1
  9
$PSVPSCALE
 40
0.0
  9
$OLESTARTUP
290
     0
  0
ENDSEC
  0
SECTION
  2
CLASSES
  0
CLASS
  1
LWPOLYLINE
  2
AcDbPolyline
  3
AutoCAD 2000
 90
    32768
280
     0
281
     1
  0
CLASS
  1
DICTIONARYVAR
  2
AcDbDictionaryVar
  3
AutoCAD 2000
 90
        0
280
     0
281
     0
  0
CLASS
  1
HATCH
  2
AcDbHatch
  3
AutoCAD 2000
 90
    32768
280
     0
281
     1
  0
CLASS
  1
ACDBDICTIONARYWDFLT
  2
AcDbDictionaryWithDefault
  3
AutoCAD 2000
 90
        0
280
     0
281
     0
  0
CLASS
  1
ACDBPLACEHOLDER
  2
AcDbPlaceHolder
  3
AutoCAD 2000
 90
        0
280
     0
281
     0
  0
CLASS
  1
LAYOUT
  2
AcDbLayout
  3
AutoCAD 2000
 90
        0
280
     0
281
     0
  0
CLASS
  1
AMGSETTINGSOBJ
  2
AmgSettingsObj
  3
"AcadM|Product Description: AutoCAD Mechanical 2000|Company: Autodesk"
 90
        0
280
     0
281
     0
  0
CLASS
  1
ACME_DOCUMENT
  2
AcMeDbDoc
  3
AcMeServices
 90
        0
280
     0
281
     0
  0
CLASS
  1
ACMESCOPE
  2
AcMeScope
  3
AcMeServices
 90
        0
280
     0
281
     0
  0
CLASS
  1
ACMECOMMANDHISTORY
  2
AcMeCommandHistory
  3
AcMeServices
 90
        0
280
     0
281
     0
  0
CLASS
  1
ACIMSYSVARMAN
  2
AcImSysVarManager
  3
AcMeServices
 90
        0
280
     0
281
     0
  0
CLASS
  1
ACIMREALSYSVAR
  2
AcImRealSysVar
  3
AcMeServices
 90
        0
280
     0
281
     0
  0
CLASS
  1
ACIMINTSYSVAR
  2
AcImIntSysVar
  3
AcMeServices
 90
        0
280
     0
281
     0
  0
CLASS
  1
ACMEDRAWINGMAN
  2
AcMeDrawingMan
  3
AcMeServices
 90
        0
280
     0
281
     0
  0
CLASS
  1
ACMEVIEW
  2
AcMeView
  3
AcMeServices
 90
        0
280
     0
281
     0
  0
CLASS
  1
ACDBENTITYCACHE
  2
AcMeEntityCache
  3
AcMeServices
 90
        0
280
     0
281
     0
  0
CLASS
  1
GSMANAGER
  2
AcMeGSManager
  3
AcMeServices
 90
        0
280
     0
281
     0
  0
CLASS
  1
AMDTINTERNALREACTOR
  2
AmdtInternalReactor
  3
AcMeServices
 90
        0
280
     0
281
     0
  0
CLASS
  1
ACMESTATEMGR
  2
AcMeStateMgr
  3
AcMeServices
 90
        0
280
     0
281
     0
  0
CLASS
  1
ACGREFMASTER
  2
AcGrefMaster
  3
AcAttribServices
 90
        0
280
     0
281
     0
  0
CLASS
  1
AM_DRAWING_MGR
  2
AcDmDwgMgr
  3
AcMechDwgViewMgmt
 90
        0
280
     0
281
     0
  0
CLASS
  1
AM_DWG_DOCUMENT
  2
AcDmDwgDocument
  3
AcMechDwgViewMgmt
 90
        0
280
     0
281
     0
  0
CLASS
  1
AM_DWG_SHEET
  2
AcDmSheet
  3
AcMechDwgViewMgmt
 90
        0
280
     0
281
     0
  0
CLASS
  1
AM_VIEWDIMPARMAP
  2
AcDmViewDimParMap
  3
AcMechDwgViewMgmt
 90
        0
280
     0
281
     0
  0
CLASS
  1
AM_DWGMGR_NAME
  2
AcDmDwgMgrName
  3
AcMechDwgViewMgmt
 90
        0
280
     0
281
     0
  0
CLASS
  1
ACME_DATABASE
  2
AcMeDbDatabase
  3
AcMeServices
 90
        0
280
     0
281
     0
  0
CLASS
  1
ACRFINSADJUSTERMGR
  2
AcRfInsAdjusterMgr
  3
AcMeServices
 90
        0
280
     0
281
     0
  0
CLASS
  1
ACGREFACADMASTER
  2
AcGrefacadMaster
  3
AcGrefServices
 90
        0
280
     0
281
     0
  0
CLASS
  1
AMDTMENUSTATEMGR
  2
AmdtMenuStateMgr
  3
McadcomServices
 90
        0
280
     0
281
     0
  0
CLASS
  1
AMDTMCOMMENUSTATE
  2
AmdtMcomMenuState
  3
McadcomServices
 90
        0
280
     0
281
     0
  0
CLASS
  1
AMIMASTER
  2
AmiMaster
  3
AmiServices
 90
        0
280
     0
281
     0
  0
CLASS
  1
ASAPP
  2
AcAsAppObject
  3
AutoSurfServices
 90
        0
280
     0
281
     0
  0
CLASS
  1
IM_STATIC_MAN
  2
AcImStaticVarManager
  3
AcMeServices
 90
        0
280
     0
281
     0
  0
CLASS
  1
ACIMSTRSYSVAR
  2
AcImStrSysVar
  3
AcMeServices
 90
        0
280
     0
281
     0
  0
CLASS
  1
ACIMDBLSTATICVAR
  2
AcImDblStaticVar
  3
AcMeServices
 90
        0
280
     0
281
     0
  0
CLASS
  1
ACIMSTRSTATICVAR
  2
AcImStrStaticVar
  3
AcMeServices
 90
        0
280
     0
281
     0
  0
CLASS
  1
ACIMINTSTATICVAR
  2
AcImIntStaticVar
  3
AcMeServices
 90
        0
280
     0
281
     0
  0
CLASS
  1
ACASGREFMASTER
  2
AcAsGrefMaster
  3
AutoSurfResolverServices
 90
        0
280
     0
281
     0
  0
CLASS
  1
ACADGREFMODULE
  2
AcAdGrefModule
  3
AdGrefServices
 90
        0
280
     0
281
     0
  0
CLASS
  1
AMDTMAPISURFMOUDULE
  2
AmdtMApiSurfModule
  3
MApiSurfServices
 90
        0
280
     0
281
     0
  0
CLASS
  1
MAPIAMMOUDLE
  2
MApiAmModule
  3
MApiAmServices
 90
        0
280
     0
281
     0
  0
CLASS
  1
AMDTADMENUSTATE
  2
AmdtAdMenuState
  3
DesignerServices
 90
        0
280
     0
281
     0
  0
CLASS
  1
ADAPPL
  2
AcAdAppl
  3
DesignerServices
 90
        0
280
     0
281
     0
  0
CLASS
  1
DEPMGR
  2
AcAdDepMgr
  3
DesignerServices
 90
        0
280
     0
281
     0
  0
CLASS
  1
PARAMMGR
  2
AcAdParamMgr
  3
DesignerServices
 90
        0
280
     0
281
     0
  0
CLASS
  1
PARAMSCOPE
  2
AcAdParamScope
  3
DesignerServices
 90
        0
280
     0
281
     0
  0
CLASS
  1
NAMEDAPPL
  2
AcAdNamedAppl
  3
DesignerServices
 90
        0
280
     0
281
     0
  0
CLASS
  1
AMDTDMMENUSTATE
  2
AmdtDmMenuState
  3
AcMechDwgViewMgmt
 90
        0
280
     0
281
     0
  0
CLASS
  1
MAPIADMODULE
  2
MApiAdModule
  3
MApiAdServices
 90
        0
280
     0
281
     0
  0
CLASS
  1
AMDTAMMENUSTATE
  2
AmdtAmMenuState
  3
DesignerAssemblies
 90
        0
280
     0
281
     0
  0
CLASS
  1
ACAMPROJECT
  2
AcAmProject
  3
DesignerAssemblies
 90
        0
280
     0
281
     0
  0
CLASS
  1
ACAMGRCOMPDEF
  2
AcAmGrCompDef
  3
DesignerAssemblies
 90
        0
280
     0
281
     0
  0
CLASS
  1
ACCMCONTEXT
  2
AcCmContext
  3
DesignerAssemblies
 90
        0
280
     0
281
     0
  0
CLASS
  1
ACAMCOMPDEF
  2
AcAmCompDef
  3
DesignerAssemblies
 90
        0
280
     0
281
     0
  0
CLASS
  1
ACAMCOMPDEFMGR
  2
AcAmCompDefMgr
  3
DesignerAssemblies
 90
        0
280
     0
281
     0
  0
CLASS
  1
AMCONTEXTMGR
  2
AcAmContextMgr
  3
DesignerAssemblies
 90
        0
280
     0
281
     0
  0
CLASS
  1
ACAMCONTEXTMODELER
  2
AcAmContextModeler
  3
DesignerAssemblies
 90
        0
280
     0
281
     0
  0
CLASS
  1
ACMDATADICTIONARY
  2
AcmDataDictionary
  3
"AcmSymBB|Product Description: AutoCAD Mechanical 2000|Company: Autodesk"
 90
        0
280
     0
281
     0
  0
CLASS
  1
ACMDATAENTRYBLOCK
  2
AcmDataEntryBlock
  3
"AcmSymBB|Product Description: AutoCAD Mechanical 2000|Company: Autodesk"
 90
        0
280
     0
281
     0
  0
CLASS
  1
CATALOGSTATE
  2
AcAmCatalogState
  3
DesignerAssemblies
 90
        0
280
     0
281
     0
  0
CLASS
  1
ACAMGRCOMPDEFSET
  2
AcAmGrCompDefSet
  3
DesignerAssemblies
 90
        0
280
     0
281
     0
  0
CLASS
  1
AMDTBROWSERDBTAB
  2
AmdtBrowserDbTab
  3
McadcomServices
 90
        0
280
     0
281
     0
  0
CLASS
  1
CBROWSERAPPOBJECT
  2
CBrowserAppObject
  3
McadcomServices
 90
        0
280
     0
281
     0
  0
CLASS
  1
DM_PLACEHOLDER
  2
AcDmSelsetPlaceholder
  3
AcMechDwgViewMgmt
 90
        0
280
     0
281
     0
  0
CLASS
  1
AMGOBJPROPCFG
  2
AmgObjPropCfg
  3
"AmgLay|Product Description: AutoCAD Mechanical 2000|Company: Autodesk"
 90
        1
280
     0
281
     0
  0
CLASS
  1
ACAMGFILTERDAT
  2
AcAmgFilterDat
  3
"AcadM|Product Description: AutoCAD Mechanical 2000|Company: Autodesk"
 90
        0
280
     0
281
     0
  0
CLASS
  1
LAYER_INDEX
  2
AcDbLayerIndex
  3
AutoCAD 2000
 90
        0
280
     0
281
     0
  0
CLASS
  1
IDBUFFER
  2
AcDbIdBuffer
  3
AutoCAD 2000
 90
        0
280
     0
281
     0
  0
ENDSEC
  0
SECTION
  2
TABLES
  0
TABLE
  2
VPORT
  5
3CD
330
0
100
AcDbSymbolTable
 70
     3
  0
VPORT
  5
1D3A
330
3CD
100
AcDbSymbolTableRecord
100
AcDbViewportTableRecord
  2
*Active
 70
     0
 10
0.0
 20
0.0
 11
1.0
 21
1.0
 12
0.0
 22
0.0
 13
0.0
 23
0.0
 14
1.0
 24
1.0
 15
5.0
 25
5.0
 16
0.0
 26
0.0
 36
1.0
 17
248.0049559999999
 27
211.1271804422
 37
0.0
 40
492.2609398844001
 41
1.489721886336154
 42
50.0
 43
0.0
 44
0.0
 50
0.0
 51
0.0
 71
     0
 72
 20000
 73
     1
 74
     1
 75
     0
 76
     0
 77
     0
 78
     0
281
     0
 65
     0
110
0.0
120
0.0
130
0.0
111
1.0
121
0.0
131
0.0
112
0.0
122
1.0
132
0.0
 79
     0
146
0.0
  0
ENDTAB
  0
TABLE
  2
LTYPE
  5
3CA
330
0
100
AcDbSymbolTable
 70
    39
  0
LTYPE
  5
3D7
330
3CA
100
AcDbSymbolTableRecord
100
AcDbLinetypeTableRecord
  2
BYBLOCK
 70
     0
  3

 72
    65
 73
     0
 40
0.0
  0
LTYPE
  5
3D8
330
3CA
100
AcDbSymbolTableRecord
100
AcDbLinetypeTableRecord
  2
BYLAYER
 70
     0
  3

 72
    65
 73
     0
 40
0.0
  0
LTYPE
  5
3D9
330
3CA
100
AcDbSymbolTableRecord
100
AcDbLinetypeTableRecord
  2
CONTINUOUS
 70
     0
  3
Solid line
 72
    65
 73
     0
 40
0.0
  0
LTYPE
  5
3F5
330
3CA
100
AcDbSymbolTableRecord
100
AcDbLinetypeTableRecord
  2
BORDER
 70
     0
  3
__ __ . __ __ . __ __ . __ __ . __ __ . __ __ .
 72
    65
 73
     6
 40
1.75
 49
0.5
 74
     0
 49
-0.25
 74
     0
 49
0.5
 74
     0
 49
-0.25
 74
     0
 49
0.0
 74
     0
 49
-0.25
 74
     0
  0
LTYPE
  5
3F6
330
3CA
100
AcDbSymbolTableRecord
100
AcDbLinetypeTableRecord
  2
BORDER2
 70
     0
  3
__.__.__.__.__.__.__.__.__.__.__.__.__.__.__.__
 72
    65
 73
     6
 40
0.875
 49
0.25
 74
     0
 49
-0.125
 74
     0
 49
0.25
 74
     0
 49
-0.125
 74
     0
 49
0.0
 74
     0
 49
-0.125
 74
     0
  0
LTYPE
  5
3F7
330
3CA
100
AcDbSymbolTableRecord
100
AcDbLinetypeTableRecord
  2
BORDERX2
 70
     0
  3
____  ____  .  ____  ____  .  ____  ____  .  __
 72
    65
 73
     6
 40
3.5
 49
1.0
 74
     0
 49
-0.5
 74
     0
 49
1.0
 74
     0
 49
-0.5
 74
     0
 49
0.0
 74
     0
 49
-0.5
 74
     0
  0
LTYPE
  5
3F8
330
3CA
100
AcDbSymbolTableRecord
100
AcDbLinetypeTableRecord
  2
CENTER
 70
     0
  3
____ _ ____ _ ____ _ ____ _ ____ _ ____ _ ____ 
 72
    65
 73
     4
 40
2.0
 49
1.25
 74
     0
 49
-0.25
 74
     0
 49
0.25
 74
     0
 49
-0.25
 74
     0
  0
LTYPE
  5
3F9
330
3CA
100
AcDbSymbolTableRecord
100
AcDbLinetypeTableRecord
  2
CENTER2
 70
     0
  3
___ _ ___ _ ___ _ ___ _ ___ _ ___ _ ___ _ ___ _
 72
    65
 73
     4
 40
1.125
 49
0.75
 74
     0
 49
-0.125
 74
     0
 49
0.125
 74
     0
 49
-0.125
 74
     0
  0
LTYPE
  5
3FA
330
3CA
100
AcDbSymbolTableRecord
100
AcDbLinetypeTableRecord
  2
CENTERX2
 70
     0
  3
________  __  ________  __  ________  __  _____
 72
    65
 73
     4
 40
4.0
 49
2.5
 74
     0
 49
-0.5
 74
     0
 49
0.5
 74
     0
 49
-0.5
 74
     0
  0
LTYPE
  5
3FB
330
3CA
100
AcDbSymbolTableRecord
100
AcDbLinetypeTableRecord
  2
DASHDOT
 70
     0
  3
__ . __ . __ . __ . __ . __ . __ . __ . __ . __
 72
    65
 73
     4
 40
1.0
 49
0.5
 74
     0
 49
-0.25
 74
     0
 49
0.0
 74
     0
 49
-0.25
 74
     0
  0
LTYPE
  5
3FC
330
3CA
100
AcDbSymbolTableRecord
100
AcDbLinetypeTableRecord
  2
DASHDOT2
 70
     0
  3
_._._._._._._._._._._._._._._._._._._._._._._._
 72
    65
 73
     4
 40
0.5
 49
0.25
 74
     0
 49
-0.125
 74
     0
 49
0.0
 74
     0
 49
-0.125
 74
     0
  0
LTYPE
  5
3FD
330
3CA
100
AcDbSymbolTableRecord
100
AcDbLinetypeTableRecord
  2
DASHDOTX2
 70
     0
  3
____  .  ____  .  ____  .  ____  .  ____  .  __
 72
    65
 73
     4
 40
2.0
 49
1.0
 74
     0
 49
-0.5
 74
     0
 49
0.0
 74
     0
 49
-0.5
 74
     0
  0
LTYPE
  5
3FE
330
3CA
100
AcDbSymbolTableRecord
100
AcDbLinetypeTableRecord
  2
DASHED
 70
     0
  3
__ __ __ __ __ __ __ __ __ __ __ __ __ __ __ __
 72
    65
 73
     2
 40
0.75
 49
0.5
 74
     0
 49
-0.25
 74
     0
  0
LTYPE
  5
3FF
330
3CA
100
AcDbSymbolTableRecord
100
AcDbLinetypeTableRecord
  2
DASHED2
 70
     0
  3
_ _ _ _ _ _ _ _ _ _ _ _ _ _ _ _ _ _ _ _ _ _ _ _
 72
    65
 73
     2
 40
0.375
 49
0.25
 74
     0
 49
-0.125
 74
     0
  0
LTYPE
  5
400
330
3CA
100
AcDbSymbolTableRecord
100
AcDbLinetypeTableRecord
  2
DASHEDX2
 70
     0
  3
____  ____  ____  ____  ____  ____  ____  ____ 
 72
    65
 73
     2
 40
1.5
 49
1.0
 74
     0
 49
-0.5
 74
     0
  0
LTYPE
  5
401
330
3CA
100
AcDbSymbolTableRecord
100
AcDbLinetypeTableRecord
  2
DIVIDE
 70
     0
  3
____ . . ____ . . ____ . . ____ . . ____ . . __
 72
    65
 73
     6
 40
1.25
 49
0.5
 74
     0
 49
-0.25
 74
     0
 49
0.0
 74
     0
 49
-0.25
 74
     0
 49
0.0
 74
     0
 49
-0.25
 74
     0
  0
LTYPE
  5
402
330
3CA
100
AcDbSymbolTableRecord
100
AcDbLinetypeTableRecord
  2
DIVIDE2
 70
     0
  3
__..__..__..__..__..__..__..__..__..__..__..__.
 72
    65
 73
     6
 40
0.625
 49
0.25
 74
     0
 49
-0.125
 74
     0
 49
0.0
 74
     0
 49
-0.125
 74
     0
 49
0.0
 74
     0
 49
-0.125
 74
     0
  0
LTYPE
  5
403
330
3CA
100
AcDbSymbolTableRecord
100
AcDbLinetypeTableRecord
  2
DIVIDEX2
 70
     0
  3
________  .  .  ________  .  .  ________  .  . 
 72
    65
 73
     6
 40
2.5
 49
1.0
 74
     0
 49
-0.5
 74
     0
 49
0.0
 74
     0
 49
-0.5
 74
     0
 49
0.0
 74
     0
 49
-0.5
 74
     0
  0
LTYPE
  5
404
330
3CA
100
AcDbSymbolTableRecord
100
AcDbLinetypeTableRecord
  2
DOT
 70
     0
  3
. . . . . . . . . . . . . . . . . . . . . . . .
 72
    65
 73
     2
 40
0.25
 49
0.0
 74
     0
 49
-0.25
 74
     0
  0
LTYPE
  5
405
330
3CA
100
AcDbSymbolTableRecord
100
AcDbLinetypeTableRecord
  2
DOT2
 70
     0
  3
...............................................
 72
    65
 73
     2
 40
0.125
 49
0.0
 74
     0
 49
-0.125
 74
     0
  0
LTYPE
  5
406
330
3CA
100
AcDbSymbolTableRecord
100
AcDbLinetypeTableRecord
  2
DOTX2
 70
     0
  3
.  .  .  .  .  .  .  .  .  .  .  .  .  .  .  . 
 72
    65
 73
     2
 40
0.5
 49
0.0
 74
     0
 49
-0.5
 74
     0
  0
LTYPE
  5
407
330
3CA
100
AcDbSymbolTableRecord
100
AcDbLinetypeTableRecord
  2
HIDDEN
 70
     0
  3
__ __ __ __ __ __ __ __ __ __ __ __ __ __ __ __
 72
    65
 73
     2
 40
0.375
 49
0.25
 74
     0
 49
-0.125
 74
     0
  0
LTYPE
  5
408
330
3CA
100
AcDbSymbolTableRecord
100
AcDbLinetypeTableRecord
  2
HIDDEN2
 70
     0
  3
_ _ _ _ _ _ _ _ _ _ _ _ _ _ _ _ _ _ _ _ _ _ _ _
 72
    65
 73
     2
 40
0.1875
 49
0.125
 74
     0
 49
-0.0625
 74
     0
  0
LTYPE
  5
409
330
3CA
100
AcDbSymbolTableRecord
100
AcDbLinetypeTableRecord
  2
HIDDENX2
 70
     0
  3
____ ____ ____ ____ ____ ____ ____ ____ ____ __
 72
    65
 73
     2
 40
0.75
 49
0.5
 74
     0
 49
-0.25
 74
     0
  0
LTYPE
  5
40A
330
3CA
100
AcDbSymbolTableRecord
100
AcDbLinetypeTableRecord
  2
PHANTOM
 70
     0
  3
______  __  __  ______  __  __  ______  __  __ 
 72
    65
 73
     6
 40
2.5
 49
1.25
 74
     0
 49
-0.25
 74
     0
 49
0.25
 74
     0
 49
-0.25
 74
     0
 49
0.25
 74
     0
 49
-0.25
 74
     0
  0
LTYPE
  5
40B
330
3CA
100
AcDbSymbolTableRecord
100
AcDbLinetypeTableRecord
  2
PHANTOM2
 70
     0
  3
___ _ _ ___ _ _ ___ _ _ ___ _ _ ___ _ _ ___ _ _
 72
    65
 73
     6
 40
1.25
 49
0.625
 74
     0
 49
-0.125
 74
     0
 49
0.125
 74
     0
 49
-0.125
 74
     0
 49
0.125
 74
     0
 49
-0.125
 74
     0
  0
LTYPE
  5
40C
330
3CA
100
AcDbSymbolTableRecord
100
AcDbLinetypeTableRecord
  2
PHANTOMX2
 70
     0
  3
____________    ____    ____    ____________   
 72
    65
 73
     6
 40
5.0
 49
2.5
 74
     0
 49
-0.5
 74
     0
 49
0.5
 74
     0
 49
-0.5
 74
     0
 49
0.5
 74
     0
 49
-0.5
 74
     0
  0
LTYPE
  5
40D
330
3CA
100
AcDbSymbolTableRecord
100
AcDbLinetypeTableRecord
  2
TENSEN
 70
     0
  3

 72
    65
 73
     2
 40
4.0
 49
3.0
 74
     0
 49
-1.0
 74
     0
  0
LTYPE
  5
40E
330
3CA
100
AcDbSymbolTableRecord
100
AcDbLinetypeTableRecord
  2
ITTEN
 70
     0
  3

 72
    65
 73
     4
 40
8.0
 49
5.0
 74
     0
 49
-1.0
 74
     0
 49
1.0
 74
     0
 49
-1.0
 74
     0
  0
LTYPE
  5
40F
330
3CA
100
AcDbSymbolTableRecord
100
AcDbLinetypeTableRecord
  2
TENSEN3
 70
     0
  3

 72
    65
 73
     2
 40
4.0
 49
3.0
 74
     0
 49
-1.0
 74
     0
  0
LTYPE
  5
410
330
3CA
100
AcDbSymbolTableRecord
100
AcDbLinetypeTableRecord
  2
ITTEN1
 70
     0
  3

 72
    65
 73
     4
 40
8.199999999999999
 49
5.0
 74
     0
 49
-1.0
 74
     0
 49
1.199999999999999
 74
     0
 49
-1.0
 74
     0
  0
LTYPE
  5
1CD5
330
3CA
100
AcDbSymbolTableRecord
100
AcDbLinetypeTableRecord
  2
ASULTYPE
 70
     0
  3
実線
 72
    65
 73
     2
 40
3.0
 49
2.5
 74
     0
 49
0.5
 74
     0
  0
LTYPE
  5
1CD6
330
3CA
100
AcDbSymbolTableRecord
100
AcDbLinetypeTableRecord
  2
ASVLTYPE
 70
     0
  3
__ __ __ __ __ __ __ __ __ __ __ __ __ __ __ __ __ __ __ __ __
 72
    65
 73
     2
 40
0.75
 49
0.5
 74
     0
 49
-0.25
 74
     0
  0
LTYPE
  5
1D17
330
3CA
100
AcDbSymbolTableRecord
100
AcDbLinetypeTableRecord
  2
AM_ISO02W050
 70
     0
  3
__ __ __ __ __ __ __ __ __ __ __ __ __ __ __
 72
    65
 73
     2
 40
7.5
 49
6.0
 74
     0
 49
-1.5
 74
     0
  0
LTYPE
  5
1D18
330
3CA
100
AcDbSymbolTableRecord
100
AcDbLinetypeTableRecord
  2
AM_ISO08W050
 70
     0
  3
____ . ____ . ____ . ____ . ____ . ____ . ____
 72
    65
 73
     4
 40
18.0
 49
12.0
 74
     0
 49
-1.5
 74
     0
 49
3.0
 74
     0
 49
-1.5
 74
     0
  0
LTYPE
  5
1D19
330
3CA
100
AcDbSymbolTableRecord
100
AcDbLinetypeTableRecord
  2
AM_ISO09W050
 70
     0
  3
_____ . . _____ . . _____ . . ____ .. ____
 72
    65
 73
     6
 40
22.5
 49
12.0
 74
     0
 49
-1.5
 74
     0
 49
3.0
 74
     0
 49
-1.5
 74
     0
 49
3.0
 74
     0
 49
-1.5
 74
     0
  0
LTYPE
  5
1D1A
330
3CA
100
AcDbSymbolTableRecord
100
AcDbLinetypeTableRecord
  2
Amconstr
 70
     0
  3
_______________________
 72
    65
 73
     2
 40
9999.0
 49
9999.0
 74
     0
 49
0.0
 74
     0
  0
LTYPE
  5
1D1B
330
3CA
100
AcDbSymbolTableRecord
100
AcDbLinetypeTableRecord
  2
AM_ISO08W050x2
 70
     0
  3
__ . __ . __ . __ . __ . __
 72
    65
 73
     4
 40
9.0
 49
6.0
 74
     0
 49
-0.75
 74
     0
 49
1.5
 74
     0
 49
-0.75
 74
     0
  0
LTYPE
  5
1D1C
330
3CA
100
AcDbSymbolTableRecord
100
AcDbLinetypeTableRecord
  2
AM_ISO02W050x2
 70
     0
  3
 _ _ _ _ _ _ _ _ _ _ _ _
 72
    65
 73
     2
 40
3.75
 49
3.0
 74
     0
 49
-0.75
 74
     0
  0
LTYPE
  5
1D1F
330
3CA
100
AcDbSymbolTableRecord
100
AcDbLinetypeTableRecord
  2
Amzigzag
 70
     0
  3
/\/-/\/-/\/-/\/-/\/-/\/
 72
    65
 73
     2
 40
11.00009999999999
 49
0.0001
 74
     4
 75
   135
340
1D1E
 46
0.04
 50
0.0
 44
0.0
 45
0.0
 49
-11.0
 74
     0
  0
LTYPE
  5
1D20
330
3CA
100
AcDbSymbolTableRecord
100
AcDbLinetypeTableRecord
  2
Amzigzag2
 70
     0
  3
/\/-/\/-/\/-/\/-/\/-/\/
 72
    65
 73
     2
 40
0.4401
 49
0.0001
 74
     4
 75
   135
340
1D1E
 46
0.0016
 50
0.0
 44
0.0
 45
0.0
 49
-0.4400000000000001
 74
     0
  0
ENDTAB
  0
TABLE
  2
LAYER
  5
3C7
330
0
100
AcDbSymbolTable
 70
    12
  0
LAYER
  5
3D4
330
3C7
100
AcDbSymbolTableRecord
100
AcDbLayerTableRecord
  2
0
 70
     0
 62
     7
  6
CONTINUOUS
370
    -3
390
1C3D
  0
LAYER
  5
416
330
3C7
100
AcDbSymbolTableRecord
100
AcDbLayerTableRecord
  2
DAI
 70
     0
 62
     8
  6
CONTINUOUS
370
    -3
390
1C3D
  0
LAYER
  5
417
330
3C7
100
AcDbSymbolTableRecord
100
AcDbLayerTableRecord
  2
1
 70
     0
 62
     1
  6
ITTEN1
370
    -3
390
1C3D
  0
LAYER
  5
418
330
3C7
100
AcDbSymbolTableRecord
100
AcDbLayerTableRecord
  2
2
 70
     0
 62
     2
  6
TENSEN
370
    -3
390
1C3D
  0
LAYER
  5
419
330
3C7
100
AcDbSymbolTableRecord
100
AcDbLayerTableRecord
  2
3
 70
     0
 62
     3
  6
CONTINUOUS
370
    -3
390
1C3D
  0
LAYER
  5
41A
330
3C7
100
AcDbSymbolTableRecord
100
AcDbLayerTableRecord
  2
4
 70
     0
 62
     6
  6
CONTINUOUS
370
    -3
390
1C3D
  0
LAYER
  5
41B
330
3C7
100
AcDbSymbolTableRecord
100
AcDbLayerTableRecord
  2
5
 70
     0
 62
     6
  6
TENSEN3
370
    -3
390
1C3D
  0
LAYER
  5
41C
330
3C7
100
AcDbSymbolTableRecord
100
AcDbLayerTableRecord
  2
6
 70
     0
 62
     6
  6
ITTEN
370
    -3
390
1C3D
  0
LAYER
  5
41D
330
3C7
100
AcDbSymbolTableRecord
100
AcDbLayerTableRecord
  2
7
 70
     0
 62
     3
  6
TENSEN
370
    -3
390
1C3D
  0
LAYER
  5
41E
330
3C7
100
AcDbSymbolTableRecord
100
AcDbLayerTableRecord
  2
8
 70
     0
 62
     3
  6
ITTEN1
370
    -3
390
1C3D
  0
LAYER
  5
41F
330
3C7
100
AcDbSymbolTableRecord
100
AcDbLayerTableRecord
  2
DEFPOINTS
 70
     0
 62
     7
  6
CONTINUOUS
290
     0
370
    -3
390
1C3D
  0
LAYER
  5
420
330
3C7
100
AcDbSymbolTableRecord
100
AcDbLayerTableRecord
  2
ASHADE
 70
     0
 62
     7
  6
CONTINUOUS
370
    -3
390
1C3D
  0
ENDTAB
  0
TABLE
  2
STYLE
  5
3C8
330
0
100
AcDbSymbolTable
 70
    21
  0
STYLE
  5
3D5
330
3C8
100
AcDbSymbolTableRecord
100
AcDbTextStyleTableRecord
  2
STANDARD
 70
     0
 40
0.0
 41
1.0
 50
0.0
 71
     0
 42
0.2
  3
txt
  4

  0
STYLE
  5
3E2
330
3C8
100
AcDbSymbolTableRecord
100
AcDbTextStyleTableRecord
  2
TEXT-1
 70
     0
 40
0.0
 41
1.0
 50
0.0
 71
     0
 42
0.2
  3
italicc.shx
  4

  0
STYLE
  5
3E3
330
3C8
100
AcDbSymbolTableRecord
100
AcDbTextStyleTableRecord
  2
TEST1
 70
     0
 40
0.0
 41
1.0
 50
0.0
 71
     0
 42
0.2
  3
italicc.shx
  4

  0
STYLE
  5
3E4
330
3C8
100
AcDbSymbolTableRecord
100
AcDbTextStyleTableRecord
  2
TEST2
 70
     0
 40
10.0
 41
1.0
 50
0.0
 71
     0
 42
10.0
  3
txt
  4
extfont
  0
STYLE
  5
3E5
330
3C8
100
AcDbSymbolTableRecord
100
AcDbTextStyleTableRecord
  2
BIGFONT
 70
     0
 40
5.0
 41
0.7
 50
0.0
 71
     0
 42
5.0
  3
txt.shx
  4
extfont.shx
  0
STYLE
  5
3E6
330
3C8
100
AcDbSymbolTableRecord
100
AcDbTextStyleTableRecord
  2
ROMAND
 70
     0
 40
4.0
 41
0.6
 50
0.0
 71
     0
 42
4.0
  3
romand
  4

  0
STYLE
  5
3E7
330
3C8
100
AcDbSymbolTableRecord
100
AcDbTextStyleTableRecord
  2
EXTFONT
 70
     0
 40
3.5
 41
0.5
 50
0.0
 71
     0
 42
3.5
  3
txt.shx
  4
extfont
  0
STYLE
  5
3E8
330
3C8
100
AcDbSymbolTableRecord
100
AcDbTextStyleTableRecord
  2
ROMANS
 70
     0
 40
2.5
 41
0.6
 50
0.0
 71
     0
 42
2.5
  3
romans
  4

  0
STYLE
  5
3E9
330
3C8
100
AcDbSymbolTableRecord
100
AcDbTextStyleTableRecord
  2
SCRIPTC
 70
     0
 40
20.0
 41
1.0
 50
0.0
 71
     0
 42
20.0
  3
complex.shx
  4

  0
STYLE
  5
3EA
330
3C8
100
AcDbSymbolTableRecord
100
AcDbTextStyleTableRecord
  2
SCRIPTS
 70
     0
 40
20.0
 41
1.0
 50
0.0
 71
     0
 42
20.0
  3
scripts
  4

  0
STYLE
  5
3EB
330
3C8
100
AcDbSymbolTableRecord
100
AcDbTextStyleTableRecord
  2
ROMANT
 70
     0
 40
20.0
 41
1.0
 50
0.0
 71
     0
 42
20.0
  3
romant
  4

  0
STYLE
  5
3EC
330
3C8
100
AcDbSymbolTableRecord
100
AcDbTextStyleTableRecord
  2
GOTHICE
 70
     0
 40
20.0
 41
1.0
 50
0.0
 71
     0
 42
20.0
  3
gothice
  4

  0
STYLE
  5
3ED
330
3C8
100
AcDbSymbolTableRecord
100
AcDbTextStyleTableRecord
  2
GOTHICG
 70
     0
 40
20.0
 41
1.0
 50
0.0
 71
     0
 42
20.0
  3
gothicg
  4

  0
STYLE
  5
3EE
330
3C8
100
AcDbSymbolTableRecord
100
AcDbTextStyleTableRecord
  2
SANSSERIF
 70
     0
 40
20.0
 41
1.0
 50
0.0
 71
     0
 42
20.0
  3
sas_____.pfb
  4

  0
STYLE
  5
3EF
330
3C8
100
AcDbSymbolTableRecord
100
AcDbTextStyleTableRecord
  2
TECHNICBOLD
 70
     0
 40
20.0
 41
1.0
 50
0.0
 71
     0
 42
20.0
  3
teb_____.pfb
  4

  0
STYLE
  5
3F0
330
3C8
100
AcDbSymbolTableRecord
100
AcDbTextStyleTableRecord
  2
TXT
 70
     0
 40
20.0
 41
1.0
 50
0.0
 71
     0
 42
20.0
  3
txt
  4

  0
STYLE
  5
3F1
330
3C8
100
AcDbSymbolTableRecord
100
AcDbTextStyleTableRecord
  2
MONOTXT
 70
     0
 40
20.0
 41
1.0
 50
0.0
 71
     0
 42
20.0
  3
monotxt
  4

  0
STYLE
  5
3F2
330
3C8
100
AcDbSymbolTableRecord
100
AcDbTextStyleTableRecord
  2
TECHNICLIGHT
 70
     0
 40
3.6
 41
0.8
 50
0.0
 71
     0
 42
3.6
  3
tel_____.pfb
  4

  0
STYLE
  5
3F3
330
3C8
100
AcDbSymbolTableRecord
100
AcDbTextStyleTableRecord
  2
GREEKS
 70
     0
 40
20.0
 41
1.0
 50
0.0
 71
     0
 42
20.0
  3
greeks
  4

  0
STYLE
  5
3F4
330
3C8
100
AcDbSymbolTableRecord
100
AcDbTextStyleTableRecord
  2
ASHADE
 70
     0
 40
0.2
 41
1.0
 50
0.0
 71
     0
 42
5.0
  3
simplex
  4

  0
STYLE
  5
1D1E
330
3C8
100
AcDbSymbolTableRecord
100
AcDbTextStyleTableRecord
  2

 70
     1
 40
0.0
 41
1.0
 50
0.0
 71
     0
 42
5.0
  3
ltypeshp.shx
  4

  0
ENDTAB
  0
TABLE
  2
VIEW
  5
3CB
330
0
100
AcDbSymbolTable
 70
     1
  0
VIEW
  5
411
330
3CB
100
AcDbSymbolTableRecord
100
AcDbViewTableRecord
  2
OLE1
 70
     0
 40
108.4999999999999
 10
105.3186109999999
 20
217.75
 41
173.6372209999999
 11
0.0
 21
0.0
 31
1.0
 12
0.0
 22
0.0
 32
0.0
 42
50.0
 43
0.0
 44
0.0
 50
0.0
 71
     0
281
     0
 72
     0
  0
ENDTAB
  0
TABLE
  2
UCS
  5
3CC
330
0
100
AcDbSymbolTable
 70
     0
  0
ENDTAB
  0
TABLE
  2
APPID
  5
3CE
330
0
100
AcDbSymbolTable
 70
    13
  0
APPID
  5
3D6
330
3CE
100
AcDbSymbolTableRecord
100
AcDbRegAppTableRecord
  2
ACAD
 70
     0
  0
APPID
  5
414
330
3CE
100
AcDbSymbolTableRecord
100
AcDbRegAppTableRecord
  2
AVE_RENDER
 70
     0
  0
APPID
  5
1C53
330
3CE
100
AcDbSymbolTableRecord
100
AcDbRegAppTableRecord
  2
GENIUS_GENDIM_13
 70
     0
  0
APPID
  5
1C54
330
3CE
100
AcDbSymbolTableRecord
100
AcDbRegAppTableRecord
  2
GENIUS_GENDTOL_13
 70
     0
  0
APPID
  5
1C55
330
3CE
100
AcDbSymbolTableRecord
100
AcDbRegAppTableRecord
  2
GENIUS_GE3DTOL_13
 70
     0
  0
APPID
  5
1C57
330
3CE
100
AcDbSymbolTableRecord
100
AcDbRegAppTableRecord
  2
MCAD_NO_VIS
 70
     0
  0
APPID
  5
1C58
330
3CE
100
AcDbSymbolTableRecord
100
AcDbRegAppTableRecord
  2
ACAD_TEMP_GRAPHIC
 70
     0
  0
APPID
  5
1C88
330
3CE
100
AcDbSymbolTableRecord
100
AcDbRegAppTableRecord
  2
AD_DRAW
 70
     0
  0
APPID
  5
1C8B
330
3CE
100
AcDbSymbolTableRecord
100
AcDbRegAppTableRecord
  2
ACATTRIBSERVICES
 70
     0
  0
APPID
  5
1CD7
330
3CE
100
AcDbSymbolTableRecord
100
AcDbRegAppTableRecord
  2
ASURF_PCURVE_APPNAME
 70
     0
  0
APPID
  5
1D06
330
3CE
100
AcDbSymbolTableRecord
100
AcDbRegAppTableRecord
  2
DESIGNERASSEMBLIES
 70
     0
  0
APPID
  5
1D0E
330
3CE
100
AcDbSymbolTableRecord
100
AcDbRegAppTableRecord
  2
ACADM_DIM_EDIT
 70
     0
  0
APPID
  5
1D0F
330
3CE
100
AcDbSymbolTableRecord
100
AcDbRegAppTableRecord
  2
AMDT_DM_ADJ
 70
     0
  0
ENDTAB
  0
TABLE
  2
DIMSTYLE
  5
3CF
330
0
100
AcDbSymbolTable
 70
     1
100
AcDbDimStyleTable
 71
     0
  0
DIMSTYLE
105
425
102
{ACAD_REACTORS
330
123F
330
13B1
330
13B2
330
1500
330
163B
330
176C
330
1777
330
178E
330
178F
102
}
330
3CF
100
AcDbSymbolTableRecord
100
AcDbDimStyleTableRecord
  2
STANDARD
 70
     0
340
3D5
  0
ENDTAB
  0
TABLE
  2
BLOCK_RECORD
  5
3C6
330
0
100
AcDbSymbolTable
 70
    30
  0
BLOCK_RECORD
  5
3DD
102
{ACAD_XDICTIONARY
360
1D29
102
}
330
3C6
100
AcDbSymbolTableRecord
100
AcDbBlockTableRecord
  2
*MODEL_SPACE
340
1C40
  0
BLOCK_RECORD
  5
3DA
330
3C6
100
AcDbSymbolTableRecord
100
AcDbBlockTableRecord
  2
*PAPER_SPACE
340
1C41
  0
BLOCK_RECORD
  5
3E1
330
3C6
100
AcDbSymbolTableRecord
100
AcDbBlockTableRecord
  2
AVE_RENDER
340
0
102
{BLKREFS
331
F8
331
F9
331
FA
102
}
  0
BLOCK_RECORD
  5
1182
330
3C6
100
AcDbSymbolTableRecord
100
AcDbBlockTableRecord
  2
A$C31B725D5
340
0
  0
BLOCK_RECORD
  5
11DB
330
3C6
100
AcDbSymbolTableRecord
100
AcDbBlockTableRecord
  2
A$C5CFE5BB2
340
0
  0
BLOCK_RECORD
  5
1200
330
3C6
100
AcDbSymbolTableRecord
100
AcDbBlockTableRecord
  2
*D3
340
0
  0
BLOCK_RECORD
  5
120D
330
3C6
100
AcDbSymbolTableRecord
100
AcDbBlockTableRecord
  2
A$C29A46910
340
0
  0
BLOCK_RECORD
  5
130D
330
3C6
100
AcDbSymbolTableRecord
100
AcDbBlockTableRecord
  2
A$C5E405B83
340
0
  0
BLOCK_RECORD
  5
1331
330
3C6
100
AcDbSymbolTableRecord
100
AcDbBlockTableRecord
  2
A$C28A64BA6
340
0
102
{BLKREFS
331
13B0
102
}
  0
BLOCK_RECORD
  5
1395
330
3C6
100
AcDbSymbolTableRecord
100
AcDbBlockTableRecord
  2
*D7
340
0
  0
BLOCK_RECORD
  5
13A2
330
3C6
100
AcDbSymbolTableRecord
100
AcDbBlockTableRecord
  2
*D8
340
0
  0
BLOCK_RECORD
  5
13AF
330
3C6
100
AcDbSymbolTableRecord
100
AcDbBlockTableRecord
  2
A$C50765934
340
0
  0
BLOCK_RECORD
  5
1468
330
3C6
100
AcDbSymbolTableRecord
100
AcDbBlockTableRecord
  2
A$C12236B7C
340
0
  0
BLOCK_RECORD
  5
148E
330
3C6
100
AcDbSymbolTableRecord
100
AcDbBlockTableRecord
  2
A$C1E8C0F59
340
0
102
{BLKREFS
331
14FF
102
}
  0
BLOCK_RECORD
  5
14F1
330
3C6
100
AcDbSymbolTableRecord
100
AcDbBlockTableRecord
  2
*D12
340
0
  0
BLOCK_RECORD
  5
14FE
330
3C6
100
AcDbSymbolTableRecord
100
AcDbBlockTableRecord
  2
A$C325F7C1E
340
0
  0
BLOCK_RECORD
  5
15A7
330
3C6
100
AcDbSymbolTableRecord
100
AcDbBlockTableRecord
  2
A$C0E736477
340
0
  0
BLOCK_RECORD
  5
15CE
330
3C6
100
AcDbSymbolTableRecord
100
AcDbBlockTableRecord
  2
A$C68E55F1B
340
0
102
{BLKREFS
331
163A
102
}
  0
BLOCK_RECORD
  5
162C
330
3C6
100
AcDbSymbolTableRecord
100
AcDbBlockTableRecord
  2
*D16
340
0
  0
BLOCK_RECORD
  5
1639
330
3C6
100
AcDbSymbolTableRecord
100
AcDbBlockTableRecord
  2
A$C50CE67E4
340
0
  0
BLOCK_RECORD
  5
16DC
330
3C6
100
AcDbSymbolTableRecord
100
AcDbBlockTableRecord
  2
A$C01E076B9
340
0
  0
BLOCK_RECORD
  5
1701
330
3C6
100
AcDbSymbolTableRecord
100
AcDbBlockTableRecord
  2
*D19
340
0
  0
BLOCK_RECORD
  5
170E
330
3C6
100
AcDbSymbolTableRecord
100
AcDbBlockTableRecord
  2
*D20
340
0
  0
BLOCK_RECORD
  5
171B
330
3C6
100
AcDbSymbolTableRecord
100
AcDbBlockTableRecord
  2
*D21
340
0
  0
BLOCK_RECORD
  5
1728
330
3C6
100
AcDbSymbolTableRecord
100
AcDbBlockTableRecord
  2
*D22
340
0
  0
BLOCK_RECORD
  5
1735
330
3C6
100
AcDbSymbolTableRecord
100
AcDbBlockTableRecord
  2
A$C22617621
340
0
  0
BLOCK_RECORD
  5
18A4
330
3C6
100
AcDbSymbolTableRecord
100
AcDbBlockTableRecord
  2
A$C6EA30A74
340
0
  0
BLOCK_RECORD
  5
18D7
330
3C6
100
AcDbSymbolTableRecord
100
AcDbBlockTableRecord
  2
A$C29EC1754
340
0
  0
BLOCK_RECORD
  5
19D4
330
3C6
100
AcDbSymbolTableRecord
100
AcDbBlockTableRecord
  2
A$C577F4D59
340
0
  0
BLOCK_RECORD
  5
19F5
330
3C6
100
AcDbSymbolTableRecord
100
AcDbBlockTableRecord
  2
A$C32EE7A19
340
0
  0
BLOCK_RECORD
  5
1B90
330
3C6
100
AcDbSymbolTableRecord
100
AcDbBlockTableRecord
  2
A$C598D1D97
340
0
  0
BLOCK_RECORD
  5
1CFD
330
3C6
100
AcDbSymbolTableRecord
100
AcDbBlockTableRecord
  2
*U29
340
0
  0
ENDTAB
  0
ENDSEC
  0
SECTION
  2
BLOCKS
  0
BLOCK
  5
423
330
3DD
100
AcDbEntity
  8
0
100
AcDbBlockBegin
  2
*MODEL_SPACE
 70
     0
 10
0.0
 20
0.0
 30
0.0
  3
*MODEL_SPACE
  1

  0
ENDBLK
  5
424
330
3DD
100
AcDbEntity
  8
0
100
AcDbBlockEnd
  0
BLOCK
  5
421
330
3DA
100
AcDbEntity
 67
     1
  8
0
100
AcDbBlockBegin
  2
*PAPER_SPACE
 70
     0
 10
0.0
 20
0.0
 30
0.0
  3
*PAPER_SPACE
  1

  0
ENDBLK
  5
422
330
3DA
100
AcDbEntity
 67
     1
  8
0
100
AcDbBlockEnd
  0
BLOCK
  5
F6
330
3E1
100
AcDbEntity
  8
0
100
AcDbBlockBegin
  2
AVE_RENDER
 70
     0
 10
0.0
 20
0.0
 30
0.0
  3
AVE_RENDER
  1
AVE_RENDER
  0
ENDBLK
  5
F7
330
3E1
100
AcDbEntity
  8
0
100
AcDbBlockEnd
  0
BLOCK
  5
1184
330
1182
100
AcDbEntity
  8
0
100
AcDbBlockBegin
  2
A$C31B725D5
 70
     0
 10
0.0
 20
0.0
 30
0.0
  3
A$C31B725D5
  1

  0
TEXT
  5
1183
330
1182
100
AcDbEntity
  8
0
100
AcDbText
 10
0.0
 20
0.0
 30
0.0
 40
5.0
  1
平型ハンドル車
 41
0.7
  7
BIGFONT
100
AcDbText
  0
ENDBLK
  5
1185
330
1182
100
AcDbEntity
  8
0
100
AcDbBlockEnd
  0
BLOCK
  5
11E6
330
11DB
100
AcDbEntity
  8
0
100
AcDbBlockBegin
  2
A$C5CFE5BB2
 70
     0
 10
0.0
 20
0.0
 30
0.0
  3
A$C5CFE5BB2
  1

  0
ARC
  5
11DC
330
11DB
100
AcDbEntity
  8
3
100
AcDbCircle
 10
26.50588799999999
 20
-9.518297
 30
0.0
 40
25.508766
100
AcDbArc
 50
61.953
 51
131.810447
  0
ARC
  5
11DD
330
11DB
100
AcDbEntity
  8
3
100
AcDbCircle
 10
26.50588799999999
 20
25.507847
 30
0.0
 40
25.508766
100
AcDbArc
 50
228.1895529999999
 51
298.047
  0
LINE
  5
11DE
330
11DB
100
AcDbEntity
  8
1
100
AcDbLine
 10
53.5
 20
7.994774999999999
 30
0.0
 11
0.0
 21
7.994774999999999
 31
0.0
  0
ARC
  5
11DF
330
11DB
100
AcDbEntity
  8
3
100
AcDbCircle
 10
10.12499999999999
 20
7.994774999999999
 30
0.0
 40
1.625
100
AcDbArc
 50
112.6198649999999
 51
247.3801349999999
  0
ARC
  5
11E0
330
11DB
100
AcDbEntity
  8
3
100
AcDbCircle
 10
45.0
 20
33.619775
 30
0.0
 40
21.625
100
AcDbArc
 50
252.507675
 51
287.492325
  0
ARC
  5
11E1
330
11DB
100
AcDbEntity
  8
3
100
AcDbCircle
 10
45.0
 20
-17.63022499999999
 30
0.0
 40
21.625
100
AcDbArc
 50
72.50767500000001
 51
107.4923249999999
  0
LINE
  5
11E2
330
11DB
100
AcDbEntity
  8
1
100
AcDbLine
 10
53.5
 20
7.994774999999999
 30
0.0
 11
74.5
 21
7.994774999999999
 31
0.0
  0
LINE
  5
11E3
330
11DB
100
AcDbEntity
  8
3
100
AcDbLine
 10
51.5
 20
2.994775
 30
0.0
 11
51.5
 21
12.994775
 31
0.0
  0
LINE
  5
11E4
330
11DB
100
AcDbEntity
  8
3
100
AcDbLine
 10
58.5
 20
2.994775
 30
0.0
 11
51.5
 21
2.994775
 31
0.0
  0
LINE
  5
11E5
330
11DB
100
AcDbEntity
  8
3
100
AcDbLine
 10
51.5
 20
12.994775
 30
0.0
 11
58.5
 21
12.994775
 31
0.0
  0
ENDBLK
  5
11E7
330
11DB
100
AcDbEntity
  8
0
100
AcDbBlockEnd
  0
BLOCK
  5
120B
330
1200
100
AcDbEntity
  8
0
100
AcDbBlockBegin
  2
*D3
 70
     1
 10
0.0
 20
0.0
 30
0.0
  3
*D3
  1

  0
LINE
  5
1201
330
1200
100
AcDbEntity
  8
0
  6
ByBlock
 62
     0
100
AcDbLine
 10
276.5281959999999
 20
206.3029949999999
 30
0.0
 11
235.305533
 21
206.3029949999999
 31
0.0
  0
LINE
  5
1202
330
1200
100
AcDbEntity
  8
0
  6
ByBlock
 62
     0
100
AcDbLine
 10
276.5281959999999
 20
66.30299499999999
 30
0.0
 11
235.305533
 21
66.30299499999999
 31
0.0
  0
LINE
  5
1203
330
1200
100
AcDbEntity
  8
0
  6
ByBlock
 62
     0
100
AcDbLine
 10
236.3055329999999
 20
204.3029949999999
 30
0.0
 11
236.3055329999999
 21
140.8719669999999
 31
0.0
  0
LINE
  5
1204
330
1200
100
AcDbEntity
  8
0
  6
ByBlock
 62
     0
100
AcDbLine
 10
236.3055329999999
 20
68.30299499999999
 30
0.0
 11
236.3055329999999
 21
130.9552999999999
 31
0.0
  0
SOLID
  5
1205
330
1200
100
AcDbEntity
  8
0
  6
ByBlock
 62
     0
100
AcDbTrace
 10
235.972199
 20
204.3029949999999
 30
0.0
 11
236.638866
 21
204.3029949999999
 31
0.0
 12
236.3055329999999
 22
206.3029949999999
 32
0.0
 13
236.3055329999999
 23
206.3029949999999
 33
0.0
  0
SOLID
  5
1206
330
1200
100
AcDbEntity
  8
0
  6
ByBlock
 62
     0
100
AcDbTrace
 10
235.972199
 20
68.30299499999999
 30
0.0
 11
236.638866
 21
68.30299499999999
 31
0.0
 12
236.3055329999999
 22
66.30299499999999
 32
0.0
 13
236.3055329999999
 23
66.30299499999999
 33
0.0
  0
MTEXT
  5
1207
330
1200
100
AcDbEntity
  8
0
  6
ByBlock
 62
     0
100
AcDbMText
 10
236.3055329999999
 20
135.913634
 30
0.0
 40
4.0
 41
0.0
 71
     5
 72
     5
  1
\A1;140
 11
0.0
 21
1.0
 31
0.0
 73
     1
 44
1.0
  0
POINT
  5
1208
330
1200
100
AcDbEntity
  8
DEFPOINTS
  6
ByBlock
 62
     0
100
AcDbPoint
 10
277.528196
 20
206.3029949999999
 30
0.0
  0
POINT
  5
1209
330
1200
100
AcDbEntity
  8
DEFPOINTS
  6
ByBlock
 62
     0
100
AcDbPoint
 10
277.528196
 20
66.30299499999999
 30
0.0
  0
POINT
  5
120A
330
1200
100
AcDbEntity
  8
DEFPOINTS
  6
ByBlock
 62
     0
100
AcDbPoint
 10
236.3055329999999
 20
66.30299499999999
 30
0.0
  0
ENDBLK
  5
120C
330
1200
100
AcDbEntity
  8
0
100
AcDbBlockEnd
  0
BLOCK
  5
1270
330
120D
100
AcDbEntity
  8
0
100
AcDbBlockBegin
  2
A$C29A46910
 70
     0
 10
0.0
 20
0.0
 30
0.0
  3
A$C29A46910
  1

  0
ARC
  5
120E
330
120D
100
AcDbEntity
  8
3
100
AcDbCircle
 10
77.04885999999999
 20
77.5
 30
8.416617
 40
61.0
100
AcDbArc
 50
0.0
 51
90.0
  0
LINE
  5
120F
330
120D
100
AcDbEntity
  8
1
100
AcDbLine
 10
-0.45114
 20
77.5
 30
8.416617
 11
152.54886
 21
77.5
 31
8.416617
  0
CIRCLE
  5
1210
330
120D
100
AcDbEntity
  8
3
100
AcDbCircle
 10
77.04885999999999
 20
77.5
 30
8.416617
 40
70.0
  0
ARC
  5
1211
330
120D
100
AcDbEntity
  8
3
100
AcDbCircle
 10
77.04885999999999
 20
77.5
 30
8.416617
 40
18.0
100
AcDbArc
 50
270.0
 51
90.0
  0
ARC
  5
1212
330
120D
100
AcDbEntity
  8
3
100
AcDbCircle
 10
77.04885999999999
 20
77.5
 30
8.416617
 40
22.0
100
AcDbArc
 50
355.583002
 51
64.41699799999999
  0
ARC
  5
1213
330
120D
100
AcDbEntity
  8
3
100
AcDbCircle
 10
77.04885999999999
 20
77.5
 30
8.416617
 40
19.488389
100
AcDbArc
 50
270.0
 51
90.0
  0
ARC
  5
1214
330
120D
100
AcDbEntity
  8
3
100
AcDbCircle
 10
77.04885999999999
 20
77.5
 30
8.416617
 40
52.0
100
AcDbArc
 50
339.9667659999999
 51
80.03323399999999
  0
ARC
  5
1215
330
120D
100
AcDbEntity
  8
3
100
AcDbCircle
 10
77.04885999999999
 20
77.5
 30
8.416617
 40
52.0
100
AcDbArc
 50
99.96676600000002
 51
200.033234
  0
ARC
  5
1216
330
120D
100
AcDbEntity
  8
3
100
AcDbCircle
 10
77.04885999999999
 20
77.5
 30
8.416617
 40
18.0
100
AcDbArc
 50
90.0
 51
270.0
  0
ARC
  5
1217
330
120D
100
AcDbEntity
  8
3
100
AcDbCircle
 10
77.04885999999999
 20
77.5
 30
8.416617
 40
22.0
100
AcDbArc
 50
115.583002
 51
184.416998
  0
ARC
  5
1218
330
120D
100
AcDbEntity
  8
3
100
AcDbCircle
 10
77.04885999999999
 20
77.5
 30
8.416617
 40
19.25514
100
AcDbArc
 50
90.0
 51
270.0
  0
LINE
  5
1219
330
120D
100
AcDbEntity
  8
1
100
AcDbLine
 10
77.04885999999999
 20
155.0
 30
8.416617
 11
77.04885999999999
 21
0.0
 31
8.416617
  0
ARC
  5
121A
330
120D
100
AcDbEntity
  8
3
100
AcDbCircle
 10
77.04885999999999
 20
77.5
 30
8.416617
 40
61.0
100
AcDbArc
 50
100.3888579999999
 51
0.0
  0
LINE
  5
121B
330
120D
100
AcDbEntity
  8
1
100
AcDbLine
 10
77.04885999999999
 20
77.5
 30
8.416617
 11
11.84437699999999
 21
39.854174
 31
8.416617
  0
LINE
  5
121C
330
120D
100
AcDbEntity
  8
1
100
AcDbLine
 10
77.04885999999999
 20
77.5
 30
8.416617
 11
142.036836
 21
39.979174
 31
8.416617
  0
ARC
  5
121D
330
120D
100
AcDbEntity
  8
3
100
AcDbCircle
 10
77.04885999999999
 20
77.5
 30
8.416617
 40
22.0
100
AcDbArc
 50
235.583002
 51
304.4169979999999
  0
ARC
  5
121E
330
120D
100
AcDbEntity
  8
3
100
AcDbCircle
 10
77.04885999999999
 20
77.5
 30
8.416617
 40
52.0
100
AcDbArc
 50
219.966766
 51
320.033234
  0
LINE
  5
121F
330
120D
100
AcDbEntity
  8
3
100
AcDbLine
 10
55.114201
 20
75.80567399999999
 30
8.416617
 11
28.195168
 21
59.68661199999999
 31
8.416617
  0
LINE
  5
1220
330
120D
100
AcDbEntity
  8
3
100
AcDbLine
 10
64.61420099999999
 20
59.351191
 30
8.416617
 11
37.195168
 21
44.09815499999999
 31
8.416617
  0
ARC
  5
1221
330
120D
100
AcDbEntity
  8
3
100
AcDbCircle
 10
55.460136
 20
65.03574399999999
 30
8.416617
 40
28.70958599999999
100
AcDbArc
 50
193.1299209999999
 51
226.870079
  0
ARC
  5
1222
330
120D
100
AcDbEntity
  8
3
100
AcDbCircle
 10
36.49800599999999
 20
45.554313
 30
8.416617
 40
1.614445
100
AcDbArc
 50
245.662844
 51
295.583615
  0
ARC
  5
1223
330
120D
100
AcDbEntity
  8
3
100
AcDbCircle
 10
29.107657
 20
58.354773
 30
8.416617
 40
1.614445
100
AcDbArc
 50
124.416385
 51
174.3371559999999
  0
ARC
  5
1224
330
120D
100
AcDbEntity
  8
3
100
AcDbCircle
 10
80.61243799999999
 20
79.55743299999999
 30
8.416617
 40
25.041839
100
AcDbArc
 50
190.022534
 51
229.977466
  0
ARC
  5
1225
330
120D
100
AcDbEntity
  8
3
100
AcDbCircle
 10
64.083596
 20
59.816763
 30
8.416617
 40
0.705903
100
AcDbArc
 50
318.735141
 51
53.010996
  0
ARC
  5
1226
330
120D
100
AcDbEntity
  8
3
100
AcDbCircle
 10
55.25209499999999
 20
75.11336999999999
 30
8.416617
 40
0.705903
100
AcDbArc
 50
6.989003999999999
 51
101.2648589999999
  0
LINE
  5
1227
330
120D
100
AcDbEntity
  8
3
100
AcDbLine
 10
98.98351900000001
 20
75.80567399999999
 30
8.416617
 11
125.902552
 21
59.68661199999999
 31
8.416617
  0
LINE
  5
1228
330
120D
100
AcDbEntity
  8
3
100
AcDbLine
 10
89.483519
 20
59.351191
 30
8.416617
 11
116.9025519999999
 21
44.09815499999999
 31
8.416617
  0
TEXT
  5
1229
330
120D
100
AcDbEntity
  8
3
100
AcDbText
 10
96.705593
 20
63.084936
 30
8.416617
 40
5.0
  1
S/SN-140
 50
330.0
 41
0.75
  7
BIGFONT
100
AcDbText
  0
ARC
  5
122A
330
120D
100
AcDbEntity
  8
3
100
AcDbCircle
 10
98.845624
 20
75.11336999999999
 30
8.416617
 40
0.705903
100
AcDbArc
 50
78.735141
 51
173.010996
  0
ARC
  5
122B
330
120D
100
AcDbEntity
  8
3
100
AcDbCircle
 10
73.485282
 20
79.55743299999999
 30
8.416617
 40
25.041839
100
AcDbArc
 50
310.022534
 51
349.9774659999999
  0
ARC
  5
122C
330
120D
100
AcDbEntity
  8
3
100
AcDbCircle
 10
90.01412399999999
 20
59.816763
 30
8.416617
 40
0.705903
100
AcDbArc
 50
126.989004
 51
221.2648589999999
  0
ARC
  5
122D
330
120D
100
AcDbEntity
  8
3
100
AcDbCircle
 10
98.637584
 20
65.03574399999999
 30
8.416617
 40
28.70958599999999
100
AcDbArc
 50
313.129921
 51
346.8700789999999
  0
ARC
  5
122E
330
120D
100
AcDbEntity
  8
3
100
AcDbCircle
 10
117.5997139999999
 20
45.554313
 30
8.416617
 40
1.614445
100
AcDbArc
 50
244.416385
 51
294.337156
  0
ARC
  5
122F
330
120D
100
AcDbEntity
  8
3
100
AcDbCircle
 10
124.9900629999999
 20
58.354773
 30
8.416617
 40
1.614445
100
AcDbArc
 50
5.662844
 51
55.583615
  0
ARC
  5
1230
330
120D
100
AcDbEntity
  8
3
100
AcDbCircle
 10
77.04885999999999
 20
102.428511
 30
8.416617
 40
28.70958599999999
100
AcDbArc
 50
73.12992099999999
 51
81.02999699999999
  0
ARC
  5
1231
330
120D
100
AcDbEntity
  8
3
100
AcDbCircle
 10
77.04885999999999
 20
135.4999999999999
 30
8.416617
 40
6.5
100
AcDbArc
 50
270.0
 51
0.0
  0
ARC
  5
1232
330
120D
100
AcDbEntity
  8
3
100
AcDbCircle
 10
77.04885999999999
 20
73.385134
 30
8.416617
 40
25.041839
100
AcDbArc
 50
70.02253399999999
 51
109.977466
  0
LINE
  5
1233
330
120D
100
AcDbEntity
  8
1
100
AcDbLine
 10
55.04885999999999
 20
135.4999999999999
 30
8.416617
 11
92.05179200000001
 21
135.4999999999999
 31
8.416617
  0
LINE
  5
1234
330
120D
100
AcDbEntity
  8
3
100
AcDbLine
 10
67.54885999999999
 20
97.343135
 30
8.416617
 11
68.04885999999999
 21
128.715232
 31
8.416617
  0
ARC
  5
1235
330
120D
100
AcDbEntity
  8
3
100
AcDbCircle
 10
68.217359
 20
97.56986600000001
 30
8.416617
 40
0.705903
100
AcDbArc
 50
198.735141
 51
293.0109959999999
  0
ARC
  5
1236
330
120D
100
AcDbEntity
  8
3
100
AcDbCircle
 10
66.16385799999999
 20
134.554001
 30
8.416617
 40
2.948243
100
AcDbArc
 50
358.9504959999999
 51
109.367232
  0
ARC
  5
1237
330
120D
100
AcDbEntity
  8
3
100
AcDbCircle
 10
69.658511
 20
128.590913
 30
8.416617
 40
1.614445
100
AcDbArc
 50
125.6628439999999
 51
175.5836149999999
  0
ARC
  5
1238
330
120D
100
AcDbEntity
  8
3
100
AcDbCircle
 10
77.04885999999999
 20
135.4999999999999
 30
8.416617
 40
8.0
100
AcDbArc
 50
180.0
 51
270.0
  0
ARC
  5
1239
330
120D
100
AcDbEntity
  8
3
100
AcDbCircle
 10
77.04885999999999
 20
102.428511
 30
8.416617
 40
28.70958599999999
100
AcDbArc
 50
102.494618
 51
106.870079
  0
LINE
  5
123A
330
120D
100
AcDbEntity
  8
3
100
AcDbLine
 10
86.54885999999999
 20
97.343135
 30
8.416617
 11
86.04885999999998
 21
128.715232
 31
8.416617
  0
ARC
  5
123B
330
120D
100
AcDbEntity
  8
3
100
AcDbCircle
 10
85.88036
 20
97.56986600000001
 30
8.416617
 40
0.705903
100
AcDbArc
 50
246.989004
 51
341.2648589999999
  0
ARC
  5
123C
330
120D
100
AcDbEntity
  8
3
100
AcDbCircle
 10
84.439209
 20
128.590913
 30
8.416617
 40
1.614445
100
AcDbArc
 50
4.416385
 51
54.33715600000001
  0
ARC
  5
123D
330
120D
100
AcDbEntity
  8
3
100
AcDbCircle
 10
77.04885999999999
 20
135.4999999999999
 30
8.416617
 40
8.0
100
AcDbArc
 50
15.115832
 51
18.40505499999999
  0
ARC
  5
123E
330
120D
100
AcDbEntity
  8
3
100
AcDbCircle
 10
86.126879
 20
135.390096
 30
8.416617
 40
2.580360999999999
100
AcDbArc
 50
102.944502
 51
181.053857
  0
DIMENSION
  5
123F
330
120D
100
AcDbEntity
  8
0
100
AcDbDimension
  2
*D3
 10
183.326197
 20
7.5
 30
8.416617
 11
183.326197
 21
77.110639
 31
8.416617
 12
-52.979336
 22
-58.80299499999999
 32
8.416617
 70
   128
 71
     5
 42
-1.0
  3
STANDARD
100
AcDbAlignedDimension
 13
224.54886
 23
147.5
 33
8.416617
 14
224.54886
 24
7.5
 34
8.416617
 50
90.0
100
AcDbRotatedDimension
1001
ACAD
1000
DSTYLE
1002
{
1070
   140
1040
4.0
1070
    77
1070
     0
1070
    40
1040
1.0
1070
   141
1040
0.0
1070
    41
1040
2.0
1002
}
  0
LINE
  5
1240
330
120D
100
AcDbEntity
  8
3
100
AcDbLine
 10
248.54886
 20
77.5
 30
8.416617
 11
248.54886
 21
61.5
 31
8.416617
  0
LINE
  5
1241
330
120D
100
AcDbEntity
  8
3
100
AcDbLine
 10
216.54886
 20
77.5
 30
8.416617
 11
216.54886
 21
59.5
 31
8.416617
  0
LINE
  5
1242
330
120D
100
AcDbEntity
  8
1
100
AcDbLine
 10
224.54886
 20
154.0
 30
8.416617
 11
224.54886
 21
0.0
 31
8.416617
  0
LINE
  5
1243
330
120D
100
AcDbEntity
  8
3
100
AcDbLine
 10
215.54886
 20
16.5
 30
8.416617
 11
215.54886
 21
77.5
 31
8.416617
  0
LINE
  5
1244
330
120D
100
AcDbEntity
  8
3
100
AcDbLine
 10
233.54886
 20
16.5
 30
8.416617
 11
233.54886
 21
59.5
 31
8.416617
  0
ARC
  5
1245
330
120D
100
AcDbEntity
  8
3
100
AcDbCircle
 10
224.54886
 20
16.5
 30
8.416617
 40
9.0
100
AcDbArc
 50
180.0
 51
0.0
  0
ARC
  5
1246
330
120D
100
AcDbEntity
  8
3
100
AcDbCircle
 10
224.54886
 20
18.5
 30
8.416617
 40
7.0
100
AcDbArc
 50
4.096044
 51
175.9039559999999
  0
ARC
  5
1247
330
120D
100
AcDbEntity
  8
3
100
AcDbCircle
 10
214.4747649999999
 20
19.431325
 30
8.416617
 40
3.121913999999999
100
AcDbArc
 50
290.123814
 51
357.377737
  0
ARC
  5
1248
330
120D
100
AcDbEntity
  8
3
100
AcDbCircle
 10
234.6229539999999
 20
19.431325
 30
8.416617
 40
3.121913999999999
100
AcDbArc
 50
182.6222629999999
 51
249.876186
  0
LINE
  5
1249
330
120D
100
AcDbEntity
  8
3
100
AcDbLine
 10
246.54886
 20
59.5
 30
8.416617
 11
233.54886
 21
59.5
 31
8.416617
  0
LINE
  5
124A
330
120D
100
AcDbEntity
  8
3
100
AcDbLine
 10
219.869804
 20
56.53955799999999
 30
8.416617
 11
219.989931
 21
51.75596099999999
 31
8.416617
  0
LINE
  5
124B
330
120D
100
AcDbEntity
  8
3
100
AcDbLine
 10
229.1850569999999
 20
56.519637
 30
8.416617
 11
229.063766
 21
51.815634
 31
8.416617
  0
ARC
  5
124C
330
120D
100
AcDbEntity
  8
2
100
AcDbCircle
 10
234.167566
 20
51.78551399999999
 30
8.416617
 40
14.17278299999999
100
AcDbArc
 50
161.8819809999999
 51
179.804311
  0
ARC
  5
124D
330
120D
100
AcDbEntity
  8
2
100
AcDbCircle
 10
211.499635
 20
51.51240999999999
 30
8.416617
 40
17.561899
100
AcDbArc
 50
1.048987999999999
 51
15.48683299999999
  0
ARC
  5
124E
330
120D
100
AcDbEntity
  8
3
100
AcDbCircle
 10
224.580029
 20
47.662953
 30
8.416617
 40
3.588064
100
AcDbArc
 50
210.25976
 51
329.7402399999999
  0
ARC
  5
124F
330
120D
100
AcDbEntity
  8
3
100
AcDbCircle
 10
232.7815109999999
 20
51.909837
 30
8.416617
 40
12.820609
100
AcDbArc
 50
180.440379
 51
208.1827399999999
  0
ARC
  5
1250
330
120D
100
AcDbEntity
  8
3
100
AcDbCircle
 10
215.115941
 20
51.990387
 30
8.416617
 40
13.981441
100
AcDbArc
 50
333.970477
 51
358.9899259999999
  0
ARC
  5
1251
330
120D
100
AcDbEntity
  8
2
100
AcDbCircle
 10
224.543147
 20
63.604804
 30
8.416617
 40
4.253617
100
AcDbArc
 50
213.018674
 51
326.9813259999999
  0
ARC
  5
1252
330
120D
100
AcDbEntity
  8
2
100
AcDbCircle
 10
224.580029
 20
55.975414
 30
8.416617
 40
3.711329
100
AcDbArc
 50
33.377736
 51
146.6222639999999
  0
ARC
  5
1253
330
120D
100
AcDbEntity
  8
2
100
AcDbCircle
 10
224.6392979999999
 20
71.460717
 30
8.416617
 40
4.345898
100
AcDbArc
 50
35.414823
 51
145.730599
  0
ARC
  5
1254
330
120D
100
AcDbEntity
  8
3
100
AcDbCircle
 10
225.54886
 20
69.55
 30
8.416617
 40
14.05
100
AcDbArc
 50
235.2919509999999
 51
304.708049
  0
LINE
  5
1255
330
120D
100
AcDbEntity
  8
2
100
AcDbLine
 10
219.810842
 20
66.91281899999999
 30
8.416617
 11
219.8705379999999
 21
56.410429
 31
8.416617
  0
ARC
  5
1256
330
120D
100
AcDbEntity
  8
2
100
AcDbCircle
 10
236.7275699999999
 20
67.50856800000001
 30
8.416617
 40
16.93528999999999
100
AcDbArc
 50
157.7984859999999
 51
201.553855
  0
LINE
  5
1257
330
120D
100
AcDbEntity
  8
3
100
AcDbLine
 10
216.54886
 20
59.5
 30
8.416617
 11
217.54886
 21
58.0
 31
8.416617
  0
ARC
  5
1258
330
120D
100
AcDbEntity
  8
2
100
AcDbCircle
 10
233.1273079999999
 20
51.936039
 30
8.416617
 40
13.138534
100
AcDbArc
 50
152.4287539999999
 51
161.1854919999999
  0
ARC
  5
1259
330
120D
100
AcDbEntity
  8
2
100
AcDbCircle
 10
211.466301
 20
67.72678299999999
 30
8.416617
 40
17.84591299999999
100
AcDbArc
 50
338.847147
 51
20.508831
  0
LINE
  5
125A
330
120D
100
AcDbEntity
  8
2
100
AcDbLine
 10
229.302552
 20
66.972492
 30
8.416617
 11
229.183159
 21
56.35075699999999
 31
8.416617
  0
ARC
  5
125B
330
120D
100
AcDbEntity
  8
2
100
AcDbCircle
 10
215.4389169999999
 20
51.936039
 30
8.416617
 40
13.66769099999999
100
AcDbArc
 50
18.166802
 51
26.418957
  0
LINE
  5
125C
330
120D
100
AcDbEntity
  8
3
100
AcDbLine
 10
233.54886
 20
59.5
 30
8.416617
 11
233.54886
 21
58.0
 31
8.416617
  0
ARC
  5
125D
330
120D
100
AcDbEntity
  8
3
100
AcDbCircle
 10
246.54886
 20
61.5
 30
8.416617
 40
2.0
100
AcDbArc
 50
270.0
 51
0.0
  0
LINE
  5
125E
330
120D
100
AcDbEntity
  8
3
100
AcDbLine
 10
229.29886
 20
98.42697300000001
 30
8.416617
 11
229.0713119999999
 21
128.2003439999999
 31
8.416617
  0
LINE
  5
125F
330
120D
100
AcDbEntity
  8
3
100
AcDbLine
 10
219.79886
 20
98.42697300000001
 30
8.416617
 11
220.018033
 21
127.104604
 31
8.416617
  0
LINE
  5
1260
330
120D
100
AcDbEntity
  8
3
100
AcDbLine
 10
233.54886
 20
138.5
 30
8.416617
 11
233.54886
 21
95.5
 31
8.416617
  0
LINE
  5
1261
330
120D
100
AcDbEntity
  8
3
100
AcDbLine
 10
215.54886
 20
138.5
 30
8.416617
 11
215.54886
 21
77.5
 31
8.416617
  0
LINE
  5
1262
330
120D
100
AcDbEntity
  8
3
100
AcDbLine
 10
246.54886
 20
95.5
 30
8.416617
 11
233.54886
 21
95.5
 31
8.416617
  0
LINE
  5
1263
330
120D
100
AcDbEntity
  8
1
100
AcDbLine
 10
211.4038509999999
 20
77.5
 30
8.416617
 11
254.04886
 21
77.5
 31
8.416617
  0
ARC
  5
1264
330
120D
100
AcDbEntity
  8
3
100
AcDbCircle
 10
221.514808
 20
68.20104499999999
 30
8.416617
 40
31.212149
100
AcDbArc
 50
67.321696
 51
75.55847800000001
  0
ARC
  5
1265
330
120D
100
AcDbEntity
  8
3
100
AcDbCircle
 10
224.54886
 20
88.45
 30
8.416617
 40
11.05
100
AcDbArc
 50
115.4589459999999
 51
129.307648
  0
LINE
  5
1266
330
120D
100
AcDbEntity
  8
3
100
AcDbLine
 10
216.54886
 20
77.5
 30
8.416617
 11
216.54886
 21
95.5
 31
8.416617
  0
LINE
  5
1267
330
120D
100
AcDbEntity
  8
3
100
AcDbLine
 10
216.54886
 20
95.5
 30
8.416617
 11
217.54886
 21
97.0
 31
8.416617
  0
LINE
  5
1268
330
120D
100
AcDbEntity
  8
3
100
AcDbLine
 10
233.54886
 20
95.5
 30
8.416617
 11
233.54886
 21
97.0
 31
8.416617
  0
LINE
  5
1269
330
120D
100
AcDbEntity
  8
3
100
AcDbLine
 10
248.54886
 20
77.5
 30
8.416617
 11
248.54886
 21
93.49999999999999
 31
8.416617
  0
ARC
  5
126A
330
120D
100
AcDbEntity
  8
3
100
AcDbCircle
 10
246.54886
 20
93.49999999999999
 30
8.416617
 40
2.0
100
AcDbArc
 50
0.0
 51
90.0
  0
ARC
  5
126B
330
120D
100
AcDbEntity
  8
3
100
AcDbCircle
 10
224.54886
 20
138.5
 30
8.416617
 40
9.0
100
AcDbArc
 50
0.0
 51
180.0
  0
LINE
  5
126C
330
120D
100
AcDbEntity
  8
3
100
AcDbLine
 10
215.54886
 20
127.5
 30
8.416617
 11
220.018033
 21
127.104604
 31
8.416617
  0
LINE
  5
126D
330
120D
100
AcDbEntity
  8
3
100
AcDbLine
 10
231.5043089999999
 20
129.0
 30
8.416617
 11
229.0713119999999
 21
128.2003439999999
 31
8.416617
  0
LINE
  5
126E
330
120D
100
AcDbEntity
  8
3
100
AcDbLine
 10
231.5043089999999
 20
135.711506
 30
8.416617
 11
231.5043089999999
 21
129.0
 31
8.416617
  0
ARC
  5
126F
330
120D
100
AcDbEntity
  8
3
100
AcDbCircle
 10
234.6229539999999
 20
135.5686739999999
 30
8.416617
 40
3.121913999999999
100
AcDbArc
 50
110.1238139999999
 51
177.377737
  0
ENDBLK
  5
1271
330
120D
100
AcDbEntity
  8
0
100
AcDbBlockEnd
  0
BLOCK
  5
1318
330
130D
100
AcDbEntity
  8
0
100
AcDbBlockBegin
  2
A$C5E405B83
 70
     0
 10
0.0
 20
0.0
 30
0.0
  3
A$C5E405B83
  1

  0
ARC
  5
130E
330
130D
100
AcDbEntity
  8
3
100
AcDbCircle
 10
26.50588799999999
 20
-9.518297
 30
0.0
 40
25.508766
100
AcDbArc
 50
61.953
 51
131.810447
  0
ARC
  5
130F
330
130D
100
AcDbEntity
  8
3
100
AcDbCircle
 10
26.50588799999999
 20
25.507847
 30
0.0
 40
25.508766
100
AcDbArc
 50
228.1895529999999
 51
298.047
  0
LINE
  5
1310
330
130D
100
AcDbEntity
  8
1
100
AcDbLine
 10
53.5
 20
7.994774999999999
 30
0.0
 11
0.0
 21
7.994774999999999
 31
0.0
  0
ARC
  5
1311
330
130D
100
AcDbEntity
  8
3
100
AcDbCircle
 10
10.12499999999999
 20
7.994774999999999
 30
0.0
 40
1.625
100
AcDbArc
 50
112.6198649999999
 51
247.3801349999999
  0
ARC
  5
1312
330
130D
100
AcDbEntity
  8
3
100
AcDbCircle
 10
45.0
 20
33.619775
 30
0.0
 40
21.625
100
AcDbArc
 50
252.507675
 51
287.492325
  0
ARC
  5
1313
330
130D
100
AcDbEntity
  8
3
100
AcDbCircle
 10
45.0
 20
-17.63022499999999
 30
0.0
 40
21.625
100
AcDbArc
 50
72.50767500000001
 51
107.4923249999999
  0
LINE
  5
1314
330
130D
100
AcDbEntity
  8
1
100
AcDbLine
 10
53.5
 20
7.994774999999999
 30
0.0
 11
74.5
 21
7.994774999999999
 31
0.0
  0
LINE
  5
1315
330
130D
100
AcDbEntity
  8
3
100
AcDbLine
 10
51.5
 20
2.994775
 30
0.0
 11
51.5
 21
12.994775
 31
0.0
  0
LINE
  5
1316
330
130D
100
AcDbEntity
  8
3
100
AcDbLine
 10
58.5
 20
2.994775
 30
0.0
 11
51.5
 21
2.994775
 31
0.0
  0
LINE
  5
1317
330
130D
100
AcDbEntity
  8
3
100
AcDbLine
 10
51.5
 20
12.994775
 30
0.0
 11
58.5
 21
12.994775
 31
0.0
  0
ENDBLK
  5
1319
330
130D
100
AcDbEntity
  8
0
100
AcDbBlockEnd
  0
BLOCK
  5
1393
330
1331
100
AcDbEntity
  8
0
100
AcDbBlockBegin
  2
A$C28A64BA6
 70
     0
 10
0.0
 20
0.0
 30
0.0
  3
A$C28A64BA6
  1

  0
ARC
  5
1332
330
1331
100
AcDbEntity
  8
3
100
AcDbCircle
 10
93.06599099999999
 20
82.92044799999999
 30
0.0
 40
49.840896
100
AcDbArc
 50
320.180627
 51
339.819373
  0
LINE
  5
1333
330
1331
100
AcDbEntity
  8
3
100
AcDbLine
 10
98.47180899999999
 20
67.67504200000001
 30
0.0
 11
129.9793909999999
 21
50.638831
 31
0.0
  0
ARC
  5
1334
330
1331
100
AcDbEntity
  8
3
100
AcDbCircle
 10
78.934009
 20
82.92044799999999
 30
0.0
 40
49.840896
100
AcDbArc
 50
200.180627
 51
219.8193729999999
  0
LINE
  5
1335
330
1331
100
AcDbEntity
  8
3
100
AcDbLine
 10
73.52819100000001
 20
67.67504200000001
 30
0.0
 11
42.020609
 21
50.638831
 31
0.0
  0
ARC
  5
1336
330
1331
100
AcDbEntity
  8
3
100
AcDbCircle
 10
86.0
 20
87.0
 30
0.0
 40
66.0
100
AcDbArc
 50
103.582692
 51
90.0
  0
CIRCLE
  5
1337
330
1331
100
AcDbEntity
  8
3
100
AcDbCircle
 10
86.0
 20
87.0
 30
0.0
 40
75.0
  0
LINE
  5
1338
330
1331
100
AcDbEntity
  8
1
100
AcDbLine
 10
86.0
 20
87.0
 30
0.0
 11
9.789763999999999
 21
43.0
 31
0.0
  0
LINE
  5
1339
330
1331
100
AcDbEntity
  8
1
100
AcDbLine
 10
86.0
 20
171.0
 30
0.0
 11
86.0
 21
0.0
 31
0.0
  0
ARC
  5
133A
330
1331
100
AcDbEntity
  8
3
100
AcDbCircle
 10
86.0
 20
87.0
 30
0.0
 40
57.0
100
AcDbArc
 50
219.5959299999999
 51
320.40407
  0
ARC
  5
133B
330
1331
100
AcDbEntity
  8
3
100
AcDbCircle
 10
90.330127
 20
89.50000000000001
 30
0.0
 40
62.847304
100
AcDbArc
 50
217.549754
 51
217.7729859999999
  0
ARC
  5
133C
330
1331
100
AcDbEntity
  8
3
100
AcDbCircle
 10
41.65714499999999
 20
52.021909
 30
0.0
 40
1.430038999999999
100
AcDbArc
 50
225.3899109999999
 51
284.72404
  0
ARC
  5
133D
330
1331
100
AcDbEntity
  8
3
100
AcDbCircle
 10
130.342856
 20
52.021909
 30
0.0
 40
1.430038999999999
100
AcDbArc
 50
255.2759599999999
 51
314.610089
  0
ARC
  5
133E
330
1331
100
AcDbEntity
  8
3
100
AcDbCircle
 10
71.49253299999999
 20
145.674061
 30
0.0
 40
5.569208
100
AcDbArc
 50
24.685853
 51
100.265979
  0
ARC
  5
133F
330
1331
100
AcDbEntity
  8
3
100
AcDbCircle
 10
86.0
 20
87.0
 30
0.0
 40
22.34126
100
AcDbArc
 50
184.835271
 51
235.1647289999999
  0
ARC
  5
1340
330
1331
100
AcDbEntity
  8
3
100
AcDbCircle
 10
86.0
 20
87.0
 30
0.0
 40
57.0
100
AcDbArc
 50
99.59593000000001
 51
200.40407
  0
LINE
  5
1341
330
1331
100
AcDbEntity
  8
1
100
AcDbLine
 10
67.0
 20
149.0
 30
0.0
 11
104.0
 21
149.0
 31
0.0
  0
ARC
  5
1342
330
1331
100
AcDbEntity
  8
3
100
AcDbCircle
 10
86.0
 20
87.0
 30
0.0
 40
23.0
100
AcDbArc
 50
117.162888
 51
182.837112
  0
CIRCLE
  5
1343
330
1331
100
AcDbEntity
  8
3
100
AcDbCircle
 10
86.0
 20
87.0
 30
0.0
 40
19.0
  0
LINE
  5
1344
330
1331
100
AcDbEntity
  8
1
100
AcDbLine
 10
0.0
 20
87.0
 30
0.0
 11
171.0
 21
87.0
 31
0.0
  0
LINE
  5
1345
330
1331
100
AcDbEntity
  8
3
100
AcDbLine
 10
63.028191
 20
85.86157599999999
 30
0.0
 11
32.520609
 21
67.093314
 31
0.0
  0
ARC
  5
1346
330
1331
100
AcDbEntity
  8
3
100
AcDbCircle
 10
33.536657
 20
66.087006
 30
0.0
 40
1.430038999999999
100
AcDbArc
 50
135.27596
 51
194.610089
  0
ARC
  5
1347
330
1331
100
AcDbEntity
  8
3
100
AcDbCircle
 10
62.66366999999999
 20
84.803169
 30
0.0
 40
1.11942
100
AcDbArc
 50
16.271951
 51
70.99600500000001
  0
ARC
  5
1348
330
1331
100
AcDbEntity
  8
3
100
AcDbCircle
 10
86.0
 20
87.0
 30
0.0
 40
57.0
100
AcDbArc
 50
339.59593
 51
80.40407
  0
ARC
  5
1349
330
1331
100
AcDbEntity
  8
3
100
AcDbCircle
 10
86.0
 20
149.0
 30
0.0
 40
7.757032
100
AcDbArc
 50
270.0
 51
352.593084
  0
ARC
  5
134A
330
1331
100
AcDbEntity
  8
3
100
AcDbCircle
 10
86.0
 20
149.0
 30
0.0
 40
9.5
100
AcDbArc
 50
186.042328
 51
270.0
  0
LINE
  5
134B
330
1331
100
AcDbEntity
  8
3
100
AcDbLine
 10
75.5
 20
107.463382
 30
0.0
 11
76.5
 21
143.2678539999999
 31
0.0
  0
LINE
  5
134C
330
1331
100
AcDbEntity
  8
3
100
AcDbLine
 10
96.5
 20
107.463382
 30
0.0
 11
95.5
 21
143.2678539999999
 31
0.0
  0
TEXT
  5
134D
330
1331
100
AcDbEntity
  8
3
100
AcDbText
 10
107.4181129999999
 20
71.060417
 30
0.0
 40
5.0
  1
Ｓ/ＳＮ-150
 50
330.0
 41
0.75
  7
BIGFONT
100
AcDbText
  0
LINE
  5
134E
330
1331
100
AcDbEntity
  8
3
100
AcDbLine
 10
108.971809
 20
85.86157599999999
 30
0.0
 11
139.4793909999999
 21
67.093314
 31
0.0
  0
ARC
  5
134F
330
1331
100
AcDbEntity
  8
3
100
AcDbCircle
 10
86.0
 20
87.0
 30
0.0
 40
21.005952
100
AcDbArc
 50
270.0
 51
90.0
  0
ARC
  5
1350
330
1331
100
AcDbEntity
  8
3
100
AcDbCircle
 10
86.0
 20
87.0
 30
0.0
 40
23.0
100
AcDbArc
 50
357.162888
 51
62.837112
  0
ARC
  5
1351
330
1331
100
AcDbEntity
  8
3
100
AcDbCircle
 10
86.0
 20
87.0
 30
0.0
 40
22.34126
100
AcDbArc
 50
304.8352709999999
 51
355.164729
  0
ARC
  5
1352
330
1331
100
AcDbEntity
  8
3
100
AcDbCircle
 10
86.0
 20
87.0
 30
0.0
 40
23.0
100
AcDbArc
 50
237.1628879999999
 51
302.837112
  0
ARC
  5
1353
330
1331
100
AcDbEntity
  8
3
100
AcDbCircle
 10
72.42932399999999
 20
67.888561
 30
0.0
 40
1.11942
100
AcDbArc
 50
349.003995
 51
43.728049
  0
ARC
  5
1354
330
1331
100
AcDbEntity
  8
3
100
AcDbCircle
 10
99.57067600000002
 20
67.888561
 30
0.0
 40
1.11942
100
AcDbArc
 50
136.271951
 51
190.996005
  0
ARC
  5
1355
330
1331
100
AcDbEntity
  8
3
100
AcDbCircle
 10
109.33633
 20
84.803169
 30
0.0
 40
1.11942
100
AcDbArc
 50
109.0039949999999
 51
163.728049
  0
ARC
  5
1356
330
1331
100
AcDbEntity
  8
3
100
AcDbCircle
 10
86.0
 20
87.0
 30
0.0
 40
22.34126
100
AcDbArc
 50
64.83527099999999
 51
115.164729
  0
ARC
  5
1357
330
1331
100
AcDbEntity
  8
3
100
AcDbCircle
 10
76.234346
 20
108.30827
 30
0.0
 40
1.11942
100
AcDbArc
 50
229.003995
 51
283.7280489999999
  0
ARC
  5
1358
330
1331
100
AcDbEntity
  8
3
100
AcDbCircle
 10
95.76565399999999
 20
108.30827
 30
0.0
 40
1.11942
100
AcDbArc
 50
256.2719509999999
 51
310.996005
  0
ARC
  5
1359
330
1331
100
AcDbEntity
  8
3
100
AcDbCircle
 10
81.669873
 20
89.50000000000001
 30
0.0
 40
62.847304
100
AcDbArc
 50
337.549754
 51
337.772986
  0
ARC
  5
135A
330
1331
100
AcDbEntity
  8
3
100
AcDbCircle
 10
138.4633429999999
 20
66.087006
 30
0.0
 40
1.430038999999999
100
AcDbArc
 50
345.389911
 51
44.72404
  0
ARC
  5
135B
330
1331
100
AcDbEntity
  8
3
100
AcDbCircle
 10
86.0
 20
95.159104
 30
0.0
 40
49.840896
100
AcDbArc
 50
99.54165600000001
 51
99.819373
  0
ARC
  5
135C
330
1331
100
AcDbEntity
  8
3
100
AcDbCircle
 10
86.0
 20
82.0
 30
0.0
 40
62.847304
100
AcDbArc
 50
97.54975400000001
 51
97.77298600000001
  0
ARC
  5
135D
330
1331
100
AcDbEntity
  8
3
100
AcDbCircle
 10
77.879513
 20
142.891084
 30
0.0
 40
1.430038999999999
100
AcDbArc
 50
105.389911
 51
164.72404
  0
ARC
  5
135E
330
1331
100
AcDbEntity
  8
3
100
AcDbCircle
 10
98.993271
 20
145.901937
 30
0.0
 40
5.701062999999999
100
AcDbArc
 50
82.465676
 51
158.406905
  0
ARC
  5
135F
330
1331
100
AcDbEntity
  8
3
100
AcDbCircle
 10
86.0
 20
95.159104
 30
0.0
 40
49.840896
100
AcDbArc
 50
80.18062699999999
 51
82.643976
  0
ARC
  5
1360
330
1331
100
AcDbEntity
  8
3
100
AcDbCircle
 10
94.12048699999999
 20
142.891084
 30
0.0
 40
1.430038999999999
100
AcDbArc
 50
15.27596
 51
74.610089
  0
ARC
  5
1361
330
1331
100
AcDbEntity
  8
3
100
AcDbCircle
 10
263.816125
 20
59.0
 30
0.0
 40
15.062713
100
AcDbArc
 50
180.170207
 51
203.4741089999999
  0
ARC
  5
1362
330
1331
100
AcDbEntity
  8
3
100
AcDbCircle
 10
243.183875
 20
59.0
 30
0.0
 40
15.062713
100
AcDbArc
 50
336.525891
 51
358.8292859999999
  0
LINE
  5
1363
330
1331
100
AcDbEntity
  8
3
100
AcDbLine
 10
244.4999999999999
 20
87.0
 30
0.0
 11
244.4999999999999
 21
21.0
 31
0.0
  0
LINE
  5
1364
330
1331
100
AcDbEntity
  8
3
100
AcDbLine
 10
262.5
 20
21.0
 30
0.0
 11
262.5
 21
56.841786
 31
0.0
  0
LINE
  5
1365
330
1331
100
AcDbEntity
  8
1
100
AcDbLine
 10
253.5
 20
166.5
 30
0.0
 11
253.5
 21
5.0
 31
0.0
  0
LINE
  5
1366
330
1331
100
AcDbEntity
  8
1
100
AcDbLine
 10
253.5
 20
21.0
 30
0.0
 11
266.3140359999999
 21
21.0
 31
0.0
  0
ARC
  5
1367
330
1331
100
AcDbEntity
  8
3
100
AcDbCircle
 10
253.5
 20
24.0
 30
0.0
 40
6.0
100
AcDbArc
 50
0.940343
 51
179.059657
  0
ARC
  5
1368
330
1331
100
AcDbEntity
  8
3
100
AcDbCircle
 10
253.5
 20
21.0
 30
0.0
 40
9.0
100
AcDbArc
 50
180.0
 51
0.0
  0
LINE
  5
1369
330
1331
100
AcDbEntity
  8
1
100
AcDbLine
 10
253.5
 20
21.0
 30
0.0
 11
241.8170299999999
 21
21.0
 31
0.0
  0
ARC
  5
136A
330
1331
100
AcDbEntity
  8
3
100
AcDbCircle
 10
244.0130029999999
 20
24.473995
 30
0.0
 40
3.507963999999999
100
AcDbArc
 50
277.9799339999999
 51
0.424744
  0
ARC
  5
136B
330
1331
100
AcDbEntity
  8
3
100
AcDbCircle
 10
253.5
 20
54.41347
 30
0.0
 40
3.774639
100
AcDbArc
 50
213.726517
 51
338.008749
  0
ARC
  5
136C
330
1331
100
AcDbEntity
  8
3
100
AcDbCircle
 10
253.5
 20
54.41347
 30
0.0
 40
3.774639
100
AcDbArc
 50
201.991251
 51
326.2734829999999
  0
ARC
  5
136D
330
1331
100
AcDbEntity
  8
3
100
AcDbCircle
 10
262.9869979999999
 20
24.473995
 30
0.0
 40
3.507963999999999
100
AcDbArc
 50
179.5752559999999
 51
262.020066
  0
LINE
  5
136E
330
1331
100
AcDbEntity
  8
3
100
AcDbLine
 10
260.4999999999999
 20
152.0
 30
0.0
 11
260.4999999999999
 21
141.5
 31
0.0
  0
LINE
  5
136F
330
1331
100
AcDbEntity
  8
3
100
AcDbLine
 10
262.5
 20
153.0
 30
0.0
 11
262.5
 21
138.0
 31
0.0
  0
LINE
  5
1370
330
1331
100
AcDbEntity
  8
3
100
AcDbLine
 10
244.4999999999999
 20
87.0
 30
0.0
 11
244.4999999999999
 21
153.0
 31
0.0
  0
LINE
  5
1371
330
1331
100
AcDbEntity
  8
3
100
AcDbLine
 10
258.243443
 20
58.692248
 30
0.0
 11
258.559572
 21
64.549306
 31
0.0
  0
LINE
  5
1372
330
1331
100
AcDbEntity
  8
3
100
AcDbLine
 10
260.4999999999999
 20
141.5
 30
0.0
 11
258.3295029999999
 21
140.461936
 31
0.0
  0
LINE
  5
1373
330
1331
100
AcDbEntity
  8
3
100
AcDbLine
 10
258.3295029999999
 20
140.461936
 30
0.0
 11
259.25
 21
109.40273
 31
0.0
  0
ARC
  5
1374
330
1331
100
AcDbEntity
  8
3
100
AcDbCircle
 10
254.0339609999999
 20
91.081152
 30
0.0
 40
18.918806
100
AcDbArc
 50
63.41702900000001
 51
113.2906419999999
  0
ARC
  5
1375
330
1331
100
AcDbEntity
  8
2
100
AcDbCircle
 10
242.7079079999999
 20
76.75
 30
0.0
 40
16.52000499999999
100
AcDbArc
 50
337.769774
 51
22.230226
  0
ARC
  5
1376
330
1331
100
AcDbEntity
  8
3
100
AcDbCircle
 10
254.0339609999999
 20
82.918847
 30
0.0
 40
18.918806
100
AcDbArc
 50
246.709358
 51
296.5829709999999
  0
LINE
  5
1377
330
1331
100
AcDbEntity
  8
1
100
AcDbLine
 10
238.75
 20
87.0
 30
0.0
 11
283.1075479999999
 21
87.0
 31
0.0
  0
LINE
  5
1378
330
1331
100
AcDbEntity
  8
3
100
AcDbLine
 10
245.5
 20
106.0
 30
0.0
 11
245.5
 21
87.0
 31
0.0
  0
ARC
  5
1379
330
1331
100
AcDbEntity
  8
2
100
AcDbCircle
 10
265.313658
 20
76.75
 30
0.0
 40
16.53997
100
AcDbArc
 50
157.798037
 51
202.2019629999999
  0
LINE
  5
137A
330
1331
100
AcDbEntity
  8
3
100
AcDbLine
 10
245.5
 20
68.0
 30
0.0
 11
245.5
 21
87.0
 31
0.0
  0
LINE
  5
137B
330
1331
100
AcDbEntity
  8
2
100
AcDbLine
 10
248.753479
 20
64.75190699999998
 30
0.0
 11
248.7447359999999
 21
76.25322299999999
 31
0.0
  0
LINE
  5
137C
330
1331
100
AcDbEntity
  8
3
100
AcDbLine
 10
248.753479
 20
58.955254
 30
0.0
 11
248.753479
 21
64.75190699999998
 31
0.0
  0
ARC
  5
137D
330
1331
100
AcDbEntity
  8
2
100
AcDbCircle
 10
254.0
 20
71.91942199999999
 30
0.0
 40
4.24438
100
AcDbArc
 50
199.5375089999999
 51
340.4624909999999
  0
LINE
  5
137E
330
1331
100
AcDbEntity
  8
3
100
AcDbLine
 10
245.5
 20
68.0
 30
0.0
 11
246.55355
 21
65.541716
 31
0.0
  0
ARC
  5
137F
330
1331
100
AcDbEntity
  8
2
100
AcDbCircle
 10
254.0
 20
81.63512500000001
 30
0.0
 40
4.226449999999999
100
AcDbArc
 50
18.840598
 51
161.159402
  0
LINE
  5
1380
330
1331
100
AcDbEntity
  8
3
100
AcDbLine
 10
248.657474
 20
139.5
 30
0.0
 11
248.75
 21
109.40273
 31
0.0
  0
LINE
  5
1381
330
1331
100
AcDbEntity
  8
3
100
AcDbLine
 10
245.5
 20
106.0
 30
0.0
 11
246.55355
 21
108.458283
 31
0.0
  0
LINE
  5
1382
330
1331
100
AcDbEntity
  8
3
100
AcDbLine
 10
244.4999999999999
 20
139.5
 30
0.0
 11
248.657474
 21
139.5
 31
0.0
  0
LINE
  5
1383
330
1331
100
AcDbEntity
  8
3
100
AcDbLine
 10
278.5
 20
87.0
 30
0.0
 11
278.5
 21
103.0
 31
0.0
  0
LINE
  5
1384
330
1331
100
AcDbEntity
  8
3
100
AcDbLine
 10
278.5
 20
87.0
 30
0.0
 11
278.5
 21
71.0
 31
0.0
  0
LINE
  5
1385
330
1331
100
AcDbEntity
  8
3
100
AcDbLine
 10
275.4999999999999
 20
68.0
 30
0.0
 11
262.5
 21
68.0
 31
0.0
  0
LINE
  5
1386
330
1331
100
AcDbEntity
  8
2
100
AcDbLine
 10
258.559572
 20
64.549306
 30
0.0
 11
259.2139379999999
 21
75.115817
 31
0.0
  0
LINE
  5
1387
330
1331
100
AcDbEntity
  8
3
100
AcDbLine
 10
262.5
 20
59.280547
 30
0.0
 11
262.5
 21
66.25
 31
0.0
  0
LINE
  5
1388
330
1331
100
AcDbEntity
  8
3
100
AcDbLine
 10
262.5
 20
56.841786
 30
0.0
 11
262.5
 21
59.280547
 31
0.0
  0
LINE
  5
1389
330
1331
100
AcDbEntity
  8
3
100
AcDbLine
 10
262.5
 20
68.0
 30
0.0
 11
262.5
 21
66.0
 31
0.0
  0
ARC
  5
138A
330
1331
100
AcDbEntity
  8
3
100
AcDbCircle
 10
275.4999999999999
 20
71.0
 30
0.0
 40
3.0
100
AcDbArc
 50
270.0
 51
0.0
  0
LINE
  5
138B
330
1331
100
AcDbEntity
  8
3
100
AcDbLine
 10
262.5
 20
133.2560719999999
 30
0.0
 11
262.5
 21
108.0
 31
0.0
  0
LINE
  5
138C
330
1331
100
AcDbEntity
  8
3
100
AcDbLine
 10
275.4999999999999
 20
106.0
 30
0.0
 11
262.5
 21
106.0
 31
0.0
  0
LINE
  5
138D
330
1331
100
AcDbEntity
  8
3
100
AcDbLine
 10
262.5
 20
106.0
 30
0.0
 11
262.5
 21
108.0
 31
0.0
  0
ARC
  5
138E
330
1331
100
AcDbEntity
  8
3
100
AcDbCircle
 10
275.4999999999999
 20
103.0
 30
0.0
 40
3.0
100
AcDbArc
 50
0.0
 51
90.0
  0
LINE
  5
138F
330
1331
100
AcDbEntity
  8
3
100
AcDbLine
 10
262.5
 20
138.0
 30
0.0
 11
262.5
 21
133.2560719999999
 31
0.0
  0
LINE
  5
1390
330
1331
100
AcDbEntity
  8
1
100
AcDbLine
 10
237.891592
 20
149.0
 30
0.0
 11
266.540035
 21
149.0
 31
0.0
  0
ARC
  5
1391
330
1331
100
AcDbEntity
  8
3
100
AcDbCircle
 10
253.5
 20
153.0
 30
0.0
 40
9.0
100
AcDbArc
 50
0.0
 51
180.0
  0
ARC
  5
1392
330
1331
100
AcDbEntity
  8
3
100
AcDbCircle
 10
262.9869979999999
 20
149.5260049999999
 30
0.0
 40
3.507963999999999
100
AcDbArc
 50
97.97993400000001
 51
135.150169
  0
ENDBLK
  5
1394
330
1331
100
AcDbEntity
  8
0
100
AcDbBlockEnd
  0
BLOCK
  5
13A0
330
1395
100
AcDbEntity
  8
0
100
AcDbBlockBegin
  2
*D7
 70
     1
 10
0.0
 20
0.0
 30
0.0
  3
*D7
  1

  0
LINE
  5
1396
330
1395
100
AcDbEntity
  8
0
  6
ByBlock
 62
     0
100
AcDbLine
 10
299.286314
 20
170.7266219999999
 30
0.0
 11
299.286314
 21
234.4896549999999
 31
0.0
  0
LINE
  5
1397
330
1395
100
AcDbEntity
  8
0
  6
ByBlock
 62
     0
100
AcDbLine
 10
315.286314
 20
165.7266219999999
 30
0.0
 11
315.286314
 21
234.4896549999999
 31
0.0
  0
LINE
  5
1398
330
1395
100
AcDbEntity
  8
0
  6
ByBlock
 62
     0
100
AcDbLine
 10
301.286314
 20
233.4896549999999
 30
0.0
 11
304.7675659999999
 21
233.4896549999999
 31
0.0
  0
LINE
  5
1399
330
1395
100
AcDbEntity
  8
0
  6
ByBlock
 62
     0
100
AcDbLine
 10
313.2863139999999
 20
233.4896549999999
 30
0.0
 11
311.3509
 21
233.4896549999999
 31
0.0
  0
SOLID
  5
139A
330
1395
100
AcDbEntity
  8
0
  6
ByBlock
 62
     0
100
AcDbTrace
 10
301.286314
 20
233.8229879999999
 30
0.0
 11
301.286314
 21
233.156322
 31
0.0
 12
299.286314
 22
233.4896549999999
 32
0.0
 13
299.286314
 23
233.4896549999999
 33
0.0
  0
SOLID
  5
139B
330
1395
100
AcDbEntity
  8
0
  6
ByBlock
 62
     0
100
AcDbTrace
 10
313.2863139999999
 20
233.8229879999999
 30
0.0
 11
313.2863139999999
 21
233.156322
 31
0.0
 12
315.286314
 22
233.4896549999999
 32
0.0
 13
315.286314
 23
233.4896549999999
 33
0.0
  0
MTEXT
  5
139C
330
1395
100
AcDbEntity
  8
0
  6
ByBlock
 62
     0
100
AcDbMText
 10
308.0592329999999
 20
233.4896549999999
 30
0.0
 40
4.0
 41
0.0
 71
     5
 72
     5
  1
\A1;16
 73
     1
 44
1.0
  0
POINT
  5
139D
330
1395
100
AcDbEntity
  8
DEFPOINTS
  6
ByBlock
 62
     0
100
AcDbPoint
 10
299.286314
 20
169.7266219999999
 30
0.0
  0
POINT
  5
139E
330
1395
100
AcDbEntity
  8
DEFPOINTS
  6
ByBlock
 62
     0
100
AcDbPoint
 10
315.286314
 20
164.7266219999999
 30
0.0
  0
POINT
  5
139F
330
1395
100
AcDbEntity
  8
DEFPOINTS
  6
ByBlock
 62
     0
100
AcDbPoint
 10
315.286314
 20
233.4896549999999
 30
0.0
  0
ENDBLK
  5
13A1
330
1395
100
AcDbEntity
  8
0
100
AcDbBlockEnd
  0
BLOCK
  5
13AD
330
13A2
100
AcDbEntity
  8
0
100
AcDbBlockBegin
  2
*D8
 70
     1
 10
0.0
 20
0.0
 30
0.0
  3
*D8
  1

  0
LINE
  5
13A3
330
13A2
100
AcDbEntity
  8
0
  6
ByBlock
 62
     0
100
AcDbLine
 10
289.286314
 20
223.726622
 30
0.0
 11
255.0744089999999
 21
223.726622
 31
0.0
  0
LINE
  5
13A4
330
13A2
100
AcDbEntity
  8
0
  6
ByBlock
 62
     0
100
AcDbLine
 10
289.286314
 20
73.72662199999999
 30
0.0
 11
255.0744089999999
 21
73.72662199999999
 31
0.0
  0
LINE
  5
13A5
330
13A2
100
AcDbEntity
  8
0
  6
ByBlock
 62
     0
100
AcDbLine
 10
256.074409
 20
221.726622
 30
0.0
 11
256.074409
 21
154.028285
 31
0.0
  0
LINE
  5
13A6
330
13A2
100
AcDbEntity
  8
0
  6
ByBlock
 62
     0
100
AcDbLine
 10
256.074409
 20
75.72662199999999
 30
0.0
 11
256.074409
 21
144.1116179999999
 31
0.0
  0
SOLID
  5
13A7
330
13A2
100
AcDbEntity
  8
0
  6
ByBlock
 62
     0
100
AcDbTrace
 10
255.7410759999999
 20
221.726622
 30
0.0
 11
256.4077419999999
 21
221.726622
 31
0.0
 12
256.074409
 22
223.726622
 32
0.0
 13
256.074409
 23
223.726622
 33
0.0
  0
SOLID
  5
13A8
330
13A2
100
AcDbEntity
  8
0
  6
ByBlock
 62
     0
100
AcDbTrace
 10
255.7410759999999
 20
75.72662199999999
 30
0.0
 11
256.4077419999999
 21
75.72662199999999
 31
0.0
 12
256.074409
 22
73.72662199999999
 32
0.0
 13
256.074409
 23
73.72662199999999
 33
0.0
  0
MTEXT
  5
13A9
330
13A2
100
AcDbEntity
  8
0
  6
ByBlock
 62
     0
100
AcDbMText
 10
256.074409
 20
149.0699519999999
 30
0.0
 40
4.0
 41
0.0
 71
     5
 72
     5
  1
\A1;150
 11
0.0
 21
1.0
 31
0.0
 73
     1
 44
1.0
  0
POINT
  5
13AA
330
13A2
100
AcDbEntity
  8
DEFPOINTS
  6
ByBlock
 62
     0
100
AcDbPoint
 10
290.286314
 20
223.726622
 30
0.0
  0
POINT
  5
13AB
330
13A2
100
AcDbEntity
  8
DEFPOINTS
  6
ByBlock
 62
     0
100
AcDbPoint
 10
290.286314
 20
73.72662199999999
 30
0.0
  0
POINT
  5
13AC
330
13A2
100
AcDbEntity
  8
DEFPOINTS
  6
ByBlock
 62
     0
100
AcDbPoint
 10
256.074409
 20
73.72662199999999
 30
0.0
  0
ENDBLK
  5
13AE
330
13A2
100
AcDbEntity
  8
0
100
AcDbBlockEnd
  0
BLOCK
  5
13B3
330
13AF
100
AcDbEntity
  8
0
100
AcDbBlockBegin
  2
A$C50765934
 70
     0
 10
0.0
 20
0.0
 30
0.0
  3
A$C50765934
  1

  0
INSERT
  5
13B0
330
13AF
100
AcDbEntity
  8
0
100
AcDbBlockReference
  2
A$C28A64BA6
 10
-0.496239
 20
0.0
 30
9.257982999999999
  0
DIMENSION
  5
13B1
330
13AF
100
AcDbEntity
  8
0
100
AcDbDimension
  2
*D8
 10
218.7918569999999
 20
12.0
 30
9.257982999999999
 11
218.7918569999999
 21
87.34333000000001
 31
9.257982999999999
 12
-37.282552
 22
-61.726622
 32
9.257982999999999
 70
   128
 71
     5
 42
-1.0
  3
STANDARD
100
AcDbAlignedDimension
 13
253.0037609999999
 23
162.0
 33
9.257982999999999
 14
253.0037609999999
 24
12.0
 34
9.257982999999999
 50
90.0
100
AcDbRotatedDimension
1001
ACAD
1000
DSTYLE
1002
{
1070
   140
1040
4.0
1070
    77
1070
     0
1070
    40
1040
1.0
1070
   141
1040
0.0
1070
    41
1040
2.0
1002
}
  0
DIMENSION
  5
13B2
330
13AF
100
AcDbEntity
  8
0
100
AcDbDimension
  2
*D7
 10
278.0037609999999
 20
171.763033
 30
9.257982999999999
 11
270.7766809999999
 21
171.763033
 31
9.257982999999999
 12
-37.282552
 22
-61.726622
 32
9.257982999999999
 70
   128
 71
     5
 42
-1.0
  3
STANDARD
100
AcDbAlignedDimension
 13
262.003761
 23
108.0
 33
9.257982999999999
 14
278.0037609999999
 24
103.0
 34
9.257982999999999
100
AcDbRotatedDimension
1001
ACAD
1000
DSTYLE
1002
{
1070
   140
1040
4.0
1070
    77
1070
     0
1070
    40
1040
1.0
1070
   141
1040
0.0
1070
    41
1040
2.0
1002
}
  0
ENDBLK
  5
13B4
330
13AF
100
AcDbEntity
  8
0
100
AcDbBlockEnd
  0
BLOCK
  5
1474
330
1468
100
AcDbEntity
  8
0
100
AcDbBlockBegin
  2
A$C12236B7C
 70
     0
 10
0.0
 20
0.0
 30
0.0
  3
A$C12236B7C
  1

  0
ARC
  5
1469
330
1468
100
AcDbEntity
  8
3
100
AcDbCircle
 10
24.975
 20
32.461185
 30
0.0
 40
32.461535
100
AcDbArc
 50
229.748095
 51
297.571522
  0
ARC
  5
146A
330
1468
100
AcDbEntity
  8
3
100
AcDbCircle
 10
24.975
 20
-12.08881499999999
 30
0.0
 40
32.461535
100
AcDbArc
 50
62.42847800000001
 51
130.2519049999999
  0
LINE
  5
146B
330
1468
100
AcDbEntity
  8
1
100
AcDbLine
 10
55.5
 20
10.186185
 30
0.0
 11
0.0
 21
10.186185
 31
0.0
  0
ARC
  5
146C
330
1468
100
AcDbEntity
  8
3
100
AcDbCircle
 10
5.333333
 20
10.186185
 30
0.0
 40
2.833333
100
AcDbArc
 50
118.072487
 51
241.9275129999999
  0
LINE
  5
146D
330
1468
100
AcDbEntity
  8
3
100
AcDbLine
 10
58.5
 20
16.686185
 30
0.0
 11
62.0
 21
16.686185
 31
0.0
  0
LINE
  5
146E
330
1468
100
AcDbEntity
  8
3
100
AcDbLine
 10
64.5
 20
3.686185
 30
0.0
 11
58.5
 21
3.686185
 31
0.0
  0
LINE
  5
146F
330
1468
100
AcDbEntity
  8
1
100
AcDbLine
 10
58.5
 20
10.186185
 30
0.0
 11
84.0
 21
10.186185
 31
0.0
  0
LINE
  5
1470
330
1468
100
AcDbEntity
  8
3
100
AcDbLine
 10
58.5
 20
3.686185
 30
0.0
 11
58.5
 21
16.686185
 31
0.0
  0
ARC
  5
1471
330
1468
100
AcDbEntity
  8
3
100
AcDbCircle
 10
49.25
 20
-16.68881499999999
 30
0.0
 40
22.376397
100
AcDbArc
 50
65.58253399999999
 51
114.417466
  0
ARC
  5
1472
330
1468
100
AcDbEntity
  8
3
100
AcDbCircle
 10
49.25
 20
37.06118499999999
 30
0.0
 40
22.376397
100
AcDbArc
 50
245.582534
 51
294.4174659999999
  0
LINE
  5
1473
330
1468
100
AcDbEntity
  8
3
100
AcDbLine
 10
66.5
 20
16.686185
 30
0.0
 11
62.0
 21
16.686185
 31
0.0
  0
ENDBLK
  5
1475
330
1468
100
AcDbEntity
  8
0
100
AcDbBlockEnd
  0
BLOCK
  5
14EF
330
148E
100
AcDbEntity
  8
0
100
AcDbBlockBegin
  2
A$C1E8C0F59
 70
     0
 10
0.0
 20
0.0
 30
0.0
  3
A$C1E8C0F59
  1

  0
LINE
  5
148F
330
148E
100
AcDbEntity
  8
1
100
AcDbLine
 10
86.0
 20
87.0
 30
0.0
 11
9.789763999999999
 21
43.0
 31
0.0
  0
ARC
  5
1490
330
148E
100
AcDbEntity
  8
3
100
AcDbCircle
 10
86.0
 20
87.0
 30
0.0
 40
62.847304
100
AcDbArc
 50
322.227014
 51
337.772986
  0
LINE
  5
1491
330
148E
100
AcDbEntity
  8
3
100
AcDbLine
 10
98.47180899999999
 20
67.675043
 30
0.0
 11
134.3095179999999
 21
48.138832
 31
0.0
  0
ARC
  5
1492
330
148E
100
AcDbEntity
  8
3
100
AcDbCircle
 10
86.0
 20
87.0
 30
0.0
 40
62.847304
100
AcDbArc
 50
202.2270139999999
 51
217.7729859999999
  0
LINE
  5
1493
330
148E
100
AcDbEntity
  8
3
100
AcDbLine
 10
73.52819100000001
 20
67.675043
 30
0.0
 11
37.690482
 21
48.138832
 31
0.0
  0
ARC
  5
1494
330
148E
100
AcDbEntity
  8
3
100
AcDbCircle
 10
86.0
 20
87.0
 30
0.0
 40
71.0
100
AcDbArc
 50
101.3722819999999
 51
90.0
  0
CIRCLE
  5
1495
330
148E
100
AcDbEntity
  8
3
100
AcDbCircle
 10
86.0
 20
87.0
 30
0.0
 40
80.0
  0
LINE
  5
1496
330
148E
100
AcDbEntity
  8
1
100
AcDbLine
 10
86.0
 20
171.0
 30
0.0
 11
86.0
 21
0.0
 31
0.0
  0
ARC
  5
1497
330
148E
100
AcDbEntity
  8
3
100
AcDbCircle
 10
86.0
 20
87.0
 30
0.0
 40
62.0
100
AcDbArc
 50
218.8139129999999
 51
321.1860869999999
  0
ARC
  5
1498
330
148E
100
AcDbEntity
  8
3
100
AcDbCircle
 10
37.32701699999999
 20
49.52191
 30
0.0
 40
1.430038999999999
100
AcDbArc
 50
225.3899109999999
 51
284.72404
  0
ARC
  5
1499
330
148E
100
AcDbEntity
  8
3
100
AcDbCircle
 10
134.672982
 20
49.52191
 30
0.0
 40
1.430038999999999
100
AcDbArc
 50
255.2759599999999
 51
314.610089
  0
LINE
  5
149A
330
148E
100
AcDbEntity
  8
1
100
AcDbLine
 10
67.0
 20
154.0
 30
0.0
 11
104.0
 21
154.0
 31
0.0
  0
ARC
  5
149B
330
148E
100
AcDbEntity
  8
3
100
AcDbCircle
 10
86.0
 20
87.0
 30
0.0
 40
22.34126
100
AcDbArc
 50
184.835271
 51
235.1647289999999
  0
ARC
  5
149C
330
148E
100
AcDbEntity
  8
3
100
AcDbCircle
 10
86.0
 20
87.0
 30
0.0
 40
23.0
100
AcDbArc
 50
117.162888
 51
182.837112
  0
CIRCLE
  5
149D
330
148E
100
AcDbEntity
  8
3
100
AcDbCircle
 10
86.0
 20
87.0
 30
0.0
 40
19.0
  0
ARC
  5
149E
330
148E
100
AcDbEntity
  8
3
100
AcDbCircle
 10
86.0
 20
87.0
 30
0.0
 40
62.0
100
AcDbArc
 50
98.813913
 51
201.186087
  0
LINE
  5
149F
330
148E
100
AcDbEntity
  8
1
100
AcDbLine
 10
0.0
 20
87.0
 30
0.0
 11
171.0
 21
87.0
 31
0.0
  0
LINE
  5
14A0
330
148E
100
AcDbEntity
  8
3
100
AcDbLine
 10
63.028191
 20
85.86157599999999
 30
0.0
 11
28.190482
 21
64.593314
 31
0.0
  0
ARC
  5
14A1
330
148E
100
AcDbEntity
  8
3
100
AcDbCircle
 10
29.20652999999999
 20
63.587006
 30
0.0
 40
1.430038999999999
100
AcDbArc
 50
135.27596
 51
194.610089
  0
ARC
  5
14A2
330
148E
100
AcDbEntity
  8
3
100
AcDbCircle
 10
62.66366999999999
 20
84.80316999999999
 30
0.0
 40
1.11942
100
AcDbArc
 50
16.271951
 51
70.99600500000001
  0
ARC
  5
14A3
330
148E
100
AcDbEntity
  8
3
100
AcDbCircle
 10
86.0
 20
87.0
 30
0.0
 40
62.0
100
AcDbArc
 50
338.813913
 51
81.18608700000001
  0
LINE
  5
14A4
330
148E
100
AcDbEntity
  8
3
100
AcDbLine
 10
75.5
 20
107.463382
 30
0.0
 11
76.5
 21
148.2678549999999
 31
0.0
  0
LINE
  5
14A5
330
148E
100
AcDbEntity
  8
3
100
AcDbLine
 10
96.5
 20
107.463382
 30
0.0
 11
95.5
 21
148.2678549999999
 31
0.0
  0
TEXT
  5
14A6
330
148E
100
AcDbEntity
  8
3
100
AcDbText
 10
111.8788239999999
 20
69.375709
 30
0.0
 40
5.0
  1
S/SN-160
 50
330.0
 41
0.75
  7
BIGFONT
100
AcDbText
  0
LINE
  5
14A7
330
148E
100
AcDbEntity
  8
3
100
AcDbLine
 10
108.971809
 20
85.86157599999999
 30
0.0
 11
143.8095179999999
 21
64.593314
 31
0.0
  0
ARC
  5
14A8
330
148E
100
AcDbEntity
  8
3
100
AcDbCircle
 10
86.0
 20
87.0
 30
0.0
 40
21.005952
100
AcDbArc
 50
270.0
 51
90.0
  0
ARC
  5
14A9
330
148E
100
AcDbEntity
  8
3
100
AcDbCircle
 10
86.0
 20
87.0
 30
0.0
 40
23.0
100
AcDbArc
 50
357.162888
 51
62.837112
  0
ARC
  5
14AA
330
148E
100
AcDbEntity
  8
3
100
AcDbCircle
 10
86.0
 20
87.0
 30
0.0
 40
22.34126
100
AcDbArc
 50
304.8352709999999
 51
355.164729
  0
ARC
  5
14AB
330
148E
100
AcDbEntity
  8
3
100
AcDbCircle
 10
86.0
 20
87.0
 30
0.0
 40
23.0
100
AcDbArc
 50
237.1628879999999
 51
302.837112
  0
ARC
  5
14AC
330
148E
100
AcDbEntity
  8
3
100
AcDbCircle
 10
72.42932399999999
 20
67.888561
 30
0.0
 40
1.11942
100
AcDbArc
 50
349.003995
 51
43.728049
  0
ARC
  5
14AD
330
148E
100
AcDbEntity
  8
3
100
AcDbCircle
 10
99.57067600000002
 20
67.888561
 30
0.0
 40
1.11942
100
AcDbArc
 50
136.271951
 51
190.996005
  0
ARC
  5
14AE
330
148E
100
AcDbEntity
  8
3
100
AcDbCircle
 10
109.33633
 20
84.80316999999999
 30
0.0
 40
1.11942
100
AcDbArc
 50
109.0039949999999
 51
163.728049
  0
ARC
  5
14AF
330
148E
100
AcDbEntity
  8
3
100
AcDbCircle
 10
86.0
 20
87.0
 30
0.0
 40
22.34126
100
AcDbArc
 50
64.83527099999999
 51
115.164729
  0
ARC
  5
14B0
330
148E
100
AcDbEntity
  8
3
100
AcDbCircle
 10
76.234346
 20
108.30827
 30
0.0
 40
1.11942
100
AcDbArc
 50
229.003995
 51
283.7280489999999
  0
ARC
  5
14B1
330
148E
100
AcDbEntity
  8
3
100
AcDbCircle
 10
95.76565399999999
 20
108.30827
 30
0.0
 40
1.11942
100
AcDbArc
 50
256.2719509999999
 51
310.996005
  0
ARC
  5
14B2
330
148E
100
AcDbEntity
  8
3
100
AcDbCircle
 10
142.7934699999999
 20
63.587006
 30
0.0
 40
1.430038999999999
100
AcDbArc
 50
345.389911
 51
44.72404
  0
ARC
  5
14B3
330
148E
100
AcDbEntity
  8
3
100
AcDbCircle
 10
86.0
 20
154.0
 30
0.0
 40
7.757032
100
AcDbArc
 50
270.0
 51
352.593084
  0
ARC
  5
14B4
330
148E
100
AcDbEntity
  8
3
100
AcDbCircle
 10
86.0
 20
154.0
 30
0.0
 40
9.5
100
AcDbArc
 50
186.042328
 51
270.0
  0
ARC
  5
14B5
330
148E
100
AcDbEntity
  8
3
100
AcDbCircle
 10
86.0
 20
87.0
 30
0.0
 40
62.847304
100
AcDbArc
 50
97.54975400000001
 51
97.77298600000001
  0
ARC
  5
14B6
330
148E
100
AcDbEntity
  8
3
100
AcDbCircle
 10
77.879513
 20
147.891085
 30
0.0
 40
1.430038999999999
100
AcDbArc
 50
105.389911
 51
164.72404
  0
ARC
  5
14B7
330
148E
100
AcDbEntity
  8
3
100
AcDbCircle
 10
71.56456700000001
 20
151.379222
 30
0.0
 40
5.244919
100
AcDbArc
 50
18.00011099999999
 51
85.23782399999999
  0
ARC
  5
14B8
330
148E
100
AcDbEntity
  8
3
100
AcDbCircle
 10
86.0
 20
87.0
 30
0.0
 40
62.847304
100
AcDbArc
 50
82.227014
 51
84.212512
  0
ARC
  5
14B9
330
148E
100
AcDbEntity
  8
3
100
AcDbCircle
 10
94.12048699999999
 20
147.891085
 30
0.0
 40
1.430038999999999
100
AcDbArc
 50
15.27596
 51
74.610089
  0
ARC
  5
14BA
330
148E
100
AcDbEntity
  8
3
100
AcDbCircle
 10
99.25502299999999
 20
151.0214399999999
 30
0.0
 40
5.904112
100
AcDbArc
 50
96.89990899999999
 51
160.420434
  0
ARC
  5
14BB
330
148E
100
AcDbEntity
  8
3
100
AcDbCircle
 10
230.683875
 20
56.5
 30
0.0
 40
15.062713
100
AcDbArc
 50
336.525891
 51
1.034899
  0
ARC
  5
14BC
330
148E
100
AcDbEntity
  8
3
100
AcDbCircle
 10
251.316125
 20
56.5
 30
0.0
 40
15.062713
100
AcDbArc
 50
178.965101
 51
203.4741089999999
  0
LINE
  5
14BD
330
148E
100
AcDbEntity
  8
3
100
AcDbLine
 10
232.0
 20
87.0
 30
0.0
 11
232.0
 21
16.0
 31
0.0
  0
LINE
  5
14BE
330
148E
100
AcDbEntity
  8
3
100
AcDbLine
 10
250.0
 20
16.0
 30
0.0
 11
250.0
 21
56.841786
 31
0.0
  0
LINE
  5
14BF
330
148E
100
AcDbEntity
  8
1
100
AcDbLine
 10
241.0
 20
171.5
 30
0.0
 11
241.0
 21
0.0
 31
0.0
  0
ARC
  5
14C0
330
148E
100
AcDbEntity
  8
3
100
AcDbCircle
 10
241.0
 20
16.0
 30
0.0
 40
9.0
100
AcDbArc
 50
180.0
 51
0.0
  0
LINE
  5
14C1
330
148E
100
AcDbEntity
  8
1
100
AcDbLine
 10
241.0
 20
16.0
 30
0.0
 11
253.8140359999999
 21
16.0
 31
0.0
  0
ARC
  5
14C2
330
148E
100
AcDbEntity
  8
3
100
AcDbCircle
 10
241.0
 20
19.0
 30
0.0
 40
6.0
100
AcDbArc
 50
0.940343
 51
179.059657
  0
LINE
  5
14C3
330
148E
100
AcDbEntity
  8
1
100
AcDbLine
 10
241.0
 20
16.0
 30
0.0
 11
229.3170299999999
 21
16.0
 31
0.0
  0
ARC
  5
14C4
330
148E
100
AcDbEntity
  8
3
100
AcDbCircle
 10
231.513002
 20
19.473995
 30
0.0
 40
3.507963999999999
100
AcDbArc
 50
277.9799339999999
 51
0.424744
  0
ARC
  5
14C5
330
148E
100
AcDbEntity
  8
3
100
AcDbCircle
 10
250.486997
 20
19.473995
 30
0.0
 40
3.507963999999999
100
AcDbArc
 50
179.5752559999999
 51
262.020066
  0
ARC
  5
14C6
330
148E
100
AcDbEntity
  8
3
100
AcDbCircle
 10
241.0
 20
51.91347
 30
0.0
 40
3.774639
100
AcDbArc
 50
201.991251
 51
326.2734829999999
  0
ARC
  5
14C7
330
148E
100
AcDbEntity
  8
2
100
AcDbCircle
 10
241.4475839999999
 20
51.69957199999999
 30
0.0
 40
3.279666
100
AcDbArc
 50
322.980494
 51
338.5456279999999
  0
LINE
  5
14C8
330
148E
100
AcDbEntity
  8
3
100
AcDbLine
 10
236.1686259999999
 20
144.5
 30
0.0
 11
236.25
 21
109.341261
 31
0.0
  0
LINE
  5
14C9
330
148E
100
AcDbEntity
  8
3
100
AcDbLine
 10
245.814921
 20
145.8818409999999
 30
0.0
 11
246.75
 21
109.341261
 31
0.0
  0
LINE
  5
14CA
330
148E
100
AcDbEntity
  8
3
100
AcDbLine
 10
250.0
 20
158.0
 30
0.0
 11
250.0
 21
138.0
 31
0.0
  0
LINE
  5
14CB
330
148E
100
AcDbEntity
  8
3
100
AcDbLine
 10
232.0
 20
87.0
 30
0.0
 11
232.0
 21
158.0
 31
0.0
  0
LINE
  5
14CC
330
148E
100
AcDbEntity
  8
3
100
AcDbLine
 10
263.0
 20
68.0
 30
0.0
 11
250.0
 21
68.0
 31
0.0
  0
LINE
  5
14CD
330
148E
100
AcDbEntity
  8
3
100
AcDbLine
 10
263.0
 20
106.0
 30
0.0
 11
250.0
 21
106.0
 31
0.0
  0
LINE
  5
14CE
330
148E
100
AcDbEntity
  8
1
100
AcDbLine
 10
225.607979
 20
87.0
 30
0.0
 11
285.607548
 21
87.0
 31
0.0
  0
LINE
  5
14CF
330
148E
100
AcDbEntity
  8
1
100
AcDbLine
 10
241.0
 20
87.0
 30
0.0
 11
241.0
 21
118.5
 31
0.0
  0
LINE
  5
14D0
330
148E
100
AcDbEntity
  8
3
100
AcDbLine
 10
233.0
 20
106.0
 30
0.0
 11
233.0
 21
87.0
 31
0.0
  0
ARC
  5
14D1
330
148E
100
AcDbEntity
  8
2
100
AcDbCircle
 10
230.2079079999999
 20
76.75
 30
0.0
 40
16.52000499999999
100
AcDbArc
 50
337.769774
 51
22.230226
  0
ARC
  5
14D2
330
148E
100
AcDbEntity
  8
2
100
AcDbCircle
 10
252.813657
 20
76.75
 30
0.0
 40
16.53997
100
AcDbArc
 50
157.798037
 51
202.2019629999999
  0
LINE
  5
14D3
330
148E
100
AcDbEntity
  8
3
100
AcDbLine
 10
233.0
 20
68.0
 30
0.0
 11
233.0
 21
87.0
 31
0.0
  0
LINE
  5
14D4
330
148E
100
AcDbEntity
  8
1
100
AcDbLine
 10
241.0
 20
87.0
 30
0.0
 11
241.0
 21
55.5
 31
0.0
  0
ARC
  5
14D5
330
148E
100
AcDbEntity
  8
2
100
AcDbCircle
 10
241.5
 20
71.91942199999999
 30
0.0
 40
4.24438
100
AcDbArc
 50
199.5375089999999
 51
340.4624909999999
  0
ARC
  5
14D6
330
148E
100
AcDbEntity
  8
3
100
AcDbCircle
 10
241.5339609999999
 20
82.918848
 30
0.0
 40
18.918806
100
AcDbArc
 50
246.709358
 51
296.5829709999999
  0
LINE
  5
14D7
330
148E
100
AcDbEntity
  8
2
100
AcDbLine
 10
236.279773
 20
64.74428499999999
 30
0.0
 11
236.3149299999999
 21
76.230582
 31
0.0
  0
LINE
  5
14D8
330
148E
100
AcDbEntity
  8
3
100
AcDbLine
 10
236.2558689999999
 20
56.772054
 30
0.0
 11
236.279773
 21
64.74428499999999
 31
0.0
  0
LINE
  5
14D9
330
148E
100
AcDbEntity
  8
3
100
AcDbLine
 10
233.0
 20
68.0
 30
0.0
 11
234.05355
 21
65.54171700000001
 31
0.0
  0
LINE
  5
14DA
330
148E
100
AcDbEntity
  8
2
100
AcDbLine
 10
246.148734
 20
64.571502
 30
0.0
 11
246.741132
 21
75.631665
 31
0.0
  0
LINE
  5
14DB
330
148E
100
AcDbEntity
  8
3
100
AcDbLine
 10
250.0
 20
56.841786
 30
0.0
 11
250.0
 21
66.0
 31
0.0
  0
LINE
  5
14DC
330
148E
100
AcDbEntity
  8
3
100
AcDbLine
 10
245.7441299999999
 20
56.772054
 30
0.0
 11
246.148734
 21
64.571502
 31
0.0
  0
LINE
  5
14DD
330
148E
100
AcDbEntity
  8
3
100
AcDbLine
 10
250.0
 20
68.0
 30
0.0
 11
250.0
 21
66.0
 31
0.0
  0
ARC
  5
14DE
330
148E
100
AcDbEntity
  8
2
100
AcDbCircle
 10
241.5
 20
81.635126
 30
0.0
 40
4.226449999999999
100
AcDbArc
 50
18.840598
 51
161.159402
  0
LINE
  5
14DF
330
148E
100
AcDbEntity
  8
1
100
AcDbLine
 10
233.0
 20
87.0
 30
0.0
 11
242.0
 21
87.0
 31
0.0
  0
LINE
  5
14E0
330
148E
100
AcDbEntity
  8
1
100
AcDbLine
 10
233.0
 20
87.0
 30
0.0
 11
242.0
 21
87.0
 31
0.0
  0
LINE
  5
14E1
330
148E
100
AcDbEntity
  8
3
100
AcDbLine
 10
250.0
 20
138.0
 30
0.0
 11
250.0
 21
106.0
 31
0.0
  0
ARC
  5
14E2
330
148E
100
AcDbEntity
  8
3
100
AcDbCircle
 10
241.5339609999999
 20
91.08115299999999
 30
0.0
 40
18.918806
100
AcDbArc
 50
63.41702900000001
 51
113.2906419999999
  0
LINE
  5
14E3
330
148E
100
AcDbEntity
  8
3
100
AcDbLine
 10
233.0
 20
106.0
 30
0.0
 11
234.05355
 21
108.458284
 31
0.0
  0
LINE
  5
14E4
330
148E
100
AcDbEntity
  8
3
100
AcDbLine
 10
250.0
 20
106.0
 30
0.0
 11
250.0
 21
108.0
 31
0.0
  0
LINE
  5
14E5
330
148E
100
AcDbEntity
  8
3
100
AcDbLine
 10
266.0
 20
87.0
 30
0.0
 11
266.0
 21
103.0
 31
0.0
  0
LINE
  5
14E6
330
148E
100
AcDbEntity
  8
3
100
AcDbLine
 10
266.0
 20
87.0
 30
0.0
 11
266.0
 21
71.0
 31
0.0
  0
ARC
  5
14E7
330
148E
100
AcDbEntity
  8
3
100
AcDbCircle
 10
263.0
 20
71.0
 30
0.0
 40
3.0
100
AcDbArc
 50
270.0
 51
0.0
  0
ARC
  5
14E8
330
148E
100
AcDbEntity
  8
3
100
AcDbCircle
 10
263.0
 20
103.0
 30
0.0
 40
3.0
100
AcDbArc
 50
0.0
 51
90.0
  0
LINE
  5
14E9
330
148E
100
AcDbEntity
  8
1
100
AcDbLine
 10
226.0
 20
154.0
 30
0.0
 11
251.5
 21
154.0
 31
0.0
  0
ARC
  5
14EA
330
148E
100
AcDbEntity
  8
3
100
AcDbCircle
 10
241.0
 20
158.0
 30
0.0
 40
9.0
100
AcDbArc
 50
0.0
 51
180.0
  0
LINE
  5
14EB
330
148E
100
AcDbEntity
  8
3
100
AcDbLine
 10
232.0
 20
144.5
 30
0.0
 11
236.1686259999999
 21
144.5
 31
0.0
  0
LINE
  5
14EC
330
148E
100
AcDbEntity
  8
3
100
AcDbLine
 10
248.0
 20
157.0
 30
0.0
 11
248.0
 21
146.5
 31
0.0
  0
LINE
  5
14ED
330
148E
100
AcDbEntity
  8
3
100
AcDbLine
 10
248.0
 20
146.5
 30
0.0
 11
245.814921
 21
145.8818409999999
 31
0.0
  0
ARC
  5
14EE
330
148E
100
AcDbEntity
  8
3
100
AcDbCircle
 10
250.486997
 20
154.5260049999999
 30
0.0
 40
3.507963999999999
100
AcDbArc
 50
97.97993400000001
 51
135.150169
  0
ENDBLK
  5
14F0
330
148E
100
AcDbEntity
  8
0
100
AcDbBlockEnd
  0
BLOCK
  5
14FC
330
14F1
100
AcDbEntity
  8
0
100
AcDbBlockBegin
  2
*D12
 70
     1
 10
0.0
 20
0.0
 30
0.0
  3
*D12
  1

  0
LINE
  5
14F2
330
14F1
100
AcDbEntity
  8
0
  6
ByBlock
 62
     0
100
AcDbLine
 10
281.5454879999999
 20
220.6866499999999
 30
0.0
 11
238.966435
 21
220.6866499999999
 31
0.0
  0
LINE
  5
14F3
330
14F1
100
AcDbEntity
  8
0
  6
ByBlock
 62
     0
100
AcDbLine
 10
281.5454879999999
 20
60.68665
 30
0.0
 11
238.966435
 21
60.68665
 31
0.0
  0
LINE
  5
14F4
330
14F1
100
AcDbEntity
  8
0
  6
ByBlock
 62
     0
100
AcDbLine
 10
239.966435
 20
218.6866499999999
 30
0.0
 11
239.966435
 21
145.9883129999999
 31
0.0
  0
LINE
  5
14F5
330
14F1
100
AcDbEntity
  8
0
  6
ByBlock
 62
     0
100
AcDbLine
 10
239.966435
 20
62.68665
 30
0.0
 11
239.966435
 21
136.0716459999999
 31
0.0
  0
SOLID
  5
14F6
330
14F1
100
AcDbEntity
  8
0
  6
ByBlock
 62
     0
100
AcDbTrace
 10
239.633102
 20
218.6866499999999
 30
0.0
 11
240.2997689999999
 21
218.6866499999999
 31
0.0
 12
239.966435
 22
220.6866499999999
 32
0.0
 13
239.966435
 23
220.6866499999999
 33
0.0
  0
SOLID
  5
14F7
330
14F1
100
AcDbEntity
  8
0
  6
ByBlock
 62
     0
100
AcDbTrace
 10
239.633102
 20
62.68665
 30
0.0
 11
240.2997689999999
 21
62.68665
 31
0.0
 12
239.966435
 22
60.68665
 32
0.0
 13
239.966435
 23
60.68665
 33
0.0
  0
MTEXT
  5
14F8
330
14F1
100
AcDbEntity
  8
0
  6
ByBlock
 62
     0
100
AcDbMText
 10
239.966435
 20
141.0299799999999
 30
0.0
 40
4.0
 41
0.0
 71
     5
 72
     5
  1
\A1;160
 11
0.0
 21
1.0
 31
0.0
 73
     1
 44
1.0
  0
POINT
  5
14F9
330
14F1
100
AcDbEntity
  8
DEFPOINTS
  6
ByBlock
 62
     0
100
AcDbPoint
 10
282.5454879999999
 20
220.6866499999999
 30
0.0
  0
POINT
  5
14FA
330
14F1
100
AcDbEntity
  8
DEFPOINTS
  6
ByBlock
 62
     0
100
AcDbPoint
 10
282.5454879999999
 20
60.68665
 30
0.0
  0
POINT
  5
14FB
330
14F1
100
AcDbEntity
  8
DEFPOINTS
  6
ByBlock
 62
     0
100
AcDbPoint
 10
239.966435
 20
60.68665
 30
0.0
  0
ENDBLK
  5
14FD
330
14F1
100
AcDbEntity
  8
0
100
AcDbBlockEnd
  0
BLOCK
  5
1501
330
14FE
100
AcDbEntity
  8
0
100
AcDbBlockBegin
  2
A$C325F7C1E
 70
     0
 10
0.0
 20
0.0
 30
0.0
  3
A$C325F7C1E
  1

  0
INSERT
  5
14FF
330
14FE
100
AcDbEntity
  8
0
100
AcDbBlockReference
  2
A$C1E8C0F59
 10
-0.482604
 20
0.0
 30
9.003616
  0
DIMENSION
  5
1500
330
14FE
100
AcDbEntity
  8
0
100
AcDbDimension
  2
*D12
 10
197.938343
 20
7.0
 30
9.003616
 11
197.938343
 21
87.343329
 31
9.003616
 12
-42.02809199999999
 22
-53.68665
 32
9.003616
 70
   128
 71
     5
 42
-1.0
  3
STANDARD
100
AcDbAlignedDimension
 13
240.5173959999999
 23
167.0
 33
9.003616
 14
240.5173959999999
 24
7.0
 34
9.003616
 50
90.0
100
AcDbRotatedDimension
1001
ACAD
1000
DSTYLE
1002
{
1070
   140
1040
4.0
1070
    77
1070
     0
1070
    40
1040
1.0
1070
   141
1040
0.0
1070
    41
1040
2.0
1002
}
  0
ENDBLK
  5
1502
330
14FE
100
AcDbEntity
  8
0
100
AcDbBlockEnd
  0
BLOCK
  5
15B3
330
15A7
100
AcDbEntity
  8
0
100
AcDbBlockBegin
  2
A$C0E736477
 70
     0
 10
0.0
 20
0.0
 30
0.0
  3
A$C0E736477
  1

  0
ARC
  5
15A8
330
15A7
100
AcDbEntity
  8
3
100
AcDbCircle
 10
24.975
 20
32.461185
 30
0.0
 40
32.461535
100
AcDbArc
 50
229.748095
 51
297.571522
  0
ARC
  5
15A9
330
15A7
100
AcDbEntity
  8
3
100
AcDbCircle
 10
24.975
 20
-12.08881499999999
 30
0.0
 40
32.461535
100
AcDbArc
 50
62.42847800000001
 51
130.2519049999999
  0
LINE
  5
15AA
330
15A7
100
AcDbEntity
  8
1
100
AcDbLine
 10
55.5
 20
10.186185
 30
0.0
 11
0.0
 21
10.186185
 31
0.0
  0
ARC
  5
15AB
330
15A7
100
AcDbEntity
  8
3
100
AcDbCircle
 10
5.333333
 20
10.186185
 30
0.0
 40
2.833333
100
AcDbArc
 50
118.072487
 51
241.9275129999999
  0
LINE
  5
15AC
330
15A7
100
AcDbEntity
  8
3
100
AcDbLine
 10
58.5
 20
16.686185
 30
0.0
 11
62.0
 21
16.686185
 31
0.0
  0
LINE
  5
15AD
330
15A7
100
AcDbEntity
  8
3
100
AcDbLine
 10
64.5
 20
3.686185
 30
0.0
 11
58.5
 21
3.686185
 31
0.0
  0
LINE
  5
15AE
330
15A7
100
AcDbEntity
  8
1
100
AcDbLine
 10
58.5
 20
10.186185
 30
0.0
 11
84.0
 21
10.186185
 31
0.0
  0
LINE
  5
15AF
330
15A7
100
AcDbEntity
  8
3
100
AcDbLine
 10
58.5
 20
3.686185
 30
0.0
 11
58.5
 21
16.686185
 31
0.0
  0
ARC
  5
15B0
330
15A7
100
AcDbEntity
  8
3
100
AcDbCircle
 10
49.25
 20
-16.68881499999999
 30
0.0
 40
22.376397
100
AcDbArc
 50
65.58253399999999
 51
114.417466
  0
ARC
  5
15B1
330
15A7
100
AcDbEntity
  8
3
100
AcDbCircle
 10
49.25
 20
37.06118499999999
 30
0.0
 40
22.376397
100
AcDbArc
 50
245.582534
 51
294.4174659999999
  0
LINE
  5
15B2
330
15A7
100
AcDbEntity
  8
3
100
AcDbLine
 10
66.5
 20
16.686185
 30
0.0
 11
62.0
 21
16.686185
 31
0.0
  0
ENDBLK
  5
15B4
330
15A7
100
AcDbEntity
  8
0
100
AcDbBlockEnd
  0
BLOCK
  5
162A
330
15CE
100
AcDbEntity
  8
0
100
AcDbBlockBegin
  2
A$C68E55F1B
 70
     0
 10
0.0
 20
0.0
 30
0.0
  3
A$C68E55F1B
  1

  0
LINE
  5
15CF
330
15CE
100
AcDbEntity
  8
1
100
AcDbLine
 10
0.0
 20
100.5
 30
0.0
 11
193.366095
 21
100.5
 31
0.0
  0
TEXT
  5
15D0
330
15CE
100
AcDbEntity
  8
3
100
AcDbText
 10
121.3069159999999
 20
82.11890999999999
 30
0.0
 40
5.0
  1
Ｓ/ＳＮ-180
 50
330.0
 41
0.75
  7
BIGFONT
100
AcDbText
  0
LINE
  5
15D1
330
15CE
100
AcDbEntity
  8
1
100
AcDbLine
 10
94.50000000000001
 20
100.5
 30
0.0
 11
11.956416
 21
52.84344
 31
0.0
  0
ARC
  5
15D2
330
15CE
100
AcDbEntity
  8
3
100
AcDbCircle
 10
94.50000000000001
 20
100.5
 30
0.0
 40
23.5
100
AcDbArc
 50
236.5391049999999
 51
303.4608949999999
  0
ARC
  5
15D3
330
15CE
100
AcDbEntity
  8
3
100
AcDbCircle
 10
94.50000000000001
 20
100.5
 30
0.0
 40
70.0
100
AcDbArc
 50
337.7999259999999
 51
82.200074
  0
LINE
  5
15D4
330
15CE
100
AcDbEntity
  8
3
100
AcDbLine
 10
107.4571419999999
 20
80.894835
 30
0.0
 11
149.810907
 21
57.596578
 31
0.0
  0
LINE
  5
15D5
330
15CE
100
AcDbEntity
  8
3
100
AcDbLine
 10
117.957142
 20
99.081369
 30
0.0
 11
159.310907
 21
74.05106100000001
 31
0.0
  0
LINE
  5
15D6
330
15CE
100
AcDbEntity
  8
3
100
AcDbLine
 10
71.04285899999999
 20
99.081369
 30
0.0
 11
29.689094
 21
74.05106100000001
 31
0.0
  0
LINE
  5
15D7
330
15CE
100
AcDbEntity
  8
3
100
AcDbLine
 10
81.54285899999999
 20
80.894835
 30
0.0
 11
39.189094
 21
57.596578
 31
0.0
  0
ARC
  5
15D8
330
15CE
100
AcDbEntity
  8
3
100
AcDbCircle
 10
94.50000000000001
 20
100.5
 30
0.0
 40
80.0
100
AcDbArc
 50
100.806923
 51
90.0
  0
ARC
  5
15D9
330
15CE
100
AcDbEntity
  8
3
100
AcDbCircle
 10
94.50000000000001
 20
100.5
 30
0.0
 40
70.0
100
AcDbArc
 50
97.79992599999999
 51
202.200074
  0
CIRCLE
  5
15DA
330
15CE
100
AcDbEntity
  8
3
100
AcDbCircle
 10
94.50000000000001
 20
100.5
 30
0.0
 40
90.0
  0
LINE
  5
15DB
330
15CE
100
AcDbEntity
  8
1
100
AcDbLine
 10
94.50000000000001
 20
195.0
 30
0.0
 11
94.50000000000001
 21
0.0
 31
0.0
  0
ARC
  5
15DC
330
15CE
100
AcDbEntity
  8
3
100
AcDbCircle
 10
94.50000000000001
 20
100.5
 30
0.0
 40
70.0
100
AcDbArc
 50
217.7999259999999
 51
322.200074
  0
ARC
  5
15DD
330
15CE
100
AcDbEntity
  8
3
100
AcDbCircle
 10
31.167269
 20
72.09299
 30
0.0
 40
2.453373
100
AcDbArc
 50
127.049672
 51
199.79119
  0
ARC
  5
15DE
330
15CE
100
AcDbEntity
  8
3
100
AcDbCircle
 10
94.50000000000001
 20
100.5
 30
0.0
 40
71.85825899999999
100
AcDbArc
 50
204.0090059999999
 51
215.9909939999999
  0
ARC
  5
15DF
330
15CE
100
AcDbEntity
  8
3
100
AcDbCircle
 10
38.23244199999999
 20
59.855751
 30
0.0
 40
2.453373
100
AcDbArc
 50
220.20881
 51
292.9503279999999
  0
ARC
  5
15E0
330
15CE
100
AcDbEntity
  8
3
100
AcDbCircle
 10
94.50000000000001
 20
100.5
 30
0.0
 40
71.85825899999999
100
AcDbArc
 50
324.0090059999999
 51
335.990994
  0
ARC
  5
15E1
330
15CE
100
AcDbEntity
  8
3
100
AcDbCircle
 10
150.767558
 20
59.855751
 30
0.0
 40
2.453373
100
AcDbArc
 50
247.049672
 51
319.7911899999999
  0
ARC
  5
15E2
330
15CE
100
AcDbEntity
  8
3
100
AcDbCircle
 10
157.8327319999999
 20
72.09299
 30
0.0
 40
2.453373
100
AcDbArc
 50
340.20881
 51
52.95032800000001
  0
ARC
  5
15E3
330
15CE
100
AcDbEntity
  8
3
100
AcDbCircle
 10
94.50000000000001
 20
175.5
 30
0.0
 40
10.0
100
AcDbArc
 50
188.6269269999999
 51
270.0
  0
LINE
  5
15E4
330
15CE
100
AcDbEntity
  8
3
100
AcDbLine
 10
84.0
 20
121.5237959999999
 30
0.0
 11
85.0
 21
169.852361
 31
0.0
  0
LINE
  5
15E5
330
15CE
100
AcDbEntity
  8
3
100
AcDbLine
 10
105.0
 20
121.5237959999999
 30
0.0
 11
104.0
 21
169.852361
 31
0.0
  0
CIRCLE
  5
15E6
330
15CE
100
AcDbEntity
  8
3
100
AcDbCircle
 10
94.50000000000001
 20
100.5
 30
0.0
 40
21.0
  0
ARC
  5
15E7
330
15CE
100
AcDbEntity
  8
3
100
AcDbCircle
 10
94.50000000000001
 20
100.5
 30
0.0
 40
23.5
100
AcDbArc
 50
356.539105
 51
63.460895
  0
ARC
  5
15E8
330
15CE
100
AcDbEntity
  8
3
100
AcDbCircle
 10
84.708439
 20
122.22545
 30
0.0
 40
0.9970969999999999
100
AcDbArc
 50
224.7243
 51
287.002294
  0
ARC
  5
15E9
330
15CE
100
AcDbEntity
  8
3
100
AcDbCircle
 10
104.291561
 20
122.22545
 30
0.0
 40
0.9970969999999999
100
AcDbArc
 50
252.9977059999999
 51
315.2756999999999
  0
ARC
  5
15EA
330
15CE
100
AcDbEntity
  8
3
100
AcDbCircle
 10
94.50000000000001
 20
100.5
 30
0.0
 40
23.5
100
AcDbArc
 50
116.5391049999999
 51
183.4608949999999
  0
CIRCLE
  5
15EB
330
15CE
100
AcDbEntity
  8
3
100
AcDbCircle
 10
94.50000000000001
 20
100.5
 30
0.0
 40
19.0
  0
ARC
  5
15EC
330
15CE
100
AcDbEntity
  8
3
100
AcDbCircle
 10
94.50000000000001
 20
100.5
 30
0.0
 40
22.84126
100
AcDbArc
 50
185.423111
 51
234.5768889999999
  0
ARC
  5
15ED
330
15CE
100
AcDbEntity
  8
3
100
AcDbCircle
 10
70.789428
 20
98.11701600000001
 30
0.0
 40
0.9970969999999999
100
AcDbArc
 50
12.99770599999999
 51
75.2757
  0
ARC
  5
15EE
330
15CE
100
AcDbEntity
  8
3
100
AcDbCircle
 10
80.58099
 20
81.157535
 30
0.0
 40
0.9970969999999999
100
AcDbArc
 50
344.7243
 51
47.002294
  0
ARC
  5
15EF
330
15CE
100
AcDbEntity
  8
3
100
AcDbCircle
 10
108.419011
 20
81.157535
 30
0.0
 40
0.9970969999999999
100
AcDbArc
 50
132.997706
 51
195.2757
  0
ARC
  5
15F0
330
15CE
100
AcDbEntity
  8
3
100
AcDbCircle
 10
94.50000000000001
 20
100.5
 30
0.0
 40
22.84126
100
AcDbArc
 50
305.4231109999999
 51
354.576889
  0
ARC
  5
15F1
330
15CE
100
AcDbEntity
  8
3
100
AcDbCircle
 10
118.210572
 20
98.11701600000001
 30
0.0
 40
0.9970969999999999
100
AcDbArc
 50
104.7242999999999
 51
167.002294
  0
ARC
  5
15F2
330
15CE
100
AcDbEntity
  8
3
100
AcDbCircle
 10
94.50000000000001
 20
100.5
 30
0.0
 40
22.84126
100
AcDbArc
 50
65.42311099999999
 51
114.576889
  0
LINE
  5
15F3
330
15CE
100
AcDbEntity
  8
1
100
AcDbLine
 10
75.5
 20
175.5
 30
0.0
 11
112.0
 21
175.5
 31
0.0
  0
ARC
  5
15F4
330
15CE
100
AcDbEntity
  8
3
100
AcDbCircle
 10
77.983988
 20
172.442376
 30
0.0
 40
6.809688
100
AcDbArc
 50
13.222691
 51
77.13669499999999
  0
ARC
  5
15F5
330
15CE
100
AcDbEntity
  8
3
100
AcDbCircle
 10
87.434826
 20
168.551259
 30
0.0
 40
2.453373
100
AcDbArc
 50
129.544279
 51
172.950328
  0
ARC
  5
15F6
330
15CE
100
AcDbEntity
  8
3
100
AcDbCircle
 10
109.0732559999999
 20
174.006812
 30
0.0
 40
6.152084999999999
100
AcDbArc
 50
114.725654
 51
175.4018929999999
  0
ARC
  5
15F7
330
15CE
100
AcDbEntity
  8
3
100
AcDbCircle
 10
94.50000000000001
 20
175.5
 30
0.0
 40
8.5
100
AcDbArc
 50
270.0
 51
353.4361679999999
  0
ARC
  5
15F8
330
15CE
100
AcDbEntity
  8
3
100
AcDbCircle
 10
101.565174
 20
168.551259
 30
0.0
 40
2.453373
100
AcDbArc
 50
7.049672
 51
79.79119
  0
LINE
  5
15F9
330
15CE
100
AcDbEntity
  8
3
100
AcDbLine
 10
245.748047
 20
66.29075999999999
 30
0.0
 11
245.748047
 21
77.73854799999999
 31
0.0
  0
LINE
  5
15FA
330
15CE
100
AcDbEntity
  8
3
100
AcDbLine
 10
260.4999999999999
 20
67.781734
 30
0.0
 11
260.4999999999999
 21
79.0
 31
0.0
  0
LINE
  5
15FB
330
15CE
100
AcDbEntity
  8
2
100
AcDbLine
 10
256.2021839999999
 20
89.345566
 30
0.0
 11
255.9577029999999
 21
77.37180399999999
 31
0.0
  0
ARC
  5
15FC
330
15CE
100
AcDbEntity
  8
3
100
AcDbCircle
 10
251.0234749999999
 20
96.21113000000001
 30
0.0
 40
19.21109999999999
100
AcDbArc
 50
243.0008529999999
 51
299.556649
  0
LINE
  5
15FD
330
15CE
100
AcDbEntity
  8
3
100
AcDbLine
 10
240.5
 20
100.5
 30
0.0
 11
240.5
 21
20.5
 31
0.0
  0
LINE
  5
15FE
330
15CE
100
AcDbEntity
  8
1
100
AcDbLine
 10
250.4999999999999
 20
194.0
 30
0.0
 11
250.4999999999999
 21
0.5
 31
0.0
  0
LINE
  5
15FF
330
15CE
100
AcDbEntity
  8
1
100
AcDbLine
 10
264.5
 20
20.5
 30
0.0
 11
237.5
 21
20.5
 31
0.0
  0
ARC
  5
1600
330
15CE
100
AcDbEntity
  8
3
100
AcDbCircle
 10
250.4999999999999
 20
61.346739
 30
0.0
 40
3.750160999999999
100
AcDbArc
 50
201.0458519999999
 51
270.0
  0
ARC
  5
1601
330
15CE
100
AcDbEntity
  8
3
100
AcDbCircle
 10
250.4999999999999
 20
20.5
 30
0.0
 40
10.0
100
AcDbArc
 50
180.0
 51
0.0
  0
ARC
  5
1602
330
15CE
100
AcDbEntity
  8
3
100
AcDbCircle
 10
250.4999999999999
 20
23.5
 30
0.0
 40
7.0
100
AcDbArc
 50
0.0
 51
180.0
  0
ARC
  5
1603
330
15CE
100
AcDbEntity
  8
3
100
AcDbCircle
 10
238.4166669999999
 20
25.583333
 30
0.0
 40
5.493682999999999
100
AcDbArc
 50
292.2855879999999
 51
337.714412
  0
ARC
  5
1604
330
15CE
100
AcDbEntity
  8
3
100
AcDbCircle
 10
260.7178
 20
66.0
 30
0.0
 40
14.972576
100
AcDbArc
 50
178.887273
 51
203.623988
  0
LINE
  5
1605
330
15CE
100
AcDbEntity
  8
3
100
AcDbLine
 10
260.4999999999999
 20
20.5
 30
0.0
 11
260.4999999999999
 21
67.781734
 31
0.0
  0
ARC
  5
1606
330
15CE
100
AcDbEntity
  8
3
100
AcDbCircle
 10
262.5833329999999
 20
25.583333
 30
0.0
 40
5.493682999999999
100
AcDbArc
 50
202.2855879999999
 51
247.714412
  0
LINE
  5
1607
330
15CE
100
AcDbEntity
  8
3
100
AcDbLine
 10
255.231008
 20
66.269114
 30
0.0
 11
255.9577029999999
 21
77.37180399999999
 31
0.0
  0
ARC
  5
1608
330
15CE
100
AcDbEntity
  8
3
100
AcDbCircle
 10
240.2822
 20
66.0
 30
0.0
 40
14.972576
100
AcDbArc
 50
336.376012
 51
1.032754
  0
ARC
  5
1609
330
15CE
100
AcDbEntity
  8
3
100
AcDbCircle
 10
250.4999999999999
 20
61.346739
 30
0.0
 40
3.750160999999999
100
AcDbArc
 50
270.0
 51
338.9541479999999
  0
LINE
  5
160A
330
15CE
100
AcDbEntity
  8
3
100
AcDbLine
 10
245.689962
 20
166.5
 30
0.0
 11
245.75
 21
123.5706629999999
 31
0.0
  0
LINE
  5
160B
330
15CE
100
AcDbEntity
  8
3
100
AcDbLine
 10
255.3009289999999
 20
167.3888879999999
 30
0.0
 11
256.25
 21
123.5706629999999
 31
0.0
  0
LINE
  5
160C
330
15CE
100
AcDbEntity
  8
3
100
AcDbLine
 10
260.4999999999999
 20
180.4999999999999
 30
0.0
 11
260.4999999999999
 21
158.178387
 31
0.0
  0
LINE
  5
160D
330
15CE
100
AcDbEntity
  8
3
100
AcDbLine
 10
240.5
 20
100.5
 30
0.0
 11
240.5
 21
180.4999999999999
 31
0.0
  0
ARC
  5
160E
330
15CE
100
AcDbEntity
  8
2
100
AcDbCircle
 10
251.0
 20
85.268241
 30
0.0
 40
4.373404999999999
100
AcDbArc
 50
203.8483129999999
 51
336.151687
  0
ARC
  5
160F
330
15CE
100
AcDbEntity
  8
2
100
AcDbCircle
 10
251.0
 20
94.691553
 30
0.0
 40
4.389815
100
AcDbArc
 50
24.328281
 51
155.671719
  0
LINE
  5
1610
330
15CE
100
AcDbEntity
  8
1
100
AcDbLine
 10
218.694899
 20
100.5
 30
0.0
 11
282.5490669999999
 21
100.5
 31
0.0
  0
LINE
  5
1611
330
15CE
100
AcDbEntity
  8
3
100
AcDbLine
 10
241.5
 20
119.5
 30
0.0
 11
242.302072
 21
121.9062159999999
 31
0.0
  0
LINE
  5
1612
330
15CE
100
AcDbEntity
  8
3
100
AcDbLine
 10
241.5
 20
100.5
 30
0.0
 11
241.5
 21
81.5
 31
0.0
  0
LINE
  5
1613
330
15CE
100
AcDbEntity
  8
2
100
AcDbLine
 10
245.748047
 20
77.73854799999999
 30
0.0
 11
245.748047
 21
88.84351200000001
 31
0.0
  0
ARC
  5
1614
330
15CE
100
AcDbEntity
  8
2
100
AcDbCircle
 10
262.8710129999999
 20
90.0
 30
0.0
 40
17.15048299999999
100
AcDbArc
 50
157.728365
 51
202.271635
  0
LINE
  5
1615
330
15CE
100
AcDbEntity
  8
3
100
AcDbLine
 10
241.5
 20
81.5
 30
0.0
 11
242.302072
 21
79.093784
 31
0.0
  0
LINE
  5
1616
330
15CE
100
AcDbEntity
  8
3
100
AcDbLine
 10
241.5
 20
100.5
 30
0.0
 11
241.5
 21
119.5
 31
0.0
  0
ARC
  5
1617
330
15CE
100
AcDbEntity
  8
3
100
AcDbCircle
 10
252.907334
 20
95.92819399999999
 30
0.0
 40
28.059387
100
AcDbArc
 50
104.812072
 51
112.207236
  0
LINE
  5
1618
330
15CE
100
AcDbEntity
  8
3
100
AcDbLine
 10
245.75
 20
123.5706629999999
 30
0.0
 11
245.7339669999999
 21
123.0551549999999
 31
0.0
  0
LINE
  5
1619
330
15CE
100
AcDbEntity
  8
3
100
AcDbLine
 10
260.4999999999999
 20
119.5
 30
0.0
 11
260.4999999999999
 21
121.5
 31
0.0
  0
LINE
  5
161A
330
15CE
100
AcDbEntity
  8
3
100
AcDbLine
 10
276.5
 20
100.5
 30
0.0
 11
276.5
 21
84.50000000000001
 31
0.0
  0
LINE
  5
161B
330
15CE
100
AcDbEntity
  8
3
100
AcDbLine
 10
273.4999999999999
 20
81.5
 30
0.0
 11
260.4999999999999
 21
81.5
 31
0.0
  0
ARC
  5
161C
330
15CE
100
AcDbEntity
  8
2
100
AcDbCircle
 10
238.538693
 20
90.0
 30
0.0
 40
17.698154
100
AcDbArc
 50
338.452654
 51
21.54734599999999
  0
LINE
  5
161D
330
15CE
100
AcDbEntity
  8
3
100
AcDbLine
 10
260.4999999999999
 20
81.5
 30
0.0
 11
260.4999999999999
 21
79.5
 31
0.0
  0
ARC
  5
161E
330
15CE
100
AcDbEntity
  8
3
100
AcDbCircle
 10
273.4999999999999
 20
84.50000000000001
 30
0.0
 40
3.0
100
AcDbArc
 50
270.0
 51
0.0
  0
LINE
  5
161F
330
15CE
100
AcDbEntity
  8
3
100
AcDbLine
 10
273.4999999999999
 20
119.5
 30
0.0
 11
260.4999999999999
 21
119.5
 31
0.0
  0
LINE
  5
1620
330
15CE
100
AcDbEntity
  8
3
100
AcDbLine
 10
276.5
 20
100.5
 30
0.0
 11
276.5
 21
116.5
 31
0.0
  0
ARC
  5
1621
330
15CE
100
AcDbEntity
  8
3
100
AcDbCircle
 10
273.4999999999999
 20
116.5
 30
0.0
 40
3.0
100
AcDbArc
 50
0.0
 51
90.0
  0
LINE
  5
1622
330
15CE
100
AcDbEntity
  8
3
100
AcDbLine
 10
260.4999999999999
 20
158.178387
 30
0.0
 11
260.4999999999999
 21
122.0
 31
0.0
  0
ARC
  5
1623
330
15CE
100
AcDbEntity
  8
3
100
AcDbCircle
 10
252.8828089999999
 20
111.262703
 30
0.0
 40
12.760245
100
AcDbArc
 50
53.348439
 51
74.699505
  0
LINE
  5
1624
330
15CE
100
AcDbEntity
  8
1
100
AcDbLine
 10
236.0
 20
175.5
 30
0.0
 11
265.5
 21
175.5
 31
0.0
  0
ARC
  5
1625
330
15CE
100
AcDbEntity
  8
3
100
AcDbCircle
 10
250.4999999999999
 20
180.4999999999999
 30
0.0
 40
10.0
100
AcDbArc
 50
0.0
 51
180.0
  0
LINE
  5
1626
330
15CE
100
AcDbEntity
  8
3
100
AcDbLine
 10
240.5
 20
166.5
 30
0.0
 11
245.689962
 21
166.5
 31
0.0
  0
LINE
  5
1627
330
15CE
100
AcDbEntity
  8
3
100
AcDbLine
 10
257.5
 20
177.5
 30
0.0
 11
257.5
 21
168.0
 31
0.0
  0
LINE
  5
1628
330
15CE
100
AcDbEntity
  8
3
100
AcDbLine
 10
257.5
 20
168.0
 30
0.0
 11
255.3009289999999
 21
167.3888879999999
 31
0.0
  0
ARC
  5
1629
330
15CE
100
AcDbEntity
  8
3
100
AcDbCircle
 10
262.5833329999999
 20
175.416667
 30
0.0
 40
5.493682999999999
100
AcDbArc
 50
112.2855879999999
 51
157.7144119999999
  0
ENDBLK
  5
162B
330
15CE
100
AcDbEntity
  8
0
100
AcDbBlockEnd
  0
BLOCK
  5
1637
330
162C
100
AcDbEntity
  8
0
100
AcDbBlockBegin
  2
*D16
 70
     1
 10
0.0
 20
0.0
 30
0.0
  3
*D16
  1

  0
LINE
  5
162D
330
162C
100
AcDbEntity
  8
0
  6
ByBlock
 62
     0
100
AcDbLine
 10
280.428869
 20
241.263024
 30
0.0
 11
238.234255
 21
241.263024
 31
0.0
  0
LINE
  5
162E
330
162C
100
AcDbEntity
  8
0
  6
ByBlock
 62
     0
100
AcDbLine
 10
280.428869
 20
61.263024
 30
0.0
 11
238.234255
 21
61.263024
 31
0.0
  0
LINE
  5
162F
330
162C
100
AcDbEntity
  8
0
  6
ByBlock
 62
     0
100
AcDbLine
 10
239.2342549999999
 20
239.263024
 30
0.0
 11
239.2342549999999
 21
156.221005
 31
0.0
  0
LINE
  5
1630
330
162C
100
AcDbEntity
  8
0
  6
ByBlock
 62
     0
100
AcDbLine
 10
239.2342549999999
 20
63.263024
 30
0.0
 11
239.2342549999999
 21
146.304338
 31
0.0
  0
SOLID
  5
1631
330
162C
100
AcDbEntity
  8
0
  6
ByBlock
 62
     0
100
AcDbTrace
 10
238.900922
 20
239.263024
 30
0.0
 11
239.567589
 21
239.263024
 31
0.0
 12
239.2342549999999
 22
241.263024
 32
0.0
 13
239.2342549999999
 23
241.263024
 33
0.0
  0
SOLID
  5
1632
330
162C
100
AcDbEntity
  8
0
  6
ByBlock
 62
     0
100
AcDbTrace
 10
238.900922
 20
63.263024
 30
0.0
 11
239.567589
 21
63.263024
 31
0.0
 12
239.2342549999999
 22
61.263024
 32
0.0
 13
239.2342549999999
 23
61.263024
 33
0.0
  0
MTEXT
  5
1633
330
162C
100
AcDbEntity
  8
0
  6
ByBlock
 62
     0
100
AcDbMText
 10
239.2342549999999
 20
151.2626709999999
 30
0.0
 40
4.0
 41
0.0
 71
     5
 72
     5
  1
\A1;180
 11
0.0
 21
1.0
 31
0.0
 73
     1
 44
1.0
  0
POINT
  5
1634
330
162C
100
AcDbEntity
  8
DEFPOINTS
  6
ByBlock
 62
     0
100
AcDbPoint
 10
281.428869
 20
241.263024
 30
0.0
  0
POINT
  5
1635
330
162C
100
AcDbEntity
  8
DEFPOINTS
  6
ByBlock
 62
     0
100
AcDbPoint
 10
281.428869
 20
61.263024
 30
0.0
  0
POINT
  5
1636
330
162C
100
AcDbEntity
  8
DEFPOINTS
  6
ByBlock
 62
     0
100
AcDbPoint
 10
239.2342549999999
 20
61.263024
 30
0.0
  0
ENDBLK
  5
1638
330
162C
100
AcDbEntity
  8
0
100
AcDbBlockEnd
  0
BLOCK
  5
163C
330
1639
100
AcDbEntity
  8
0
100
AcDbBlockBegin
  2
A$C50CE67E4
 70
     0
 10
0.0
 20
0.0
 30
0.0
  3
A$C50CE67E4
  1

  0
INSERT
  5
163A
330
1639
100
AcDbEntity
  8
0
100
AcDbBlockReference
  2
A$C68E55F1B
 10
-0.513019
 20
0.0
 30
9.571049
  0
DIMENSION
  5
163B
330
1639
100
AcDbEntity
  8
0
100
AcDbDimension
  2
*D16
 10
207.792368
 20
10.5
 30
9.571049
 11
207.792368
 21
100.4996479999999
 31
9.571049
 12
-31.441887
 22
-50.763023
 32
9.571049
 70
   128
 71
     5
 42
-1.0
  3
STANDARD
100
AcDbAlignedDimension
 13
249.986981
 23
190.5
 33
9.571049
 14
249.986981
 24
10.5
 34
9.571049
 50
90.0
100
AcDbRotatedDimension
1001
ACAD
1000
DSTYLE
1002
{
1070
   140
1040
4.0
1070
    77
1070
     0
1070
    40
1040
1.0
1070
   141
1040
0.0
1070
    41
1040
2.0
1002
}
  0
ENDBLK
  5
163D
330
1639
100
AcDbEntity
  8
0
100
AcDbBlockEnd
  0
BLOCK
  5
16E7
330
16DC
100
AcDbEntity
  8
0
100
AcDbBlockBegin
  2
A$C01E076B9
 70
     0
 10
0.0
 20
0.0
 30
0.0
  3
A$C01E076B9
  1

  0
ARC
  5
16DD
330
16DC
100
AcDbEntity
  8
3
100
AcDbCircle
 10
24.975
 20
32.461185
 30
0.0
 40
32.461535
100
AcDbArc
 50
229.748095
 51
297.571522
  0
ARC
  5
16DE
330
16DC
100
AcDbEntity
  8
3
100
AcDbCircle
 10
24.975
 20
-12.08881499999999
 30
0.0
 40
32.461535
100
AcDbArc
 50
62.42847800000001
 51
130.2519049999999
  0
LINE
  5
16DF
330
16DC
100
AcDbEntity
  8
1
100
AcDbLine
 10
55.5
 20
10.186185
 30
0.0
 11
0.0
 21
10.186185
 31
0.0
  0
ARC
  5
16E0
330
16DC
100
AcDbEntity
  8
3
100
AcDbCircle
 10
5.333333
 20
10.186185
 30
0.0
 40
2.833333
100
AcDbArc
 50
118.072487
 51
241.9275129999999
  0
LINE
  5
16E1
330
16DC
100
AcDbEntity
  8
3
100
AcDbLine
 10
58.5
 20
16.686185
 30
0.0
 11
62.0
 21
16.686185
 31
0.0
  0
LINE
  5
16E2
330
16DC
100
AcDbEntity
  8
3
100
AcDbLine
 10
64.5
 20
3.686185
 30
0.0
 11
58.5
 21
3.686185
 31
0.0
  0
LINE
  5
16E3
330
16DC
100
AcDbEntity
  8
1
100
AcDbLine
 10
58.5
 20
10.186185
 30
0.0
 11
84.0
 21
10.186185
 31
0.0
  0
LINE
  5
16E4
330
16DC
100
AcDbEntity
  8
3
100
AcDbLine
 10
58.5
 20
3.686185
 30
0.0
 11
58.5
 21
16.686185
 31
0.0
  0
ARC
  5
16E5
330
16DC
100
AcDbEntity
  8
3
100
AcDbCircle
 10
49.25
 20
-16.68881499999999
 30
0.0
 40
22.376397
100
AcDbArc
 50
65.58253399999999
 51
114.417466
  0
ARC
  5
16E6
330
16DC
100
AcDbEntity
  8
3
100
AcDbCircle
 10
49.25
 20
37.06118499999999
 30
0.0
 40
22.376397
100
AcDbArc
 50
245.582534
 51
294.4174659999999
  0
ENDBLK
  5
16E8
330
16DC
100
AcDbEntity
  8
0
100
AcDbBlockEnd
  0
BLOCK
  5
170C
330
1701
100
AcDbEntity
  8
0
100
AcDbBlockBegin
  2
*D19
 70
     1
 10
0.0
 20
0.0
 30
0.0
  3
*D19
  1

  0
LINE
  5
1702
330
1701
100
AcDbEntity
  8
0
  6
ByBlock
 62
     0
100
AcDbLine
 10
311.901347
 20
237.3957859999999
 30
0.0
 11
311.901347
 21
254.224131
 31
0.0
  0
LINE
  5
1703
330
1701
100
AcDbEntity
  8
0
  6
ByBlock
 62
     0
100
AcDbLine
 10
313.901347
 20
170.895786
 30
0.0
 11
313.901347
 21
254.224131
 31
0.0
  0
LINE
  5
1704
330
1701
100
AcDbEntity
  8
0
  6
ByBlock
 62
     0
100
AcDbLine
 10
309.901347
 20
253.2241309999999
 30
0.0
 11
307.901347
 21
253.2241309999999
 31
0.0
  0
LINE
  5
1705
330
1701
100
AcDbEntity
  8
0
  6
ByBlock
 62
     0
100
AcDbLine
 10
315.901347
 20
253.2241309999999
 30
0.0
 11
320.0123319999999
 21
253.2241309999999
 31
0.0
  0
SOLID
  5
1706
330
1701
100
AcDbEntity
  8
0
  6
ByBlock
 62
     0
100
AcDbTrace
 10
309.901347
 20
253.557464
 30
0.0
 11
309.901347
 21
252.890798
 31
0.0
 12
311.901347
 22
253.2241309999999
 32
0.0
 13
311.901347
 23
253.2241309999999
 33
0.0
  0
SOLID
  5
1707
330
1701
100
AcDbEntity
  8
0
  6
ByBlock
 62
     0
100
AcDbTrace
 10
315.901347
 20
253.557464
 30
0.0
 11
315.901347
 21
252.890798
 31
0.0
 12
313.901347
 22
253.2241309999999
 32
0.0
 13
313.901347
 23
253.2241309999999
 33
0.0
  0
MTEXT
  5
1708
330
1701
100
AcDbEntity
  8
0
  6
ByBlock
 62
     0
100
AcDbMText
 10
321.970665
 20
253.2241309999999
 30
0.0
 40
4.0
 41
0.0
 71
     5
 72
     5
  1
\A1;2
 73
     1
 44
1.0
  0
POINT
  5
1709
330
1701
100
AcDbEntity
  8
DEFPOINTS
  6
ByBlock
 62
     0
100
AcDbPoint
 10
311.901347
 20
236.3957859999999
 30
0.0
  0
POINT
  5
170A
330
1701
100
AcDbEntity
  8
DEFPOINTS
  6
ByBlock
 62
     0
100
AcDbPoint
 10
313.901347
 20
169.895786
 30
0.0
  0
POINT
  5
170B
330
1701
100
AcDbEntity
  8
DEFPOINTS
  6
ByBlock
 62
     0
100
AcDbPoint
 10
313.901347
 20
253.2241309999999
 30
0.0
  0
ENDBLK
  5
170D
330
1701
100
AcDbEntity
  8
0
100
AcDbBlockEnd
  0
BLOCK
  5
1719
330
170E
100
AcDbEntity
  8
0
100
AcDbBlockBegin
  2
*D20
 70
     1
 10
0.0
 20
0.0
 30
0.0
  3
*D20
  1

  0
LINE
  5
170F
330
170E
100
AcDbEntity
  8
0
  6
ByBlock
 62
     0
100
AcDbLine
 10
313.901347
 20
170.895786
 30
0.0
 11
313.901347
 21
244.356893
 31
0.0
  0
LINE
  5
1710
330
170E
100
AcDbEntity
  8
0
  6
ByBlock
 62
     0
100
AcDbLine
 10
330.901347
 20
165.895786
 30
0.0
 11
330.901347
 21
244.356893
 31
0.0
  0
LINE
  5
1711
330
170E
100
AcDbEntity
  8
0
  6
ByBlock
 62
     0
100
AcDbLine
 10
315.901347
 20
243.356893
 30
0.0
 11
319.7772689999999
 21
243.356893
 31
0.0
  0
LINE
  5
1712
330
170E
100
AcDbEntity
  8
0
  6
ByBlock
 62
     0
100
AcDbLine
 10
328.901347
 20
243.356893
 30
0.0
 11
326.360602
 21
243.356893
 31
0.0
  0
SOLID
  5
1713
330
170E
100
AcDbEntity
  8
0
  6
ByBlock
 62
     0
100
AcDbTrace
 10
315.901347
 20
243.690227
 30
0.0
 11
315.901347
 21
243.02356
 31
0.0
 12
313.901347
 22
243.356893
 32
0.0
 13
313.901347
 23
243.356893
 33
0.0
  0
SOLID
  5
1714
330
170E
100
AcDbEntity
  8
0
  6
ByBlock
 62
     0
100
AcDbTrace
 10
328.901347
 20
243.690227
 30
0.0
 11
328.901347
 21
243.02356
 31
0.0
 12
330.901347
 22
243.356893
 32
0.0
 13
330.901347
 23
243.356893
 33
0.0
  0
MTEXT
  5
1715
330
170E
100
AcDbEntity
  8
0
  6
ByBlock
 62
     0
100
AcDbMText
 10
323.0689359999999
 20
243.356893
 30
0.0
 40
4.0
 41
0.0
 71
     5
 72
     5
  1
\A1;17
 73
     1
 44
1.0
  0
POINT
  5
1716
330
170E
100
AcDbEntity
  8
DEFPOINTS
  6
ByBlock
 62
     0
100
AcDbPoint
 10
313.901347
 20
169.895786
 30
0.0
  0
POINT
  5
1717
330
170E
100
AcDbEntity
  8
DEFPOINTS
  6
ByBlock
 62
     0
100
AcDbPoint
 10
330.901347
 20
164.895786
 30
0.0
  0
POINT
  5
1718
330
170E
100
AcDbEntity
  8
DEFPOINTS
  6
ByBlock
 62
     0
100
AcDbPoint
 10
330.901347
 20
243.356893
 30
0.0
  0
ENDBLK
  5
171A
330
170E
100
AcDbEntity
  8
0
100
AcDbBlockEnd
  0
BLOCK
  5
1726
330
171B
100
AcDbEntity
  8
0
100
AcDbBlockBegin
  2
*D21
 70
     1
 10
0.0
 20
0.0
 30
0.0
  3
*D21
  1

  0
LINE
  5
171C
330
171B
100
AcDbEntity
  8
0
  6
ByBlock
 62
     0
100
AcDbLine
 10
299.401347
 20
247.8957859999999
 30
0.0
 11
253.243958
 21
247.8957859999999
 31
0.0
  0
LINE
  5
171D
330
171B
100
AcDbEntity
  8
0
  6
ByBlock
 62
     0
100
AcDbLine
 10
299.401347
 20
47.895786
 30
0.0
 11
253.243958
 21
47.895786
 31
0.0
  0
LINE
  5
171E
330
171B
100
AcDbEntity
  8
0
  6
ByBlock
 62
     0
100
AcDbLine
 10
254.243958
 20
245.8957859999999
 30
0.0
 11
254.243958
 21
152.534352
 31
0.0
  0
LINE
  5
171F
330
171B
100
AcDbEntity
  8
0
  6
ByBlock
 62
     0
100
AcDbLine
 10
254.243958
 20
49.895786
 30
0.0
 11
254.243958
 21
141.951018
 31
0.0
  0
SOLID
  5
1720
330
171B
100
AcDbEntity
  8
0
  6
ByBlock
 62
     0
100
AcDbTrace
 10
253.910625
 20
245.8957859999999
 30
0.0
 11
254.577291
 21
245.8957859999999
 31
0.0
 12
254.243958
 22
247.8957859999999
 32
0.0
 13
254.243958
 23
247.8957859999999
 33
0.0
  0
SOLID
  5
1721
330
171B
100
AcDbEntity
  8
0
  6
ByBlock
 62
     0
100
AcDbTrace
 10
253.910625
 20
49.895786
 30
0.0
 11
254.577291
 21
49.895786
 31
0.0
 12
254.243958
 22
47.895786
 32
0.0
 13
254.243958
 23
47.895786
 33
0.0
  0
MTEXT
  5
1722
330
171B
100
AcDbEntity
  8
0
  6
ByBlock
 62
     0
100
AcDbMText
 10
254.243958
 20
147.242685
 30
0.0
 40
4.0
 41
0.0
 71
     5
 72
     5
  1
\A1;200
 11
0.0
 21
1.0
 31
0.0
 73
     1
 44
1.0
  0
POINT
  5
1723
330
171B
100
AcDbEntity
  8
DEFPOINTS
  6
ByBlock
 62
     0
100
AcDbPoint
 10
300.401347
 20
247.8957859999999
 30
0.0
  0
POINT
  5
1724
330
171B
100
AcDbEntity
  8
DEFPOINTS
  6
ByBlock
 62
     0
100
AcDbPoint
 10
300.401347
 20
47.895786
 30
0.0
  0
POINT
  5
1725
330
171B
100
AcDbEntity
  8
DEFPOINTS
  6
ByBlock
 62
     0
100
AcDbPoint
 10
254.243958
 20
47.895786
 30
0.0
  0
ENDBLK
  5
1727
330
171B
100
AcDbEntity
  8
0
100
AcDbBlockEnd
  0
BLOCK
  5
1733
330
1728
100
AcDbEntity
  8
0
100
AcDbBlockBegin
  2
*D22
 70
     1
 10
0.0
 20
0.0
 30
0.0
  3
*D22
  1

  0
LINE
  5
1729
330
1728
100
AcDbEntity
  8
0
  6
ByBlock
 62
     0
100
AcDbLine
 10
290.901347
 20
128.895786
 30
0.0
 11
290.901347
 21
41.723052
 31
0.0
  0
LINE
  5
172A
330
1728
100
AcDbEntity
  8
0
  6
ByBlock
 62
     0
100
AcDbLine
 10
330.901347
 20
129.895786
 30
0.0
 11
330.901347
 21
41.723052
 31
0.0
  0
LINE
  5
172B
330
1728
100
AcDbEntity
  8
0
  6
ByBlock
 62
     0
100
AcDbLine
 10
292.901347
 20
42.723052
 30
0.0
 11
311.389949
 21
42.723052
 31
0.0
  0
LINE
  5
172C
330
1728
100
AcDbEntity
  8
0
  6
ByBlock
 62
     0
100
AcDbLine
 10
328.901347
 20
42.723052
 30
0.0
 11
318.6399489999999
 21
42.723052
 31
0.0
  0
SOLID
  5
172D
330
1728
100
AcDbEntity
  8
0
  6
ByBlock
 62
     0
100
AcDbTrace
 10
292.901347
 20
43.05638499999999
 30
0.0
 11
292.901347
 21
42.389718
 31
0.0
 12
290.901347
 22
42.723052
 32
0.0
 13
290.901347
 23
42.723052
 33
0.0
  0
SOLID
  5
172E
330
1728
100
AcDbEntity
  8
0
  6
ByBlock
 62
     0
100
AcDbTrace
 10
328.901347
 20
43.05638499999999
 30
0.0
 11
328.901347
 21
42.389718
 31
0.0
 12
330.901347
 22
42.723052
 32
0.0
 13
330.901347
 23
42.723052
 33
0.0
  0
MTEXT
  5
172F
330
1728
100
AcDbEntity
  8
0
  6
ByBlock
 62
     0
100
AcDbMText
 10
315.0149489999999
 20
42.723052
 30
0.0
 40
4.0
 41
0.0
 71
     5
 72
     5
  1
\A1;40
 73
     1
 44
1.0
  0
POINT
  5
1730
330
1728
100
AcDbEntity
  8
DEFPOINTS
  6
ByBlock
 62
     0
100
AcDbPoint
 10
290.901347
 20
129.895786
 30
0.0
  0
POINT
  5
1731
330
1728
100
AcDbEntity
  8
DEFPOINTS
  6
ByBlock
 62
     0
100
AcDbPoint
 10
330.901347
 20
130.895786
 30
0.0
  0
POINT
  5
1732
330
1728
100
AcDbEntity
  8
DEFPOINTS
  6
ByBlock
 62
     0
100
AcDbPoint
 10
330.901347
 20
42.723052
 30
0.0
  0
ENDBLK
  5
1734
330
1728
100
AcDbEntity
  8
0
100
AcDbBlockEnd
  0
BLOCK
  5
17AA
330
1735
100
AcDbEntity
  8
0
100
AcDbBlockBegin
  2
A$C22617621
 70
     0
 10
0.0
 20
0.0
 30
0.0
  3
A$C22617621
  1

  0
LINE
  5
1736
330
1735
100
AcDbEntity
  8
1
100
AcDbLine
 10
198.1107959999999
 20
59.120725
 30
10.334147
 11
105.446078
 21
112.6207249999999
 31
10.334147
  0
ARC
  5
1737
330
1735
100
AcDbEntity
  8
4
100
AcDbCircle
 10
105.446078
 20
112.6207249999999
 30
10.334147
 40
88.49999999999999
100
AcDbArc
 50
270.0
 51
90.0
  0
CIRCLE
  5
1738
330
1735
100
AcDbEntity
  8
3
100
AcDbCircle
 10
105.446078
 20
112.6207249999999
 30
10.334147
 40
100.0
  0
LINE
  5
1739
330
1735
100
AcDbEntity
  8
1
100
AcDbLine
 10
105.446078
 20
112.6207249999999
 30
10.334147
 11
212.9460779999999
 21
112.6207249999999
 31
10.334147
  0
ARC
  5
173A
330
1735
100
AcDbEntity
  8
3
100
AcDbCircle
 10
105.446078
 20
112.6207249999999
 30
10.334147
 40
77.0
100
AcDbArc
 50
337.837846
 51
82.16215400000001
  0
ARC
  5
173B
330
1735
100
AcDbEntity
  8
3
100
AcDbCircle
 10
105.446078
 20
112.6207249999999
 30
10.334147
 40
18.0
100
AcDbArc
 50
90.0
 51
270.0
  0
ARC
  5
173C
330
1735
100
AcDbEntity
  8
3
100
AcDbCircle
 10
105.446078
 20
112.6207249999999
 30
10.334147
 40
88.49999999999999
100
AcDbArc
 50
100.415834
 51
270.0
  0
LINE
  5
173D
330
1735
100
AcDbEntity
  8
1
100
AcDbLine
 10
105.446078
 20
112.6207249999999
 30
10.334147
 11
105.446078
 21
5.620725
 31
10.334147
  0
ARC
  5
173E
330
1735
100
AcDbEntity
  8
3
100
AcDbCircle
 10
105.446078
 20
112.6207249999999
 30
10.334147
 40
21.0
100
AcDbArc
 50
90.0
 51
270.0
  0
LINE
  5
173F
330
1735
100
AcDbEntity
  8
3
100
AcDbLine
 10
82.453433
 20
113.202321
 30
10.334147
 11
34.119114
 21
83.56443799999999
 31
10.334147
  0
LINE
  5
1740
330
1735
100
AcDbEntity
  8
1
100
AcDbLine
 10
12.78136
 20
59.120725
 30
10.334147
 11
105.446078
 21
112.6207249999999
 31
10.334147
  0
ARC
  5
1741
330
1735
100
AcDbEntity
  8
3
100
AcDbCircle
 10
106.893923
 20
113.4566379999999
 30
10.334147
 40
23.86772
100
AcDbArc
 50
185.23005
 51
234.76995
  0
ARC
  5
1742
330
1735
100
AcDbEntity
  8
3
100
AcDbCircle
 10
103.9982339999999
 20
113.4566379999999
 30
10.334147
 40
23.86772
100
AcDbArc
 50
305.23005
 51
354.76995
  0
ARC
  5
1743
330
1735
100
AcDbEntity
  8
4
100
AcDbCircle
 10
105.446078
 20
112.6207249999999
 30
10.334147
 40
17.0
100
AcDbArc
 50
270.0
 51
90.0
  0
ARC
  5
1744
330
1735
100
AcDbEntity
  8
4
100
AcDbCircle
 10
105.446078
 20
112.6207249999999
 30
10.334147
 40
20.0
100
AcDbArc
 50
270.0
 51
90.0
  0
ARC
  5
1745
330
1735
100
AcDbEntity
  8
4
100
AcDbCircle
 10
105.446078
 20
112.6207249999999
 30
10.334147
 40
21.75522
100
AcDbArc
 50
270.0
 51
90.0
  0
LINE
  5
1746
330
1735
100
AcDbEntity
  8
3
100
AcDbLine
 10
128.438724
 20
113.202321
 30
10.334147
 11
176.773042
 21
83.56443799999999
 31
10.334147
  0
ARC
  5
1747
330
1735
100
AcDbEntity
  8
3
100
AcDbCircle
 10
105.446078
 20
112.6207249999999
 30
10.334147
 40
77.0
100
AcDbArc
 50
97.837846
 51
202.162154
  0
LINE
  5
1748
330
1735
100
AcDbEntity
  8
3
100
AcDbLine
 10
94.45343299999999
 20
92.41771099999999
 30
10.334147
 11
44.619114
 21
65.37790499999999
 31
10.334147
  0
ARC
  5
1749
330
1735
100
AcDbEntity
  8
3
100
AcDbCircle
 10
105.446078
 20
112.6207249999999
 30
10.334147
 40
77.0
100
AcDbArc
 50
217.8378459999999
 51
322.162154
  0
TEXT
  5
174A
330
1735
100
AcDbEntity
  8
0
100
AcDbText
 10
26.596408
 20
0.0
 30
10.334147
 40
5.0
  1
各角はバリ無きこと。
 41
0.7
  7
BIGFONT
100
AcDbText
  0
ARC
  5
174B
330
1735
100
AcDbEntity
  8
3
100
AcDbCircle
 10
85.998269
 20
101.392527
 30
10.334147
 40
56.061976
100
AcDbArc
 50
200.503
 51
219.497
  0
ARC
  5
174C
330
1735
100
AcDbEntity
  8
3
100
AcDbCircle
 10
43.94811299999999
 20
66.977804
 30
10.334147
 40
1.734913
100
AcDbArc
 50
225.754429
 51
292.753289
  0
ARC
  5
174D
330
1735
100
AcDbEntity
  8
3
100
AcDbCircle
 10
35.169167
 20
82.183384
 30
10.334147
 40
1.734913
100
AcDbArc
 50
127.246711
 51
194.2455709999999
  0
LINE
  5
174E
330
1735
100
AcDbEntity
  8
3
100
AcDbLine
 10
116.4387239999999
 20
92.41771099999999
 30
10.334147
 11
166.273042
 21
65.37790499999999
 31
10.334147
  0
ARC
  5
174F
330
1735
100
AcDbEntity
  8
3
100
AcDbCircle
 10
105.446078
 20
112.6207249999999
 30
10.334147
 40
23.0
100
AcDbArc
 50
241.448981
 51
298.5510189999999
  0
ARC
  5
1750
330
1735
100
AcDbEntity
  8
3
100
AcDbCircle
 10
92.559059
 20
92.130041
 30
10.334147
 40
1.916091999999999
100
AcDbArc
 50
8.634684
 51
72.802888
  0
ARC
  5
1751
330
1735
100
AcDbEntity
  8
3
100
AcDbCircle
 10
118.333098
 20
92.130041
 30
10.334147
 40
1.916091999999999
100
AcDbArc
 50
107.197112
 51
171.3653159999999
  0
TEXT
  5
1752
330
1735
100
AcDbEntity
  8
3
100
AcDbText
 10
138.7403069999999
 20
90.589636
 30
10.334147
 40
5.0
  1
S/SN-200
 50
330.0
 41
0.8
  7
BIGFONT
100
AcDbText
  0
ARC
  5
1753
330
1735
100
AcDbEntity
  8
3
100
AcDbCircle
 10
124.893887
 20
101.392527
 30
10.334147
 40
56.061976
100
AcDbArc
 50
320.5029999999999
 51
339.4969999999999
  0
ARC
  5
1754
330
1735
100
AcDbEntity
  8
3
100
AcDbCircle
 10
166.9440439999999
 20
66.977804
 30
10.334147
 40
1.734913
100
AcDbArc
 50
247.2467109999999
 51
314.245571
  0
ARC
  5
1755
330
1735
100
AcDbEntity
  8
3
100
AcDbCircle
 10
175.7229889999999
 20
82.183384
 30
10.334147
 40
1.734913
100
AcDbArc
 50
345.754429
 51
52.753289
  0
LINE
  5
1756
330
1735
100
AcDbEntity
  8
1
100
AcDbLine
 10
105.446078
 20
112.6207249999999
 30
10.334147
 11
-0.5539220000000001
 21
112.6207249999999
 31
10.334147
  0
LINE
  5
1757
330
1735
100
AcDbEntity
  8
1
100
AcDbLine
 10
105.446078
 20
219.620725
 30
10.334147
 11
105.446078
 21
112.6207249999999
 31
10.334147
  0
ARC
  5
1758
330
1735
100
AcDbEntity
  8
3
100
AcDbCircle
 10
105.446078
 20
196.620725
 30
10.334147
 40
11.0
100
AcDbArc
 50
185.215909
 51
270.0
  0
LINE
  5
1759
330
1735
100
AcDbEntity
  8
3
100
AcDbLine
 10
117.4460779999999
 20
132.242141
 30
10.334147
 11
115.946078
 21
188.919831
 31
10.334147
  0
LINE
  5
175A
330
1735
100
AcDbEntity
  8
3
100
AcDbLine
 10
93.446078
 20
132.242141
 30
10.334147
 11
94.946078
 21
188.919831
 31
10.334147
  0
ARC
  5
175B
330
1735
100
AcDbEntity
  8
3
100
AcDbCircle
 10
105.446078
 20
112.6207249999999
 30
10.334147
 40
23.0
100
AcDbArc
 50
1.448980999999999
 51
58.55101899999999
  0
ARC
  5
175C
330
1735
100
AcDbEntity
  8
3
100
AcDbCircle
 10
105.446078
 20
112.6207249999999
 30
10.334147
 40
23.0
100
AcDbArc
 50
121.4489809999999
 51
178.551019
  0
ARC
  5
175D
330
1735
100
AcDbEntity
  8
3
100
AcDbCircle
 10
81.257116
 20
111.7055799999999
 30
10.334147
 40
1.916091999999999
100
AcDbArc
 50
347.197112
 51
51.365316
  0
ARC
  5
175E
330
1735
100
AcDbEntity
  8
3
100
AcDbCircle
 10
105.446078
 20
110.948898
 30
10.334147
 40
23.86772
100
AcDbArc
 50
65.23005000000001
 51
114.7699499999999
  0
ARC
  5
175F
330
1735
100
AcDbEntity
  8
3
100
AcDbCircle
 10
94.144135
 20
134.026553
 30
10.334147
 40
1.916091999999999
100
AcDbArc
 50
248.6346839999999
 51
312.802888
  0
ARC
  5
1760
330
1735
100
AcDbEntity
  8
3
100
AcDbCircle
 10
116.7480209999999
 20
134.026553
 30
10.334147
 40
1.916091999999999
100
AcDbArc
 50
227.197112
 51
291.3653159999999
  0
ARC
  5
1761
330
1735
100
AcDbEntity
  8
3
100
AcDbCircle
 10
129.63504
 20
111.7055799999999
 30
10.334147
 40
1.916091999999999
100
AcDbArc
 50
128.634684
 51
192.802888
  0
LINE
  5
1762
330
1735
100
AcDbEntity
  8
1
100
AcDbLine
 10
86.94607799999999
 20
195.620725
 30
10.334147
 11
105.446078
 21
195.620725
 31
10.334147
  0
LINE
  5
1763
330
1735
100
AcDbEntity
  8
1
100
AcDbLine
 10
99.44607799999999
 20
196.620725
 30
10.334147
 11
105.446078
 21
196.620725
 31
10.334147
  0
ARC
  5
1764
330
1735
100
AcDbEntity
  8
3
100
AcDbCircle
 10
96.66713299999999
 20
188.700985
 30
10.334147
 40
1.734913
100
AcDbArc
 50
105.754429
 51
172.7532889999999
  0
ARC
  5
1765
330
1735
100
AcDbEntity
  8
3
100
AcDbCircle
 10
105.446078
 20
135.07712
 30
10.334147
 40
56.061976
100
AcDbArc
 50
99.312809
 51
99.49700000000001
  0
ARC
  5
1766
330
1735
100
AcDbEntity
  8
3
100
AcDbCircle
 10
88.47746200000001
 20
193.2829489999999
 30
10.334147
 40
6.452548
100
AcDbArc
 50
21.24168099999999
 51
81.366483
  0
ARC
  5
1767
330
1735
100
AcDbEntity
  8
4
100
AcDbCircle
 10
105.446078
 20
196.620725
 30
10.334147
 40
9.0
100
AcDbArc
 50
270.0
 51
0.0
  0
ARC
  5
1768
330
1735
100
AcDbEntity
  8
3
100
AcDbCircle
 10
114.225024
 20
188.700985
 30
10.334147
 40
1.734913
100
AcDbArc
 50
7.246711000000001
 51
74.245571
  0
ARC
  5
1769
330
1735
100
AcDbEntity
  8
3
100
AcDbCircle
 10
105.446078
 20
135.07712
 30
10.334147
 40
56.061976
100
AcDbArc
 50
80.503
 51
83.03302700000001
  0
LINE
  5
176A
330
1735
100
AcDbEntity
  8
1
100
AcDbLine
 10
105.446078
 20
196.620725
 30
10.334147
 11
112.571904
 21
196.620725
 31
10.334147
  0
ARC
  5
176B
330
1735
100
AcDbEntity
  8
4
100
AcDbCircle
 10
118.362901
 20
196.2248129999999
 30
10.334147
 40
3.936780999999999
100
AcDbArc
 50
88.78934599999999
 51
174.2281639999999
  0
DIMENSION
  5
176C
330
1735
100
AcDbEntity
  8
0
100
AcDbDimension
  2
*D21
 10
237.038689
 20
12.620725
 30
10.334147
 11
237.038689
 21
111.9676239999999
 31
10.334147
 12
-17.205269
 22
-35.275061
 32
10.334147
 70
   128
 71
     5
 42
-1.0
  3
STANDARD
100
AcDbAlignedDimension
 13
283.196078
 23
212.6207249999999
 33
10.334147
 14
283.196078
 24
12.620725
 34
10.334147
 50
90.0
100
AcDbRotatedDimension
1001
ACAD
1000
DSTYLE
1002
{
1070
   140
1040
4.0
1070
    77
1070
     0
1070
    40
1040
1.0
1070
   141
1040
0.0
1070
    41
1040
2.0
1002
}
  0
ARC
  5
176D
330
1735
100
AcDbEntity
  8
2
100
AcDbCircle
 10
253.521317
 20
100.884755
 30
10.334147
 40
35.68046599999999
100
AcDbArc
 50
353.136406
 51
9.657956
  0
ARC
  5
176E
330
1735
100
AcDbEntity
  8
2
100
AcDbCircle
 10
299.289564
 20
102.3707249999999
 30
10.334147
 40
22.109752
100
AcDbArc
 50
167.5940159999999
 51
192.405984
  0
LINE
  5
176F
330
1735
100
AcDbEntity
  8
1
100
AcDbLine
 10
283.196078
 20
213.801706
 30
10.334147
 11
283.196078
 21
5.620725
 31
10.334147
  0
LINE
  5
1770
330
1735
100
AcDbEntity
  8
3
100
AcDbLine
 10
271.6960779999999
 20
112.6207249999999
 30
10.334147
 11
271.6960779999999
 21
24.120725
 31
10.334147
  0
LINE
  5
1771
330
1735
100
AcDbEntity
  8
1
100
AcDbLine
 10
283.196078
 20
135.9540579999999
 30
10.334147
 11
283.196078
 21
95.62072499999999
 31
10.334147
  0
LINE
  5
1772
330
1735
100
AcDbEntity
  8
3
100
AcDbLine
 10
296.6960779999999
 20
112.6207249999999
 30
10.334147
 11
296.6960779999999
 21
90.62072499999999
 31
10.334147
  0
LINE
  5
1773
330
1735
100
AcDbEntity
  8
3
100
AcDbLine
 10
273.6960779999999
 20
112.6207249999999
 30
10.334147
 11
273.6960779999999
 21
94.62072499999999
 31
10.334147
  0
LINE
  5
1774
330
1735
100
AcDbEntity
  8
3
100
AcDbLine
 10
313.6960779999999
 20
112.6207249999999
 30
10.334147
 11
313.6960779999999
 21
95.62072499999999
 31
10.334147
  0
LINE
  5
1775
330
1735
100
AcDbEntity
  8
2
100
AcDbLine
 10
289.178366
 20
101.1944189999999
 30
10.334147
 11
288.8827319999999
 21
89.152236
 31
10.334147
  0
LINE
  5
1776
330
1735
100
AcDbEntity
  8
2
100
AcDbLine
 10
277.167887
 20
102.117926
 30
10.334147
 11
277.4675459999999
 21
90.90194399999999
 31
10.334147
  0
DIMENSION
  5
1777
330
1735
100
AcDbEntity
  8
0
100
AcDbDimension
  2
*D22
 10
313.6960779999999
 20
7.447989999999999
 30
10.334147
 11
297.8096799999999
 21
7.447989999999999
 31
10.334147
 12
-17.205269
 22
-35.275061
 32
10.334147
 70
   128
 71
     5
 42
-1.0
  3
STANDARD
100
AcDbAlignedDimension
 13
273.6960779999999
 23
94.62072499999999
 33
10.334147
 14
313.6960779999999
 24
95.62072499999999
 34
10.334147
100
AcDbRotatedDimension
1001
ACAD
1000
DSTYLE
1002
{
1070
   140
1040
4.0
1070
    77
1070
     0
1070
    40
1040
1.0
1070
   141
1040
0.0
1070
    41
1040
2.0
1002
}
  0
LINE
  5
1778
330
1735
100
AcDbEntity
  8
3
100
AcDbLine
 10
310.696078
 20
92.620725
 30
10.334147
 11
296.6960779999999
 21
92.620725
 31
10.334147
  0
ARC
  5
1779
330
1735
100
AcDbEntity
  8
3
100
AcDbCircle
 10
283.196078
 20
24.120725
 30
10.334147
 40
11.5
100
AcDbArc
 50
180.0
 51
0.0
  0
LINE
  5
177A
330
1735
100
AcDbEntity
  8
3
100
AcDbLine
 10
294.6960779999999
 20
89.34070099999999
 30
10.334147
 11
294.6960779999999
 21
24.120725
 31
10.334147
  0
LINE
  5
177B
330
1735
100
AcDbEntity
  8
1
100
AcDbLine
 10
294.6960779999999
 20
24.120725
 30
10.334147
 11
268.9829159999999
 21
24.120725
 31
10.334147
  0
ARC
  5
177C
330
1735
100
AcDbEntity
  8
3
100
AcDbCircle
 10
268.470799
 20
30.891808
 30
10.334147
 40
7.5
100
AcDbArc
 50
295.46992
 51
352.009681
  0
ARC
  5
177D
330
1735
100
AcDbEntity
  8
3
100
AcDbCircle
 10
283.196078
 20
28.120725
 30
10.334147
 40
7.5
100
AcDbArc
 50
7.767988
 51
172.009681
  0
LINE
  5
177E
330
1735
100
AcDbEntity
  8
1
100
AcDbLine
 10
278.696078
 20
28.120725
 30
10.334147
 11
287.696078
 21
28.120725
 31
10.334147
  0
ARC
  5
177F
330
1735
100
AcDbEntity
  8
3
100
AcDbCircle
 10
297.921357
 20
30.891808
 30
10.334147
 40
7.5
100
AcDbArc
 50
187.990319
 51
244.5300799999999
  0
LINE
  5
1780
330
1735
100
AcDbEntity
  8
1
100
AcDbLine
 10
294.6960779999999
 20
24.120725
 30
10.334147
 11
297.133866
 21
24.120725
 31
10.334147
  0
LINE
  5
1781
330
1735
100
AcDbEntity
  8
3
100
AcDbLine
 10
288.5064509999999
 20
73.82501600000001
 30
10.334147
 11
288.8827319999999
 21
89.152236
 31
10.334147
  0
LINE
  5
1782
330
1735
100
AcDbEntity
  8
3
100
AcDbLine
 10
277.9237919999999
 20
73.82501600000001
 30
10.334147
 11
277.4675459999999
 21
90.90194399999999
 31
10.334147
  0
ARC
  5
1783
330
1735
100
AcDbEntity
  8
3
100
AcDbCircle
 10
268.1331
 20
72.806794
 30
10.334147
 40
20.39877999999999
100
AcDbArc
 50
346.0177869999999
 51
2.861153999999999
  0
ARC
  5
1784
330
1735
100
AcDbEntity
  8
3
100
AcDbCircle
 10
283.2831759999999
 20
69.208139
 30
10.334147
 40
4.831019
100
AcDbArc
 50
189.0062399999999
 51
344.018481
  0
ARC
  5
1785
330
1735
100
AcDbEntity
  8
3
100
AcDbCircle
 10
298.074884
 20
73.50435799999999
 30
10.334147
 40
20.205074
100
AcDbArc
 50
176.768797
 51
194.481052
  0
ARC
  5
1786
330
1735
100
AcDbEntity
  8
3
100
AcDbCircle
 10
277.859072
 20
75.21479000000001
 30
10.334147
 40
10.73769799999999
100
AcDbArc
 50
352.563375
 51
4.623981999999999
  0
ARC
  5
1787
330
1735
100
AcDbEntity
  8
3
100
AcDbCircle
 10
287.482014
 20
118.125376
 30
10.334147
 40
29.00697899999999
100
AcDbArc
 50
246.026517
 51
288.5208609999999
  0
ARC
  5
1788
330
1735
100
AcDbEntity
  8
2
100
AcDbCircle
 10
283.3210779999999
 20
98.495725
 30
10.334147
 40
5.929270999999999
100
AcDbArc
 50
304.695154
 51
341.5650509999999
  0
LINE
  5
1789
330
1735
100
AcDbEntity
  8
1
100
AcDbLine
 10
283.196078
 20
95.62072499999999
 30
10.334147
 11
283.196078
 21
88.37072499999999
 31
10.334147
  0
ARC
  5
178A
330
1735
100
AcDbEntity
  8
2
100
AcDbCircle
 10
283.446078
 20
97.38325899999999
 30
10.334147
 40
4.971837999999999
100
AcDbArc
 50
229.1802239999999
 51
310.8197759999999
  0
LINE
  5
178B
330
1735
100
AcDbEntity
  8
3
100
AcDbLine
 10
273.6960779999999
 20
94.62072499999999
 30
10.334147
 11
275.6960779999999
 21
91.62072499999998
 31
10.334147
  0
ARC
  5
178C
330
1735
100
AcDbEntity
  8
2
100
AcDbCircle
 10
285.6383859999999
 20
99.80341700000002
 30
10.334147
 40
8.236771
100
AcDbArc
 50
195.366578
 51
228.644189
  0
ARC
  5
178D
330
1735
100
AcDbEntity
  8
3
100
AcDbCircle
 10
310.696078
 20
95.62072499999999
 30
10.334147
 40
3.0
100
AcDbArc
 50
270.0
 51
0.0
  0
DIMENSION
  5
178E
330
1735
100
AcDbEntity
  8
0
100
AcDbDimension
  2
*D20
 10
313.6960779999999
 20
208.081832
 30
10.334147
 11
305.863667
 21
208.081832
 31
10.334147
 12
-17.205269
 22
-35.275061
 32
10.334147
 70
   128
 71
     5
 42
-1.0
  3
STANDARD
100
AcDbAlignedDimension
 13
296.6960779999999
 23
134.6207249999999
 33
10.334147
 14
313.6960779999999
 24
129.6207249999999
 34
10.334147
100
AcDbRotatedDimension
1001
ACAD
1000
DSTYLE
1002
{
1070
   140
1040
4.0
1070
    77
1070
     0
1070
    40
1040
1.0
1070
   141
1040
0.0
1070
    41
1040
2.0
1002
}
  0
DIMENSION
  5
178F
330
1735
100
AcDbEntity
  8
0
100
AcDbDimension
  2
*D19
 10
296.6960779999999
 20
217.94907
 30
10.334147
 11
304.765396
 21
217.94907
 31
10.334147
 12
-17.205269
 22
-35.275061
 32
10.334147
 70
   128
 71
     5
 42
-1.0
  3
STANDARD
100
AcDbAlignedDimension
 13
294.6960779999999
 23
201.120725
 33
10.334147
 14
296.6960779999999
 24
134.6207249999999
 34
10.334147
100
AcDbRotatedDimension
1001
ACAD
1000
DSTYLE
1002
{
1070
   140
1040
4.0
1070
    77
1070
     0
1070
    40
1040
1.0
1070
   141
1040
0.0
1070
    41
1040
2.0
1002
}
  0
LINE
  5
1790
330
1735
100
AcDbEntity
  8
3
100
AcDbLine
 10
310.696078
 20
132.6207249999999
 30
10.334147
 11
296.6960779999999
 21
132.6207249999999
 31
10.334147
  0
LINE
  5
1791
330
1735
100
AcDbEntity
  8
1
100
AcDbLine
 10
265.196078
 20
112.6207249999999
 30
10.334147
 11
329.696078
 21
112.6207249999999
 31
10.334147
  0
LINE
  5
1792
330
1735
100
AcDbEntity
  8
3
100
AcDbLine
 10
271.6960779999999
 20
112.6207249999999
 30
10.334147
 11
271.6960779999999
 21
201.120725
 31
10.334147
  0
LINE
  5
1793
330
1735
100
AcDbEntity
  8
3
100
AcDbLine
 10
294.6960779999999
 20
201.120725
 30
10.334147
 11
294.6960779999999
 21
164.6599399999999
 31
10.334147
  0
LINE
  5
1794
330
1735
100
AcDbEntity
  8
3
100
AcDbLine
 10
288.507285
 20
186.490818
 30
10.334147
 11
289.196078
 21
136.6207249999999
 31
10.334147
  0
LINE
  5
1795
330
1735
100
AcDbEntity
  8
3
100
AcDbLine
 10
277.872466
 20
185.4156219999999
 30
10.334147
 11
277.196078
 21
134.8166179999999
 31
10.334147
  0
LINE
  5
1796
330
1735
100
AcDbEntity
  8
3
100
AcDbLine
 10
294.6960779999999
 20
164.6599399999999
 30
10.334147
 11
294.6960779999999
 21
135.16536
 31
10.334147
  0
LINE
  5
1797
330
1735
100
AcDbEntity
  8
3
100
AcDbLine
 10
296.6960779999999
 20
112.6207249999999
 30
10.334147
 11
296.6960779999999
 21
134.6207249999999
 31
10.334147
  0
LINE
  5
1798
330
1735
100
AcDbEntity
  8
3
100
AcDbLine
 10
273.6960779999999
 20
112.6207249999999
 30
10.334147
 11
273.6960779999999
 21
130.6207249999999
 31
10.334147
  0
ARC
  5
1799
330
1735
100
AcDbEntity
  8
2
100
AcDbCircle
 10
281.7460779999999
 20
106.195725
 30
10.334147
 40
6.982702
100
AcDbArc
 50
5.5473
 51
44.854948
  0
ARC
  5
179A
330
1735
100
AcDbEntity
  8
2
100
AcDbCircle
 10
286.2123829999999
 20
105.332681
 30
10.334147
 40
8.701985
100
AcDbArc
 50
136.062786
 51
168.142672
  0
ARC
  5
179B
330
1735
100
AcDbEntity
  8
2
100
AcDbCircle
 10
283.1926999999999
 20
107.779508
 30
10.334147
 40
4.841216999999999
100
AcDbArc
 50
43.642802
 51
132.1150049999999
  0
LINE
  5
179C
330
1735
100
AcDbEntity
  8
3
100
AcDbLine
 10
273.6960779999999
 20
130.6207249999999
 30
10.334147
 11
275.6960779999999
 21
133.6207249999999
 31
10.334147
  0
ARC
  5
179D
330
1735
100
AcDbEntity
  8
3
100
AcDbCircle
 10
282.2265759999999
 20
126.9682379999999
 30
10.334147
 40
9.322175999999998
100
AcDbArc
 50
122.6582469999999
 51
134.4698289999999
  0
LINE
  5
179E
330
1735
100
AcDbEntity
  8
3
100
AcDbLine
 10
277.196078
 20
134.8166179999999
 30
10.334147
 11
277.196078
 21
135.1023529999999
 31
10.334147
  0
ARC
  5
179F
330
1735
100
AcDbEntity
  8
3
100
AcDbCircle
 10
286.612745
 20
101.537391
 30
10.334147
 40
34.585843
100
AcDbArc
 50
73.04951800000001
 51
85.71639499999999
  0
LINE
  5
17A0
330
1735
100
AcDbEntity
  8
3
100
AcDbLine
 10
289.196078
 20
136.026621
 30
10.334147
 11
289.196078
 21
136.6207249999999
 31
10.334147
  0
LINE
  5
17A1
330
1735
100
AcDbEntity
  8
3
100
AcDbLine
 10
271.6960779999999
 20
185.6207249999999
 30
10.334147
 11
277.872466
 21
185.4156219999999
 31
10.334147
  0
LINE
  5
17A2
330
1735
100
AcDbEntity
  8
1
100
AcDbLine
 10
283.196078
 20
201.120725
 30
10.334147
 11
268.440512
 21
201.120725
 31
10.334147
  0
ARC
  5
17A3
330
1735
100
AcDbEntity
  8
3
100
AcDbCircle
 10
283.196078
 20
201.120725
 30
10.334147
 40
11.5
100
AcDbArc
 50
0.0
 51
180.0
  0
LINE
  5
17A4
330
1735
100
AcDbEntity
  8
1
100
AcDbLine
 10
283.196078
 20
201.120725
 30
10.334147
 11
296.9287819999999
 21
201.120725
 31
10.334147
  0
LINE
  5
17A5
330
1735
100
AcDbEntity
  8
3
100
AcDbLine
 10
292.196078
 20
188.515902
 30
10.334147
 11
292.196078
 21
198.878701
 31
10.334147
  0
LINE
  5
17A6
330
1735
100
AcDbEntity
  8
3
100
AcDbLine
 10
292.196078
 20
188.515902
 30
10.334147
 11
288.507285
 21
186.490818
 31
10.334147
  0
ARC
  5
17A7
330
1735
100
AcDbEntity
  8
3
100
AcDbCircle
 10
296.727059
 20
196.34121
 30
10.334147
 40
5.193133999999999
100
AcDbArc
 50
113.02231
 51
150.749806
  0
LINE
  5
17A8
330
1735
100
AcDbEntity
  8
3
100
AcDbLine
 10
313.6960779999999
 20
112.6207249999999
 30
10.334147
 11
313.6960779999999
 21
129.6207249999999
 31
10.334147
  0
ARC
  5
17A9
330
1735
100
AcDbEntity
  8
3
100
AcDbCircle
 10
310.696078
 20
129.6207249999999
 30
10.334147
 40
3.0
100
AcDbArc
 50
0.0
 51
90.0
  0
ENDBLK
  5
17AB
330
1735
100
AcDbEntity
  8
0
100
AcDbBlockEnd
  0
BLOCK
  5
18AF
330
18A4
100
AcDbEntity
  8
0
100
AcDbBlockBegin
  2
A$C6EA30A74
 70
     0
 10
0.0
 20
0.0
 30
0.0
  3
A$C6EA30A74
  1

  0
ARC
  5
18A5
330
18A4
100
AcDbEntity
  8
3
100
AcDbCircle
 10
31.91074
 20
44.98649799999999
 30
0.0
 40
44.98652299999999
100
AcDbArc
 50
230.009297
 51
294.406546
  0
LINE
  5
18A6
330
18A4
100
AcDbEntity
  8
1
100
AcDbLine
 10
73.88955300000001
 20
12.52013
 30
0.0
 11
105.867076
 21
12.52013
 31
0.0
  0
LINE
  5
18A7
330
18A4
100
AcDbEntity
  8
1
100
AcDbLine
 10
73.88955300000001
 20
12.52013
 30
0.0
 11
-0.000001
 21
12.52013
 31
0.0
  0
ARC
  5
18A8
330
18A4
100
AcDbEntity
  8
3
100
AcDbCircle
 10
31.91074
 20
-19.946238
 30
0.0
 40
44.98652299999999
100
AcDbArc
 50
65.59345400000001
 51
129.9907029999999
  0
ARC
  5
18A9
330
18A4
100
AcDbEntity
  8
3
100
AcDbCircle
 10
4.499552999999999
 20
12.52013
 30
0.0
 40
2.5
100
AcDbArc
 50
126.869898
 51
233.130102
  0
ARC
  5
18AA
330
18A4
100
AcDbEntity
  8
3
100
AcDbCircle
 10
62.00123000000001
 20
53.092277
 30
0.0
 40
34.072148
100
AcDbArc
 50
250.271208
 51
287.0643529999999
  0
ARC
  5
18AB
330
18A4
100
AcDbEntity
  8
3
100
AcDbCircle
 10
62.00123000000001
 20
-28.052018
 30
0.0
 40
34.072148
100
AcDbArc
 50
72.93564700000001
 51
109.728792
  0
LINE
  5
18AC
330
18A4
100
AcDbEntity
  8
3
100
AcDbLine
 10
71.999553
 20
4.520129999999999
 30
0.0
 11
71.999553
 21
20.52013
 31
0.0
  0
LINE
  5
18AD
330
18A4
100
AcDbEntity
  8
3
100
AcDbLine
 10
79.999553
 20
4.520129999999999
 30
0.0
 11
71.999553
 21
4.520129999999999
 31
0.0
  0
LINE
  5
18AE
330
18A4
100
AcDbEntity
  8
3
100
AcDbLine
 10
71.999553
 20
20.52013
 30
0.0
 11
80.54510099999999
 21
20.52013
 31
0.0
  0
ENDBLK
  5
18B0
330
18A4
100
AcDbEntity
  8
0
100
AcDbBlockEnd
  0
BLOCK
  5
1951
330
18D7
100
AcDbEntity
  8
0
100
AcDbBlockBegin
  2
A$C29EC1754
 70
     0
 10
0.0
 20
0.0
 30
0.0
  3
A$C29EC1754
  1

  0
CIRCLE
  5
18D8
330
18D7
100
AcDbEntity
  8
3
100
AcDbCircle
 10
133.0
 20
124.2725679999999
 30
0.0
 40
112.0
  0
LINE
  5
18D9
330
18D7
100
AcDbEntity
  8
1
100
AcDbLine
 10
0.0
 20
124.2725679999999
 30
0.0
 11
259.0
 21
124.2725679999999
 31
0.0
  0
ARC
  5
18DA
330
18D7
100
AcDbEntity
  8
3
100
AcDbCircle
 10
133.0
 20
124.2725679999999
 30
0.0
 40
88.49999999999999
100
AcDbArc
 50
169.1399749999999
 51
226.8600249999999
  0
ARC
  5
18DB
330
18D7
100
AcDbEntity
  8
3
100
AcDbCircle
 10
133.0
 20
124.2725679999999
 30
0.0
 40
88.49999999999999
100
AcDbArc
 50
313.1399749999999
 51
10.86002499999999
  0
ARC
  5
18DC
330
18D7
100
AcDbEntity
  8
3
100
AcDbCircle
 10
138.984568
 20
98.28163000000001
 30
0.0
 40
1.604959
100
AcDbArc
 50
110.2565929999999
 51
203.11206
  0
LINE
  5
18DD
330
18D7
100
AcDbEntity
  8
3
100
AcDbLine
 10
193.5147979999999
 20
59.695411
 30
0.0
 11
156.924833
 21
111.75848
 31
0.0
  0
LINE
  5
18DE
330
18D7
100
AcDbEntity
  8
3
100
AcDbLine
 10
72.485202
 20
59.695411
 30
0.0
 11
109.0751669999999
 21
111.75848
 31
0.0
  0
ARC
  5
18DF
330
18D7
100
AcDbEntity
  8
3
100
AcDbCircle
 10
127.015432
 20
98.28163000000001
 30
0.0
 40
1.604959
100
AcDbArc
 50
336.88794
 51
69.74340699999999
  0
ARC
  5
18E0
330
18D7
100
AcDbEntity
  8
3
100
AcDbCircle
 10
133.0
 20
124.2725679999999
 30
0.0
 40
99.50000000000001
100
AcDbArc
 50
98.98235200000002
 51
81.01764799999999
  0
LINE
  5
18E1
330
18D7
100
AcDbEntity
  8
1
100
AcDbLine
 10
133.0
 20
255.2725679999999
 30
0.0
 11
133.0
 21
0.0
 31
0.0
  0
ARC
  5
18E2
330
18D7
100
AcDbEntity
  8
3
100
AcDbCircle
 10
133.0
 20
124.2725679999999
 30
0.0
 40
88.49999999999999
100
AcDbArc
 50
241.139975
 51
298.860025
  0
LINE
  5
18E3
330
18D7
100
AcDbEntity
  8
3
100
AcDbLine
 10
175.7164249999999
 20
46.76413499999999
 30
0.0
 11
137.508425
 21
97.651634
 31
0.0
  0
LINE
  5
18E4
330
18D7
100
AcDbEntity
  8
3
100
AcDbLine
 10
90.283575
 20
46.76413499999999
 30
0.0
 11
128.491575
 21
97.651634
 31
0.0
  0
ARC
  5
18E5
330
18D7
100
AcDbEntity
  8
3
100
AcDbCircle
 10
102.437862
 20
82.20739300000001
 30
0.0
 40
39.004585
100
AcDbArc
 50
220.192898
 51
247.8071019999999
  0
ARC
  5
18E6
330
18D7
100
AcDbEntity
  8
3
100
AcDbCircle
 10
74.17601600000001
 20
58.461074
 30
0.0
 40
2.093427999999999
100
AcDbArc
 50
143.869625
 51
222.928307
  0
ARC
  5
18E7
330
18D7
100
AcDbEntity
  8
3
100
AcDbCircle
 10
88.587161
 20
47.99076399999999
 30
0.0
 40
2.093427999999999
100
AcDbArc
 50
245.071693
 51
324.130375
  0
ARC
  5
18E8
330
18D7
100
AcDbEntity
  8
3
100
AcDbCircle
 10
133.0
 20
124.2725679999999
 30
0.0
 40
27.0
100
AcDbArc
 50
260.3878
 51
279.6121999999999
  0
ARC
  5
18E9
330
18D7
100
AcDbEntity
  8
3
100
AcDbCircle
 10
163.5621379999999
 20
82.20739300000001
 30
0.0
 40
39.004585
100
AcDbArc
 50
292.192898
 51
319.8071019999999
  0
ARC
  5
18EA
330
18D7
100
AcDbEntity
  8
3
100
AcDbCircle
 10
177.4128389999999
 20
47.99076399999999
 30
0.0
 40
2.093427999999999
100
AcDbArc
 50
215.869625
 51
294.9283069999999
  0
ARC
  5
18EB
330
18D7
100
AcDbEntity
  8
3
100
AcDbCircle
 10
191.823984
 20
58.461074
 30
0.0
 40
2.093427999999999
100
AcDbArc
 50
317.071693
 51
36.130375
  0
ARC
  5
18EC
330
18D7
100
AcDbEntity
  8
3
100
AcDbCircle
 10
133.0
 20
220.6942149999999
 30
0.0
 40
12.421648
100
AcDbArc
 50
180.110992
 51
359.8890079999999
  0
CIRCLE
  5
18ED
330
18D7
100
AcDbEntity
  8
2
100
AcDbCircle
 10
133.0
 20
124.2725679999999
 30
0.0
 40
18.5
  0
CIRCLE
  5
18EE
330
18D7
100
AcDbEntity
  8
3
100
AcDbCircle
 10
133.0
 20
124.2725679999999
 30
0.0
 40
17.5
  0
ARC
  5
18EF
330
18D7
100
AcDbEntity
  8
3
100
AcDbCircle
 10
132.4122149999999
 20
125.081585
 30
0.0
 40
26.0
100
AcDbArc
 50
283.3801349999999
 51
328.619865
  0
ARC
  5
18F0
330
18D7
100
AcDbEntity
  8
3
100
AcDbCircle
 10
133.0
 20
123.2725679999999
 30
0.0
 40
26.0
100
AcDbArc
 50
67.380135
 51
112.6198649999999
  0
LINE
  5
18F1
330
18D7
100
AcDbEntity
  8
1
100
AcDbLine
 10
106.0
 20
219.272568
 30
0.0
 11
163.0
 21
219.272568
 31
0.0
  0
CIRCLE
  5
18F2
330
18D7
100
AcDbEntity
  8
3
100
AcDbCircle
 10
133.0
 20
124.2725679999999
 30
0.0
 40
24.0
  0
ARC
  5
18F3
330
18D7
100
AcDbEntity
  8
3
100
AcDbCircle
 10
133.0
 20
124.2725679999999
 30
0.0
 40
88.49999999999999
100
AcDbArc
 50
97.13997500000001
 51
154.8600249999999
  0
LINE
  5
18F4
330
18D7
100
AcDbEntity
  8
3
100
AcDbLine
 10
122.0
 20
212.086291
 30
0.0
 11
121.0
 21
148.459341
 31
0.0
  0
LINE
  5
18F5
330
18D7
100
AcDbEntity
  8
3
100
AcDbLine
 10
52.883373
 20
161.870122
 30
0.0
 11
113.7052159999999
 21
143.15937
 31
0.0
  0
LINE
  5
18F6
330
18D7
100
AcDbEntity
  8
3
100
AcDbLine
 10
46.08499899999999
 20
140.946879
 30
0.0
 11
106.288808
 21
120.3340129999999
 31
0.0
  0
ARC
  5
18F7
330
18D7
100
AcDbEntity
  8
3
100
AcDbCircle
 10
83.54942199999999
 20
140.340034
 30
0.0
 40
39.004585
100
AcDbArc
 50
148.1928979999999
 51
175.807102
  0
ARC
  5
18F8
330
18D7
100
AcDbEntity
  8
3
100
AcDbCircle
 10
46.72737199999999
 20
142.9393139999999
 30
0.0
 40
2.093427999999999
100
AcDbArc
 50
173.0716929999999
 51
252.1303749999999
  0
ARC
  5
18F9
330
18D7
100
AcDbEntity
  8
3
100
AcDbCircle
 10
52.23194
 20
159.880631
 30
0.0
 40
2.093427999999999
100
AcDbArc
 50
71.86962499999999
 51
150.928307
  0
ARC
  5
18FA
330
18D7
100
AcDbEntity
  8
3
100
AcDbCircle
 10
133.951057
 20
123.963551
 30
0.0
 40
26.0
100
AcDbArc
 50
139.3801349999999
 51
184.619865
  0
ARC
  5
18FB
330
18D7
100
AcDbEntity
  8
3
100
AcDbCircle
 10
133.5877849999999
 20
125.081585
 30
0.0
 40
26.0
100
AcDbArc
 50
211.380135
 51
256.619865
  0
ARC
  5
18FC
330
18D7
100
AcDbEntity
  8
3
100
AcDbCircle
 10
133.0
 20
124.2725679999999
 30
0.0
 40
27.0
100
AcDbArc
 50
188.3877999999999
 51
207.6122
  0
ARC
  5
18FD
330
18D7
100
AcDbEntity
  8
3
100
AcDbCircle
 10
110.1304819999999
 20
110.549264
 30
0.0
 40
1.604959
100
AcDbArc
 50
38.256593
 51
131.11206
  0
ARC
  5
18FE
330
18D7
100
AcDbEntity
  8
3
100
AcDbCircle
 10
106.431816
 20
121.9325879999999
 30
0.0
 40
1.604959
100
AcDbArc
 50
264.88794
 51
357.7434069999999
  0
ARC
  5
18FF
330
18D7
100
AcDbEntity
  8
3
100
AcDbCircle
 10
133.0
 20
124.2725679999999
 30
0.0
 40
27.0
100
AcDbArc
 50
116.3877999999999
 51
135.6122
  0
ARC
  5
1900
330
18D7
100
AcDbEntity
  8
3
100
AcDbCircle
 10
112.881293
 20
141.782037
 30
0.0
 40
1.604959
100
AcDbArc
 50
326.256593
 51
59.11205999999999
  0
ARC
  5
1901
330
18D7
100
AcDbEntity
  8
3
100
AcDbCircle
 10
122.564527
 20
148.8173189999999
 30
0.0
 40
1.604959
100
AcDbArc
 50
192.8879399999999
 51
285.743407
  0
ARC
  5
1902
330
18D7
100
AcDbEntity
  8
3
100
AcDbCircle
 10
116.4579519999999
 20
217.3705459999999
 30
0.0
 40
5.278757999999999
100
AcDbArc
 50
38.687503
 51
79.00160699999999
  0
ARC
  5
1903
330
18D7
100
AcDbEntity
  8
3
100
AcDbCircle
 10
123.734986
 20
211.839512
 30
0.0
 40
1.752449
100
AcDbArc
 50
116.8532429999999
 51
171.904734
  0
LINE
  5
1904
330
18D7
100
AcDbEntity
  8
3
100
AcDbLine
 10
144.0
 20
212.086291
 30
0.0
 11
145.0
 21
148.459341
 31
0.0
  0
ARC
  5
1905
330
18D7
100
AcDbEntity
  8
3
100
AcDbCircle
 10
133.0
 20
124.2725679999999
 30
0.0
 40
88.49999999999999
100
AcDbArc
 50
25.139975
 51
82.860025
  0
LINE
  5
1906
330
18D7
100
AcDbEntity
  8
3
100
AcDbLine
 10
219.9150009999999
 20
140.946879
 30
0.0
 11
159.7111919999999
 21
120.3340129999999
 31
0.0
  0
LINE
  5
1907
330
18D7
100
AcDbEntity
  8
3
100
AcDbLine
 10
213.116627
 20
161.870122
 30
0.0
 11
152.294784
 21
143.15937
 31
0.0
  0
ARC
  5
1908
330
18D7
100
AcDbEntity
  8
3
100
AcDbCircle
 10
132.048944
 20
123.963551
 30
0.0
 40
26.0
100
AcDbArc
 50
355.380135
 51
40.619865
  0
ARC
  5
1909
330
18D7
100
AcDbEntity
  8
3
100
AcDbCircle
 10
133.0
 20
124.2725679999999
 30
0.0
 40
27.0
100
AcDbArc
 50
332.3878
 51
351.6121999999999
  0
ARC
  5
190A
330
18D7
100
AcDbEntity
  8
3
100
AcDbCircle
 10
155.8695179999999
 20
110.549264
 30
0.0
 40
1.604959
100
AcDbArc
 50
48.88794
 51
141.743407
  0
ARC
  5
190B
330
18D7
100
AcDbEntity
  8
3
100
AcDbCircle
 10
159.568184
 20
121.9325879999999
 30
0.0
 40
1.604959
100
AcDbArc
 50
182.2565929999999
 51
275.1120599999999
  0
ARC
  5
190C
330
18D7
100
AcDbEntity
  8
3
100
AcDbCircle
 10
153.118707
 20
141.782037
 30
0.0
 40
1.604959
100
AcDbArc
 50
120.8879399999999
 51
213.7434069999999
  0
ARC
  5
190D
330
18D7
100
AcDbEntity
  8
3
100
AcDbCircle
 10
133.0
 20
124.2725679999999
 30
0.0
 40
27.0
100
AcDbArc
 50
44.3878
 51
63.61219999999999
  0
ARC
  5
190E
330
18D7
100
AcDbEntity
  8
3
100
AcDbCircle
 10
143.435473
 20
148.8173189999999
 30
0.0
 40
1.604959
100
AcDbArc
 50
254.256593
 51
347.1120599999999
  0
ARC
  5
190F
330
18D7
100
AcDbEntity
  8
3
100
AcDbCircle
 10
182.450578
 20
140.340034
 30
0.0
 40
39.004585
100
AcDbArc
 50
4.192898
 51
31.807102
  0
ARC
  5
1910
330
18D7
100
AcDbEntity
  8
3
100
AcDbCircle
 10
213.76806
 20
159.880631
 30
0.0
 40
2.093427999999999
100
AcDbArc
 50
29.07169299999999
 51
108.130375
  0
ARC
  5
1911
330
18D7
100
AcDbEntity
  8
3
100
AcDbCircle
 10
219.2726279999999
 20
142.9393139999999
 30
0.0
 40
2.093427999999999
100
AcDbArc
 50
287.8696249999999
 51
6.928307000000001
  0
ARC
  5
1912
330
18D7
100
AcDbEntity
  8
3
100
AcDbCircle
 10
149.5420479999999
 20
217.3705459999999
 30
0.0
 40
5.278757999999999
100
AcDbArc
 50
100.998393
 51
141.312497
  0
ARC
  5
1913
330
18D7
100
AcDbEntity
  8
3
100
AcDbCircle
 10
142.2650139999999
 20
211.839512
 30
0.0
 40
1.752449
100
AcDbArc
 50
8.095266
 51
63.14675699999999
  0
LINE
  5
1914
330
18D7
100
AcDbEntity
  8
3
100
AcDbLine
 10
380.5
 20
68.26247099999999
 30
0.0
 11
380.5
 21
100.272568
 31
0.0
  0
ARC
  5
1915
330
18D7
100
AcDbEntity
  8
3
100
AcDbCircle
 10
368.75
 20
115.939234
 30
0.0
 40
20.68027099999999
100
AcDbArc
 50
238.679882
 51
301.320118
  0
LINE
  5
1916
330
18D7
100
AcDbEntity
  8
3
100
AcDbLine
 10
355.5
 20
24.772568
 30
0.0
 11
355.5
 21
124.2725679999999
 31
0.0
  0
LINE
  5
1917
330
18D7
100
AcDbEntity
  8
1
100
AcDbLine
 10
368.0
 20
1.284955999999999
 30
0.0
 11
368.0
 21
254.272568
 31
0.0
  0
ARC
  5
1918
330
18D7
100
AcDbEntity
  8
3
100
AcDbCircle
 10
368.0
 20
24.772568
 30
0.0
 40
11.0
100
AcDbArc
 50
6.769938
 51
173.230062
  0
LINE
  5
1919
330
18D7
100
AcDbEntity
  8
3
100
AcDbLine
 10
380.5
 20
24.772568
 30
0.0
 11
380.5
 21
68.26247099999999
 31
0.0
  0
ARC
  5
191A
330
18D7
100
AcDbEntity
  8
3
100
AcDbCircle
 10
368.0
 20
24.772568
 30
0.0
 40
12.5
100
AcDbArc
 50
180.0
 51
0.0
  0
ARC
  5
191B
330
18D7
100
AcDbEntity
  8
3
100
AcDbCircle
 10
355.153023
 20
26.80138799999999
 30
0.0
 40
2.058278
100
AcDbArc
 50
279.705064
 51
339.1642779999999
  0
ARC
  5
191C
330
18D7
100
AcDbEntity
  8
3
100
AcDbCircle
 10
380.8469769999999
 20
26.80138799999999
 30
0.0
 40
2.058278
100
AcDbArc
 50
200.835722
 51
260.294936
  0
LINE
  5
191D
330
18D7
100
AcDbEntity
  8
3
100
AcDbLine
 10
373.4999999999999
 20
52.772568
 30
0.0
 11
374.0
 21
95.93645699999999
 31
0.0
  0
LINE
  5
191E
330
18D7
100
AcDbEntity
  8
3
100
AcDbLine
 10
362.5
 20
52.772568
 30
0.0
 11
362.0
 21
96.39157199999999
 31
0.0
  0
ARC
  5
191F
330
18D7
100
AcDbEntity
  8
3
100
AcDbCircle
 10
368.013899
 20
52.135665
 30
0.0
 40
5.863114
100
AcDbArc
 50
269.8641789999999
 51
318.718794
  0
ARC
  5
1920
330
18D7
100
AcDbEntity
  8
3
100
AcDbCircle
 10
367.9861009999999
 20
52.135665
 30
0.0
 40
5.863114
100
AcDbArc
 50
221.281206
 51
270.135821
  0
ARC
  5
1921
330
18D7
100
AcDbEntity
  8
3
100
AcDbCircle
 10
372.154476
 20
52.70515500000001
 30
0.0
 40
9.654711
100
AcDbArc
 50
179.599937
 51
207.364002
  0
ARC
  5
1922
330
18D7
100
AcDbEntity
  8
3
100
AcDbCircle
 10
363.845524
 20
52.70515500000001
 30
0.0
 40
9.654711
100
AcDbArc
 50
332.6359979999999
 51
0.4000630000000001
  0
LINE
  5
1923
330
18D7
100
AcDbEntity
  8
2
100
AcDbLine
 10
362.5
 20
208.272568
 30
0.0
 11
362.0
 21
152.1535629999999
 31
0.0
  0
LINE
  5
1924
330
18D7
100
AcDbEntity
  8
2
100
AcDbLine
 10
373.4999999999999
 20
208.272568
 30
0.0
 11
374.0
 21
152.6086789999999
 31
0.0
  0
LINE
  5
1925
330
18D7
100
AcDbEntity
  8
3
100
AcDbLine
 10
355.5
 20
223.772568
 30
0.0
 11
355.5
 21
124.2725679999999
 31
0.0
  0
LINE
  5
1926
330
18D7
100
AcDbEntity
  8
3
100
AcDbLine
 10
380.5
 20
223.772568
 30
0.0
 11
380.5
 21
124.2725679999999
 31
0.0
  0
LINE
  5
1927
330
18D7
100
AcDbEntity
  8
2
100
AcDbLine
 10
397.5
 20
141.772568
 30
0.0
 11
387.0
 21
141.772568
 31
0.0
  0
LINE
  5
1928
330
18D7
100
AcDbEntity
  8
3
100
AcDbLine
 10
387.0
 20
106.7725679999999
 30
0.0
 11
397.5
 21
106.7725679999999
 31
0.0
  0
ARC
  5
1929
330
18D7
100
AcDbEntity
  8
3
100
AcDbCircle
 10
394.5
 20
103.2725679999999
 30
0.0
 40
3.0
100
AcDbArc
 50
270.0
 51
0.0
  0
ARC
  5
192A
330
18D7
100
AcDbEntity
  8
3
100
AcDbCircle
 10
394.5
 20
145.272568
 30
0.0
 40
3.0
100
AcDbArc
 50
0.0
 51
90.0
  0
LINE
  5
192B
330
18D7
100
AcDbEntity
  8
1
100
AcDbLine
 10
347.0
 20
124.2725679999999
 30
0.0
 11
403.5
 21
124.2725679999999
 31
0.0
  0
LINE
  5
192C
330
18D7
100
AcDbEntity
  8
2
100
AcDbLine
 10
387.0
 20
142.7725679999999
 30
0.0
 11
387.0
 21
124.2725679999999
 31
0.0
  0
LINE
  5
192D
330
18D7
100
AcDbEntity
  8
2
100
AcDbLine
 10
385.0
 20
124.2725679999999
 30
0.0
 11
385.0
 21
142.7725679999999
 31
0.0
  0
LINE
  5
192E
330
18D7
100
AcDbEntity
  8
2
100
AcDbLine
 10
370.0
 20
142.7725679999999
 30
0.0
 11
370.0
 21
124.2725679999999
 31
0.0
  0
LINE
  5
192F
330
18D7
100
AcDbEntity
  8
2
100
AcDbLine
 10
368.0
 20
124.2725679999999
 30
0.0
 11
368.0
 21
142.7725679999999
 31
0.0
  0
LINE
  5
1930
330
18D7
100
AcDbEntity
  8
2
100
AcDbLine
 10
379.4999999999999
 20
148.272568
 30
0.0
 11
379.4999999999999
 21
124.2725679999999
 31
0.0
  0
LINE
  5
1931
330
18D7
100
AcDbEntity
  8
2
100
AcDbLine
 10
357.5
 20
124.2725679999999
 30
0.0
 11
357.5
 21
148.272568
 31
0.0
  0
LINE
  5
1932
330
18D7
100
AcDbEntity
  8
3
100
AcDbLine
 10
370.0
 20
105.7725679999999
 30
0.0
 11
368.0
 21
105.7725679999999
 31
0.0
  0
LINE
  5
1933
330
18D7
100
AcDbEntity
  8
3
100
AcDbLine
 10
368.0
 20
105.7725679999999
 30
0.0
 11
368.0
 21
124.2725679999999
 31
0.0
  0
LINE
  5
1934
330
18D7
100
AcDbEntity
  8
3
100
AcDbLine
 10
357.5
 20
100.9226619999999
 30
0.0
 11
357.5
 21
124.2725679999999
 31
0.0
  0
LINE
  5
1935
330
18D7
100
AcDbEntity
  8
3
100
AcDbLine
 10
357.5
 20
100.9226619999999
 30
0.0
 11
357.5
 21
100.272568
 31
0.0
  0
LINE
  5
1936
330
18D7
100
AcDbEntity
  8
3
100
AcDbLine
 10
357.5
 20
100.272568
 30
0.0
 11
358.0
 21
98.272568
 31
0.0
  0
LINE
  5
1937
330
18D7
100
AcDbEntity
  8
3
100
AcDbLine
 10
357.5
 20
106.7725679999999
 30
0.0
 11
368.0
 21
106.7725679999999
 31
0.0
  0
LINE
  5
1938
330
18D7
100
AcDbEntity
  8
3
100
AcDbLine
 10
385.0
 20
105.7725679999999
 30
0.0
 11
385.0
 21
124.2725679999999
 31
0.0
  0
LINE
  5
1939
330
18D7
100
AcDbEntity
  8
3
100
AcDbLine
 10
370.0
 20
105.7725679999999
 30
0.0
 11
370.0
 21
124.2725679999999
 31
0.0
  0
LINE
  5
193A
330
18D7
100
AcDbEntity
  8
3
100
AcDbLine
 10
387.0
 20
105.7725679999999
 30
0.0
 11
387.0
 21
124.2725679999999
 31
0.0
  0
LINE
  5
193B
330
18D7
100
AcDbEntity
  8
3
100
AcDbLine
 10
370.0
 20
106.7725679999999
 30
0.0
 11
385.0
 21
106.7725679999999
 31
0.0
  0
LINE
  5
193C
330
18D7
100
AcDbEntity
  8
3
100
AcDbLine
 10
394.5
 20
100.272568
 30
0.0
 11
379.4999999999999
 21
100.272568
 31
0.0
  0
LINE
  5
193D
330
18D7
100
AcDbEntity
  8
3
100
AcDbLine
 10
379.4999999999999
 20
98.272568
 30
0.0
 11
379.4999999999999
 21
100.272568
 31
0.0
  0
LINE
  5
193E
330
18D7
100
AcDbEntity
  8
3
100
AcDbLine
 10
385.0
 20
105.7725679999999
 30
0.0
 11
387.0
 21
105.7725679999999
 31
0.0
  0
LINE
  5
193F
330
18D7
100
AcDbEntity
  8
2
100
AcDbLine
 10
368.0
 20
142.7725679999999
 30
0.0
 11
370.0
 21
142.7725679999999
 31
0.0
  0
ARC
  5
1940
330
18D7
100
AcDbEntity
  8
2
100
AcDbCircle
 10
367.8390209999999
 20
156.6256479999999
 30
0.0
 40
7.354841999999999
100
AcDbArc
 50
217.44837
 51
326.895576
  0
ARC
  5
1941
330
18D7
100
AcDbEntity
  8
2
100
AcDbCircle
 10
368.75
 20
132.6059009999999
 30
0.0
 40
20.68027099999999
100
AcDbArc
 50
109.0502969999999
 51
121.3201179999999
  0
LINE
  5
1942
330
18D7
100
AcDbEntity
  8
2
100
AcDbLine
 10
368.0
 20
141.772568
 30
0.0
 11
357.5
 21
141.772568
 31
0.0
  0
LINE
  5
1943
330
18D7
100
AcDbEntity
  8
2
100
AcDbLine
 10
357.5
 20
148.272568
 30
0.0
 11
358.0
 21
150.272568
 31
0.0
  0
ARC
  5
1944
330
18D7
100
AcDbEntity
  8
2
100
AcDbCircle
 10
368.75
 20
132.6059009999999
 30
0.0
 40
20.68027099999999
100
AcDbArc
 50
58.67988199999999
 51
75.29365
  0
LINE
  5
1945
330
18D7
100
AcDbEntity
  8
2
100
AcDbLine
 10
385.0
 20
141.772568
 30
0.0
 11
370.0
 21
141.772568
 31
0.0
  0
LINE
  5
1946
330
18D7
100
AcDbEntity
  8
3
100
AcDbLine
 10
394.5
 20
148.272568
 30
0.0
 11
380.5
 21
148.272568
 31
0.0
  0
LINE
  5
1947
330
18D7
100
AcDbEntity
  8
2
100
AcDbLine
 10
379.4999999999999
 20
148.272568
 30
0.0
 11
379.4999999999999
 21
150.272568
 31
0.0
  0
LINE
  5
1948
330
18D7
100
AcDbEntity
  8
2
100
AcDbLine
 10
380.5
 20
148.272568
 30
0.0
 11
379.4999999999999
 21
148.272568
 31
0.0
  0
LINE
  5
1949
330
18D7
100
AcDbEntity
  8
2
100
AcDbLine
 10
385.0
 20
142.7725679999999
 30
0.0
 11
387.0
 21
142.7725679999999
 31
0.0
  0
LINE
  5
194A
330
18D7
100
AcDbEntity
  8
3
100
AcDbLine
 10
397.5
 20
145.272568
 30
0.0
 11
397.5
 21
124.2725679999999
 31
0.0
  0
LINE
  5
194B
330
18D7
100
AcDbEntity
  8
3
100
AcDbLine
 10
397.5
 20
103.2725679999999
 30
0.0
 11
397.5
 21
124.2725679999999
 31
0.0
  0
LINE
  5
194C
330
18D7
100
AcDbEntity
  8
1
100
AcDbLine
 10
349.0
 20
219.272568
 30
0.0
 11
387.0
 21
219.272568
 31
0.0
  0
LINE
  5
194D
330
18D7
100
AcDbEntity
  8
2
100
AcDbLine
 10
355.5
 20
208.272568
 30
0.0
 11
378.9233019999999
 21
208.272568
 31
0.0
  0
ARC
  5
194E
330
18D7
100
AcDbEntity
  8
3
100
AcDbCircle
 10
368.0
 20
223.772568
 30
0.0
 40
12.5
100
AcDbArc
 50
0.0
 51
180.0
  0
LINE
  5
194F
330
18D7
100
AcDbEntity
  8
2
100
AcDbLine
 10
378.9233019999999
 20
208.272568
 30
0.0
 11
378.9233019999999
 21
222.4758549999999
 31
0.0
  0
ARC
  5
1950
330
18D7
100
AcDbEntity
  8
2
100
AcDbCircle
 10
380.3333
 20
222.3683359999999
 30
0.0
 40
1.414090999999999
100
AcDbArc
 50
83.22996999999999
 51
175.639372
  0
ENDBLK
  5
1952
330
18D7
100
AcDbEntity
  8
0
100
AcDbBlockEnd
  0
BLOCK
  5
19DF
330
19D4
100
AcDbEntity
  8
0
100
AcDbBlockBegin
  2
A$C577F4D59
 70
     0
 10
0.0
 20
0.0
 30
0.0
  3
A$C577F4D59
  1

  0
ARC
  5
19D5
330
19D4
100
AcDbEntity
  8
3
100
AcDbCircle
 10
31.91074
 20
44.98649799999999
 30
0.0
 40
44.98652299999999
100
AcDbArc
 50
230.009297
 51
294.406546
  0
LINE
  5
19D6
330
19D4
100
AcDbEntity
  8
1
100
AcDbLine
 10
73.88955300000001
 20
12.52013
 30
0.0
 11
105.867076
 21
12.52013
 31
0.0
  0
LINE
  5
19D7
330
19D4
100
AcDbEntity
  8
1
100
AcDbLine
 10
73.88955300000001
 20
12.52013
 30
0.0
 11
-0.000001
 21
12.52013
 31
0.0
  0
ARC
  5
19D8
330
19D4
100
AcDbEntity
  8
3
100
AcDbCircle
 10
31.91074
 20
-19.946238
 30
0.0
 40
44.98652299999999
100
AcDbArc
 50
65.59345400000001
 51
129.9907029999999
  0
ARC
  5
19D9
330
19D4
100
AcDbEntity
  8
3
100
AcDbCircle
 10
4.499552999999999
 20
12.52013
 30
0.0
 40
2.5
100
AcDbArc
 50
126.869898
 51
233.130102
  0
ARC
  5
19DA
330
19D4
100
AcDbEntity
  8
3
100
AcDbCircle
 10
62.00123000000001
 20
53.092277
 30
0.0
 40
34.072148
100
AcDbArc
 50
250.271208
 51
287.0643529999999
  0
ARC
  5
19DB
330
19D4
100
AcDbEntity
  8
3
100
AcDbCircle
 10
62.00123000000001
 20
-28.052018
 30
0.0
 40
34.072148
100
AcDbArc
 50
72.93564700000001
 51
109.728792
  0
LINE
  5
19DC
330
19D4
100
AcDbEntity
  8
3
100
AcDbLine
 10
71.999553
 20
4.520129999999999
 30
0.0
 11
71.999553
 21
20.52013
 31
0.0
  0
LINE
  5
19DD
330
19D4
100
AcDbEntity
  8
3
100
AcDbLine
 10
79.999553
 20
4.520129999999999
 30
0.0
 11
71.999553
 21
4.520129999999999
 31
0.0
  0
LINE
  5
19DE
330
19D4
100
AcDbEntity
  8
3
100
AcDbLine
 10
71.999553
 20
20.52013
 30
0.0
 11
80.54510099999999
 21
20.52013
 31
0.0
  0
ENDBLK
  5
19E0
330
19D4
100
AcDbEntity
  8
0
100
AcDbBlockEnd
  0
BLOCK
  5
1A9F
330
19F5
100
AcDbEntity
  8
0
100
AcDbBlockBegin
  2
A$C32EE7A19
 70
     0
 10
0.0
 20
0.0
 30
0.0
  3
A$C32EE7A19
  1

  0
ARC
  5
19F6
330
19F5
100
AcDbEntity
  8
3
100
AcDbCircle
 10
136.4999999999999
 20
133.771453
 30
0.0
 40
111.4999999999999
100
AcDbArc
 50
99.02994599999999
 51
90.0
  0
ARC
  5
19F7
330
19F5
100
AcDbEntity
  8
3
100
AcDbCircle
 10
219.9879769999999
 20
95.330428
 30
0.0
 40
9.127235999999999
100
AcDbArc
 50
285.0213679999999
 51
25.532367
  0
LINE
  5
19F8
330
19F5
100
AcDbEntity
  8
1
100
AcDbLine
 10
136.4999999999999
 20
133.771453
 30
0.0
 11
264.350847
 21
175.312711
 31
0.0
  0
ARC
  5
19F9
330
19F5
100
AcDbEntity
  8
3
100
AcDbCircle
 10
226.3319839999999
 20
173.2713239999999
 30
0.0
 40
1.221159
100
AcDbArc
 50
20.908112
 51
120.3280879999999
  0
LINE
  5
19FA
330
19F5
100
AcDbEntity
  8
3
100
AcDbLine
 10
166.230948
 20
129.7626139999999
 30
0.0
 11
232.513733
 21
153.4021209999999
 31
0.0
  0
CIRCLE
  5
19FB
330
19F5
100
AcDbEntity
  8
3
100
AcDbCircle
 10
136.4999999999999
 20
133.771453
 30
0.0
 40
125.0
  0
LINE
  5
19FC
330
19F5
100
AcDbEntity
  8
1
100
AcDbLine
 10
0.0
 20
133.771453
 30
0.0
 11
270.5
 21
133.771453
 31
0.0
  0
CIRCLE
  5
19FD
330
19F5
100
AcDbEntity
  8
3
100
AcDbCircle
 10
136.604555
 20
133.933049
 30
0.0
 40
24.0
  0
CIRCLE
  5
19FE
330
19F5
100
AcDbEntity
  8
3
100
AcDbCircle
 10
136.4999999999999
 20
134.0284049999999
 30
0.0
 40
27.0
  0
LINE
  5
19FF
330
19F5
100
AcDbEntity
  8
1
100
AcDbLine
 10
136.4999999999999
 20
133.771453
 30
0.0
 11
7.747297
 21
108.7444629999999
 31
0.0
  0
LINE
  5
1A00
330
19F5
100
AcDbEntity
  8
1
100
AcDbLine
 10
136.4999999999999
 20
133.771453
 30
0.0
 11
16.504544
 21
77.816653
 31
0.0
  0
LINE
  5
1A01
330
19F5
100
AcDbEntity
  8
1
100
AcDbLine
 10
136.4999999999999
 20
133.771453
 30
0.0
 11
33.834115
 21
50.634258
 31
0.0
  0
LINE
  5
1A02
330
19F5
100
AcDbEntity
  8
1
100
AcDbLine
 10
136.4999999999999
 20
133.771453
 30
0.0
 11
136.4999999999999
 21
0.0
 31
0.0
  0
LINE
  5
1A03
330
19F5
100
AcDbEntity
  8
1
100
AcDbLine
 10
136.4999999999999
 20
133.771453
 30
0.0
 11
215.5161689999999
 21
25.015027
 31
0.0
  0
LINE
  5
1A04
330
19F5
100
AcDbEntity
  8
1
100
AcDbLine
 10
136.4999999999999
 20
133.771453
 30
0.0
 11
57.48383199999999
 21
25.015027
 31
0.0
  0
ARC
  5
1A05
330
19F5
100
AcDbEntity
  8
3
100
AcDbCircle
 10
46.36174099999999
 20
115.797894
 30
0.0
 40
9.127235999999999
100
AcDbArc
 50
141.021368
 51
241.532367
  0
ARC
  5
1A06
330
19F5
100
AcDbEntity
  8
3
100
AcDbCircle
 10
134.53873
 20
136.4709109999999
 30
0.0
 40
31.54215499999999
100
AcDbArc
 50
285.680529
 51
326.319471
  0
LINE
  5
1A07
330
19F5
100
AcDbEntity
  8
3
100
AcDbLine
 10
162.9091779999999
 20
119.539259
 30
0.0
 11
202.638125
 21
61.45445200000001
 31
0.0
  0
ARC
  5
1A08
330
19F5
100
AcDbEntity
  8
3
100
AcDbCircle
 10
138.4612709999999
 20
136.4709109999999
 30
0.0
 40
31.54215499999999
100
AcDbArc
 50
213.680529
 51
254.3194709999999
  0
LINE
  5
1A09
330
19F5
100
AcDbEntity
  8
3
100
AcDbLine
 10
110.0908229999999
 20
119.539259
 30
0.0
 11
70.36187599999999
 21
61.45445200000001
 31
0.0
  0
ARC
  5
1A0A
330
19F5
100
AcDbEntity
  8
3
100
AcDbCircle
 10
106.2912909999999
 20
92.192731
 30
0.0
 40
48.48197
100
AcDbArc
 50
222.254827
 51
245.7451729999999
  0
ARC
  5
1A0B
330
19F5
100
AcDbEntity
  8
3
100
AcDbCircle
 10
65.35071600000001
 20
75.584393
 30
0.0
 40
9.127235999999999
100
AcDbArc
 50
169.021368
 51
269.5323669999999
  0
ARC
  5
1A0C
330
19F5
100
AcDbEntity
  8
3
100
AcDbCircle
 10
136.4999999999999
 20
133.771453
 30
0.0
 40
98.0
100
AcDbArc
 50
223.383439
 51
227.55526
  0
ARC
  5
1A0D
330
19F5
100
AcDbEntity
  8
3
100
AcDbCircle
 10
71.173781
 20
60.54229
 30
0.0
 40
1.221159
100
AcDbArc
 50
131.671912
 51
231.091888
  0
ARC
  5
1A0E
330
19F5
100
AcDbEntity
  8
3
100
AcDbCircle
 10
53.012024
 20
95.330428
 30
0.0
 40
9.127235999999999
100
AcDbArc
 50
154.467633
 51
254.9786319999999
  0
ARC
  5
1A0F
330
19F5
100
AcDbEntity
  8
3
100
AcDbCircle
 10
136.4999999999999
 20
133.771453
 30
0.0
 40
98.0
100
AcDbArc
 50
208.829705
 51
215.170295
  0
ARC
  5
1A10
330
19F5
100
AcDbEntity
  8
3
100
AcDbCircle
 10
136.4999999999999
 20
133.771453
 30
0.0
 40
98.0
100
AcDbArc
 50
195.3834389999999
 51
200.616561
  0
ARC
  5
1A11
330
19F5
100
AcDbEntity
  8
3
100
AcDbCircle
 10
147.260384
 20
42.490739
 30
0.0
 40
9.127235999999999
100
AcDbArc
 50
226.4676329999999
 51
326.978632
  0
LINE
  5
1A12
330
19F5
100
AcDbEntity
  8
3
100
AcDbLine
 10
141.874736
 20
104.2568429999999
 30
0.0
 11
184.839751
 21
48.523177
 31
0.0
  0
LINE
  5
1A13
330
19F5
100
AcDbEntity
  8
3
100
AcDbLine
 10
131.1252649999999
 20
104.2568429999999
 30
0.0
 11
88.16025000000001
 21
48.523177
 31
0.0
  0
ARC
  5
1A14
330
19F5
100
AcDbEntity
  8
3
100
AcDbCircle
 10
136.4999999999999
 20
133.771453
 30
0.0
 40
98.0
100
AcDbArc
 50
252.8297049999999
 51
259.170295
  0
ARC
  5
1A15
330
19F5
100
AcDbEntity
  8
3
100
AcDbCircle
 10
103.147156
 20
48.123672
 30
0.0
 40
9.127235999999999
100
AcDbArc
 50
198.467633
 51
298.978632
  0
ARC
  5
1A16
330
19F5
100
AcDbEntity
  8
3
100
AcDbCircle
 10
136.4999999999999
 20
133.771453
 30
0.0
 40
98.0
100
AcDbArc
 50
240.44474
 51
244.616561
  0
ARC
  5
1A17
330
19F5
100
AcDbEntity
  8
3
100
AcDbCircle
 10
87.04184000000001
 20
49.013471
 30
0.0
 40
1.221159
100
AcDbArc
 50
236.908112
 51
336.328088
  0
ARC
  5
1A18
330
19F5
100
AcDbEntity
  8
3
100
AcDbCircle
 10
136.4999999999999
 20
133.771453
 30
0.0
 40
98.0
100
AcDbArc
 50
267.383439
 51
272.6165609999999
  0
ARC
  5
1A19
330
19F5
100
AcDbEntity
  8
3
100
AcDbCircle
 10
125.739617
 20
42.490739
 30
0.0
 40
9.127235999999999
100
AcDbArc
 50
213.021368
 51
313.5323669999999
  0
ARC
  5
1A1A
330
19F5
100
AcDbEntity
  8
3
100
AcDbCircle
 10
136.4999999999999
 20
133.771453
 30
0.0
 40
30.0
100
AcDbArc
 50
259.679289
 51
280.3207109999999
  0
ARC
  5
1A1B
330
19F5
100
AcDbEntity
  8
3
100
AcDbCircle
 10
129.0792409999999
 20
104.2447219999999
 30
0.0
 40
2.046059
100
AcDbArc
 50
0.339427
 51
65.23685799999999
  0
ARC
  5
1A1C
330
19F5
100
AcDbEntity
  8
3
100
AcDbCircle
 10
143.92076
 20
104.2447219999999
 30
0.0
 40
2.046059
100
AcDbArc
 50
114.7631419999999
 51
179.660573
  0
ARC
  5
1A1D
330
19F5
100
AcDbEntity
  8
3
100
AcDbCircle
 10
136.4999999999999
 20
133.771453
 30
0.0
 40
98.0
100
AcDbArc
 50
312.4447399999999
 51
316.616561
  0
ARC
  5
1A1E
330
19F5
100
AcDbEntity
  8
3
100
AcDbCircle
 10
207.649285
 20
75.584393
 30
0.0
 40
9.127235999999999
100
AcDbArc
 50
270.467633
 51
10.978632
  0
ARC
  5
1A1F
330
19F5
100
AcDbEntity
  8
3
100
AcDbCircle
 10
166.7087099999999
 20
92.192731
 30
0.0
 40
48.48197
100
AcDbArc
 50
294.2548269999999
 51
317.745173
  0
ARC
  5
1A20
330
19F5
100
AcDbEntity
  8
3
100
AcDbCircle
 10
136.4999999999999
 20
133.771453
 30
0.0
 40
98.0
100
AcDbArc
 50
280.8297049999999
 51
287.1702949999999
  0
ARC
  5
1A21
330
19F5
100
AcDbEntity
  8
3
100
AcDbCircle
 10
169.8528449999999
 20
48.123672
 30
0.0
 40
9.127235999999999
100
AcDbArc
 50
241.021368
 51
341.5323669999999
  0
ARC
  5
1A22
330
19F5
100
AcDbEntity
  8
3
100
AcDbCircle
 10
136.4999999999999
 20
133.771453
 30
0.0
 40
98.0
100
AcDbArc
 50
295.383439
 51
299.55526
  0
ARC
  5
1A23
330
19F5
100
AcDbEntity
  8
3
100
AcDbCircle
 10
185.958161
 20
49.013471
 30
0.0
 40
1.221159
100
AcDbArc
 50
203.671912
 51
303.091888
  0
ARC
  5
1A24
330
19F5
100
AcDbEntity
  8
3
100
AcDbCircle
 10
201.82622
 20
60.54229
 30
0.0
 40
1.221159
100
AcDbArc
 50
308.908112
 51
48.328088
  0
ARC
  5
1A25
330
19F5
100
AcDbEntity
  8
3
100
AcDbCircle
 10
136.4999999999999
 20
133.771453
 30
0.0
 40
98.0
100
AcDbArc
 50
324.829705
 51
331.170295
  0
LINE
  5
1A26
330
19F5
100
AcDbEntity
  8
1
100
AcDbLine
 10
136.4999999999999
 20
133.771453
 30
0.0
 11
6.042987
 21
140.6084149999999
 31
0.0
  0
LINE
  5
1A27
330
19F5
100
AcDbEntity
  8
1
100
AcDbLine
 10
136.4999999999999
 20
133.771453
 30
0.0
 11
8.649153999999999
 21
175.312711
 31
0.0
  0
ARC
  5
1A28
330
19F5
100
AcDbEntity
  8
3
100
AcDbCircle
 10
136.4999999999999
 20
133.771453
 30
0.0
 40
98.0
100
AcDbArc
 50
123.3834389999999
 51
128.616561
  0
LINE
  5
1A29
330
19F5
100
AcDbEntity
  8
3
100
AcDbLine
 10
114.8034949999999
 20
154.4900839999999
 30
0.0
 11
47.284642
 21
174.3253649999999
 31
0.0
  0
LINE
  5
1A2A
330
19F5
100
AcDbEntity
  8
3
100
AcDbLine
 10
106.7690529999999
 20
129.7626139999999
 30
0.0
 11
40.486268
 21
153.4021209999999
 31
0.0
  0
ARC
  5
1A2B
330
19F5
100
AcDbEntity
  8
3
100
AcDbCircle
 10
87.62128199999999
 20
149.653111
 30
0.0
 40
48.48197
100
AcDbArc
 50
150.254827
 51
173.745173
  0
ARC
  5
1A2C
330
19F5
100
AcDbEntity
  8
3
100
AcDbCircle
 10
44.73752499999999
 20
139.025273
 30
0.0
 40
9.127235999999999
100
AcDbArc
 50
126.467633
 51
226.9786319999999
  0
ARC
  5
1A2D
330
19F5
100
AcDbEntity
  8
3
100
AcDbCircle
 10
136.4999999999999
 20
133.771453
 30
0.0
 40
98.0
100
AcDbArc
 50
180.829705
 51
187.1702949999999
  0
ARC
  5
1A2E
330
19F5
100
AcDbEntity
  8
3
100
AcDbCircle
 10
136.4999999999999
 20
133.771453
 30
0.0
 40
98.0
100
AcDbArc
 50
168.4447399999999
 51
172.616561
  0
ARC
  5
1A2F
330
19F5
100
AcDbEntity
  8
3
100
AcDbCircle
 10
40.606957
 20
154.6173019999999
 30
0.0
 40
1.221159
100
AcDbArc
 50
164.908112
 51
264.3280879999999
  0
ARC
  5
1A30
330
19F5
100
AcDbEntity
  8
3
100
AcDbCircle
 10
136.4999999999999
 20
133.771453
 30
0.0
 40
98.0
100
AcDbArc
 50
136.829705
 51
143.170295
  0
ARC
  5
1A31
330
19F5
100
AcDbEntity
  8
3
100
AcDbCircle
 10
59.17448
 20
183.4576529999999
 30
0.0
 40
9.127235999999999
100
AcDbArc
 50
97.02136800000001
 51
197.532367
  0
ARC
  5
1A32
330
19F5
100
AcDbEntity
  8
3
100
AcDbCircle
 10
136.4999999999999
 20
133.771453
 30
0.0
 40
98.0
100
AcDbArc
 50
151.3834389999999
 51
155.55526
  0
ARC
  5
1A33
330
19F5
100
AcDbEntity
  8
3
100
AcDbCircle
 10
46.66801699999999
 20
173.2713239999999
 30
0.0
 40
1.221159
100
AcDbArc
 50
59.67191200000001
 51
159.0918879999999
  0
ARC
  5
1A34
330
19F5
100
AcDbEntity
  8
3
100
AcDbCircle
 10
74.14121
 20
201.2943069999999
 30
0.0
 40
9.127235999999999
100
AcDbArc
 50
82.46763299999999
 51
182.978632
  0
LINE
  5
1A35
330
19F5
100
AcDbEntity
  8
1
100
AcDbLine
 10
136.4999999999999
 20
133.771453
 30
0.0
 11
136.4999999999999
 21
268.572136
 31
0.0
  0
ARC
  5
1A36
330
19F5
100
AcDbEntity
  8
3
100
AcDbCircle
 10
136.4999999999999
 20
133.771453
 30
0.0
 40
98.0
100
AcDbArc
 50
108.8297049999999
 51
115.170295
  0
ARC
  5
1A37
330
19F5
100
AcDbEntity
  8
3
100
AcDbCircle
 10
91.55187600000001
 20
213.943897
 30
0.0
 40
9.127235999999999
100
AcDbArc
 50
69.021368
 51
169.532367
  0
ARC
  5
1A38
330
19F5
100
AcDbEntity
  8
3
100
AcDbCircle
 10
136.4999999999999
 20
133.771453
 30
0.0
 40
98.0
100
AcDbArc
 50
64.829705
 51
71.170295
  0
ARC
  5
1A39
330
19F5
100
AcDbEntity
  8
3
100
AcDbCircle
 10
181.448125
 20
213.943897
 30
0.0
 40
9.127235999999999
100
AcDbArc
 50
10.467633
 51
110.9786319999999
  0
LINE
  5
1A3A
330
19F5
100
AcDbEntity
  8
3
100
AcDbLine
 10
123.5
 20
160.8084649999999
 30
0.0
 11
125.5
 21
231.152149
 31
0.0
  0
LINE
  5
1A3B
330
19F5
100
AcDbEntity
  8
3
100
AcDbLine
 10
149.5
 20
160.8084649999999
 30
0.0
 11
147.5
 21
231.152149
 31
0.0
  0
ARC
  5
1A3C
330
19F5
100
AcDbEntity
  8
3
100
AcDbCircle
 10
136.4999999999999
 20
133.771453
 30
0.0
 40
30.0
100
AcDbArc
 50
43.679289
 51
64.320711
  0
ARC
  5
1A3D
330
19F5
100
AcDbEntity
  8
3
100
AcDbCircle
 10
139.673404
 20
132.740352
 30
0.0
 40
31.54215499999999
100
AcDbArc
 50
141.680529
 51
182.3194709999999
  0
ARC
  5
1A3E
330
19F5
100
AcDbEntity
  8
3
100
AcDbCircle
 10
106.12527
 20
131.704753
 30
0.0
 40
2.046059
100
AcDbArc
 50
288.339427
 51
353.2368579999999
  0
ARC
  5
1A3F
330
19F5
100
AcDbEntity
  8
3
100
AcDbCircle
 10
136.4999999999999
 20
133.771453
 30
0.0
 40
30.0
100
AcDbArc
 50
187.6792889999999
 51
208.320711
  0
ARC
  5
1A40
330
19F5
100
AcDbEntity
  8
3
100
AcDbCircle
 10
110.711551
 20
117.58963
 30
0.0
 40
2.046059
100
AcDbArc
 50
42.76314199999999
 51
107.660573
  0
ARC
  5
1A41
330
19F5
100
AcDbEntity
  8
3
100
AcDbCircle
 10
136.4999999999999
 20
130.4347389999999
 30
0.0
 40
31.54215499999999
100
AcDbArc
 50
69.680529
 51
110.3194709999999
  0
ARC
  5
1A42
330
19F5
100
AcDbEntity
  8
3
100
AcDbCircle
 10
136.4999999999999
 20
133.771453
 30
0.0
 40
30.0
100
AcDbArc
 50
115.6792889999999
 51
136.320711
  0
ARC
  5
1A43
330
19F5
100
AcDbEntity
  8
3
100
AcDbCircle
 10
113.1411029999999
 20
153.297267
 30
0.0
 40
2.046059
100
AcDbArc
 50
330.763142
 51
35.660573
  0
ARC
  5
1A44
330
19F5
100
AcDbEntity
  8
3
100
AcDbCircle
 10
125.1481439999999
 20
162.0208929999999
 30
0.0
 40
2.046059
100
AcDbArc
 50
216.3394269999999
 51
281.2368579999999
  0
ARC
  5
1A45
330
19F5
100
AcDbEntity
  8
3
100
AcDbCircle
 10
147.851857
 20
162.0208929999999
 30
0.0
 40
2.046059
100
AcDbArc
 50
258.763142
 51
323.6605729999999
  0
LINE
  5
1A46
330
19F5
100
AcDbEntity
  8
3
100
AcDbLine
 10
158.1965059999999
 20
154.4900839999999
 30
0.0
 11
225.7153589999999
 21
174.3253649999999
 31
0.0
  0
TEXT
  5
1A47
330
19F5
100
AcDbEntity
  8
3
100
AcDbText
 10
178.594524
 20
144.011905
 30
0.0
 40
7.0
  1
Ｓ/ＳＮ-250
 50
18.0
 41
0.8
  7
BIGFONT
100
AcDbText
  0
ARC
  5
1A48
330
19F5
100
AcDbEntity
  8
3
100
AcDbCircle
 10
133.326597
 20
132.740352
 30
0.0
 40
31.54215499999999
100
AcDbArc
 50
357.6805289999999
 51
38.319471
  0
ARC
  5
1A49
330
19F5
100
AcDbEntity
  8
3
100
AcDbCircle
 10
166.874731
 20
131.704753
 30
0.0
 40
2.046059
100
AcDbArc
 50
186.763142
 51
251.660573
  0
ARC
  5
1A4A
330
19F5
100
AcDbEntity
  8
3
100
AcDbCircle
 10
136.4999999999999
 20
133.771453
 30
0.0
 40
30.0
100
AcDbArc
 50
331.679289
 51
352.3207109999999
  0
ARC
  5
1A4B
330
19F5
100
AcDbEntity
  8
3
100
AcDbCircle
 10
162.28845
 20
117.58963
 30
0.0
 40
2.046059
100
AcDbArc
 50
72.339427
 51
137.236858
  0
ARC
  5
1A4C
330
19F5
100
AcDbEntity
  8
3
100
AcDbCircle
 10
159.858898
 20
153.297267
 30
0.0
 40
2.046059
100
AcDbArc
 50
144.3394269999999
 51
209.236858
  0
ARC
  5
1A4D
330
19F5
100
AcDbEntity
  8
3
100
AcDbCircle
 10
136.4999999999999
 20
133.771453
 30
0.0
 40
98.0
100
AcDbArc
 50
36.82970499999999
 51
43.170295
  0
ARC
  5
1A4E
330
19F5
100
AcDbEntity
  8
3
100
AcDbCircle
 10
213.825521
 20
183.4576529999999
 30
0.0
 40
9.127235999999999
100
AcDbArc
 50
342.467633
 51
82.978632
  0
ARC
  5
1A4F
330
19F5
100
AcDbEntity
  8
3
100
AcDbCircle
 10
136.4999999999999
 20
133.771453
 30
0.0
 40
98.0
100
AcDbArc
 50
24.44474
 51
28.61656099999999
  0
ARC
  5
1A50
330
19F5
100
AcDbEntity
  8
3
100
AcDbCircle
 10
198.8587909999999
 20
201.2943069999999
 30
0.0
 40
9.127235999999999
100
AcDbArc
 50
357.021368
 51
97.53236700000002
  0
ARC
  5
1A51
330
19F5
100
AcDbEntity
  8
3
100
AcDbCircle
 10
136.4999999999999
 20
133.771453
 30
0.0
 40
98.0
100
AcDbArc
 50
51.383439
 51
56.616561
  0
ARC
  5
1A52
330
19F5
100
AcDbEntity
  8
3
100
AcDbCircle
 10
152.683533
 20
239.2720279999999
 30
0.0
 40
5.208587
100
AcDbArc
 50
105.644252
 51
163.2691899999999
  0
ARC
  5
1A53
330
19F5
100
AcDbEntity
  8
3
100
AcDbCircle
 10
136.4999999999999
 20
133.771453
 30
0.0
 40
98.0
100
AcDbArc
 50
79.38343899999999
 51
83.55526000000001
  0
LINE
  5
1A54
330
19F5
100
AcDbEntity
  8
1
100
AcDbLine
 10
161.5
 20
240.7714529999999
 30
0.0
 11
113.0
 21
240.7714529999999
 31
0.0
  0
ARC
  5
1A55
330
19F5
100
AcDbEntity
  8
3
100
AcDbCircle
 10
113.1405159999999
 20
222.666273
 30
0.0
 40
9.127235999999999
100
AcDbArc
 50
54.467633
 51
154.978632
  0
LINE
  5
1A56
330
19F5
100
AcDbEntity
  8
1
100
AcDbLine
 10
124.5941199999999
 20
239.2714529999999
 30
0.0
 11
136.6061169999999
 21
239.2714529999999
 31
0.0
  0
ARC
  5
1A57
330
19F5
100
AcDbEntity
  8
3
100
AcDbCircle
 10
136.4999999999999
 20
240.7714529999999
 30
0.0
 40
12.0
100
AcDbArc
 50
187.180756
 51
270.0
  0
ARC
  5
1A58
330
19F5
100
AcDbEntity
  8
3
100
AcDbCircle
 10
136.4999999999999
 20
133.771453
 30
0.0
 40
98.0
100
AcDbArc
 50
96.44474
 51
100.616561
  0
ARC
  5
1A59
330
19F5
100
AcDbEntity
  8
3
100
AcDbCircle
 10
136.4999999999999
 20
185.165579
 30
0.0
 40
48.48197
100
AcDbArc
 50
100.6714759999999
 51
101.7451729999999
  0
ARC
  5
1A5A
330
19F5
100
AcDbEntity
  8
3
100
AcDbCircle
 10
126.693001
 20
231.4128779999999
 30
0.0
 40
1.221159
100
AcDbArc
 50
92.908112
 51
192.3280879999999
  0
ARC
  5
1A5B
330
19F5
100
AcDbEntity
  8
3
100
AcDbCircle
 10
117.8410479999999
 20
236.7884299999999
 30
0.0
 40
7.195094
100
AcDbArc
 50
20.18786599999999
 51
80.73067900000003
  0
ARC
  5
1A5C
330
19F5
100
AcDbEntity
  8
3
100
AcDbCircle
 10
136.4999999999999
 20
240.7714529999999
 30
0.0
 40
11.195436
100
AcDbArc
 50
270.0
 51
0.0
  0
LINE
  5
1A5D
330
19F5
100
AcDbEntity
  8
3
100
AcDbLine
 10
146.3689549999999
 20
232.632464
 30
0.0
 11
144.267961
 21
232.7094069999999
 31
0.0
  0
ARC
  5
1A5E
330
19F5
100
AcDbEntity
  8
3
100
AcDbCircle
 10
146.307
 20
231.4128779999999
 30
0.0
 40
1.221159
100
AcDbArc
 50
347.671912
 51
87.09188799999999
  0
ARC
  5
1A5F
330
19F5
100
AcDbEntity
  8
3
100
AcDbCircle
 10
159.859485
 20
222.666273
 30
0.0
 40
9.127235999999999
100
AcDbArc
 50
25.021368
 51
125.5323669999999
  0
ARC
  5
1A60
330
19F5
100
AcDbEntity
  8
3
100
AcDbCircle
 10
226.63826
 20
115.797894
 30
0.0
 40
9.127235999999999
100
AcDbArc
 50
298.467633
 51
38.97863199999999
  0
ARC
  5
1A61
330
19F5
100
AcDbEntity
  8
2
100
AcDbCircle
 10
336.4311259999999
 20
113.65247
 30
0.0
 40
5.887191999999999
100
AcDbArc
 50
25.41335899999999
 51
154.5866409999999
  0
LINE
  5
1A62
330
19F5
100
AcDbEntity
  8
3
100
AcDbLine
 10
364.0
 20
133.771453
 30
0.0
 11
364.0
 21
112.771453
 31
0.0
  0
LINE
  5
1A63
330
19F5
100
AcDbEntity
  8
3
100
AcDbLine
 10
347.0
 20
109.771453
 30
0.0
 11
347.0
 21
133.771453
 31
0.0
  0
LINE
  5
1A64
330
19F5
100
AcDbEntity
  8
3
100
AcDbLine
 10
324.0
 20
133.771453
 30
0.0
 11
324.0
 21
109.771453
 31
0.0
  0
LINE
  5
1A65
330
19F5
100
AcDbEntity
  8
3
100
AcDbLine
 10
322.0
 20
22.271453
 30
0.0
 11
322.0
 21
133.771453
 31
0.0
  0
LINE
  5
1A66
330
19F5
100
AcDbEntity
  8
1
100
AcDbLine
 10
335.4999999999999
 20
266.7714529999999
 30
0.0
 11
335.4999999999999
 21
3.271452999999999
 31
0.0
  0
ARC
  5
1A67
330
19F5
100
AcDbEntity
  8
3
100
AcDbCircle
 10
335.4999999999999
 20
22.271453
 30
0.0
 40
13.5
100
AcDbArc
 50
180.0
 51
0.0
  0
ARC
  5
1A68
330
19F5
100
AcDbEntity
  8
3
100
AcDbCircle
 10
136.4999999999999
 20
133.771453
 30
0.0
 40
98.0
100
AcDbArc
 50
339.383439
 51
344.6165609999999
  0
LINE
  5
1A69
330
19F5
100
AcDbEntity
  8
3
100
AcDbLine
 10
340.970899
 20
55.48937399999999
 30
0.0
 11
342.798127
 21
104.7904839999999
 31
0.0
  0
LINE
  5
1A6A
330
19F5
100
AcDbEntity
  8
3
100
AcDbLine
 10
330.029102
 20
55.48937399999999
 30
0.0
 11
330.029102
 21
104.849231
 31
0.0
  0
LINE
  5
1A6B
330
19F5
100
AcDbEntity
  8
3
100
AcDbLine
 10
349.0
 20
70.78415799999999
 30
0.0
 11
349.0
 21
22.271453
 31
0.0
  0
ARC
  5
1A6C
330
19F5
100
AcDbEntity
  8
3
100
AcDbCircle
 10
335.4748289999999
 20
53.84843199999999
 30
0.0
 40
5.325313999999999
100
AcDbArc
 50
270.270827
 51
324.7664799999999
  0
LINE
  5
1A6D
330
19F5
100
AcDbEntity
  8
1
100
AcDbLine
 10
326.5
 20
22.271453
 30
0.0
 11
344.5
 21
22.271453
 31
0.0
  0
ARC
  5
1A6E
330
19F5
100
AcDbEntity
  8
3
100
AcDbCircle
 10
335.4999999999999
 20
26.771453
 30
0.0
 40
9.0
100
AcDbArc
 50
7.227238000000001
 51
172.772762
  0
LINE
  5
1A6F
330
19F5
100
AcDbEntity
  8
1
100
AcDbLine
 10
329.0
 20
26.771453
 30
0.0
 11
342.5
 21
26.771453
 31
0.0
  0
ARC
  5
1A70
330
19F5
100
AcDbEntity
  8
3
100
AcDbCircle
 10
317.890454
 20
30.278426
 30
0.0
 40
9.0
100
AcDbArc
 50
297.1689779999999
 51
352.772762
  0
ARC
  5
1A71
330
19F5
100
AcDbEntity
  8
3
100
AcDbCircle
 10
338.27641
 20
54.99925699999999
 30
0.0
 40
8.261858
100
AcDbArc
 50
176.599052
 51
210.740497
  0
ARC
  5
1A72
330
19F5
100
AcDbEntity
  8
3
100
AcDbCircle
 10
335.525172
 20
53.84843199999999
 30
0.0
 40
5.325313999999999
100
AcDbArc
 50
215.23352
 51
269.7291729999999
  0
ARC
  5
1A73
330
19F5
100
AcDbEntity
  8
3
100
AcDbCircle
 10
353.109547
 20
30.278426
 30
0.0
 40
9.0
100
AcDbArc
 50
187.227238
 51
242.831022
  0
ARC
  5
1A74
330
19F5
100
AcDbEntity
  8
3
100
AcDbCircle
 10
332.723591
 20
54.99925699999999
 30
0.0
 40
8.261858
100
AcDbArc
 50
329.259503
 51
3.400948
  0
ARC
  5
1A75
330
19F5
100
AcDbEntity
  8
2
100
AcDbCircle
 10
336.4311259999999
 20
110.193959
 30
0.0
 40
5.937516
100
AcDbArc
 50
206.416996
 51
333.583004
  0
ARC
  5
1A76
330
19F5
100
AcDbEntity
  8
3
100
AcDbCircle
 10
336.5
 20
123.5963919999999
 30
0.0
 40
19.832513
100
AcDbArc
 50
238.0328019999999
 51
301.967198
  0
LINE
  5
1A77
330
19F5
100
AcDbEntity
  8
3
100
AcDbLine
 10
326.0
 20
106.771453
 30
0.0
 11
324.0
 21
109.771453
 31
0.0
  0
LINE
  5
1A78
330
19F5
100
AcDbEntity
  8
2
100
AcDbLine
 10
330.029102
 20
104.849231
 30
0.0
 11
329.8011999999999
 21
111.2221879999999
 31
0.0
  0
ARC
  5
1A79
330
19F5
100
AcDbEntity
  8
2
100
AcDbCircle
 10
338.7345629999999
 20
111.8656429999999
 30
0.0
 40
8.756908000000001
100
AcDbArc
 50
150.491111
 51
209.5088889999999
  0
LINE
  5
1A7A
330
19F5
100
AcDbEntity
  8
3
100
AcDbLine
 10
349.0
 20
70.78415799999999
 30
0.0
 11
349.0
 21
109.771453
 31
0.0
  0
LINE
  5
1A7B
330
19F5
100
AcDbEntity
  8
3
100
AcDbLine
 10
361.0
 20
109.771453
 30
0.0
 11
347.0
 21
109.771453
 31
0.0
  0
LINE
  5
1A7C
330
19F5
100
AcDbEntity
  8
2
100
AcDbLine
 10
342.798127
 20
104.7904839999999
 30
0.0
 11
343.0417209999999
 21
111.5037649999999
 31
0.0
  0
ARC
  5
1A7D
330
19F5
100
AcDbEntity
  8
2
100
AcDbCircle
 10
334.830758
 20
111.8656429999999
 30
0.0
 40
8.152400999999999
100
AcDbArc
 50
328.056536
 51
31.943464
  0
LINE
  5
1A7E
330
19F5
100
AcDbEntity
  8
3
100
AcDbLine
 10
347.0
 20
109.771453
 30
0.0
 11
347.0
 21
106.771453
 31
0.0
  0
ARC
  5
1A7F
330
19F5
100
AcDbEntity
  8
3
100
AcDbCircle
 10
361.0
 20
112.771453
 30
0.0
 40
3.0
100
AcDbArc
 50
270.0
 51
0.0
  0
LINE
  5
1A80
330
19F5
100
AcDbEntity
  8
3
100
AcDbLine
 10
341.0758309999999
 20
228.29041
 30
0.0
 11
343.0
 21
163.001135
 31
0.0
  0
LINE
  5
1A81
330
19F5
100
AcDbEntity
  8
3
100
AcDbLine
 10
329.9200799999999
 20
228.001445
 30
0.0
 11
330.0
 21
163.001135
 31
0.0
  0
LINE
  5
1A82
330
19F5
100
AcDbEntity
  8
3
100
AcDbLine
 10
349.0
 20
209.8681859999999
 30
0.0
 11
349.0
 21
245.2714529999999
 31
0.0
  0
LINE
  5
1A83
330
19F5
100
AcDbEntity
  8
3
100
AcDbLine
 10
322.0
 20
245.2714529999999
 30
0.0
 11
322.0
 21
133.771453
 31
0.0
  0
ARC
  5
1A84
330
19F5
100
AcDbEntity
  8
3
100
AcDbCircle
 10
185.378719
 20
149.653111
 30
0.0
 40
48.48197
100
AcDbArc
 50
6.254826999999999
 51
29.745173
  0
ARC
  5
1A85
330
19F5
100
AcDbEntity
  8
3
100
AcDbCircle
 10
228.2624759999999
 20
139.025273
 30
0.0
 40
9.127235999999999
100
AcDbArc
 50
313.021368
 51
53.532367
  0
ARC
  5
1A86
330
19F5
100
AcDbEntity
  8
3
100
AcDbCircle
 10
136.4999999999999
 20
133.771453
 30
0.0
 40
98.0
100
AcDbArc
 50
352.8297049999999
 51
359.170295
  0
ARC
  5
1A87
330
19F5
100
AcDbEntity
  8
3
100
AcDbCircle
 10
136.4999999999999
 20
133.771453
 30
0.0
 40
98.0
100
AcDbArc
 50
7.383439
 51
11.55526
  0
ARC
  5
1A88
330
19F5
100
AcDbEntity
  8
3
100
AcDbCircle
 10
232.393044
 20
154.6173019999999
 30
0.0
 40
1.221159
100
AcDbArc
 50
275.671912
 51
15.091888
  0
LINE
  5
1A89
330
19F5
100
AcDbEntity
  8
3
100
AcDbLine
 10
349.0
 20
209.8681859999999
 30
0.0
 11
349.0
 21
157.271453
 31
0.0
  0
ARC
  5
1A8A
330
19F5
100
AcDbEntity
  8
3
100
AcDbCircle
 10
336.5
 20
143.9465139999999
 30
0.0
 40
19.832513
100
AcDbArc
 50
58.032802
 51
121.967198
  0
LINE
  5
1A8B
330
19F5
100
AcDbEntity
  8
1
100
AcDbLine
 10
315.5
 20
133.771453
 30
0.0
 11
370.3310339999999
 21
133.771453
 31
0.0
  0
ARC
  5
1A8C
330
19F5
100
AcDbEntity
  8
2
100
AcDbCircle
 10
336.5
 20
149.406467
 30
0.0
 40
5.083616999999999
100
AcDbArc
 50
27.724279
 51
152.2757209999999
  0
ARC
  5
1A8D
330
19F5
100
AcDbEntity
  8
2
100
AcDbCircle
 10
336.5
 20
134.6321189999999
 30
0.0
 40
4.869505
100
AcDbArc
 50
202.464186
 51
337.535814
  0
ARC
  5
1A8E
330
19F5
100
AcDbEntity
  8
2
100
AcDbCircle
 10
353.5
 20
142.271453
 30
0.0
 40
23.505319
100
AcDbArc
 50
156.16126
 51
203.8387399999999
  0
LINE
  5
1A8F
330
19F5
100
AcDbEntity
  8
3
100
AcDbLine
 10
324.0
 20
133.771453
 30
0.0
 11
324.0
 21
157.771453
 31
0.0
  0
LINE
  5
1A90
330
19F5
100
AcDbEntity
  8
3
100
AcDbLine
 10
326.0
 20
160.771453
 30
0.0
 11
324.0
 21
157.771453
 31
0.0
  0
LINE
  5
1A91
330
19F5
100
AcDbEntity
  8
3
100
AcDbLine
 10
330.0
 20
163.001135
 30
0.0
 11
330.0
 21
162.3062139999999
 31
0.0
  0
ARC
  5
1A92
330
19F5
100
AcDbEntity
  8
2
100
AcDbCircle
 10
319.5
 20
142.271453
 30
0.0
 40
23.505319
100
AcDbArc
 50
336.16126
 51
23.83874
  0
LINE
  5
1A93
330
19F5
100
AcDbEntity
  8
3
100
AcDbLine
 10
347.0
 20
157.771453
 30
0.0
 11
347.0
 21
133.771453
 31
0.0
  0
LINE
  5
1A94
330
19F5
100
AcDbEntity
  8
3
100
AcDbLine
 10
364.0
 20
133.771453
 30
0.0
 11
364.0
 21
154.771453
 31
0.0
  0
LINE
  5
1A95
330
19F5
100
AcDbEntity
  8
3
100
AcDbLine
 10
361.0
 20
157.771453
 30
0.0
 11
347.0
 21
157.771453
 31
0.0
  0
LINE
  5
1A96
330
19F5
100
AcDbEntity
  8
3
100
AcDbLine
 10
347.0
 20
157.771453
 30
0.0
 11
347.0
 21
160.771453
 31
0.0
  0
LINE
  5
1A97
330
19F5
100
AcDbEntity
  8
3
100
AcDbLine
 10
347.0
 20
157.771453
 30
0.0
 11
347.0
 21
160.771453
 31
0.0
  0
ARC
  5
1A98
330
19F5
100
AcDbEntity
  8
3
100
AcDbCircle
 10
361.0
 20
154.771453
 30
0.0
 40
3.0
100
AcDbArc
 50
0.0
 51
90.0
  0
LINE
  5
1A99
330
19F5
100
AcDbEntity
  8
1
100
AcDbLine
 10
328.0
 20
245.2714529999999
 30
0.0
 11
342.0
 21
245.2714529999999
 31
0.0
  0
ARC
  5
1A9A
330
19F5
100
AcDbEntity
  8
3
100
AcDbCircle
 10
335.4999999999999
 20
245.2714529999999
 30
0.0
 40
13.5
100
AcDbArc
 50
0.0
 51
180.0
  0
LINE
  5
1A9B
330
19F5
100
AcDbEntity
  8
3
100
AcDbLine
 10
322.0
 20
228.7714529999999
 30
0.0
 11
329.9200799999999
 21
228.001445
 31
0.0
  0
LINE
  5
1A9C
330
19F5
100
AcDbEntity
  8
3
100
AcDbLine
 10
345.0
 20
229.271453
 30
0.0
 11
345.0
 21
242.2714529999999
 31
0.0
  0
LINE
  5
1A9D
330
19F5
100
AcDbEntity
  8
3
100
AcDbLine
 10
345.0
 20
229.271453
 30
0.0
 11
341.0758309999999
 21
228.29041
 31
0.0
  0
ARC
  5
1A9E
330
19F5
100
AcDbEntity
  8
3
100
AcDbCircle
 10
364.25
 20
220.771453
 30
0.0
 40
28.85849099999999
100
AcDbArc
 50
121.900157
 51
131.8396379999999
  0
ENDBLK
  5
1AA0
330
19F5
100
AcDbEntity
  8
0
100
AcDbBlockEnd
  0
BLOCK
  5
1B9B
330
1B90
100
AcDbEntity
  8
0
100
AcDbBlockBegin
  2
A$C598D1D97
 70
     0
 10
0.0
 20
0.0
 30
0.0
  3
A$C598D1D97
  1

  0
ARC
  5
1B91
330
1B90
100
AcDbEntity
  8
3
100
AcDbCircle
 10
31.91074
 20
44.98649799999999
 30
0.0
 40
44.98652299999999
100
AcDbArc
 50
230.009297
 51
294.406546
  0
LINE
  5
1B92
330
1B90
100
AcDbEntity
  8
1
100
AcDbLine
 10
73.88955300000001
 20
12.52013
 30
0.0
 11
105.867076
 21
12.52013
 31
0.0
  0
LINE
  5
1B93
330
1B90
100
AcDbEntity
  8
1
100
AcDbLine
 10
73.88955300000001
 20
12.52013
 30
0.0
 11
-0.000001
 21
12.52013
 31
0.0
  0
ARC
  5
1B94
330
1B90
100
AcDbEntity
  8
3
100
AcDbCircle
 10
31.91074
 20
-19.946238
 30
0.0
 40
44.98652299999999
100
AcDbArc
 50
65.59345400000001
 51
129.9907029999999
  0
ARC
  5
1B95
330
1B90
100
AcDbEntity
  8
3
100
AcDbCircle
 10
4.499552999999999
 20
12.52013
 30
0.0
 40
2.5
100
AcDbArc
 50
126.869898
 51
233.130102
  0
ARC
  5
1B96
330
1B90
100
AcDbEntity
  8
3
100
AcDbCircle
 10
62.00123000000001
 20
53.092277
 30
0.0
 40
34.072148
100
AcDbArc
 50
250.271208
 51
287.0643529999999
  0
ARC
  5
1B97
330
1B90
100
AcDbEntity
  8
3
100
AcDbCircle
 10
62.00123000000001
 20
-28.052018
 30
0.0
 40
34.072148
100
AcDbArc
 50
72.93564700000001
 51
109.728792
  0
LINE
  5
1B98
330
1B90
100
AcDbEntity
  8
3
100
AcDbLine
 10
71.999553
 20
4.520129999999999
 30
0.0
 11
71.999553
 21
20.52013
 31
0.0
  0
LINE
  5
1B99
330
1B90
100
AcDbEntity
  8
3
100
AcDbLine
 10
79.999553
 20
4.520129999999999
 30
0.0
 11
71.999553
 21
4.520129999999999
 31
0.0
  0
LINE
  5
1B9A
330
1B90
100
AcDbEntity
  8
3
100
AcDbLine
 10
71.999553
 20
20.52013
 30
0.0
 11
80.54510099999999
 21
20.52013
 31
0.0
  0
ENDBLK
  5
1B9C
330
1B90
100
AcDbEntity
  8
0
100
AcDbBlockEnd
  0
BLOCK
  5
1CFE
330
1CFD
100
AcDbEntity
  8
0
100
AcDbBlockBegin
  2
*U29
 70
     1
 10
0.0
 20
0.0
 30
0.0
  3
*U29
  1

  0
ENDBLK
  5
1CFF
330
1CFD
100
AcDbEntity
  8
0
100
AcDbBlockEnd
  0
ENDSEC
  0
SECTION
  2
ENTITIES
  0
INSERT
  5
F8
330
3DD
100
AcDbEntity
  8
ASHADE
 62
     1
100
AcDbBlockReference
  2
AVE_RENDER
 10
0.0
 20
0.0
 30
0.0
1001
AVE_RENDER
1002
{
1070
     2
1000
Pref
1070
    30
1070
    20
1070
     0
1070
     0
1000

1070
    10
1070
     0
1070
    30
1040
1.0
1070
     1
1040
0.3
1040
0.7
1040
0.0
1040
10.0
1010
-1.0
1020
-1.0
1030
-1.0
1040
0.3
1070
    49
1002
}
  0
INSERT
  5
F9
330
3DD
100
AcDbEntity
  8
ASHADE
 62
     3
100
AcDbBlockReference
  2
AVE_RENDER
 10
0.0
 20
0.0
 30
0.0
1001
AVE_RENDER
1002
{
1070
     0
1000
Full Opt
1070
     0
1070
     1
1070
     1
1070
     1
1070
     0
1070
     0
1070
     0
1070
     1
1070
     1
1040
0.0001
1040
0.0001
1002
}
  0
INSERT
  5
FA
330
3DD
100
AcDbEntity
  8
ASHADE
 62
     4
100
AcDbBlockReference
  2
AVE_RENDER
 10
0.0
 20
0.0
 30
0.0
1001
AVE_RENDER
1002
{
1070
     0
1000
Quick Opt
1070
     0
1070
     1
1070
     1
1070
     1
1070
     0
1070
     0
1070
     1
1002
}
  0
HATCH
  5
EAE
330
3DD
100
AcDbEntity
  8
0
  6
Continuous
100
AcDbHatch
 10
0.0
 20
0.0
 30
0.0
210
0.0
220
0.0
230
1.0
  2
ANSI31
 70
     0
 71
     0
 91
        7
 92
        7
 72
     1
 73
     1
 93
       12
 10
262.9999999999999
 20
165.0
 42
0.0
 10
241.5
 20
165.0
 42
0.0
 10
241.5
 20
163.7746552230706
 42
-0.2721596082980698
 10
244.6483072701649
 20
161.925319631941
 42
-0.2498418479505638
 10
244.6996602578421
 20
149.4072238118318
 42
-0.1759538270673097
 10
242.9022995188798
 20
147.7399432486011
 42
-0.0620936201109865
 10
241.5
 20
147.0422796021931
 42
0.0
 10
241.5
 20
144.0262475786329
 42
0.1293808649254978
 10
251.0
 20
145.9999999999999
 42
0.0
 10
251.0
 20
147.5
 42
0.0
 10
261.5
 20
147.5
 42
0.4142135623730951
 10
262.9999999999999
 20
149.0
 42
0.0
 97
        0
 92
        7
 72
     1
 73
     1
 93
        6
 10
241.5
 20
165.0
 42
0.0
 10
233.9999999999999
 20
165.0
 42
0.0
 10
233.9999999999999
 20
157.270011778561
 42
0.0
 10
236.6619141878134
 20
160.151125540387
 42
0.050659441681317
 10
238.5765144498573
 20
162.2754545881571
 42
-0.241277940474536
 10
241.5
 20
163.7746552230706
 42
0.0
 97
        0
 92
        7
 72
     1
 73
     1
 93
       14
 10
234.9999999999999
 20
145.5374063839875
 42
0.0324315232587184
 10
237.3292764512208
 20
144.7146793056476
 42
0.0
 10
239.419485842388
 20
146.1124462100204
 42
-0.0752527437237129
 10
241.0740288351335
 20
146.9094008113961
 42
0.0176274973545809
 10
241.5
 20
147.0422796021931
 42
0.0
 10
241.5
 20
147.4571250920255
 42
-0.2754795702407734
 10
238.3436837383936
 20
149.3453779418195
 42
0.0009565591874279
 10
238.367537992075
 20
149.3018123963288
 42
0.271762934324019
 10
241.5
 20
147.4571250920255
 42
0.0
 10
241.5
 20
163.7746552230706
 42
0.2375528082741129
 10
238.6064440578731
 20
162.3164614724271
 42
-0.0515587960841011
 10
236.6619141878135
 20
160.1511255403871
 42
0.0
 10
233.9999999999999
 20
157.270011778561
 42
0.0
 10
234.0
 20
147.9999999999997
 42
0.0
 97
        0
 92
        7
 72
     1
 73
     1
 93
        4
 10
244.6996602578428
 20
149.4072238118328
 42
0.2498418479505401
 10
244.6483072701649
 20
161.925319631941
 42
0.2721596082980711
 10
241.5
 20
163.7746552230706
 42
0.0
 10
241.5
 20
147.4571250920255
 42
0.2815326192276521
 97
        0
 92
        7
 72
     1
 73
     1
 93
        4
 10
241.9999999999999
 20
102.4999999999999
 42
0.4142135623730925
 10
250.0
 20
110.4999999999999
 42
-0.231401098189398
 10
247.9791303715506
 20
112.9999999999999
 42
0.3899832787427757
 10
241.9999999999999
 20
118.5
 42
0.0
 97
        0
 92
        7
 72
     1
 73
     1
 93
        4
 10
242.0
 20
118.5
 42
0.389983278742777
 10
236.0208696284493
 20
113.0
 42
-0.2249662648716755
 10
234.0806660971535
 20
110.5388092186416
 42
0.0
 10
242.0
 20
110.4999999999999
 42
0.0
 97
        0
 92
        7
 72
     1
 73
     1
 93
        4
 10
234.0806660971535
 20
110.5388092186416
 42
-0.0061164277429119
 10
233.9999999999999
 20
110.4999999999999
 42
0.4142135623730951
 10
241.9999999999999
 20
102.4999999999999
 42
0.0
 10
242.0
 20
110.4999999999999
 42
0.0
 97
        0
 75
     0
 76
     1
 52
0.0
 41
12.0
 77
     0
 78
     1
 53
45.0
 43
0.0
 44
0.0
 45
-1.06066017177982
 46
1.06066017177982
 79
     0
 47
0.1604
 98
        7
 10
274.534263
 20
154.621809
 10
255.278408
 20
163.1230219999999
 10
254.797012
 20
153.980208
 10
263.141216
 20
157.1882129999999
 10
243.724896
 20
115.323752
 10
239.71326
 20
115.323752
 10
238.910933
 20
107.624541
  0
ARC
  5
1AA2
330
3DD
100
AcDbEntity
  8
3
100
AcDbCircle
 10
88.314511
 20
205.4411749999999
 30
0.0
 40
111.4999999999999
100
AcDbArc
 50
99.02994599999999
 51
270.0
  0
ARC
  5
1AA7
330
3DD
100
AcDbEntity
  8
3
100
AcDbCircle
 10
88.314511
 20
205.4411749999999
 30
0.0
 40
125.0
100
AcDbArc
 50
90.0
 51
270.0
  0
LINE
  5
1AA8
330
3DD
100
AcDbEntity
  8
1
100
AcDbLine
 10
-48.185489
 20
205.4411749999999
 30
0.0
 11
88.314511
 21
205.4411749999999
 31
0.0
  0
ARC
  5
1AA9
330
3DD
100
AcDbEntity
  8
3
100
AcDbCircle
 10
88.419065
 20
205.60277
 30
0.0
 40
24.0
100
AcDbArc
 50
90.24960599999999
 51
269.7503939999999
  0
ARC
  5
1AAA
330
3DD
100
AcDbEntity
  8
3
100
AcDbCircle
 10
88.314511
 20
205.698127
 30
0.0
 40
27.0
100
AcDbArc
 50
90.0
 51
270.0
  0
LINE
  5
1AAE
330
3DD
100
AcDbEntity
  8
1
100
AcDbLine
 10
88.314511
 20
205.4411749999999
 30
0.0
 11
88.314511
 21
71.66972099999999
 31
0.0
  0
LINE
  5
1AB0
330
3DD
100
AcDbEntity
  8
1
100
AcDbLine
 10
88.314511
 20
205.4411749999999
 30
0.0
 11
9.298341999999999
 21
96.68474899999999
 31
0.0
  0
ARC
  5
1AB1
330
3DD
100
AcDbEntity
  8
3
100
AcDbCircle
 10
-1.823749
 20
187.4676159999999
 30
0.0
 40
9.127235999999999
100
AcDbArc
 50
141.021368
 51
241.532367
  0
ARC
  5
1AB4
330
3DD
100
AcDbEntity
  8
3
100
AcDbCircle
 10
90.27578199999998
 20
208.140633
 30
0.0
 40
31.54215499999999
100
AcDbArc
 50
213.680529
 51
254.3194709999999
  0
LINE
  5
1AB5
330
3DD
100
AcDbEntity
  8
3
100
AcDbLine
 10
61.905333
 20
191.2089809999999
 30
0.0
 11
22.17638699999999
 21
133.124174
 31
0.0
  0
ARC
  5
1AB6
330
3DD
100
AcDbEntity
  8
3
100
AcDbCircle
 10
58.105801
 20
163.862453
 30
0.0
 40
48.48197
100
AcDbArc
 50
222.254827
 51
245.7451729999999
  0
ARC
  5
1AB7
330
3DD
100
AcDbEntity
  8
3
100
AcDbCircle
 10
17.165226
 20
147.2541149999999
 30
0.0
 40
9.127235999999999
100
AcDbArc
 50
169.021368
 51
269.5323669999999
  0
ARC
  5
1AB8
330
3DD
100
AcDbEntity
  8
3
100
AcDbCircle
 10
88.314511
 20
205.4411749999999
 30
0.0
 40
98.0
100
AcDbArc
 50
223.383439
 51
227.55526
  0
ARC
  5
1AB9
330
3DD
100
AcDbEntity
  8
3
100
AcDbCircle
 10
22.988292
 20
132.212012
 30
0.0
 40
1.221159
100
AcDbArc
 50
131.671912
 51
231.091888
  0
ARC
  5
1ABA
330
3DD
100
AcDbEntity
  8
3
100
AcDbCircle
 10
4.826533999999999
 20
167.0001499999999
 30
0.0
 40
9.127235999999999
100
AcDbArc
 50
154.467633
 51
254.9786319999999
  0
ARC
  5
1ABB
330
3DD
100
AcDbEntity
  8
3
100
AcDbCircle
 10
88.314511
 20
205.4411749999999
 30
0.0
 40
98.0
100
AcDbArc
 50
208.829705
 51
215.170295
  0
ARC
  5
1ABC
330
3DD
100
AcDbEntity
  8
3
100
AcDbCircle
 10
88.314511
 20
205.4411749999999
 30
0.0
 40
98.0
100
AcDbArc
 50
195.3834389999999
 51
200.616561
  0
LINE
  5
1ABF
330
3DD
100
AcDbEntity
  8
3
100
AcDbLine
 10
82.939775
 20
175.9265639999999
 30
0.0
 11
39.974761
 21
120.192899
 31
0.0
  0
ARC
  5
1AC0
330
3DD
100
AcDbEntity
  8
3
100
AcDbCircle
 10
88.314511
 20
205.4411749999999
 30
0.0
 40
98.0
100
AcDbArc
 50
252.8297049999999
 51
259.170295
  0
ARC
  5
1AC1
330
3DD
100
AcDbEntity
  8
3
100
AcDbCircle
 10
54.961666
 20
119.7933939999999
 30
0.0
 40
9.127235999999999
100
AcDbArc
 50
198.467633
 51
298.978632
  0
ARC
  5
1AC2
330
3DD
100
AcDbEntity
  8
3
100
AcDbCircle
 10
88.314511
 20
205.4411749999999
 30
0.0
 40
98.0
100
AcDbArc
 50
240.44474
 51
244.616561
  0
ARC
  5
1AC3
330
3DD
100
AcDbEntity
  8
3
100
AcDbCircle
 10
38.85635
 20
120.6831929999999
 30
0.0
 40
1.221159
100
AcDbArc
 50
236.908112
 51
336.328088
  0
ARC
  5
1AC4
330
3DD
100
AcDbEntity
  8
3
100
AcDbCircle
 10
88.314511
 20
205.4411749999999
 30
0.0
 40
98.0
100
AcDbArc
 50
267.383439
 51
270.0
  0
ARC
  5
1AC5
330
3DD
100
AcDbEntity
  8
3
100
AcDbCircle
 10
77.554127
 20
114.160461
 30
0.0
 40
9.127235999999999
100
AcDbArc
 50
213.021368
 51
313.5323669999999
  0
ARC
  5
1AC6
330
3DD
100
AcDbEntity
  8
3
100
AcDbCircle
 10
88.314511
 20
205.4411749999999
 30
0.0
 40
30.0
100
AcDbArc
 50
259.679289
 51
270.0
  0
ARC
  5
1AC7
330
3DD
100
AcDbEntity
  8
3
100
AcDbCircle
 10
80.89375099999999
 20
175.914443
 30
0.0
 40
2.046059
100
AcDbArc
 50
0.339427
 51
65.23685799999999
  0
LINE
  5
1AD3
330
3DD
100
AcDbEntity
  8
1
100
AcDbLine
 10
88.314511
 20
205.4411749999999
 30
0.0
 11
-39.536335
 21
246.982433
 31
0.0
  0
ARC
  5
1AD4
330
3DD
100
AcDbEntity
  8
3
100
AcDbCircle
 10
88.314511
 20
205.4411749999999
 30
0.0
 40
98.0
100
AcDbArc
 50
123.3834389999999
 51
128.616561
  0
LINE
  5
1AD5
330
3DD
100
AcDbEntity
  8
3
100
AcDbLine
 10
66.61800600000001
 20
226.1598049999999
 30
0.0
 11
-0.900848
 21
245.9950859999999
 31
0.0
  0
LINE
  5
1AD6
330
3DD
100
AcDbEntity
  8
3
100
AcDbLine
 10
58.583564
 20
201.432336
 30
0.0
 11
-7.699221999999999
 21
225.071843
 31
0.0
  0
ARC
  5
1AD7
330
3DD
100
AcDbEntity
  8
3
100
AcDbCircle
 10
39.435792
 20
221.322833
 30
0.0
 40
48.48197
100
AcDbArc
 50
150.254827
 51
173.745173
  0
ARC
  5
1AD8
330
3DD
100
AcDbEntity
  8
3
100
AcDbCircle
 10
-3.447964999999999
 20
210.694995
 30
0.0
 40
9.127235999999999
100
AcDbArc
 50
126.467633
 51
226.9786319999999
  0
ARC
  5
1AD9
330
3DD
100
AcDbEntity
  8
3
100
AcDbCircle
 10
88.314511
 20
205.4411749999999
 30
0.0
 40
98.0
100
AcDbArc
 50
180.829705
 51
187.1702949999999
  0
ARC
  5
1ADA
330
3DD
100
AcDbEntity
  8
3
100
AcDbCircle
 10
88.314511
 20
205.4411749999999
 30
0.0
 40
98.0
100
AcDbArc
 50
168.4447399999999
 51
172.616561
  0
ARC
  5
1ADB
330
3DD
100
AcDbEntity
  8
3
100
AcDbCircle
 10
-7.578532
 20
226.287023
 30
0.0
 40
1.221159
100
AcDbArc
 50
164.908112
 51
264.3280879999999
  0
ARC
  5
1ADC
330
3DD
100
AcDbEntity
  8
3
100
AcDbCircle
 10
88.314511
 20
205.4411749999999
 30
0.0
 40
98.0
100
AcDbArc
 50
136.829705
 51
143.170295
  0
ARC
  5
1ADD
330
3DD
100
AcDbEntity
  8
3
100
AcDbCircle
 10
10.98899
 20
255.127375
 30
0.0
 40
9.127235999999999
100
AcDbArc
 50
97.02136800000001
 51
197.532367
  0
ARC
  5
1ADE
330
3DD
100
AcDbEntity
  8
3
100
AcDbCircle
 10
88.314511
 20
205.4411749999999
 30
0.0
 40
98.0
100
AcDbArc
 50
151.3834389999999
 51
155.55526
  0
ARC
  5
1ADF
330
3DD
100
AcDbEntity
  8
3
100
AcDbCircle
 10
-1.517472999999999
 20
244.941045
 30
0.0
 40
1.221159
100
AcDbArc
 50
59.67191200000001
 51
159.0918879999999
  0
ARC
  5
1AE0
330
3DD
100
AcDbEntity
  8
3
100
AcDbCircle
 10
25.95572
 20
272.9640279999999
 30
0.0
 40
9.127235999999999
100
AcDbArc
 50
82.46763299999999
 51
182.978632
  0
LINE
  5
1AE1
330
3DD
100
AcDbEntity
  8
1
100
AcDbLine
 10
88.314511
 20
205.4411749999999
 30
0.0
 11
88.314511
 21
340.2418579999999
 31
0.0
  0
ARC
  5
1AE2
330
3DD
100
AcDbEntity
  8
3
100
AcDbCircle
 10
88.314511
 20
205.4411749999999
 30
0.0
 40
98.0
100
AcDbArc
 50
108.8297049999999
 51
115.170295
  0
ARC
  5
1AE3
330
3DD
100
AcDbEntity
  8
3
100
AcDbCircle
 10
43.36638699999999
 20
285.613618
 30
0.0
 40
9.127235999999999
100
AcDbArc
 50
69.021368
 51
169.532367
  0
LINE
  5
1AE6
330
3DD
100
AcDbEntity
  8
3
100
AcDbLine
 10
75.31451099999999
 20
232.4781859999999
 30
0.0
 11
77.314511
 21
302.8218709999999
 31
0.0
  0
ARC
  5
1AE9
330
3DD
100
AcDbEntity
  8
3
100
AcDbCircle
 10
91.487914
 20
204.410073
 30
0.0
 40
31.54215499999999
100
AcDbArc
 50
141.680529
 51
182.3194709999999
  0
ARC
  5
1AEA
330
3DD
100
AcDbEntity
  8
3
100
AcDbCircle
 10
57.93978
 20
203.3744739999999
 30
0.0
 40
2.046059
100
AcDbArc
 50
288.339427
 51
353.2368579999999
  0
ARC
  5
1AEB
330
3DD
100
AcDbEntity
  8
3
100
AcDbCircle
 10
88.314511
 20
205.4411749999999
 30
0.0
 40
30.0
100
AcDbArc
 50
187.6792889999999
 51
208.320711
  0
ARC
  5
1AEC
330
3DD
100
AcDbEntity
  8
3
100
AcDbCircle
 10
62.526061
 20
189.259351
 30
0.0
 40
2.046059
100
AcDbArc
 50
42.76314199999999
 51
107.660573
  0
ARC
  5
1AED
330
3DD
100
AcDbEntity
  8
3
100
AcDbCircle
 10
88.314511
 20
202.104461
 30
0.0
 40
31.54215499999999
100
AcDbArc
 50
90.0
 51
110.3194709999999
  0
ARC
  5
1AEE
330
3DD
100
AcDbEntity
  8
3
100
AcDbCircle
 10
88.314511
 20
205.4411749999999
 30
0.0
 40
30.0
100
AcDbArc
 50
115.6792889999999
 51
136.320711
  0
ARC
  5
1AEF
330
3DD
100
AcDbEntity
  8
3
100
AcDbCircle
 10
64.955613
 20
224.966989
 30
0.0
 40
2.046059
100
AcDbArc
 50
330.763142
 51
35.660573
  0
ARC
  5
1AF0
330
3DD
100
AcDbEntity
  8
3
100
AcDbCircle
 10
76.962654
 20
233.6906149999999
 30
0.0
 40
2.046059
100
AcDbArc
 50
216.3394269999999
 51
281.2368579999999
  0
LINE
  5
1B00
330
3DD
100
AcDbEntity
  8
1
100
AcDbLine
 10
88.314511
 20
312.441175
 30
0.0
 11
64.814511
 21
312.441175
 31
0.0
  0
ARC
  5
1B01
330
3DD
100
AcDbEntity
  8
3
100
AcDbCircle
 10
64.955026
 20
294.335995
 30
0.0
 40
9.127235999999999
100
AcDbArc
 50
54.467633
 51
154.978632
  0
ARC
  5
1B04
330
3DD
100
AcDbEntity
  8
3
100
AcDbCircle
 10
88.314511
 20
205.4411749999999
 30
0.0
 40
98.0
100
AcDbArc
 50
96.44474
 51
100.616561
  0
ARC
  5
1B05
330
3DD
100
AcDbEntity
  8
3
100
AcDbCircle
 10
88.314511
 20
256.8353009999999
 30
0.0
 40
48.48197
100
AcDbArc
 50
101.35296
 51
101.7451729999999
  0
ARC
  5
1B06
330
3DD
100
AcDbEntity
  8
3
100
AcDbCircle
 10
78.507511
 20
303.0826
 30
0.0
 40
1.221159
100
AcDbArc
 50
92.908112
 51
192.3280879999999
  0
ARC
  5
1B07
330
3DD
100
AcDbEntity
  8
3
100
AcDbCircle
 10
69.655558
 20
308.4581519999999
 30
0.0
 40
7.195094
100
AcDbArc
 50
31.086062
 51
80.73067900000003
  0
ARC
  5
1B0D
330
3DD
100
AcDbEntity
  8
2
100
AcDbCircle
 10
337.245637
 20
185.322192
 30
0.0
 40
5.887191999999999
100
AcDbArc
 50
25.41335899999999
 51
154.5866409999999
  0
LINE
  5
1B0E
330
3DD
100
AcDbEntity
  8
3
100
AcDbLine
 10
364.8145109999999
 20
205.4411749999999
 30
0.0
 11
364.8145109999999
 21
184.4411749999999
 31
0.0
  0
LINE
  5
1B0F
330
3DD
100
AcDbEntity
  8
3
100
AcDbLine
 10
349.8145109999999
 20
181.4411749999999
 30
0.0
 11
349.8145109999999
 21
205.4411749999999
 31
0.0
  0
LINE
  5
1B10
330
3DD
100
AcDbEntity
  8
3
100
AcDbLine
 10
324.8145109999999
 20
205.4411749999999
 30
0.0
 11
324.8145109999999
 21
181.4411749999999
 31
0.0
  0
LINE
  5
1B11
330
3DD
100
AcDbEntity
  8
3
100
AcDbLine
 10
322.8145109999999
 20
93.941175
 30
0.0
 11
322.8145109999999
 21
205.4411749999999
 31
0.0
  0
LINE
  5
1B12
330
3DD
100
AcDbEntity
  8
1
100
AcDbLine
 10
336.314511
 20
338.4411749999999
 30
0.0
 11
336.314511
 21
74.941175
 31
0.0
  0
ARC
  5
1B13
330
3DD
100
AcDbEntity
  8
3
100
AcDbCircle
 10
336.314511
 20
93.941175
 30
0.0
 40
13.5
100
AcDbArc
 50
180.0
 51
0.0
  0
LINE
  5
1B15
330
3DD
100
AcDbEntity
  8
3
100
AcDbLine
 10
341.7854089999999
 20
127.1590959999999
 30
0.0
 11
343.612637
 21
176.460206
 31
0.0
  0
LINE
  5
1B16
330
3DD
100
AcDbEntity
  8
3
100
AcDbLine
 10
330.843612
 20
127.1590959999999
 30
0.0
 11
330.843612
 21
176.518953
 31
0.0
  0
LINE
  5
1B17
330
3DD
100
AcDbEntity
  8
3
100
AcDbLine
 10
349.8145109999999
 20
142.45388
 30
0.0
 11
349.8145109999999
 21
93.941175
 31
0.0
  0
ARC
  5
1B18
330
3DD
100
AcDbEntity
  8
3
100
AcDbCircle
 10
336.289339
 20
125.5181529999999
 30
0.0
 40
5.325313999999999
100
AcDbArc
 50
270.270827
 51
324.7664799999999
  0
LINE
  5
1B19
330
3DD
100
AcDbEntity
  8
1
100
AcDbLine
 10
327.3145109999999
 20
93.941175
 30
0.0
 11
345.3145109999999
 21
93.941175
 31
0.0
  0
ARC
  5
1B1A
330
3DD
100
AcDbEntity
  8
3
100
AcDbCircle
 10
336.314511
 20
98.44117500000001
 30
0.0
 40
9.0
100
AcDbArc
 50
7.227238000000001
 51
172.772762
  0
LINE
  5
1B1B
330
3DD
100
AcDbEntity
  8
1
100
AcDbLine
 10
329.814511
 20
98.44117500000001
 30
0.0
 11
343.3145109999999
 21
98.44117500000001
 31
0.0
  0
ARC
  5
1B1C
330
3DD
100
AcDbEntity
  8
3
100
AcDbCircle
 10
318.704964
 20
101.948148
 30
0.0
 40
9.0
100
AcDbArc
 50
297.1689779999999
 51
352.772762
  0
ARC
  5
1B1D
330
3DD
100
AcDbEntity
  8
3
100
AcDbCircle
 10
339.09092
 20
126.668978
 30
0.0
 40
8.261858
100
AcDbArc
 50
176.599052
 51
210.740497
  0
ARC
  5
1B1E
330
3DD
100
AcDbEntity
  8
3
100
AcDbCircle
 10
336.3396819999999
 20
125.5181529999999
 30
0.0
 40
5.325313999999999
100
AcDbArc
 50
215.23352
 51
269.7291729999999
  0
ARC
  5
1B1F
330
3DD
100
AcDbEntity
  8
3
100
AcDbCircle
 10
353.924057
 20
101.948148
 30
0.0
 40
9.0
100
AcDbArc
 50
187.227238
 51
242.831022
  0
ARC
  5
1B20
330
3DD
100
AcDbEntity
  8
3
100
AcDbCircle
 10
333.5381009999999
 20
126.668978
 30
0.0
 40
8.261858
100
AcDbArc
 50
329.259503
 51
3.400948
  0
ARC
  5
1B21
330
3DD
100
AcDbEntity
  8
2
100
AcDbCircle
 10
337.245637
 20
181.863681
 30
0.0
 40
5.937516
100
AcDbArc
 50
206.416996
 51
333.583004
  0
ARC
  5
1B22
330
3DD
100
AcDbEntity
  8
3
100
AcDbCircle
 10
338.3145109999999
 20
198.9235468121153
 30
0.0
 40
23.48994581211528
100
AcDbArc
 50
240.6876007337356
 51
299.3123992662645
  0
LINE
  5
1B23
330
3DD
100
AcDbEntity
  8
3
100
AcDbLine
 10
326.8145109999999
 20
178.4411749999999
 30
0.0
 11
324.8145109999999
 21
181.4411749999999
 31
0.0
  0
LINE
  5
1B24
330
3DD
100
AcDbEntity
  8
2
100
AcDbLine
 10
330.843612
 20
176.518953
 30
0.0
 11
330.61571
 21
182.89191
 31
0.0
  0
ARC
  5
1B25
330
3DD
100
AcDbEntity
  8
2
100
AcDbCircle
 10
339.549073
 20
183.5353649999999
 30
0.0
 40
8.756908000000001
100
AcDbArc
 50
150.491111
 51
209.5088889999999
  0
LINE
  5
1B26
330
3DD
100
AcDbEntity
  8
3
100
AcDbLine
 10
349.8145109999999
 20
142.45388
 30
0.0
 11
349.8145109999999
 21
181.4411749999999
 31
0.0
  0
LINE
  5
1B27
330
3DD
100
AcDbEntity
  8
3
100
AcDbLine
 10
361.8145109999999
 20
181.4411749999999
 30
0.0
 11
349.8145109999999
 21
181.4411749999999
 31
0.0
  0
LINE
  5
1B28
330
3DD
100
AcDbEntity
  8
2
100
AcDbLine
 10
343.612637
 20
176.460206
 30
0.0
 11
343.856231
 21
183.173487
 31
0.0
  0
ARC
  5
1B29
330
3DD
100
AcDbEntity
  8
2
100
AcDbCircle
 10
335.645268
 20
183.5353649999999
 30
0.0
 40
8.152400999999999
100
AcDbArc
 50
328.056536
 51
31.943464
  0
LINE
  5
1B2A
330
3DD
100
AcDbEntity
  8
3
100
AcDbLine
 10
349.8145109999999
 20
181.4411749999999
 30
0.0
 11
349.8145109999999
 21
178.4411749999999
 31
0.0
  0
ARC
  5
1B2B
330
3DD
100
AcDbEntity
  8
3
100
AcDbCircle
 10
361.8145109999999
 20
184.4411749999999
 30
0.0
 40
3.0
100
AcDbArc
 50
270.0
 51
0.0
  0
LINE
  5
1B2C
330
3DD
100
AcDbEntity
  8
3
100
AcDbLine
 10
341.890341
 20
299.960132
 30
0.0
 11
343.8145109999999
 21
234.670856
 31
0.0
  0
LINE
  5
1B2D
330
3DD
100
AcDbEntity
  8
3
100
AcDbLine
 10
330.7345899999999
 20
299.6711669999999
 30
0.0
 11
330.8145109999999
 21
234.670856
 31
0.0
  0
LINE
  5
1B2E
330
3DD
100
AcDbEntity
  8
3
100
AcDbLine
 10
349.8145109999999
 20
281.5379079999999
 30
0.0
 11
349.8145109999999
 21
316.941175
 31
0.0
  0
LINE
  5
1B2F
330
3DD
100
AcDbEntity
  8
3
100
AcDbLine
 10
322.8145109999999
 20
316.941175
 30
0.0
 11
322.8145109999999
 21
205.4411749999999
 31
0.0
  0
LINE
  5
1B35
330
3DD
100
AcDbEntity
  8
3
100
AcDbLine
 10
349.8145109999999
 20
281.5379079999999
 30
0.0
 11
349.8145109999999
 21
228.9411749999999
 31
0.0
  0
ARC
  5
1B36
330
3DD
100
AcDbEntity
  8
3
100
AcDbCircle
 10
338.314511
 20
211.9588031878847
 30
0.0
 40
23.48994581211525
100
AcDbArc
 50
60.68760073373561
 51
119.3123992662644
  0
LINE
  5
1B37
330
3DD
100
AcDbEntity
  8
1
100
AcDbLine
 10
316.3145109999999
 20
205.4411749999999
 30
0.0
 11
371.1455439999999
 21
205.4411749999999
 31
0.0
  0
ARC
  5
1B38
330
3DD
100
AcDbEntity
  8
2
100
AcDbCircle
 10
337.3145109999999
 20
221.076189
 30
0.0
 40
5.083616999999999
100
AcDbArc
 50
27.724279
 51
152.2757209999999
  0
ARC
  5
1B39
330
3DD
100
AcDbEntity
  8
2
100
AcDbCircle
 10
337.3145109999999
 20
206.301841
 30
0.0
 40
4.869505
100
AcDbArc
 50
202.464186
 51
337.535814
  0
ARC
  5
1B3A
330
3DD
100
AcDbEntity
  8
2
100
AcDbCircle
 10
354.3145109999999
 20
213.9411749999999
 30
0.0
 40
23.505319
100
AcDbArc
 50
156.16126
 51
203.8387399999999
  0
LINE
  5
1B3B
330
3DD
100
AcDbEntity
  8
3
100
AcDbLine
 10
324.8145109999999
 20
205.4411749999999
 30
0.0
 11
324.8145109999999
 21
229.441175
 31
0.0
  0
LINE
  5
1B3C
330
3DD
100
AcDbEntity
  8
3
100
AcDbLine
 10
326.8145109999999
 20
232.4411749999999
 30
0.0
 11
324.8145109999999
 21
229.441175
 31
0.0
  0
LINE
  5
1B3D
330
3DD
100
AcDbEntity
  8
3
100
AcDbLine
 10
330.8145109999999
 20
234.670856
 30
0.0
 11
330.8145109999999
 21
233.975935
 31
0.0
  0
ARC
  5
1B3E
330
3DD
100
AcDbEntity
  8
2
100
AcDbCircle
 10
320.3145109999999
 20
213.9411749999999
 30
0.0
 40
23.505319
100
AcDbArc
 50
336.16126
 51
23.83874
  0
LINE
  5
1B3F
330
3DD
100
AcDbEntity
  8
3
100
AcDbLine
 10
349.8145109999999
 20
229.441175
 30
0.0
 11
349.8145109999999
 21
205.4411749999999
 31
0.0
  0
LINE
  5
1B40
330
3DD
100
AcDbEntity
  8
3
100
AcDbLine
 10
364.8145109999999
 20
205.4411749999999
 30
0.0
 11
364.8145109999999
 21
226.4411749999999
 31
0.0
  0
LINE
  5
1B41
330
3DD
100
AcDbEntity
  8
3
100
AcDbLine
 10
361.8145109999999
 20
229.441175
 30
0.0
 11
349.8145109999999
 21
229.441175
 31
0.0
  0
LINE
  5
1B42
330
3DD
100
AcDbEntity
  8
3
100
AcDbLine
 10
349.8145109999999
 20
229.441175
 30
0.0
 11
349.8145109999999
 21
232.4411749999999
 31
0.0
  0
LINE
  5
1B43
330
3DD
100
AcDbEntity
  8
3
100
AcDbLine
 10
349.8145109999999
 20
229.441175
 30
0.0
 11
349.8145109999999
 21
232.4411749999999
 31
0.0
  0
ARC
  5
1B44
330
3DD
100
AcDbEntity
  8
3
100
AcDbCircle
 10
361.8145109999999
 20
226.4411749999999
 30
0.0
 40
3.0
100
AcDbArc
 50
0.0
 51
90.0
  0
ARC
  5
1B46
330
3DD
100
AcDbEntity
  8
3
100
AcDbCircle
 10
336.314511
 20
316.941175
 30
0.0
 40
13.5
100
AcDbArc
 50
0.0
 51
180.0
  0
LINE
  5
1B47
330
3DD
100
AcDbEntity
  8
3
100
AcDbLine
 10
322.8145109999999
 20
300.441175
 30
0.0
 11
330.7345899999999
 21
299.6711669999999
 31
0.0
  0
LINE
  5
1B48
330
3DD
100
AcDbEntity
  8
3
100
AcDbLine
 10
345.8145109999999
 20
300.9411749999999
 30
0.0
 11
345.8145109999999
 21
313.9411749999999
 31
0.0
  0
LINE
  5
1B49
330
3DD
100
AcDbEntity
  8
3
100
AcDbLine
 10
345.8145109999999
 20
300.9411749999999
 30
0.0
 11
341.890341
 21
299.960132
 31
0.0
  0
ARC
  5
1B4A
330
3DD
100
AcDbEntity
  8
3
100
AcDbCircle
 10
365.0645109999999
 20
292.4411749999999
 30
0.0
 40
28.85849099999999
100
AcDbArc
 50
121.900157
 51
131.8396379999999
  0
ARC
  5
1B51
330
3DD
100
AcDbEntity
  8
3
100
AcDbCircle
 10
88.314511
 20
205.4411749999999
 30
0.0
 40
125.0
100
AcDbArc
 50
270.0
 51
90.0
  0
ARC
  5
1B52
330
3DD
100
AcDbEntity
  8
3
100
AcDbCircle
 10
88.314511
 20
205.4411749999999
 30
0.0
 40
111.4999999999999
100
AcDbArc
 50
270.0
 51
80.970054
  0
LINE
  5
1B53
330
3DD
100
AcDbEntity
  8
3
100
AcDbLine
 10
93.68924699999999
 20
175.9265639999999
 30
0.0
 11
136.654261
 21
120.192899
 31
0.0
  0
ARC
  5
1B54
330
3DD
100
AcDbEntity
  8
3
100
AcDbCircle
 10
159.463795
 20
147.2541149999999
 30
0.0
 40
9.127235999999999
100
AcDbArc
 50
270.467633
 51
10.978632
  0
LINE
  5
1B55
330
3DD
100
AcDbEntity
  8
3
100
AcDbLine
 10
114.7236879999999
 20
191.2089809999999
 30
0.0
 11
154.452635
 21
133.124174
 31
0.0
  0
LINE
  5
1B56
330
3DD
100
AcDbEntity
  8
1
100
AcDbLine
 10
88.314511
 20
205.4411749999999
 30
0.0
 11
167.3306789999999
 21
96.68474899999999
 31
0.0
  0
ARC
  5
1B57
330
3DD
100
AcDbEntity
  8
3
100
AcDbCircle
 10
99.074895
 20
114.160461
 30
0.0
 40
9.127235999999999
100
AcDbArc
 50
226.4676329999999
 51
326.978632
  0
ARC
  5
1B58
330
3DD
100
AcDbEntity
  8
3
100
AcDbCircle
 10
88.314511
 20
205.4411749999999
 30
0.0
 40
98.0
100
AcDbArc
 50
295.383439
 51
299.55526
  0
ARC
  5
1B59
330
3DD
100
AcDbEntity
  8
3
100
AcDbCircle
 10
118.5232199999999
 20
163.862453
 30
0.0
 40
48.48197
100
AcDbArc
 50
294.2548269999999
 51
317.745173
  0
ARC
  5
1B5A
330
3DD
100
AcDbEntity
  8
3
100
AcDbCircle
 10
88.314511
 20
205.4411749999999
 30
0.0
 40
98.0
100
AcDbArc
 50
312.4447399999999
 51
316.616561
  0
ARC
  5
1B5B
330
3DD
100
AcDbEntity
  8
3
100
AcDbCircle
 10
153.64073
 20
132.212012
 30
0.0
 40
1.221159
100
AcDbArc
 50
308.908112
 51
48.328088
  0
ARC
  5
1B5C
330
3DD
100
AcDbEntity
  8
3
100
AcDbCircle
 10
137.772671
 20
120.6831929999999
 30
0.0
 40
1.221159
100
AcDbArc
 50
203.671912
 51
303.091888
  0
ARC
  5
1B5D
330
3DD
100
AcDbEntity
  8
3
100
AcDbCircle
 10
121.667355
 20
119.7933939999999
 30
0.0
 40
9.127235999999999
100
AcDbArc
 50
241.021368
 51
341.5323669999999
  0
ARC
  5
1B5E
330
3DD
100
AcDbEntity
  8
3
100
AcDbCircle
 10
88.314511
 20
205.4411749999999
 30
0.0
 40
98.0
100
AcDbArc
 50
280.8297049999999
 51
287.1702949999999
  0
ARC
  5
1B5F
330
3DD
100
AcDbEntity
  8
3
100
AcDbCircle
 10
88.314511
 20
205.4411749999999
 30
0.0
 40
98.0
100
AcDbArc
 50
270.0
 51
272.6165609999999
  0
ARC
  5
1B60
330
3DD
100
AcDbEntity
  8
3
100
AcDbCircle
 10
106.9734629999999
 20
308.4581519999999
 30
0.0
 40
7.195094
100
AcDbArc
 50
99.269321
 51
148.913938
  0
ARC
  5
1B61
330
3DD
100
AcDbEntity
  8
3
100
AcDbCircle
 10
88.20995600000001
 20
205.60277
 30
0.0
 40
24.0
100
AcDbArc
 50
270.249606
 51
89.750394
  0
ARC
  5
1B62
330
3DD
100
AcDbEntity
  8
3
100
AcDbCircle
 10
88.314511
 20
205.698127
 30
0.0
 40
27.0
100
AcDbArc
 50
270.0
 51
90.0
  0
LINE
  5
1B63
330
3DD
100
AcDbEntity
  8
1
100
AcDbLine
 10
224.8145109999999
 20
205.4411749999999
 30
0.0
 11
88.314511
 21
205.4411749999999
 31
0.0
  0
LINE
  5
1B64
330
3DD
100
AcDbEntity
  8
1
100
AcDbLine
 10
88.314511
 20
312.441175
 30
0.0
 11
111.814511
 21
312.441175
 31
0.0
  0
ARC
  5
1B65
330
3DD
100
AcDbEntity
  8
3
100
AcDbCircle
 10
88.314511
 20
205.4411749999999
 30
0.0
 40
98.0
100
AcDbArc
 50
79.38343899999999
 51
83.55526000000001
  0
ARC
  5
1B67
330
3DD
100
AcDbEntity
  8
3
100
AcDbCircle
 10
88.314511
 20
205.4411749999999
 30
0.0
 40
30.0
100
AcDbArc
 50
43.679289
 51
64.320711
  0
LINE
  5
1B68
330
3DD
100
AcDbEntity
  8
1
100
AcDbLine
 10
88.314511
 20
205.4411749999999
 30
0.0
 11
216.1653569999999
 21
246.982433
 31
0.0
  0
ARC
  5
1B69
330
3DD
100
AcDbEntity
  8
3
100
AcDbCircle
 10
86.35324
 20
208.140633
 30
0.0
 40
31.54215499999999
100
AcDbArc
 50
285.680529
 51
326.319471
  0
ARC
  5
1B6A
330
3DD
100
AcDbEntity
  8
3
100
AcDbCircle
 10
137.1932289999999
 20
221.322833
 30
0.0
 40
48.48197
100
AcDbArc
 50
6.254826999999999
 51
29.745173
  0
LINE
  5
1B6B
330
3DD
100
AcDbEntity
  8
3
100
AcDbLine
 10
110.011016
 20
226.1598049999999
 30
0.0
 11
177.5298689999999
 21
245.9950859999999
 31
0.0
  0
LINE
  5
1B6C
330
3DD
100
AcDbEntity
  8
3
100
AcDbLine
 10
118.045458
 20
201.432336
 30
0.0
 11
184.328243
 21
225.071843
 31
0.0
  0
ARC
  5
1B6D
330
3DD
100
AcDbEntity
  8
3
100
AcDbCircle
 10
178.4527699999999
 20
187.4676159999999
 30
0.0
 40
9.127235999999999
100
AcDbArc
 50
298.467633
 51
38.97863199999999
  0
ARC
  5
1B6E
330
3DD
100
AcDbEntity
  8
3
100
AcDbCircle
 10
171.802487
 20
167.0001499999999
 30
0.0
 40
9.127235999999999
100
AcDbArc
 50
285.0213679999999
 51
25.532367
  0
ARC
  5
1B6F
330
3DD
100
AcDbEntity
  8
3
100
AcDbCircle
 10
88.314511
 20
205.4411749999999
 30
0.0
 40
98.0
100
AcDbArc
 50
324.829705
 51
331.170295
  0
ARC
  5
1B70
330
3DD
100
AcDbEntity
  8
3
100
AcDbCircle
 10
88.314511
 20
205.4411749999999
 30
0.0
 40
98.0
100
AcDbArc
 50
339.383439
 51
344.6165609999999
  0
ARC
  5
1B71
330
3DD
100
AcDbEntity
  8
3
100
AcDbCircle
 10
180.076987
 20
210.694995
 30
0.0
 40
9.127235999999999
100
AcDbArc
 50
313.021368
 51
53.532367
  0
ARC
  5
1B72
330
3DD
100
AcDbEntity
  8
3
100
AcDbCircle
 10
88.314511
 20
205.4411749999999
 30
0.0
 40
98.0
100
AcDbArc
 50
352.8297049999999
 51
359.170295
  0
ARC
  5
1B73
330
3DD
100
AcDbEntity
  8
3
100
AcDbCircle
 10
88.314511
 20
205.4411749999999
 30
0.0
 40
98.0
100
AcDbArc
 50
7.383439
 51
11.55526
  0
ARC
  5
1B74
330
3DD
100
AcDbEntity
  8
3
100
AcDbCircle
 10
184.207554
 20
226.287023
 30
0.0
 40
1.221159
100
AcDbArc
 50
275.671912
 51
15.091888
  0
ARC
  5
1B75
330
3DD
100
AcDbEntity
  8
3
100
AcDbCircle
 10
85.141108
 20
204.410073
 30
0.0
 40
31.54215499999999
100
AcDbArc
 50
357.6805289999999
 51
38.319471
  0
ARC
  5
1B76
330
3DD
100
AcDbEntity
  8
3
100
AcDbCircle
 10
88.314511
 20
205.4411749999999
 30
0.0
 40
30.0
100
AcDbArc
 50
331.679289
 51
352.3207109999999
  0
ARC
  5
1B77
330
3DD
100
AcDbEntity
  8
3
100
AcDbCircle
 10
118.6892419999999
 20
203.3744739999999
 30
0.0
 40
2.046059
100
AcDbArc
 50
186.763142
 51
251.660573
  0
ARC
  5
1B78
330
3DD
100
AcDbEntity
  8
3
100
AcDbCircle
 10
114.10296
 20
189.259351
 30
0.0
 40
2.046059
100
AcDbArc
 50
72.339427
 51
137.236858
  0
ARC
  5
1B79
330
3DD
100
AcDbEntity
  8
3
100
AcDbCircle
 10
111.673408
 20
224.966989
 30
0.0
 40
2.046059
100
AcDbArc
 50
144.3394269999999
 51
209.236858
  0
ARC
  5
1B7A
330
3DD
100
AcDbEntity
  8
3
100
AcDbCircle
 10
88.314511
 20
205.4411749999999
 30
0.0
 40
98.0
100
AcDbArc
 50
36.82970499999999
 51
43.170295
  0
ARC
  5
1B7B
330
3DD
100
AcDbEntity
  8
3
100
AcDbCircle
 10
88.314511
 20
205.4411749999999
 30
0.0
 40
98.0
100
AcDbArc
 50
24.44474
 51
28.61656099999999
  0
ARC
  5
1B7C
330
3DD
100
AcDbEntity
  8
3
100
AcDbCircle
 10
178.1464949999999
 20
244.941045
 30
0.0
 40
1.221159
100
AcDbArc
 50
20.908112
 51
120.3280879999999
  0
ARC
  5
1B7D
330
3DD
100
AcDbEntity
  8
3
100
AcDbCircle
 10
165.6400309999999
 20
255.127375
 30
0.0
 40
9.127235999999999
100
AcDbArc
 50
342.467633
 51
82.978632
  0
ARC
  5
1B7E
330
3DD
100
AcDbEntity
  8
3
100
AcDbCircle
 10
133.262635
 20
285.613618
 30
0.0
 40
9.127235999999999
100
AcDbArc
 50
10.467633
 51
110.9786319999999
  0
ARC
  5
1B7F
330
3DD
100
AcDbEntity
  8
3
100
AcDbCircle
 10
88.314511
 20
205.4411749999999
 30
0.0
 40
98.0
100
AcDbArc
 50
51.383439
 51
56.616561
  0
ARC
  5
1B80
330
3DD
100
AcDbEntity
  8
3
100
AcDbCircle
 10
150.673302
 20
272.9640279999999
 30
0.0
 40
9.127235999999999
100
AcDbArc
 50
357.021368
 51
97.53236700000002
  0
ARC
  5
1B81
330
3DD
100
AcDbEntity
  8
3
100
AcDbCircle
 10
111.6739949999999
 20
294.335995
 30
0.0
 40
9.127235999999999
100
AcDbArc
 50
25.021368
 51
125.5323669999999
  0
ARC
  5
1B82
330
3DD
100
AcDbEntity
  8
3
100
AcDbCircle
 10
88.314511
 20
205.4411749999999
 30
0.0
 40
98.0
100
AcDbArc
 50
64.829705
 51
71.170295
  0
ARC
  5
1B83
330
3DD
100
AcDbEntity
  8
3
100
AcDbCircle
 10
95.73527
 20
175.914443
 30
0.0
 40
2.046059
100
AcDbArc
 50
114.7631419999999
 51
179.660573
  0
ARC
  5
1B84
330
3DD
100
AcDbEntity
  8
3
100
AcDbCircle
 10
88.314511
 20
205.4411749999999
 30
0.0
 40
30.0
100
AcDbArc
 50
270.0
 51
280.3207109999999
  0
LINE
  5
1B85
330
3DD
100
AcDbEntity
  8
3
100
AcDbLine
 10
101.3145109999999
 20
232.4781859999999
 30
0.0
 11
99.314511
 21
302.8218709999999
 31
0.0
  0
ARC
  5
1B86
330
3DD
100
AcDbEntity
  8
3
100
AcDbCircle
 10
88.314511
 20
202.104461
 30
0.0
 40
31.54215499999999
100
AcDbArc
 50
69.680529
 51
90.0
  0
ARC
  5
1B87
330
3DD
100
AcDbEntity
  8
3
100
AcDbCircle
 10
99.66636800000001
 20
233.6906149999999
 30
0.0
 40
2.046059
100
AcDbArc
 50
258.763142
 51
323.6605729999999
  0
ARC
  5
1B88
330
3DD
100
AcDbEntity
  8
3
100
AcDbCircle
 10
98.12151
 20
303.0826
 30
0.0
 40
1.221159
100
AcDbArc
 50
347.671912
 51
87.09188799999999
  0
ARC
  5
1B89
330
3DD
100
AcDbEntity
  8
3
100
AcDbCircle
 10
88.314511
 20
256.8353009999999
 30
0.0
 40
48.48197
100
AcDbArc
 50
78.25482700000001
 51
78.64704
  0
LINE
  5
1B9F
330
3DD
100
AcDbEntity
  8
1
100
AcDbLine
 10
316.7045109999999
 20
312.441175
 30
0.0
 11
348.6820349999999
 21
312.441175
 31
0.0
  0
ARC
  5
1C13
330
3DD
100
AcDbEntity
  8
3
100
AcDbCircle
 10
88.314511
 20
312.441175
 30
0.0
 40
12.5
100
AcDbArc
 50
180.0
 51
0.0
  0
CIRCLE
  5
1C17
330
3DD
100
AcDbEntity
  8
3
100
AcDbCircle
 10
88.314511
 20
312.441175
 30
0.0
 40
8.0
  0
CIRCLE
  5
1C18
330
3DD
100
AcDbEntity
  8
3
100
AcDbCircle
 10
88.314511
 20
312.441175
 30
0.0
 40
5.0
  0
CIRCLE
  5
1C19
330
3DD
100
AcDbEntity
  8
3
100
AcDbCircle
 10
88.314511
 20
312.441175
 30
0.0
 40
4.0
  0
LINE
  5
1C1A
330
3DD
100
AcDbEntity
  8
3
100
AcDbLine
 10
322.8145109999999
 20
304.441175
 30
0.0
 11
324.8145109999999
 21
304.441175
 31
0.0
  0
LINE
  5
1C1B
330
3DD
100
AcDbEntity
  8
3
100
AcDbLine
 10
324.8145109999999
 20
304.441175
 30
0.0
 11
324.8145109999999
 21
320.4411749999999
 31
0.0
  0
LINE
  5
1C1C
330
3DD
100
AcDbEntity
  8
3
100
AcDbLine
 10
324.8145109999999
 20
320.4411749999999
 30
0.0
 11
323.276106
 21
320.4411749999999
 31
0.0
  0
LINE
  5
1C1D
330
3DD
100
AcDbEntity
  8
3
100
AcDbLine
 10
324.8145109999999
 20
312.441175
 30
0.0
 11
324.8145109999999
 21
317.4411749999999
 31
0.0
  0
LINE
  5
1C1E
330
3DD
100
AcDbEntity
  8
3
100
AcDbLine
 10
324.8145109999999
 20
317.4411749999999
 30
0.0
 11
349.805248
 21
317.4411749999999
 31
0.0
  0
LINE
  5
1C20
330
3DD
100
AcDbEntity
  8
3
100
AcDbLine
 10
345.8145109999999
 20
307.4411749999999
 30
0.0
 11
324.8145109999999
 21
307.4411749999999
 31
0.0
  0
LINE
  5
1C22
330
3DD
100
AcDbEntity
  8
3
100
AcDbLine
 10
324.8145109999999
 20
316.4411749999999
 30
0.0
 11
349.03914
 21
316.4411749999999
 31
0.0
  0
LINE
  5
1C24
330
3DD
100
AcDbEntity
  8
3
100
AcDbLine
 10
345.8145109999999
 20
308.441175
 30
0.0
 11
324.8145109999999
 21
308.441175
 31
0.0
  0
ENDSEC
  0
SECTION
  2
OBJECTS
  0
DICTIONARY
  5
3D1
330
0
100
AcDbDictionary
281
     1
  3
ACAD_GROUP
350
3D2
  3
ACAD_LAYOUT
350
1C3E
  3
ACAD_MLINESTYLE
350
3D3
  3
ACAD_PLOTSETTINGS
350
1C3F
  3
ACAD_PLOTSTYLENAME
350
1C3C
  3
ACDBVARIABLEDICTIONARY
350
E1C
  3
AcmDictionary
350
1D07
  3
AMG
350
1C50
  3
AMGSNAPSETTINGS
350
1D22
  3
DWGPROPS
350
1D0A
  3
MAPISURF_MODULE
350
1CDA
  0
DICTIONARY
  5
1D29
330
3DD
100
AcDbDictionary
280
     1
281
     1
  3
ACAD_INDEX
360
1D2A
  0
DICTIONARY
  5
3D2
102
{ACAD_REACTORS
330
3D1
102
}
330
3D1
100
AcDbDictionary
281
     1
  0
DICTIONARY
  5
1C3E
102
{ACAD_REACTORS
330
3D1
102
}
330
3D1
100
AcDbDictionary
281
     1
  3
Model
350
1C40
  3
ﾚｲｱｳﾄ1
350
1C41
  0
DICTIONARY
  5
3D3
102
{ACAD_REACTORS
330
3D1
102
}
330
3D1
100
AcDbDictionary
281
     1
  3
STANDARD
350
3E0
  0
DICTIONARY
  5
1C3F
102
{ACAD_REACTORS
330
3D1
102
}
330
3D1
100
AcDbDictionary
281
     1
  0
ACDBDICTIONARYWDFLT
  5
1C3C
102
{ACAD_REACTORS
330
3D1
102
}
330
3D1
100
AcDbDictionary
281
     1
  3
Normal
350
1C3D
100
AcDbDictionaryWithDefault
340
1C3D
  0
DICTIONARY
  5
E1C
102
{ACAD_REACTORS
330
3D1
102
}
330
3D1
100
AcDbDictionary
281
     1
  3
DIMASSOC
350
1D39
  3
INDEXCTL
350
1D38
  3
SORTENTS
350
E1D
  0
DICTIONARY
  5
1D07
102
{ACAD_REACTORS
330
3D1
102
}
330
3D1
100
AcDbDictionary
281
     1
  3
AcmBOMDATA
350
1D08
  0
DICTIONARY
  5
1C50
102
{ACAD_REACTORS
330
3D1
102
}
330
3D1
100
AcDbDictionary
281
     1
  3
AcMgSettings
350
1C51
  3
AMGLAYCFG
350
1D14
  0
DICTIONARY
  5
1D22
102
{ACAD_REACTORS
330
3D1
102
}
330
3D1
100
AcDbDictionary
281
     1
  3
DIMENSION
350
1D27
  3
FEA
350
1D26
  3
HATCH (1)
350
1D23
  3
HATCH (2)
350
1D24
  3
SIMPLE WELD
350
1D28
  3
SYMBOLS
350
1D25
  0
XRECORD
  5
1D0A
102
{ACAD_REACTORS
330
3D1
102
}
330
3D1
100
AcDbXrecord
280
     1
  1
DWGPROPS COOKIE
  2

  3

  4

  6

  7

  8

  9

300
AmdtFileType=84
301
=
302
=
303
=
304
=
305
=
306
=
307
=
308
=
309
=
 40
1.008655324074074
 41
2449283.5678125
 42
2453089.729623298
  1

 90
        1
  0
DICTIONARY
  5
1D2A
102
{ACAD_REACTORS
330
1D29
102
}
330
1D29
100
AcDbDictionary
281
     1
  3
*A1
350
1D2B
  0
LAYOUT
  5
1C40
102
{ACAD_REACTORS
330
1C3E
102
}
330
1C3E
100
AcDbPlotSettings
  1

  2
\\KONISHIDENXP\SHARP MX-2700FG
  4

  6

 40
0.0
 41
0.0
 42
0.0
 43
0.0
 44
0.0
 45
0.0
 46
0.0
 47
0.0
 48
0.0
 49
0.0
140
0.0
141
0.0
142
1.0
143
1.0
 70
  1712
 72
     0
 73
     0
 74
     0
  7

 75
     0
147
1.0
148
0.0
149
0.0
100
AcDbLayout
  1
Model
 70
     1
 71
     0
 10
0.0
 20
0.0
 11
12.0
 21
9.0
 12
0.0
 22
0.0
 32
0.0
 14
0.0
 24
0.0
 34
0.0
 15
0.0
 25
0.0
 35
0.0
146
0.0
 13
0.0
 23
0.0
 33
0.0
 16
1.0
 26
0.0
 36
0.0
 17
0.0
 27
1.0
 37
0.0
 76
     0
330
3DD
  0
LAYOUT
  5
1C41
102
{ACAD_REACTORS
330
1C3E
102
}
330
1C3E
100
AcDbPlotSettings
  1

  2
\\KONISHIDENXP\SHARP MX-2700FG
  4

  6

 40
0.0
 41
0.0
 42
0.0
 43
0.0
 44
0.0
 45
0.0
 46
0.0
 47
0.0
 48
0.0
 49
0.0
140
0.0
141
0.0
142
1.0
143
1.0
 70
   688
 72
     0
 73
     0
 74
     5
  7

 75
    16
147
1.0
148
0.0
149
0.0
100
AcDbLayout
  1
ﾚｲｱｳﾄ1
 70
     1
 71
     1
 10
0.0
 20
0.0
 11
12.0
 21
9.0
 12
0.0
 22
0.0
 32
0.0
 14
1.000000000000000E+20
 24
1.000000000000000E+20
 34
1.000000000000000E+20
 15
-1.000000000000000E+20
 25
-1.000000000000000E+20
 35
-1.000000000000000E+20
146
0.0
 13
0.0
 23
0.0
 33
0.0
 16
1.0
 26
0.0
 36
0.0
 17
0.0
 27
1.0
 37
0.0
 76
     0
330
3DA
  0
MLINESTYLE
  5
3E0
102
{ACAD_REACTORS
330
3D3
102
}
330
3D3
100
AcDbMlineStyle
  2
STANDARD
 70
     0
  3

 62
     0
 51
90.0
 52
90.0
 71
     2
 49
0.5
 62
   256
  6
BYLAYER
 49
-0.5
 62
   256
  6
BYLAYER
  0
ACDBPLACEHOLDER
  5
1C3D
102
{ACAD_REACTORS
330
1C3C
102
}
330
1C3C
  0
DICTIONARYVAR
  5
1D39
102
{ACAD_REACTORS
330
E1C
102
}
330
E1C
100
DictionaryVariables
280
     0
  1
1
  0
DICTIONARYVAR
  5
1D38
102
{ACAD_REACTORS
330
E1C
102
}
330
E1C
100
DictionaryVariables
280
     0
  1
1
  0
DICTIONARYVAR
  5
E1D
102
{ACAD_REACTORS
330
E1C
102
}
330
E1C
100
DictionaryVariables
280
     0
  1
96
  0
ACMDATADICTIONARY
  5
1D08
102
{ACAD_REACTORS
330
1D07
102
}
330
1D07
100
AcDbDictionary
281
     1
  3
*A1
350
1D09
100
AcmDataDictionary
  0
DICTIONARY
  5
1C51
102
{ACAD_REACTORS
330
1C50
102
}
330
1C50
100
AcDbDictionary
281
     1
  3
DWGSETTINGS
350
1C52
  0
ACAMGFILTERDAT
  5
1D27
102
{ACAD_REACTORS
330
1D22
102
}
330
1D22
100
AcAmgFilterDat
 70
    15
  1
DIMENSION,AMDT_*_DIM
  2
*
  3
*
  4
*
  5
*
290
     1
  0
ACAMGFILTERDAT
  5
1D26
102
{ACAD_REACTORS
330
1D22
102
}
330
1D22
100
AcAmgFilterDat
 70
    15
  1
*
  2
AM_FEA-AM_*
  3
*
  4
*
  5
*
290
     1
  0
ACAMGFILTERDAT
  5
1D23
102
{ACAD_REACTORS
330
1D22
102
}
330
1D22
100
AcAmgFilterDat
 70
    15
  1
HATCH
  2
*
  3
*
  4
*
  5
*
290
     1
  0
ACAMGFILTERDAT
  5
1D24
102
{ACAD_REACTORS
330
1D22
102
}
330
1D22
100
AcAmgFilterDat
 70
    15
  1
LINE
  2
8,8N,*-8,*-8N,AM_8,AM_8N,*-AM_8,*-AM_8N
  3
*
  4
*
  5
INSERT,STDPART2D
290
     1
  0
ACAMGFILTERDAT
  5
1D28
102
{ACAD_REACTORS
330
1D22
102
}
330
1D22
100
AcAmgFilterDat
 70
    15
  1
ARC
  2
AM_5
  3
*
  4
2
  5
INSERT
290
     0
  0
ACAMGFILTERDAT
  5
1D25
102
{ACAD_REACTORS
330
1D22
102
}
330
1D22
100
AcAmgFilterDat
 70
    15
  1
ACMFCFRAME,ACMDATUMTARGET,ACMDATUMID,ACMWELDSYM,ACMSURFSYM,ACMFEATID,ACMPARTREF,ACMBALLOON,AMDTEDGESYM,AMGSCREWCALCTABLE
  2
*
  3
*
  4
*
  5
*
290
     1
  0
LAYER_INDEX
  5
1D2B
102
{ACAD_REACTORS
330
1D2A
102
}
330
1D2A
100
AcDbIndex
 40
2458204.416353796
100
AcDbLayerIndex
  8
0
360
1D2C
 90
        1
  8
DAI
360
1D2D
 90
        0
  8
1
360
1D2E
 90
       15
  8
2
360
1D2F
 90
       10
  8
3
360
1D30
 90
      157
  8
4
360
1D31
 90
        0
  8
5
360
1D32
 90
        0
  8
6
360
1D33
 90
        0
  8
7
360
1D34
 90
        0
  8
8
360
1D35
 90
        0
  8
DEFPOINTS
360
1D36
 90
        0
  8
ASHADE
360
1D37
 90
        3
  0
ACMDATAENTRYBLOCK
  5
1D09
102
{ACAD_REACTORS
330
1D08
102
}
330
1D08
100
AcmDataEntry
100
AcmDataEntryBlock
  0
IDBUFFER
  5
1D2C
330
0
100
AcDbIdBuffer
330
EAE
  0
IDBUFFER
  5
1D2D
330
0
100
AcDbIdBuffer
  0
IDBUFFER
  5
1D2E
330
0
100
AcDbIdBuffer
330
1AA8
330
1AAE
330
1AB0
330
1AD3
330
1AE1
330
1B00
330
1B12
330
1B19
330
1B1B
330
1B37
330
1B56
330
1B63
330
1B64
330
1B68
330
1B9F
  0
IDBUFFER
  5
1D2F
330
0
100
AcDbIdBuffer
330
1B0D
330
1B21
330
1B24
330
1B25
330
1B28
330
1B29
330
1B38
330
1B39
330
1B3A
330
1B3E
  0
IDBUFFER
  5
1D30
330
0
100
AcDbIdBuffer
330
1B69
330
1B6A
330
1B6B
330
1B6C
330
1B6D
330
1B6E
330
1B6F
330
1B70
330
1B71
330
1B72
330
1B73
330
1B74
330
1B75
330
1B76
330
1B77
330
1B78
330
1B79
330
1B7A
330
1B7B
330
1B7C
330
1B7D
330
1B7E
330
1B7F
330
1B80
330
1B81
330
1B82
330
1B83
330
1B84
330
1B85
330
1B86
330
1B87
330
1B88
330
1B89
330
1C13
330
1C17
330
1C18
330
1C19
330
1C1A
330
1C1B
330
1C1C
330
1C1D
330
1C1E
330
1C20
330
1C22
330
1C24
330
1AA2
330
1AA7
330
1AA9
330
1AAA
330
1AB1
330
1AB4
330
1AB5
330
1AB6
330
1AB7
330
1AB8
330
1AB9
330
1ABA
330
1ABB
330
1ABC
330
1ABF
330
1AC0
330
1AC1
330
1AC2
330
1AC3
330
1AC4
330
1AC5
330
1AC6
330
1AC7
330
1AD4
330
1AD5
330
1AD6
330
1AD7
330
1AD8
330
1AD9
330
1ADA
330
1ADB
330
1ADC
330
1ADD
330
1ADE
330
1ADF
330
1AE0
330
1AE2
330
1AE3
330
1AE6
330
1AE9
330
1AEA
330
1AEB
330
1AEC
330
1AED
330
1AEE
330
1AEF
330
1AF0
330
1B01
330
1B04
330
1B05
330
1B06
330
1B07
330
1B0E
330
1B0F
330
1B10
330
1B11
330
1B13
330
1B15
330
1B16
330
1B17
330
1B18
330
1B1A
330
1B1C
330
1B1D
330
1B1E
330
1B1F
330
1B20
330
1B22
330
1B23
330
1B26
330
1B27
330
1B2A
330
1B2B
330
1B2C
330
1B2D
330
1B2E
330
1B2F
330
1B35
330
1B36
330
1B3B
330
1B3C
330
1B3D
330
1B3F
330
1B40
330
1B41
330
1B42
330
1B43
330
1B44
330
1B46
330
1B47
330
1B48
330
1B49
330
1B4A
330
1B51
330
1B52
330
1B53
330
1B54
330
1B55
330
1B57
330
1B58
330
1B59
330
1B5A
330
1B5B
330
1B5C
330
1B5D
330
1B5E
330
1B5F
330
1B60
330
1B61
330
1B62
330
1B65
330
1B67
  0
IDBUFFER
  5
1D31
330
0
100
AcDbIdBuffer
  0
IDBUFFER
  5
1D32
330
0
100
AcDbIdBuffer
  0
IDBUFFER
  5
1D33
330
0
100
AcDbIdBuffer
  0
IDBUFFER
  5
1D34
330
0
100
AcDbIdBuffer
  0
IDBUFFER
  5
1D35
330
0
100
AcDbIdBuffer
  0
IDBUFFER
  5
1D36
330
0
100
AcDbIdBuffer
  0
IDBUFFER
  5
1D37
330
0
100
AcDbIdBuffer
330
F8
330
F9
330
FA
  0
ENDSEC
  0
EOF
