  0
SECTION
  2
HEADER
  9
$ACADVER
  1
AC1014
  9
$ACADMAINTVER
 70
     0
  9
$DWGCODEPAGE
  3
ANSI_932
  9
$INSBASE
 10
0.0
 20
0.0
 30
0.0
  9
$EXTMIN
 10
-39.075351
 20
52.994871
 30
9.571049
  9
$EXTMAX
 10
243.473716
 20
247.994871
 30
9.571049
  9
$LIMMIN
 10
0.0
 20
0.0
  9
$LIMMAX
 10
400.0
 20
280.0
  9
$ORTHOMODE
 70
     1
  9
$REGENMODE
 70
     1
  9
$FILLMODE
 70
     0
  9
$QTEXTMODE
 70
     0
  9
$MIRRTEXT
 70
     1
  9
$DRAGMODE
 70
     2
  9
$LTSCALE
 40
1.0
  9
$OSMODE
 70
    32
  9
$ATTMODE
 70
     1
  9
$TEXTSIZE
 40
5.0
  9
$TRACEWID
 40
0.05
  9
$TEXTSTYLE
  7
BIGFONT
  9
$CLAYER
  8
3
  9
$CELTYPE
  6
BYLAYER
  9
$CECOLOR
 62
   256
  9
$CELTSCALE
 40
1.0
  9
$DELOBJ
 70
     1
  9
$DISPSILH
 70
     0
  9
$DIMSCALE
 40
0.0
  9
$DIMASZ
 40
2.5
  9
$DIMEXO
 40
1.0
  9
$DIMDLI
 40
0.38
  9
$DIMRND
 40
0.0
  9
$DIMDLE
 40
0.0
  9
$DIMEXE
 40
1.0
  9
$DIMTP
 40
0.0
  9
$DIMTM
 40
0.0
  9
$DIMTXT
 40
5.0
  9
$DIMCEN
 40
0.09
  9
$DIMTSZ
 40
0.0
  9
$DIMTOL
 70
     0
  9
$DIMLIM
 70
     0
  9
$DIMTIH
 70
     0
  9
$DIMTOH
 70
     1
  9
$DIMSE1
 70
     0
  9
$DIMSE2
 70
     0
  9
$DIMTAD
 70
     0
  9
$DIMZIN
 70
     8
  9
$DIMBLK
  1

  9
$DIMASO
 70
     1
  9
$DIMSHO
 70
     1
  9
$DIMPOST
  1

  9
$DIMAPOST
  1

  9
$DIMALT
 70
     0
  9
$DIMALTD
 70
     2
  9
$DIMALTF
 40
25.4
  9
$DIMLFAC
 40
1.0
  9
$DIMTOFL
 70
     0
  9
$DIMTVP
 40
0.0
  9
$DIMTIX
 70
     0
  9
$DIMSOXD
 70
     0
  9
$DIMSAH
 70
     0
  9
$DIMBLK1
  1

  9
$DIMBLK2
  1

  9
$DIMSTYLE
  2
STANDARD
  9
$DIMCLRD
 70
     0
  9
$DIMCLRE
 70
     0
  9
$DIMCLRT
 70
     0
  9
$DIMTFAC
 40
1.0
  9
$DIMGAP
 40
0.09
  9
$DIMJUST
 70
     0
  9
$DIMSD1
 70
     0
  9
$DIMSD2
 70
     0
  9
$DIMTOLJ
 70
     1
  9
$DIMTZIN
 70
     8
  9
$DIMALTZ
 70
     0
  9
$DIMALTTZ
 70
     0
  9
$DIMFIT
 70
     3
  9
$DIMUPT
 70
     1
  9
$DIMUNIT
 70
     2
  9
$DIMDEC
 70
     1
  9
$DIMTDEC
 70
     1
  9
$DIMALTU
 70
     2
  9
$DIMALTTD
 70
     2
  9
$DIMTXSTY
  7
STANDARD
  9
$DIMAUNIT
 70
     0
  9
$LUNITS
 70
     2
  9
$LUPREC
 70
     2
  9
$SKETCHINC
 40
0.1
  9
$FILLETRAD
 40
1.5
  9
$AUNITS
 70
     0
  9
$AUPREC
 70
     0
  9
$MENU
  1
acad
  9
$ELEVATION
 40
0.0
  9
$PELEVATION
 40
0.0
  9
$THICKNESS
 40
0.0
  9
$LIMCHECK
 70
     0
  9
$BLIPMODE
 70
     1
  9
$CHAMFERA
 40
0.0
  9
$CHAMFERB
 40
0.0
  9
$CHAMFERC
 40
0.0
  9
$CHAMFERD
 40
0.0
  9
$SKPOLY
 70
     0
  9
$TDCREATE
 40
2449283.567812500
  9
$TDUPDATE
 40
2453089.720942013
  9
$TDINDWG
 40
0.9891262847
  9
$TDUSRTIMER
 40
0.9891262847
  9
$USRTIMER
 70
     1
  9
$ANGBASE
 50
0.0
  9
$ANGDIR
 70
     0
  9
$PDMODE
 70
     0
  9
$PDSIZE
 40
0.0
  9
$PLINEWID
 40
0.0
  9
$COORDS
 70
     2
  9
$SPLFRAME
 70
     0
  9
$SPLINETYPE
 70
     6
  9
$SPLINESEGS
 70
     8
  9
$ATTDIA
 70
     0
  9
$ATTREQ
 70
     1
  9
$HANDLING
 70
     1
  9
$HANDSEED
  5
177D
  9
$SURFTAB1
 70
     6
  9
$SURFTAB2
 70
     6
  9
$SURFTYPE
 70
     6
  9
$SURFU
 70
     6
  9
$SURFV
 70
     6
  9
$UCSNAME
  2

  9
$UCSORG
 10
0.0
 20
0.0
 30
0.0
  9
$UCSXDIR
 10
1.0
 20
0.0
 30
0.0
  9
$UCSYDIR
 10
0.0
 20
1.0
 30
0.0
  9
$PUCSNAME
  2

  9
$PUCSORG
 10
0.0
 20
0.0
 30
0.0
  9
$PUCSXDIR
 10
1.0
 20
0.0
 30
0.0
  9
$PUCSYDIR
 10
0.0
 20
1.0
 30
0.0
  9
$USERI1
 70
     0
  9
$USERI2
 70
     0
  9
$USERI3
 70
     0
  9
$USERI4
 70
     0
  9
$USERI5
 70
     0
  9
$USERR1
 40
0.0
  9
$USERR2
 40
0.0
  9
$USERR3
 40
0.0
  9
$USERR4
 40
0.0
  9
$USERR5
 40
0.0
  9
$WORLDVIEW
 70
     1
  9
$SHADEDGE
 70
     3
  9
$SHADEDIF
 70
    70
  9
$TILEMODE
 70
     1
  9
$MAXACTVP
 70
    16
  9
$PINSBASE
 10
0.0
 20
0.0
 30
0.0
  9
$PLIMCHECK
 70
     0
  9
$PEXTMIN
 10
1.000000E+20
 20
1.000000E+20
 30
1.000000E+20
  9
$PEXTMAX
 10
-1.000000E+20
 20
-1.000000E+20
 30
-1.000000E+20
  9
$PLIMMIN
 10
0.0
 20
0.0
  9
$PLIMMAX
 10
12.0
 20
9.0
  9
$UNITMODE
 70
     0
  9
$VISRETAIN
 70
     0
  9
$PLINEGEN
 70
     0
  9
$PSLTSCALE
 70
     1
  9
$TREEDEPTH
 70
  3020
  9
$PICKSTYLE
 70
     1
  9
$CMLSTYLE
  2
STANDARD
  9
$CMLJUST
 70
     0
  9
$CMLSCALE
 40
1.0
  9
$PROXYGRAPHICS
 70
     1
  9
$MEASUREMENT
 70
     0
  0
ENDSEC
  0
SECTION
  2
CLASSES
  0
CLASS
  1
LWPOLYLINE
  2
AcDbPolyline
  3
"AutoCAD"
 90
        0
280
     0
281
     1
  0
CLASS
  1
DICTIONARYVAR
  2
AcDbDictionaryVar
  3
"AutoCAD"
 90
        0
280
     0
281
     0
  0
CLASS
  1
HATCH
  2
AcDbHatch
  3
"ACAD_SEDONA"
 90
        0
280
     0
281
     1
  0
ENDSEC
  0
SECTION
  2
TABLES
  0
TABLE
  2
VPORT
  5
3CD
100
AcDbSymbolTable
 70
     1
  0
VPORT
  5
176A
100
AcDbSymbolTableRecord
100
AcDbViewportTableRecord
  2
*ACTIVE
 70
     0
 10
0.0
 20
0.0
 11
1.0
 21
1.0
 12
248.004956
 22
195.31987
 13
0.0
 23
0.0
 14
1.0
 24
1.0
 15
5.0
 25
5.0
 16
0.0
 26
0.0
 36
1.0
 17
0.0
 27
0.0
 37
0.0
 40
460.646319
 41
1.591963
 42
50.0
 43
0.0
 44
0.0
 50
0.0
 51
0.0
 71
     0
 72
 20000
 73
     1
 74
     1
 75
     0
 76
     0
 77
     0
 78
     0
  0
ENDTAB
  0
TABLE
  2
LTYPE
  5
3CA
100
AcDbSymbolTable
 70
    29
  0
LTYPE
  5
3D7
100
AcDbSymbolTableRecord
100
AcDbLinetypeTableRecord
  2
BYBLOCK
 70
     0
  3

 72
    65
 73
     0
 40
0.0
  0
LTYPE
  5
3D8
100
AcDbSymbolTableRecord
100
AcDbLinetypeTableRecord
  2
BYLAYER
 70
     0
  3

 72
    65
 73
     0
 40
0.0
  0
LTYPE
  5
3D9
100
AcDbSymbolTableRecord
100
AcDbLinetypeTableRecord
  2
CONTINUOUS
 70
     0
  3
Solid line
 72
    65
 73
     0
 40
0.0
  0
LTYPE
  5
3F5
100
AcDbSymbolTableRecord
100
AcDbLinetypeTableRecord
  2
BORDER
 70
     0
  3
__ __ . __ __ . __ __ . __ __ . __ __ . __ __ .
 72
    65
 73
     6
 40
1.75
 49
0.5
 74
     0
 49
-0.25
 74
     0
 49
0.5
 74
     0
 49
-0.25
 74
     0
 49
0.0
 74
     0
 49
-0.25
 74
     0
  0
LTYPE
  5
3F6
100
AcDbSymbolTableRecord
100
AcDbLinetypeTableRecord
  2
BORDER2
 70
     0
  3
__.__.__.__.__.__.__.__.__.__.__.__.__.__.__.__
 72
    65
 73
     6
 40
0.875
 49
0.25
 74
     0
 49
-0.125
 74
     0
 49
0.25
 74
     0
 49
-0.125
 74
     0
 49
0.0
 74
     0
 49
-0.125
 74
     0
  0
LTYPE
  5
3F7
100
AcDbSymbolTableRecord
100
AcDbLinetypeTableRecord
  2
BORDERX2
 70
     0
  3
____  ____  .  ____  ____  .  ____  ____  .  __
 72
    65
 73
     6
 40
3.5
 49
1.0
 74
     0
 49
-0.5
 74
     0
 49
1.0
 74
     0
 49
-0.5
 74
     0
 49
0.0
 74
     0
 49
-0.5
 74
     0
  0
LTYPE
  5
3F8
100
AcDbSymbolTableRecord
100
AcDbLinetypeTableRecord
  2
CENTER
 70
     0
  3
____ _ ____ _ ____ _ ____ _ ____ _ ____ _ ____ 
 72
    65
 73
     4
 40
2.0
 49
1.25
 74
     0
 49
-0.25
 74
     0
 49
0.25
 74
     0
 49
-0.25
 74
     0
  0
LTYPE
  5
3F9
100
AcDbSymbolTableRecord
100
AcDbLinetypeTableRecord
  2
CENTER2
 70
     0
  3
___ _ ___ _ ___ _ ___ _ ___ _ ___ _ ___ _ ___ _
 72
    65
 73
     4
 40
1.125
 49
0.75
 74
     0
 49
-0.125
 74
     0
 49
0.125
 74
     0
 49
-0.125
 74
     0
  0
LTYPE
  5
3FA
100
AcDbSymbolTableRecord
100
AcDbLinetypeTableRecord
  2
CENTERX2
 70
     0
  3
________  __  ________  __  ________  __  _____
 72
    65
 73
     4
 40
4.0
 49
2.5
 74
     0
 49
-0.5
 74
     0
 49
0.5
 74
     0
 49
-0.5
 74
     0
  0
LTYPE
  5
3FB
100
AcDbSymbolTableRecord
100
AcDbLinetypeTableRecord
  2
DASHDOT
 70
     0
  3
__ . __ . __ . __ . __ . __ . __ . __ . __ . __
 72
    65
 73
     4
 40
1.0
 49
0.5
 74
     0
 49
-0.25
 74
     0
 49
0.0
 74
     0
 49
-0.25
 74
     0
  0
LTYPE
  5
3FC
100
AcDbSymbolTableRecord
100
AcDbLinetypeTableRecord
  2
DASHDOT2
 70
     0
  3
_._._._._._._._._._._._._._._._._._._._._._._._
 72
    65
 73
     4
 40
0.5
 49
0.25
 74
     0
 49
-0.125
 74
     0
 49
0.0
 74
     0
 49
-0.125
 74
     0
  0
LTYPE
  5
3FD
100
AcDbSymbolTableRecord
100
AcDbLinetypeTableRecord
  2
DASHDOTX2
 70
     0
  3
____  .  ____  .  ____  .  ____  .  ____  .  __
 72
    65
 73
     4
 40
2.0
 49
1.0
 74
     0
 49
-0.5
 74
     0
 49
0.0
 74
     0
 49
-0.5
 74
     0
  0
LTYPE
  5
3FE
100
AcDbSymbolTableRecord
100
AcDbLinetypeTableRecord
  2
DASHED
 70
     0
  3
__ __ __ __ __ __ __ __ __ __ __ __ __ __ __ __
 72
    65
 73
     2
 40
0.75
 49
0.5
 74
     0
 49
-0.25
 74
     0
  0
LTYPE
  5
3FF
100
AcDbSymbolTableRecord
100
AcDbLinetypeTableRecord
  2
DASHED2
 70
     0
  3
_ _ _ _ _ _ _ _ _ _ _ _ _ _ _ _ _ _ _ _ _ _ _ _
 72
    65
 73
     2
 40
0.375
 49
0.25
 74
     0
 49
-0.125
 74
     0
  0
LTYPE
  5
400
100
AcDbSymbolTableRecord
100
AcDbLinetypeTableRecord
  2
DASHEDX2
 70
     0
  3
____  ____  ____  ____  ____  ____  ____  ____ 
 72
    65
 73
     2
 40
1.5
 49
1.0
 74
     0
 49
-0.5
 74
     0
  0
LTYPE
  5
401
100
AcDbSymbolTableRecord
100
AcDbLinetypeTableRecord
  2
DIVIDE
 70
     0
  3
____ . . ____ . . ____ . . ____ . . ____ . . __
 72
    65
 73
     6
 40
1.25
 49
0.5
 74
     0
 49
-0.25
 74
     0
 49
0.0
 74
     0
 49
-0.25
 74
     0
 49
0.0
 74
     0
 49
-0.25
 74
     0
  0
LTYPE
  5
402
100
AcDbSymbolTableRecord
100
AcDbLinetypeTableRecord
  2
DIVIDE2
 70
     0
  3
__..__..__..__..__..__..__..__..__..__..__..__.
 72
    65
 73
     6
 40
0.625
 49
0.25
 74
     0
 49
-0.125
 74
     0
 49
0.0
 74
     0
 49
-0.125
 74
     0
 49
0.0
 74
     0
 49
-0.125
 74
     0
  0
LTYPE
  5
403
100
AcDbSymbolTableRecord
100
AcDbLinetypeTableRecord
  2
DIVIDEX2
 70
     0
  3
________  .  .  ________  .  .  ________  .  . 
 72
    65
 73
     6
 40
2.5
 49
1.0
 74
     0
 49
-0.5
 74
     0
 49
0.0
 74
     0
 49
-0.5
 74
     0
 49
0.0
 74
     0
 49
-0.5
 74
     0
  0
LTYPE
  5
404
100
AcDbSymbolTableRecord
100
AcDbLinetypeTableRecord
  2
DOT
 70
     0
  3
. . . . . . . . . . . . . . . . . . . . . . . .
 72
    65
 73
     2
 40
0.25
 49
0.0
 74
     0
 49
-0.25
 74
     0
  0
LTYPE
  5
405
100
AcDbSymbolTableRecord
100
AcDbLinetypeTableRecord
  2
DOT2
 70
     0
  3
...............................................
 72
    65
 73
     2
 40
0.125
 49
0.0
 74
     0
 49
-0.125
 74
     0
  0
LTYPE
  5
406
100
AcDbSymbolTableRecord
100
AcDbLinetypeTableRecord
  2
DOTX2
 70
     0
  3
.  .  .  .  .  .  .  .  .  .  .  .  .  .  .  . 
 72
    65
 73
     2
 40
0.5
 49
0.0
 74
     0
 49
-0.5
 74
     0
  0
LTYPE
  5
407
100
AcDbSymbolTableRecord
100
AcDbLinetypeTableRecord
  2
HIDDEN
 70
     0
  3
__ __ __ __ __ __ __ __ __ __ __ __ __ __ __ __
 72
    65
 73
     2
 40
0.375
 49
0.25
 74
     0
 49
-0.125
 74
     0
  0
LTYPE
  5
408
100
AcDbSymbolTableRecord
100
AcDbLinetypeTableRecord
  2
HIDDEN2
 70
     0
  3
_ _ _ _ _ _ _ _ _ _ _ _ _ _ _ _ _ _ _ _ _ _ _ _
 72
    65
 73
     2
 40
0.1875
 49
0.125
 74
     0
 49
-0.0625
 74
     0
  0
LTYPE
  5
409
100
AcDbSymbolTableRecord
100
AcDbLinetypeTableRecord
  2
HIDDENX2
 70
     0
  3
____ ____ ____ ____ ____ ____ ____ ____ ____ __
 72
    65
 73
     2
 40
0.75
 49
0.5
 74
     0
 49
-0.25
 74
     0
  0
LTYPE
  5
40A
100
AcDbSymbolTableRecord
100
AcDbLinetypeTableRecord
  2
PHANTOM
 70
     0
  3
______  __  __  ______  __  __  ______  __  __ 
 72
    65
 73
     6
 40
2.5
 49
1.25
 74
     0
 49
-0.25
 74
     0
 49
0.25
 74
     0
 49
-0.25
 74
     0
 49
0.25
 74
     0
 49
-0.25
 74
     0
  0
LTYPE
  5
40B
100
AcDbSymbolTableRecord
100
AcDbLinetypeTableRecord
  2
PHANTOM2
 70
     0
  3
___ _ _ ___ _ _ ___ _ _ ___ _ _ ___ _ _ ___ _ _
 72
    65
 73
     6
 40
1.25
 49
0.625
 74
     0
 49
-0.125
 74
     0
 49
0.125
 74
     0
 49
-0.125
 74
     0
 49
0.125
 74
     0
 49
-0.125
 74
     0
  0
LTYPE
  5
40C
100
AcDbSymbolTableRecord
100
AcDbLinetypeTableRecord
  2
PHANTOMX2
 70
     0
  3
____________    ____    ____    ____________   
 72
    65
 73
     6
 40
5.0
 49
2.5
 74
     0
 49
-0.5
 74
     0
 49
0.5
 74
     0
 49
-0.5
 74
     0
 49
0.5
 74
     0
 49
-0.5
 74
     0
  0
LTYPE
  5
40D
100
AcDbSymbolTableRecord
100
AcDbLinetypeTableRecord
  2
TENSEN
 70
     0
  3

 72
    65
 73
     2
 40
4.0
 49
3.0
 74
     0
 49
-1.0
 74
     0
  0
LTYPE
  5
40E
100
AcDbSymbolTableRecord
100
AcDbLinetypeTableRecord
  2
ITTEN
 70
     0
  3

 72
    65
 73
     4
 40
8.0
 49
5.0
 74
     0
 49
-1.0
 74
     0
 49
1.0
 74
     0
 49
-1.0
 74
     0
  0
LTYPE
  5
40F
100
AcDbSymbolTableRecord
100
AcDbLinetypeTableRecord
  2
TENSEN3
 70
     0
  3

 72
    65
 73
     2
 40
4.0
 49
3.0
 74
     0
 49
-1.0
 74
     0
  0
LTYPE
  5
410
100
AcDbSymbolTableRecord
100
AcDbLinetypeTableRecord
  2
ITTEN1
 70
     0
  3

 72
    65
 73
     4
 40
8.2
 49
5.0
 74
     0
 49
-1.0
 74
     0
 49
1.2
 74
     0
 49
-1.0
 74
     0
  0
ENDTAB
  0
TABLE
  2
LAYER
  5
3C7
100
AcDbSymbolTable
 70
    12
  0
LAYER
  5
3D4
100
AcDbSymbolTableRecord
100
AcDbLayerTableRecord
  2
0
 70
     0
 62
     7
  6
CONTINUOUS
  0
LAYER
  5
416
100
AcDbSymbolTableRecord
100
AcDbLayerTableRecord
  2
DAI
 70
     0
 62
     8
  6
CONTINUOUS
  0
LAYER
  5
417
100
AcDbSymbolTableRecord
100
AcDbLayerTableRecord
  2
1
 70
     0
 62
     1
  6
ITTEN1
  0
LAYER
  5
418
100
AcDbSymbolTableRecord
100
AcDbLayerTableRecord
  2
2
 70
     0
 62
     2
  6
TENSEN
  0
LAYER
  5
419
100
AcDbSymbolTableRecord
100
AcDbLayerTableRecord
  2
3
 70
     0
 62
     3
  6
CONTINUOUS
  0
LAYER
  5
41A
100
AcDbSymbolTableRecord
100
AcDbLayerTableRecord
  2
4
 70
     0
 62
     6
  6
CONTINUOUS
  0
LAYER
  5
41B
100
AcDbSymbolTableRecord
100
AcDbLayerTableRecord
  2
5
 70
     0
 62
     6
  6
TENSEN3
  0
LAYER
  5
41C
100
AcDbSymbolTableRecord
100
AcDbLayerTableRecord
  2
6
 70
     0
 62
     6
  6
ITTEN
  0
LAYER
  5
41D
100
AcDbSymbolTableRecord
100
AcDbLayerTableRecord
  2
7
 70
     0
 62
     3
  6
TENSEN
  0
LAYER
  5
41E
100
AcDbSymbolTableRecord
100
AcDbLayerTableRecord
  2
8
 70
     0
 62
     3
  6
ITTEN1
  0
LAYER
  5
41F
100
AcDbSymbolTableRecord
100
AcDbLayerTableRecord
  2
DEFPOINTS
 70
     0
 62
     7
  6
CONTINUOUS
  0
LAYER
  5
420
100
AcDbSymbolTableRecord
100
AcDbLayerTableRecord
  2
ASHADE
 70
     0
 62
     7
  6
CONTINUOUS
  0
ENDTAB
  0
TABLE
  2
STYLE
  5
3C8
100
AcDbSymbolTable
 70
    20
  0
STYLE
  5
3D5
100
AcDbSymbolTableRecord
100
AcDbTextStyleTableRecord
  2
STANDARD
 70
     0
 40
0.0
 41
1.0
 50
0.0
 71
     0
 42
0.2
  3
txt
  4

  0
STYLE
  5
3E2
100
AcDbSymbolTableRecord
100
AcDbTextStyleTableRecord
  2
TEXT-1
 70
     0
 40
0.0
 41
1.0
 50
0.0
 71
     0
 42
0.2
  3
italicc.shx
  4

  0
STYLE
  5
3E3
100
AcDbSymbolTableRecord
100
AcDbTextStyleTableRecord
  2
TEST1
 70
     0
 40
0.0
 41
1.0
 50
0.0
 71
     0
 42
0.2
  3
italicc.shx
  4

  0
STYLE
  5
3E4
100
AcDbSymbolTableRecord
100
AcDbTextStyleTableRecord
  2
TEST2
 70
     0
 40
10.0
 41
1.0
 50
0.0
 71
     0
 42
10.0
  3
txt
  4
extfont
  0
STYLE
  5
3E5
100
AcDbSymbolTableRecord
100
AcDbTextStyleTableRecord
  2
BIGFONT
 70
     0
 40
5.0
 41
0.7
 50
0.0
 71
     0
 42
5.0
  3
txt.shx
  4
extfont.shx
  0
STYLE
  5
3E6
100
AcDbSymbolTableRecord
100
AcDbTextStyleTableRecord
  2
ROMAND
 70
     0
 40
4.0
 41
0.6
 50
0.0
 71
     0
 42
4.0
  3
romand
  4

  0
STYLE
  5
3E7
100
AcDbSymbolTableRecord
100
AcDbTextStyleTableRecord
  2
EXTFONT
 70
     0
 40
3.5
 41
0.5
 50
0.0
 71
     0
 42
3.5
  3
txt.shx
  4
extfont
  0
STYLE
  5
3E8
100
AcDbSymbolTableRecord
100
AcDbTextStyleTableRecord
  2
ROMANS
 70
     0
 40
2.5
 41
0.6
 50
0.0
 71
     0
 42
2.5
  3
romans
  4

  0
STYLE
  5
3E9
100
AcDbSymbolTableRecord
100
AcDbTextStyleTableRecord
  2
SCRIPTC
 70
     0
 40
20.0
 41
1.0
 50
0.0
 71
     0
 42
20.0
  3
complex.shx
  4

  0
STYLE
  5
3EA
100
AcDbSymbolTableRecord
100
AcDbTextStyleTableRecord
  2
SCRIPTS
 70
     0
 40
20.0
 41
1.0
 50
0.0
 71
     0
 42
20.0
  3
scripts
  4

  0
STYLE
  5
3EB
100
AcDbSymbolTableRecord
100
AcDbTextStyleTableRecord
  2
ROMANT
 70
     0
 40
20.0
 41
1.0
 50
0.0
 71
     0
 42
20.0
  3
romant
  4

  0
STYLE
  5
3EC
100
AcDbSymbolTableRecord
100
AcDbTextStyleTableRecord
  2
GOTHICE
 70
     0
 40
20.0
 41
1.0
 50
0.0
 71
     0
 42
20.0
  3
gothice
  4

  0
STYLE
  5
3ED
100
AcDbSymbolTableRecord
100
AcDbTextStyleTableRecord
  2
GOTHICG
 70
     0
 40
20.0
 41
1.0
 50
0.0
 71
     0
 42
20.0
  3
gothicg
  4

  0
STYLE
  5
3EE
100
AcDbSymbolTableRecord
100
AcDbTextStyleTableRecord
  2
SANSSERIF
 70
     0
 40
20.0
 41
1.0
 50
0.0
 71
     0
 42
20.0
  3
sas_____.pfb
  4

  0
STYLE
  5
3EF
100
AcDbSymbolTableRecord
100
AcDbTextStyleTableRecord
  2
TECHNICBOLD
 70
     0
 40
20.0
 41
1.0
 50
0.0
 71
     0
 42
20.0
  3
teb_____.pfb
  4

  0
STYLE
  5
3F0
100
AcDbSymbolTableRecord
100
AcDbTextStyleTableRecord
  2
TXT
 70
     0
 40
20.0
 41
1.0
 50
0.0
 71
     0
 42
20.0
  3
txt
  4

  0
STYLE
  5
3F1
100
AcDbSymbolTableRecord
100
AcDbTextStyleTableRecord
  2
MONOTXT
 70
     0
 40
20.0
 41
1.0
 50
0.0
 71
     0
 42
20.0
  3
monotxt
  4

  0
STYLE
  5
3F2
100
AcDbSymbolTableRecord
100
AcDbTextStyleTableRecord
  2
TECHNICLIGHT
 70
     0
 40
3.6
 41
0.8
 50
0.0
 71
     0
 42
3.6
  3
tel_____.pfb
  4

  0
STYLE
  5
3F3
100
AcDbSymbolTableRecord
100
AcDbTextStyleTableRecord
  2
GREEKS
 70
     0
 40
20.0
 41
1.0
 50
0.0
 71
     0
 42
20.0
  3
greeks
  4

  0
STYLE
  5
3F4
100
AcDbSymbolTableRecord
100
AcDbTextStyleTableRecord
  2
ASHADE
 70
     0
 40
0.2
 41
1.0
 50
0.0
 71
     0
 42
5.0
  3
simplex
  4

  0
ENDTAB
  0
TABLE
  2
VIEW
  5
3CB
100
AcDbSymbolTable
 70
     1
  0
VIEW
  5
411
100
AcDbSymbolTableRecord
100
AcDbViewTableRecord
  2
OLE1
 70
     0
 40
108.5
 10
105.318611
 20
217.75
 41
173.637221
 11
0.0
 21
0.0
 31
1.0
 12
0.0
 22
0.0
 32
0.0
 42
50.0
 43
0.0
 44
0.0
 50
0.0
 71
     0
  0
ENDTAB
  0
TABLE
  2
UCS
  5
3CC
100
AcDbSymbolTable
 70
     0
  0
ENDTAB
  0
TABLE
  2
APPID
  5
3CE
100
AcDbSymbolTable
 70
     2
  0
APPID
  5
3D6
100
AcDbSymbolTableRecord
100
AcDbRegAppTableRecord
  2
ACAD
 70
     0
  0
APPID
  5
414
100
AcDbSymbolTableRecord
100
AcDbRegAppTableRecord
  2
AVE_RENDER
 70
     0
  0
ENDTAB
  0
TABLE
  2
DIMSTYLE
  5
3CF
100
AcDbSymbolTable
 70
     1
  0
DIMSTYLE
105
425
100
AcDbSymbolTableRecord
100
AcDbDimStyleTableRecord
  2
STANDARD
 70
     0
  3

  4

  5

  6

  7

 40
1.0
 41
0.18
 42
0.0625
 43
0.38
 44
0.18
 45
0.0
 46
0.0
 47
0.0
 48
0.0
140
0.18
141
0.09
142
0.0
143
25.4
144
1.0
145
0.0
146
1.0
147
0.09
 71
     0
 72
     0
 73
     1
 74
     1
 75
     0
 76
     0
 77
     0
 78
     0
170
     0
171
     2
172
     0
173
     0
174
     0
175
     0
176
     0
177
     0
178
     0
270
     2
271
     4
272
     4
273
     2
274
     2
340
3D5
275
     0
280
     0
281
     0
282
     0
283
     1
284
     0
285
     0
286
     0
287
     3
288
     0
  0
ENDTAB
  0
TABLE
  2
BLOCK_RECORD
  5
3C6
100
AcDbSymbolTable
 70
    19
  0
BLOCK_RECORD
  5
3DD
100
AcDbSymbolTableRecord
100
AcDbBlockTableRecord
  2
*MODEL_SPACE
  0
BLOCK_RECORD
  5
3DA
100
AcDbSymbolTableRecord
100
AcDbBlockTableRecord
  2
*PAPER_SPACE
  0
BLOCK_RECORD
  5
3E1
100
AcDbSymbolTableRecord
100
AcDbBlockTableRecord
  2
AVE_RENDER
  0
BLOCK_RECORD
  5
1182
100
AcDbSymbolTableRecord
100
AcDbBlockTableRecord
  2
A$C31B725D5
  0
BLOCK_RECORD
  5
11DB
100
AcDbSymbolTableRecord
100
AcDbBlockTableRecord
  2
A$C5CFE5BB2
  0
BLOCK_RECORD
  5
1200
100
AcDbSymbolTableRecord
100
AcDbBlockTableRecord
  2
*D3
  0
BLOCK_RECORD
  5
120D
100
AcDbSymbolTableRecord
100
AcDbBlockTableRecord
  2
A$C29A46910
  0
BLOCK_RECORD
  5
130D
100
AcDbSymbolTableRecord
100
AcDbBlockTableRecord
  2
A$C5E405B83
  0
BLOCK_RECORD
  5
1331
100
AcDbSymbolTableRecord
100
AcDbBlockTableRecord
  2
A$C28A64BA6
  0
BLOCK_RECORD
  5
1395
100
AcDbSymbolTableRecord
100
AcDbBlockTableRecord
  2
*D7
  0
BLOCK_RECORD
  5
13A2
100
AcDbSymbolTableRecord
100
AcDbBlockTableRecord
  2
*D8
  0
BLOCK_RECORD
  5
13AF
100
AcDbSymbolTableRecord
100
AcDbBlockTableRecord
  2
A$C50765934
  0
BLOCK_RECORD
  5
1468
100
AcDbSymbolTableRecord
100
AcDbBlockTableRecord
  2
A$C12236B7C
  0
BLOCK_RECORD
  5
148E
100
AcDbSymbolTableRecord
100
AcDbBlockTableRecord
  2
A$C1E8C0F59
  0
BLOCK_RECORD
  5
14F1
100
AcDbSymbolTableRecord
100
AcDbBlockTableRecord
  2
*D12
  0
BLOCK_RECORD
  5
14FE
100
AcDbSymbolTableRecord
100
AcDbBlockTableRecord
  2
A$C325F7C1E
  0
BLOCK_RECORD
  5
15A7
100
AcDbSymbolTableRecord
100
AcDbBlockTableRecord
  2
A$C0E736477
  0
BLOCK_RECORD
  5
15CE
100
AcDbSymbolTableRecord
100
AcDbBlockTableRecord
  2
A$C68E55F1B
  0
BLOCK_RECORD
  5
162C
100
AcDbSymbolTableRecord
100
AcDbBlockTableRecord
  2
*D16
  0
BLOCK_RECORD
  5
1639
100
AcDbSymbolTableRecord
100
AcDbBlockTableRecord
  2
A$C50CE67E4
  0
BLOCK_RECORD
  5
16DC
100
AcDbSymbolTableRecord
100
AcDbBlockTableRecord
  2
A$C01E076B9
  0
ENDTAB
  0
ENDSEC
  0
SECTION
  2
BLOCKS
  0
BLOCK
  5
423
100
AcDbEntity
  8
0
100
AcDbBlockBegin
  2
*MODEL_SPACE
 70
     0
 10
0.0
 20
0.0
 30
0.0
  3
*MODEL_SPACE
  1

  0
ENDBLK
  5
424
100
AcDbEntity
  8
0
100
AcDbBlockEnd
  0
BLOCK
  5
421
100
AcDbEntity
 67
     1
  8
0
100
AcDbBlockBegin
  2
*PAPER_SPACE
 70
     0
 10
0.0
 20
0.0
 30
0.0
  3
*PAPER_SPACE
  1

  0
ENDBLK
  5
422
100
AcDbEntity
 67
     1
  8
0
100
AcDbBlockEnd
  0
BLOCK
  5
F6
100
AcDbEntity
  8
0
100
AcDbBlockBegin
  2
AVE_RENDER
 70
     0
 10
0.0
 20
0.0
 30
0.0
  3
AVE_RENDER
  1
AVE_RENDER
  0
ENDBLK
  5
F7
100
AcDbEntity
  8
0
100
AcDbBlockEnd
  0
BLOCK
  5
1184
100
AcDbEntity
  8
0
100
AcDbBlockBegin
  2
A$C31B725D5
 70
     0
 10
0.0
 20
0.0
 30
0.0
  3
A$C31B725D5
  1

  0
TEXT
  5
1183
100
AcDbEntity
  8
0
100
AcDbText
 10
0.0
 20
0.0
 30
0.0
 40
5.0
  1
平型ハンドル車
 41
0.7
  7
BIGFONT
100
AcDbText
  0
ENDBLK
  5
1185
100
AcDbEntity
  8
0
100
AcDbBlockEnd
  0
BLOCK
  5
11E6
100
AcDbEntity
  8
0
100
AcDbBlockBegin
  2
A$C5CFE5BB2
 70
     0
 10
0.0
 20
0.0
 30
0.0
  3
A$C5CFE5BB2
  1

  0
ARC
  5
11DC
100
AcDbEntity
  8
3
100
AcDbCircle
 10
26.505888
 20
-9.518297
 30
0.0
 40
25.508766
100
AcDbArc
 50
61.953
 51
131.810447
  0
ARC
  5
11DD
100
AcDbEntity
  8
3
100
AcDbCircle
 10
26.505888
 20
25.507847
 30
0.0
 40
25.508766
100
AcDbArc
 50
228.189553
 51
298.047
  0
LINE
  5
11DE
100
AcDbEntity
  8
1
100
AcDbLine
 10
53.5
 20
7.994775
 30
0.0
 11
0.0
 21
7.994775
 31
0.0
  0
ARC
  5
11DF
100
AcDbEntity
  8
3
100
AcDbCircle
 10
10.125
 20
7.994775
 30
0.0
 40
1.625
100
AcDbArc
 50
112.619865
 51
247.380135
  0
ARC
  5
11E0
100
AcDbEntity
  8
3
100
AcDbCircle
 10
45.0
 20
33.619775
 30
0.0
 40
21.625
100
AcDbArc
 50
252.507675
 51
287.492325
  0
ARC
  5
11E1
100
AcDbEntity
  8
3
100
AcDbCircle
 10
45.0
 20
-17.630225
 30
0.0
 40
21.625
100
AcDbArc
 50
72.507675
 51
107.492325
  0
LINE
  5
11E2
100
AcDbEntity
  8
1
100
AcDbLine
 10
53.5
 20
7.994775
 30
0.0
 11
74.5
 21
7.994775
 31
0.0
  0
LINE
  5
11E3
100
AcDbEntity
  8
3
100
AcDbLine
 10
51.5
 20
2.994775
 30
0.0
 11
51.5
 21
12.994775
 31
0.0
  0
LINE
  5
11E4
100
AcDbEntity
  8
3
100
AcDbLine
 10
58.5
 20
2.994775
 30
0.0
 11
51.5
 21
2.994775
 31
0.0
  0
LINE
  5
11E5
100
AcDbEntity
  8
3
100
AcDbLine
 10
51.5
 20
12.994775
 30
0.0
 11
58.5
 21
12.994775
 31
0.0
  0
ENDBLK
  5
11E7
100
AcDbEntity
  8
0
100
AcDbBlockEnd
  0
BLOCK
  5
120B
100
AcDbEntity
  8
0
100
AcDbBlockBegin
  2
*D3
 70
     1
 10
0.0
 20
0.0
 30
0.0
  3
*D3
  1

  0
LINE
  5
1201
100
AcDbEntity
  8
0
  6
BYBLOCK
 62
     0
100
AcDbLine
 10
276.528196
 20
206.302995
 30
0.0
 11
235.305533
 21
206.302995
 31
0.0
  0
LINE
  5
1202
100
AcDbEntity
  8
0
  6
BYBLOCK
 62
     0
100
AcDbLine
 10
276.528196
 20
66.302995
 30
0.0
 11
235.305533
 21
66.302995
 31
0.0
  0
LINE
  5
1203
100
AcDbEntity
  8
0
  6
BYBLOCK
 62
     0
100
AcDbLine
 10
236.305533
 20
204.302995
 30
0.0
 11
236.305533
 21
140.871967
 31
0.0
  0
LINE
  5
1204
100
AcDbEntity
  8
0
  6
BYBLOCK
 62
     0
100
AcDbLine
 10
236.305533
 20
68.302995
 30
0.0
 11
236.305533
 21
130.9553
 31
0.0
  0
SOLID
  5
1205
100
AcDbEntity
  8
0
  6
BYBLOCK
 62
     0
100
AcDbTrace
 10
235.972199
 20
204.302995
 30
0.0
 11
236.638866
 21
204.302995
 31
0.0
 12
236.305533
 22
206.302995
 32
0.0
 13
236.305533
 23
206.302995
 33
0.0
  0
SOLID
  5
1206
100
AcDbEntity
  8
0
  6
BYBLOCK
 62
     0
100
AcDbTrace
 10
235.972199
 20
68.302995
 30
0.0
 11
236.638866
 21
68.302995
 31
0.0
 12
236.305533
 22
66.302995
 32
0.0
 13
236.305533
 23
66.302995
 33
0.0
  0
MTEXT
  5
1207
100
AcDbEntity
  8
0
  6
BYBLOCK
 62
     0
100
AcDbMText
 10
236.305533
 20
135.913634
 30
0.0
 40
4.0
 41
0.0
 71
     5
 72
     5
  1
\A1;140
 11
0.0
 21
1.0
 31
0.0
  0
POINT
  5
1208
100
AcDbEntity
  8
DEFPOINTS
  6
BYBLOCK
 62
     0
100
AcDbPoint
 10
277.528196
 20
206.302995
 30
0.0
  0
POINT
  5
1209
100
AcDbEntity
  8
DEFPOINTS
  6
BYBLOCK
 62
     0
100
AcDbPoint
 10
277.528196
 20
66.302995
 30
0.0
  0
POINT
  5
120A
100
AcDbEntity
  8
DEFPOINTS
  6
BYBLOCK
 62
     0
100
AcDbPoint
 10
236.305533
 20
66.302995
 30
0.0
  0
ENDBLK
  5
120C
100
AcDbEntity
  8
0
100
AcDbBlockEnd
  0
BLOCK
  5
1270
100
AcDbEntity
  8
0
100
AcDbBlockBegin
  2
A$C29A46910
 70
     0
 10
0.0
 20
0.0
 30
0.0
  3
A$C29A46910
  1

  0
ARC
  5
120E
100
AcDbEntity
  8
3
100
AcDbCircle
 10
77.04886
 20
77.5
 30
8.416617
 40
61.0
100
AcDbArc
 50
0.0
 51
90.0
  0
LINE
  5
120F
100
AcDbEntity
  8
1
100
AcDbLine
 10
-0.45114
 20
77.5
 30
8.416617
 11
152.54886
 21
77.5
 31
8.416617
  0
CIRCLE
  5
1210
100
AcDbEntity
  8
3
100
AcDbCircle
 10
77.04886
 20
77.5
 30
8.416617
 40
70.0
  0
ARC
  5
1211
100
AcDbEntity
  8
3
100
AcDbCircle
 10
77.04886
 20
77.5
 30
8.416617
 40
18.0
100
AcDbArc
 50
270.0
 51
90.0
  0
ARC
  5
1212
100
AcDbEntity
  8
3
100
AcDbCircle
 10
77.04886
 20
77.5
 30
8.416617
 40
22.0
100
AcDbArc
 50
355.583002
 51
64.416998
  0
ARC
  5
1213
100
AcDbEntity
  8
3
100
AcDbCircle
 10
77.04886
 20
77.5
 30
8.416617
 40
19.488389
100
AcDbArc
 50
270.0
 51
90.0
  0
ARC
  5
1214
100
AcDbEntity
  8
3
100
AcDbCircle
 10
77.04886
 20
77.5
 30
8.416617
 40
52.0
100
AcDbArc
 50
339.966766
 51
80.033234
  0
ARC
  5
1215
100
AcDbEntity
  8
3
100
AcDbCircle
 10
77.04886
 20
77.5
 30
8.416617
 40
52.0
100
AcDbArc
 50
99.966766
 51
200.033234
  0
ARC
  5
1216
100
AcDbEntity
  8
3
100
AcDbCircle
 10
77.04886
 20
77.5
 30
8.416617
 40
18.0
100
AcDbArc
 50
90.0
 51
270.0
  0
ARC
  5
1217
100
AcDbEntity
  8
3
100
AcDbCircle
 10
77.04886
 20
77.5
 30
8.416617
 40
22.0
100
AcDbArc
 50
115.583002
 51
184.416998
  0
ARC
  5
1218
100
AcDbEntity
  8
3
100
AcDbCircle
 10
77.04886
 20
77.5
 30
8.416617
 40
19.25514
100
AcDbArc
 50
90.0
 51
270.0
  0
LINE
  5
1219
100
AcDbEntity
  8
1
100
AcDbLine
 10
77.04886
 20
155.0
 30
8.416617
 11
77.04886
 21
0.0
 31
8.416617
  0
ARC
  5
121A
100
AcDbEntity
  8
3
100
AcDbCircle
 10
77.04886
 20
77.5
 30
8.416617
 40
61.0
100
AcDbArc
 50
100.388858
 51
0.0
  0
LINE
  5
121B
100
AcDbEntity
  8
1
100
AcDbLine
 10
77.04886
 20
77.5
 30
8.416617
 11
11.844377
 21
39.854174
 31
8.416617
  0
LINE
  5
121C
100
AcDbEntity
  8
1
100
AcDbLine
 10
77.04886
 20
77.5
 30
8.416617
 11
142.036836
 21
39.979174
 31
8.416617
  0
ARC
  5
121D
100
AcDbEntity
  8
3
100
AcDbCircle
 10
77.04886
 20
77.5
 30
8.416617
 40
22.0
100
AcDbArc
 50
235.583002
 51
304.416998
  0
ARC
  5
121E
100
AcDbEntity
  8
3
100
AcDbCircle
 10
77.04886
 20
77.5
 30
8.416617
 40
52.0
100
AcDbArc
 50
219.966766
 51
320.033234
  0
LINE
  5
121F
100
AcDbEntity
  8
3
100
AcDbLine
 10
55.114201
 20
75.805674
 30
8.416617
 11
28.195168
 21
59.686612
 31
8.416617
  0
LINE
  5
1220
100
AcDbEntity
  8
3
100
AcDbLine
 10
64.614201
 20
59.351191
 30
8.416617
 11
37.195168
 21
44.098155
 31
8.416617
  0
ARC
  5
1221
100
AcDbEntity
  8
3
100
AcDbCircle
 10
55.460136
 20
65.035744
 30
8.416617
 40
28.709586
100
AcDbArc
 50
193.129921
 51
226.870079
  0
ARC
  5
1222
100
AcDbEntity
  8
3
100
AcDbCircle
 10
36.498006
 20
45.554313
 30
8.416617
 40
1.614445
100
AcDbArc
 50
245.662844
 51
295.583615
  0
ARC
  5
1223
100
AcDbEntity
  8
3
100
AcDbCircle
 10
29.107657
 20
58.354773
 30
8.416617
 40
1.614445
100
AcDbArc
 50
124.416385
 51
174.337156
  0
ARC
  5
1224
100
AcDbEntity
  8
3
100
AcDbCircle
 10
80.612438
 20
79.557433
 30
8.416617
 40
25.041839
100
AcDbArc
 50
190.022534
 51
229.977466
  0
ARC
  5
1225
100
AcDbEntity
  8
3
100
AcDbCircle
 10
64.083596
 20
59.816763
 30
8.416617
 40
0.705903
100
AcDbArc
 50
318.735141
 51
53.010996
  0
ARC
  5
1226
100
AcDbEntity
  8
3
100
AcDbCircle
 10
55.252095
 20
75.11337
 30
8.416617
 40
0.705903
100
AcDbArc
 50
6.989004
 51
101.264859
  0
LINE
  5
1227
100
AcDbEntity
  8
3
100
AcDbLine
 10
98.983519
 20
75.805674
 30
8.416617
 11
125.902552
 21
59.686612
 31
8.416617
  0
LINE
  5
1228
100
AcDbEntity
  8
3
100
AcDbLine
 10
89.483519
 20
59.351191
 30
8.416617
 11
116.902552
 21
44.098155
 31
8.416617
  0
TEXT
  5
1229
100
AcDbEntity
  8
3
100
AcDbText
 10
96.705593
 20
63.084936
 30
8.416617
 40
5.0
  1
S/SN-140
 50
330.0
 41
0.75
  7
BIGFONT
100
AcDbText
  0
ARC
  5
122A
100
AcDbEntity
  8
3
100
AcDbCircle
 10
98.845624
 20
75.11337
 30
8.416617
 40
0.705903
100
AcDbArc
 50
78.735141
 51
173.010996
  0
ARC
  5
122B
100
AcDbEntity
  8
3
100
AcDbCircle
 10
73.485282
 20
79.557433
 30
8.416617
 40
25.041839
100
AcDbArc
 50
310.022534
 51
349.977466
  0
ARC
  5
122C
100
AcDbEntity
  8
3
100
AcDbCircle
 10
90.014124
 20
59.816763
 30
8.416617
 40
0.705903
100
AcDbArc
 50
126.989004
 51
221.264859
  0
ARC
  5
122D
100
AcDbEntity
  8
3
100
AcDbCircle
 10
98.637584
 20
65.035744
 30
8.416617
 40
28.709586
100
AcDbArc
 50
313.129921
 51
346.870079
  0
ARC
  5
122E
100
AcDbEntity
  8
3
100
AcDbCircle
 10
117.599714
 20
45.554313
 30
8.416617
 40
1.614445
100
AcDbArc
 50
244.416385
 51
294.337156
  0
ARC
  5
122F
100
AcDbEntity
  8
3
100
AcDbCircle
 10
124.990063
 20
58.354773
 30
8.416617
 40
1.614445
100
AcDbArc
 50
5.662844
 51
55.583615
  0
ARC
  5
1230
100
AcDbEntity
  8
3
100
AcDbCircle
 10
77.04886
 20
102.428511
 30
8.416617
 40
28.709586
100
AcDbArc
 50
73.129921
 51
81.029997
  0
ARC
  5
1231
100
AcDbEntity
  8
3
100
AcDbCircle
 10
77.04886
 20
135.5
 30
8.416617
 40
6.5
100
AcDbArc
 50
270.0
 51
0.0
  0
ARC
  5
1232
100
AcDbEntity
  8
3
100
AcDbCircle
 10
77.04886
 20
73.385134
 30
8.416617
 40
25.041839
100
AcDbArc
 50
70.022534
 51
109.977466
  0
LINE
  5
1233
100
AcDbEntity
  8
1
100
AcDbLine
 10
55.04886
 20
135.5
 30
8.416617
 11
92.051792
 21
135.5
 31
8.416617
  0
LINE
  5
1234
100
AcDbEntity
  8
3
100
AcDbLine
 10
67.54886
 20
97.343135
 30
8.416617
 11
68.04886
 21
128.715232
 31
8.416617
  0
ARC
  5
1235
100
AcDbEntity
  8
3
100
AcDbCircle
 10
68.217359
 20
97.569866
 30
8.416617
 40
0.705903
100
AcDbArc
 50
198.735141
 51
293.010996
  0
ARC
  5
1236
100
AcDbEntity
  8
3
100
AcDbCircle
 10
66.163858
 20
134.554001
 30
8.416617
 40
2.948243
100
AcDbArc
 50
358.950496
 51
109.367232
  0
ARC
  5
1237
100
AcDbEntity
  8
3
100
AcDbCircle
 10
69.658511
 20
128.590913
 30
8.416617
 40
1.614445
100
AcDbArc
 50
125.662844
 51
175.583615
  0
ARC
  5
1238
100
AcDbEntity
  8
3
100
AcDbCircle
 10
77.04886
 20
135.5
 30
8.416617
 40
8.0
100
AcDbArc
 50
180.0
 51
270.0
  0
ARC
  5
1239
100
AcDbEntity
  8
3
100
AcDbCircle
 10
77.04886
 20
102.428511
 30
8.416617
 40
28.709586
100
AcDbArc
 50
102.494618
 51
106.870079
  0
LINE
  5
123A
100
AcDbEntity
  8
3
100
AcDbLine
 10
86.54886
 20
97.343135
 30
8.416617
 11
86.04886
 21
128.715232
 31
8.416617
  0
ARC
  5
123B
100
AcDbEntity
  8
3
100
AcDbCircle
 10
85.88036
 20
97.569866
 30
8.416617
 40
0.705903
100
AcDbArc
 50
246.989004
 51
341.264859
  0
ARC
  5
123C
100
AcDbEntity
  8
3
100
AcDbCircle
 10
84.439209
 20
128.590913
 30
8.416617
 40
1.614445
100
AcDbArc
 50
4.416385
 51
54.337156
  0
ARC
  5
123D
100
AcDbEntity
  8
3
100
AcDbCircle
 10
77.04886
 20
135.5
 30
8.416617
 40
8.0
100
AcDbArc
 50
15.115832
 51
18.405055
  0
ARC
  5
123E
100
AcDbEntity
  8
3
100
AcDbCircle
 10
86.126879
 20
135.390096
 30
8.416617
 40
2.580361
100
AcDbArc
 50
102.944502
 51
181.053857
  0
DIMENSION
  5
123F
100
AcDbEntity
  8
0
100
AcDbDimension
  2
*D3
 10
183.326197
 20
7.5
 30
8.416617
 11
183.326197
 21
77.110639
 31
8.416617
 12
-52.979336
 22
-58.802995
 32
8.416617
 70
   128
  3
STANDARD
100
AcDbAlignedDimension
 13
224.54886
 23
147.5
 33
8.416617
 14
224.54886
 24
7.5
 34
8.416617
 50
90.0
100
AcDbRotatedDimension
1001
ACAD
1000
DSTYLE
1002
{
1070
   140
1040
4.0
1070
    77
1070
     0
1070
    40
1040
1.0
1070
   141
1040
0.0
1070
    41
1040
2.0
1002
}
  0
LINE
  5
1240
100
AcDbEntity
  8
3
100
AcDbLine
 10
248.54886
 20
77.5
 30
8.416617
 11
248.54886
 21
61.5
 31
8.416617
  0
LINE
  5
1241
100
AcDbEntity
  8
3
100
AcDbLine
 10
216.54886
 20
77.5
 30
8.416617
 11
216.54886
 21
59.5
 31
8.416617
  0
LINE
  5
1242
100
AcDbEntity
  8
1
100
AcDbLine
 10
224.54886
 20
154.0
 30
8.416617
 11
224.54886
 21
0.0
 31
8.416617
  0
LINE
  5
1243
100
AcDbEntity
  8
3
100
AcDbLine
 10
215.54886
 20
16.5
 30
8.416617
 11
215.54886
 21
77.5
 31
8.416617
  0
LINE
  5
1244
100
AcDbEntity
  8
3
100
AcDbLine
 10
233.54886
 20
16.5
 30
8.416617
 11
233.54886
 21
59.5
 31
8.416617
  0
ARC
  5
1245
100
AcDbEntity
  8
3
100
AcDbCircle
 10
224.54886
 20
16.5
 30
8.416617
 40
9.0
100
AcDbArc
 50
180.0
 51
0.0
  0
ARC
  5
1246
100
AcDbEntity
  8
3
100
AcDbCircle
 10
224.54886
 20
18.5
 30
8.416617
 40
7.0
100
AcDbArc
 50
4.096044
 51
175.903956
  0
ARC
  5
1247
100
AcDbEntity
  8
3
100
AcDbCircle
 10
214.474765
 20
19.431325
 30
8.416617
 40
3.121914
100
AcDbArc
 50
290.123814
 51
357.377737
  0
ARC
  5
1248
100
AcDbEntity
  8
3
100
AcDbCircle
 10
234.622954
 20
19.431325
 30
8.416617
 40
3.121914
100
AcDbArc
 50
182.622263
 51
249.876186
  0
LINE
  5
1249
100
AcDbEntity
  8
3
100
AcDbLine
 10
246.54886
 20
59.5
 30
8.416617
 11
233.54886
 21
59.5
 31
8.416617
  0
LINE
  5
124A
100
AcDbEntity
  8
3
100
AcDbLine
 10
219.869804
 20
56.539558
 30
8.416617
 11
219.989931
 21
51.755961
 31
8.416617
  0
LINE
  5
124B
100
AcDbEntity
  8
3
100
AcDbLine
 10
229.185057
 20
56.519637
 30
8.416617
 11
229.063766
 21
51.815634
 31
8.416617
  0
ARC
  5
124C
100
AcDbEntity
  8
2
100
AcDbCircle
 10
234.167566
 20
51.785514
 30
8.416617
 40
14.172783
100
AcDbArc
 50
161.881981
 51
179.804311
  0
ARC
  5
124D
100
AcDbEntity
  8
2
100
AcDbCircle
 10
211.499635
 20
51.51241
 30
8.416617
 40
17.561899
100
AcDbArc
 50
1.048988
 51
15.486833
  0
ARC
  5
124E
100
AcDbEntity
  8
3
100
AcDbCircle
 10
224.580029
 20
47.662953
 30
8.416617
 40
3.588064
100
AcDbArc
 50
210.25976
 51
329.74024
  0
ARC
  5
124F
100
AcDbEntity
  8
3
100
AcDbCircle
 10
232.781511
 20
51.909837
 30
8.416617
 40
12.820609
100
AcDbArc
 50
180.440379
 51
208.18274
  0
ARC
  5
1250
100
AcDbEntity
  8
3
100
AcDbCircle
 10
215.115941
 20
51.990387
 30
8.416617
 40
13.981441
100
AcDbArc
 50
333.970477
 51
358.989926
  0
ARC
  5
1251
100
AcDbEntity
  8
2
100
AcDbCircle
 10
224.543147
 20
63.604804
 30
8.416617
 40
4.253617
100
AcDbArc
 50
213.018674
 51
326.981326
  0
ARC
  5
1252
100
AcDbEntity
  8
2
100
AcDbCircle
 10
224.580029
 20
55.975414
 30
8.416617
 40
3.711329
100
AcDbArc
 50
33.377736
 51
146.622264
  0
ARC
  5
1253
100
AcDbEntity
  8
2
100
AcDbCircle
 10
224.639298
 20
71.460717
 30
8.416617
 40
4.345898
100
AcDbArc
 50
35.414823
 51
145.730599
  0
ARC
  5
1254
100
AcDbEntity
  8
3
100
AcDbCircle
 10
225.54886
 20
69.55
 30
8.416617
 40
14.05
100
AcDbArc
 50
235.291951
 51
304.708049
  0
LINE
  5
1255
100
AcDbEntity
  8
2
100
AcDbLine
 10
219.810842
 20
66.912819
 30
8.416617
 11
219.870538
 21
56.410429
 31
8.416617
  0
ARC
  5
1256
100
AcDbEntity
  8
2
100
AcDbCircle
 10
236.72757
 20
67.508568
 30
8.416617
 40
16.93529
100
AcDbArc
 50
157.798486
 51
201.553855
  0
LINE
  5
1257
100
AcDbEntity
  8
3
100
AcDbLine
 10
216.54886
 20
59.5
 30
8.416617
 11
217.54886
 21
58.0
 31
8.416617
  0
ARC
  5
1258
100
AcDbEntity
  8
2
100
AcDbCircle
 10
233.127308
 20
51.936039
 30
8.416617
 40
13.138534
100
AcDbArc
 50
152.428754
 51
161.185492
  0
ARC
  5
1259
100
AcDbEntity
  8
2
100
AcDbCircle
 10
211.466301
 20
67.726783
 30
8.416617
 40
17.845913
100
AcDbArc
 50
338.847147
 51
20.508831
  0
LINE
  5
125A
100
AcDbEntity
  8
2
100
AcDbLine
 10
229.302552
 20
66.972492
 30
8.416617
 11
229.183159
 21
56.350757
 31
8.416617
  0
ARC
  5
125B
100
AcDbEntity
  8
2
100
AcDbCircle
 10
215.438917
 20
51.936039
 30
8.416617
 40
13.667691
100
AcDbArc
 50
18.166802
 51
26.418957
  0
LINE
  5
125C
100
AcDbEntity
  8
3
100
AcDbLine
 10
233.54886
 20
59.5
 30
8.416617
 11
233.54886
 21
58.0
 31
8.416617
  0
ARC
  5
125D
100
AcDbEntity
  8
3
100
AcDbCircle
 10
246.54886
 20
61.5
 30
8.416617
 40
2.0
100
AcDbArc
 50
270.0
 51
0.0
  0
LINE
  5
125E
100
AcDbEntity
  8
3
100
AcDbLine
 10
229.29886
 20
98.426973
 30
8.416617
 11
229.071312
 21
128.200344
 31
8.416617
  0
LINE
  5
125F
100
AcDbEntity
  8
3
100
AcDbLine
 10
219.79886
 20
98.426973
 30
8.416617
 11
220.018033
 21
127.104604
 31
8.416617
  0
LINE
  5
1260
100
AcDbEntity
  8
3
100
AcDbLine
 10
233.54886
 20
138.5
 30
8.416617
 11
233.54886
 21
95.5
 31
8.416617
  0
LINE
  5
1261
100
AcDbEntity
  8
3
100
AcDbLine
 10
215.54886
 20
138.5
 30
8.416617
 11
215.54886
 21
77.5
 31
8.416617
  0
LINE
  5
1262
100
AcDbEntity
  8
3
100
AcDbLine
 10
246.54886
 20
95.5
 30
8.416617
 11
233.54886
 21
95.5
 31
8.416617
  0
LINE
  5
1263
100
AcDbEntity
  8
1
100
AcDbLine
 10
211.403851
 20
77.5
 30
8.416617
 11
254.04886
 21
77.5
 31
8.416617
  0
ARC
  5
1264
100
AcDbEntity
  8
3
100
AcDbCircle
 10
221.514808
 20
68.201045
 30
8.416617
 40
31.212149
100
AcDbArc
 50
67.321696
 51
75.558478
  0
ARC
  5
1265
100
AcDbEntity
  8
3
100
AcDbCircle
 10
224.54886
 20
88.45
 30
8.416617
 40
11.05
100
AcDbArc
 50
115.458946
 51
129.307648
  0
LINE
  5
1266
100
AcDbEntity
  8
3
100
AcDbLine
 10
216.54886
 20
77.5
 30
8.416617
 11
216.54886
 21
95.5
 31
8.416617
  0
LINE
  5
1267
100
AcDbEntity
  8
3
100
AcDbLine
 10
216.54886
 20
95.5
 30
8.416617
 11
217.54886
 21
97.0
 31
8.416617
  0
LINE
  5
1268
100
AcDbEntity
  8
3
100
AcDbLine
 10
233.54886
 20
95.5
 30
8.416617
 11
233.54886
 21
97.0
 31
8.416617
  0
LINE
  5
1269
100
AcDbEntity
  8
3
100
AcDbLine
 10
248.54886
 20
77.5
 30
8.416617
 11
248.54886
 21
93.5
 31
8.416617
  0
ARC
  5
126A
100
AcDbEntity
  8
3
100
AcDbCircle
 10
246.54886
 20
93.5
 30
8.416617
 40
2.0
100
AcDbArc
 50
0.0
 51
90.0
  0
ARC
  5
126B
100
AcDbEntity
  8
3
100
AcDbCircle
 10
224.54886
 20
138.5
 30
8.416617
 40
9.0
100
AcDbArc
 50
0.0
 51
180.0
  0
LINE
  5
126C
100
AcDbEntity
  8
3
100
AcDbLine
 10
215.54886
 20
127.5
 30
8.416617
 11
220.018033
 21
127.104604
 31
8.416617
  0
LINE
  5
126D
100
AcDbEntity
  8
3
100
AcDbLine
 10
231.504309
 20
129.0
 30
8.416617
 11
229.071312
 21
128.200344
 31
8.416617
  0
LINE
  5
126E
100
AcDbEntity
  8
3
100
AcDbLine
 10
231.504309
 20
135.711506
 30
8.416617
 11
231.504309
 21
129.0
 31
8.416617
  0
ARC
  5
126F
100
AcDbEntity
  8
3
100
AcDbCircle
 10
234.622954
 20
135.568674
 30
8.416617
 40
3.121914
100
AcDbArc
 50
110.123814
 51
177.377737
  0
ENDBLK
  5
1271
100
AcDbEntity
  8
0
100
AcDbBlockEnd
  0
BLOCK
  5
1318
100
AcDbEntity
  8
0
100
AcDbBlockBegin
  2
A$C5E405B83
 70
     0
 10
0.0
 20
0.0
 30
0.0
  3
A$C5E405B83
  1

  0
ARC
  5
130E
100
AcDbEntity
  8
3
100
AcDbCircle
 10
26.505888
 20
-9.518297
 30
0.0
 40
25.508766
100
AcDbArc
 50
61.953
 51
131.810447
  0
ARC
  5
130F
100
AcDbEntity
  8
3
100
AcDbCircle
 10
26.505888
 20
25.507847
 30
0.0
 40
25.508766
100
AcDbArc
 50
228.189553
 51
298.047
  0
LINE
  5
1310
100
AcDbEntity
  8
1
100
AcDbLine
 10
53.5
 20
7.994775
 30
0.0
 11
0.0
 21
7.994775
 31
0.0
  0
ARC
  5
1311
100
AcDbEntity
  8
3
100
AcDbCircle
 10
10.125
 20
7.994775
 30
0.0
 40
1.625
100
AcDbArc
 50
112.619865
 51
247.380135
  0
ARC
  5
1312
100
AcDbEntity
  8
3
100
AcDbCircle
 10
45.0
 20
33.619775
 30
0.0
 40
21.625
100
AcDbArc
 50
252.507675
 51
287.492325
  0
ARC
  5
1313
100
AcDbEntity
  8
3
100
AcDbCircle
 10
45.0
 20
-17.630225
 30
0.0
 40
21.625
100
AcDbArc
 50
72.507675
 51
107.492325
  0
LINE
  5
1314
100
AcDbEntity
  8
1
100
AcDbLine
 10
53.5
 20
7.994775
 30
0.0
 11
74.5
 21
7.994775
 31
0.0
  0
LINE
  5
1315
100
AcDbEntity
  8
3
100
AcDbLine
 10
51.5
 20
2.994775
 30
0.0
 11
51.5
 21
12.994775
 31
0.0
  0
LINE
  5
1316
100
AcDbEntity
  8
3
100
AcDbLine
 10
58.5
 20
2.994775
 30
0.0
 11
51.5
 21
2.994775
 31
0.0
  0
LINE
  5
1317
100
AcDbEntity
  8
3
100
AcDbLine
 10
51.5
 20
12.994775
 30
0.0
 11
58.5
 21
12.994775
 31
0.0
  0
ENDBLK
  5
1319
100
AcDbEntity
  8
0
100
AcDbBlockEnd
  0
BLOCK
  5
1393
100
AcDbEntity
  8
0
100
AcDbBlockBegin
  2
A$C28A64BA6
 70
     0
 10
0.0
 20
0.0
 30
0.0
  3
A$C28A64BA6
  1

  0
ARC
  5
1332
100
AcDbEntity
  8
3
100
AcDbCircle
 10
93.065991
 20
82.920448
 30
0.0
 40
49.840896
100
AcDbArc
 50
320.180627
 51
339.819373
  0
LINE
  5
1333
100
AcDbEntity
  8
3
100
AcDbLine
 10
98.471809
 20
67.675042
 30
0.0
 11
129.979391
 21
50.638831
 31
0.0
  0
ARC
  5
1334
100
AcDbEntity
  8
3
100
AcDbCircle
 10
78.934009
 20
82.920448
 30
0.0
 40
49.840896
100
AcDbArc
 50
200.180627
 51
219.819373
  0
LINE
  5
1335
100
AcDbEntity
  8
3
100
AcDbLine
 10
73.528191
 20
67.675042
 30
0.0
 11
42.020609
 21
50.638831
 31
0.0
  0
ARC
  5
1336
100
AcDbEntity
  8
3
100
AcDbCircle
 10
86.0
 20
87.0
 30
0.0
 40
66.0
100
AcDbArc
 50
103.582692
 51
90.0
  0
CIRCLE
  5
1337
100
AcDbEntity
  8
3
100
AcDbCircle
 10
86.0
 20
87.0
 30
0.0
 40
75.0
  0
LINE
  5
1338
100
AcDbEntity
  8
1
100
AcDbLine
 10
86.0
 20
87.0
 30
0.0
 11
9.789764
 21
43.0
 31
0.0
  0
LINE
  5
1339
100
AcDbEntity
  8
1
100
AcDbLine
 10
86.0
 20
171.0
 30
0.0
 11
86.0
 21
0.0
 31
0.0
  0
ARC
  5
133A
100
AcDbEntity
  8
3
100
AcDbCircle
 10
86.0
 20
87.0
 30
0.0
 40
57.0
100
AcDbArc
 50
219.59593
 51
320.40407
  0
ARC
  5
133B
100
AcDbEntity
  8
3
100
AcDbCircle
 10
90.330127
 20
89.5
 30
0.0
 40
62.847304
100
AcDbArc
 50
217.549754
 51
217.772986
  0
ARC
  5
133C
100
AcDbEntity
  8
3
100
AcDbCircle
 10
41.657145
 20
52.021909
 30
0.0
 40
1.430039
100
AcDbArc
 50
225.389911
 51
284.72404
  0
ARC
  5
133D
100
AcDbEntity
  8
3
100
AcDbCircle
 10
130.342856
 20
52.021909
 30
0.0
 40
1.430039
100
AcDbArc
 50
255.27596
 51
314.610089
  0
ARC
  5
133E
100
AcDbEntity
  8
3
100
AcDbCircle
 10
71.492533
 20
145.674061
 30
0.0
 40
5.569208
100
AcDbArc
 50
24.685853
 51
100.265979
  0
ARC
  5
133F
100
AcDbEntity
  8
3
100
AcDbCircle
 10
86.0
 20
87.0
 30
0.0
 40
22.34126
100
AcDbArc
 50
184.835271
 51
235.164729
  0
ARC
  5
1340
100
AcDbEntity
  8
3
100
AcDbCircle
 10
86.0
 20
87.0
 30
0.0
 40
57.0
100
AcDbArc
 50
99.59593
 51
200.40407
  0
LINE
  5
1341
100
AcDbEntity
  8
1
100
AcDbLine
 10
67.0
 20
149.0
 30
0.0
 11
104.0
 21
149.0
 31
0.0
  0
ARC
  5
1342
100
AcDbEntity
  8
3
100
AcDbCircle
 10
86.0
 20
87.0
 30
0.0
 40
23.0
100
AcDbArc
 50
117.162888
 51
182.837112
  0
CIRCLE
  5
1343
100
AcDbEntity
  8
3
100
AcDbCircle
 10
86.0
 20
87.0
 30
0.0
 40
19.0
  0
LINE
  5
1344
100
AcDbEntity
  8
1
100
AcDbLine
 10
0.0
 20
87.0
 30
0.0
 11
171.0
 21
87.0
 31
0.0
  0
LINE
  5
1345
100
AcDbEntity
  8
3
100
AcDbLine
 10
63.028191
 20
85.861576
 30
0.0
 11
32.520609
 21
67.093314
 31
0.0
  0
ARC
  5
1346
100
AcDbEntity
  8
3
100
AcDbCircle
 10
33.536657
 20
66.087006
 30
0.0
 40
1.430039
100
AcDbArc
 50
135.27596
 51
194.610089
  0
ARC
  5
1347
100
AcDbEntity
  8
3
100
AcDbCircle
 10
62.66367
 20
84.803169
 30
0.0
 40
1.11942
100
AcDbArc
 50
16.271951
 51
70.996005
  0
ARC
  5
1348
100
AcDbEntity
  8
3
100
AcDbCircle
 10
86.0
 20
87.0
 30
0.0
 40
57.0
100
AcDbArc
 50
339.59593
 51
80.40407
  0
ARC
  5
1349
100
AcDbEntity
  8
3
100
AcDbCircle
 10
86.0
 20
149.0
 30
0.0
 40
7.757032
100
AcDbArc
 50
270.0
 51
352.593084
  0
ARC
  5
134A
100
AcDbEntity
  8
3
100
AcDbCircle
 10
86.0
 20
149.0
 30
0.0
 40
9.5
100
AcDbArc
 50
186.042328
 51
270.0
  0
LINE
  5
134B
100
AcDbEntity
  8
3
100
AcDbLine
 10
75.5
 20
107.463382
 30
0.0
 11
76.5
 21
143.267854
 31
0.0
  0
LINE
  5
134C
100
AcDbEntity
  8
3
100
AcDbLine
 10
96.5
 20
107.463382
 30
0.0
 11
95.5
 21
143.267854
 31
0.0
  0
TEXT
  5
134D
100
AcDbEntity
  8
3
100
AcDbText
 10
107.418113
 20
71.060417
 30
0.0
 40
5.0
  1
Ｓ/ＳＮ-150
 50
330.0
 41
0.75
  7
BIGFONT
100
AcDbText
  0
LINE
  5
134E
100
AcDbEntity
  8
3
100
AcDbLine
 10
108.971809
 20
85.861576
 30
0.0
 11
139.479391
 21
67.093314
 31
0.0
  0
ARC
  5
134F
100
AcDbEntity
  8
3
100
AcDbCircle
 10
86.0
 20
87.0
 30
0.0
 40
21.005952
100
AcDbArc
 50
270.0
 51
90.0
  0
ARC
  5
1350
100
AcDbEntity
  8
3
100
AcDbCircle
 10
86.0
 20
87.0
 30
0.0
 40
23.0
100
AcDbArc
 50
357.162888
 51
62.837112
  0
ARC
  5
1351
100
AcDbEntity
  8
3
100
AcDbCircle
 10
86.0
 20
87.0
 30
0.0
 40
22.34126
100
AcDbArc
 50
304.835271
 51
355.164729
  0
ARC
  5
1352
100
AcDbEntity
  8
3
100
AcDbCircle
 10
86.0
 20
87.0
 30
0.0
 40
23.0
100
AcDbArc
 50
237.162888
 51
302.837112
  0
ARC
  5
1353
100
AcDbEntity
  8
3
100
AcDbCircle
 10
72.429324
 20
67.888561
 30
0.0
 40
1.11942
100
AcDbArc
 50
349.003995
 51
43.728049
  0
ARC
  5
1354
100
AcDbEntity
  8
3
100
AcDbCircle
 10
99.570676
 20
67.888561
 30
0.0
 40
1.11942
100
AcDbArc
 50
136.271951
 51
190.996005
  0
ARC
  5
1355
100
AcDbEntity
  8
3
100
AcDbCircle
 10
109.33633
 20
84.803169
 30
0.0
 40
1.11942
100
AcDbArc
 50
109.003995
 51
163.728049
  0
ARC
  5
1356
100
AcDbEntity
  8
3
100
AcDbCircle
 10
86.0
 20
87.0
 30
0.0
 40
22.34126
100
AcDbArc
 50
64.835271
 51
115.164729
  0
ARC
  5
1357
100
AcDbEntity
  8
3
100
AcDbCircle
 10
76.234346
 20
108.30827
 30
0.0
 40
1.11942
100
AcDbArc
 50
229.003995
 51
283.728049
  0
ARC
  5
1358
100
AcDbEntity
  8
3
100
AcDbCircle
 10
95.765654
 20
108.30827
 30
0.0
 40
1.11942
100
AcDbArc
 50
256.271951
 51
310.996005
  0
ARC
  5
1359
100
AcDbEntity
  8
3
100
AcDbCircle
 10
81.669873
 20
89.5
 30
0.0
 40
62.847304
100
AcDbArc
 50
337.549754
 51
337.772986
  0
ARC
  5
135A
100
AcDbEntity
  8
3
100
AcDbCircle
 10
138.463343
 20
66.087006
 30
0.0
 40
1.430039
100
AcDbArc
 50
345.389911
 51
44.72404
  0
ARC
  5
135B
100
AcDbEntity
  8
3
100
AcDbCircle
 10
86.0
 20
95.159104
 30
0.0
 40
49.840896
100
AcDbArc
 50
99.541656
 51
99.819373
  0
ARC
  5
135C
100
AcDbEntity
  8
3
100
AcDbCircle
 10
86.0
 20
82.0
 30
0.0
 40
62.847304
100
AcDbArc
 50
97.549754
 51
97.772986
  0
ARC
  5
135D
100
AcDbEntity
  8
3
100
AcDbCircle
 10
77.879513
 20
142.891084
 30
0.0
 40
1.430039
100
AcDbArc
 50
105.389911
 51
164.72404
  0
ARC
  5
135E
100
AcDbEntity
  8
3
100
AcDbCircle
 10
98.993271
 20
145.901937
 30
0.0
 40
5.701063
100
AcDbArc
 50
82.465676
 51
158.406905
  0
ARC
  5
135F
100
AcDbEntity
  8
3
100
AcDbCircle
 10
86.0
 20
95.159104
 30
0.0
 40
49.840896
100
AcDbArc
 50
80.180627
 51
82.643976
  0
ARC
  5
1360
100
AcDbEntity
  8
3
100
AcDbCircle
 10
94.120487
 20
142.891084
 30
0.0
 40
1.430039
100
AcDbArc
 50
15.27596
 51
74.610089
  0
ARC
  5
1361
100
AcDbEntity
  8
3
100
AcDbCircle
 10
263.816125
 20
59.0
 30
0.0
 40
15.062713
100
AcDbArc
 50
180.170207
 51
203.474109
  0
ARC
  5
1362
100
AcDbEntity
  8
3
100
AcDbCircle
 10
243.183875
 20
59.0
 30
0.0
 40
15.062713
100
AcDbArc
 50
336.525891
 51
358.829286
  0
LINE
  5
1363
100
AcDbEntity
  8
3
100
AcDbLine
 10
244.5
 20
87.0
 30
0.0
 11
244.5
 21
21.0
 31
0.0
  0
LINE
  5
1364
100
AcDbEntity
  8
3
100
AcDbLine
 10
262.5
 20
21.0
 30
0.0
 11
262.5
 21
56.841786
 31
0.0
  0
LINE
  5
1365
100
AcDbEntity
  8
1
100
AcDbLine
 10
253.5
 20
166.5
 30
0.0
 11
253.5
 21
5.0
 31
0.0
  0
LINE
  5
1366
100
AcDbEntity
  8
1
100
AcDbLine
 10
253.5
 20
21.0
 30
0.0
 11
266.314036
 21
21.0
 31
0.0
  0
ARC
  5
1367
100
AcDbEntity
  8
3
100
AcDbCircle
 10
253.5
 20
24.0
 30
0.0
 40
6.0
100
AcDbArc
 50
0.940343
 51
179.059657
  0
ARC
  5
1368
100
AcDbEntity
  8
3
100
AcDbCircle
 10
253.5
 20
21.0
 30
0.0
 40
9.0
100
AcDbArc
 50
180.0
 51
0.0
  0
LINE
  5
1369
100
AcDbEntity
  8
1
100
AcDbLine
 10
253.5
 20
21.0
 30
0.0
 11
241.81703
 21
21.0
 31
0.0
  0
ARC
  5
136A
100
AcDbEntity
  8
3
100
AcDbCircle
 10
244.013003
 20
24.473995
 30
0.0
 40
3.507964
100
AcDbArc
 50
277.979934
 51
0.424744
  0
ARC
  5
136B
100
AcDbEntity
  8
3
100
AcDbCircle
 10
253.5
 20
54.41347
 30
0.0
 40
3.774639
100
AcDbArc
 50
213.726517
 51
338.008749
  0
ARC
  5
136C
100
AcDbEntity
  8
3
100
AcDbCircle
 10
253.5
 20
54.41347
 30
0.0
 40
3.774639
100
AcDbArc
 50
201.991251
 51
326.273483
  0
ARC
  5
136D
100
AcDbEntity
  8
3
100
AcDbCircle
 10
262.986998
 20
24.473995
 30
0.0
 40
3.507964
100
AcDbArc
 50
179.575256
 51
262.020066
  0
LINE
  5
136E
100
AcDbEntity
  8
3
100
AcDbLine
 10
260.5
 20
152.0
 30
0.0
 11
260.5
 21
141.5
 31
0.0
  0
LINE
  5
136F
100
AcDbEntity
  8
3
100
AcDbLine
 10
262.5
 20
153.0
 30
0.0
 11
262.5
 21
138.0
 31
0.0
  0
LINE
  5
1370
100
AcDbEntity
  8
3
100
AcDbLine
 10
244.5
 20
87.0
 30
0.0
 11
244.5
 21
153.0
 31
0.0
  0
LINE
  5
1371
100
AcDbEntity
  8
3
100
AcDbLine
 10
258.243443
 20
58.692248
 30
0.0
 11
258.559572
 21
64.549306
 31
0.0
  0
LINE
  5
1372
100
AcDbEntity
  8
3
100
AcDbLine
 10
260.5
 20
141.5
 30
0.0
 11
258.329503
 21
140.461936
 31
0.0
  0
LINE
  5
1373
100
AcDbEntity
  8
3
100
AcDbLine
 10
258.329503
 20
140.461936
 30
0.0
 11
259.25
 21
109.40273
 31
0.0
  0
ARC
  5
1374
100
AcDbEntity
  8
3
100
AcDbCircle
 10
254.033961
 20
91.081152
 30
0.0
 40
18.918806
100
AcDbArc
 50
63.417029
 51
113.290642
  0
ARC
  5
1375
100
AcDbEntity
  8
2
100
AcDbCircle
 10
242.707908
 20
76.75
 30
0.0
 40
16.520005
100
AcDbArc
 50
337.769774
 51
22.230226
  0
ARC
  5
1376
100
AcDbEntity
  8
3
100
AcDbCircle
 10
254.033961
 20
82.918847
 30
0.0
 40
18.918806
100
AcDbArc
 50
246.709358
 51
296.582971
  0
LINE
  5
1377
100
AcDbEntity
  8
1
100
AcDbLine
 10
238.75
 20
87.0
 30
0.0
 11
283.107548
 21
87.0
 31
0.0
  0
LINE
  5
1378
100
AcDbEntity
  8
3
100
AcDbLine
 10
245.5
 20
106.0
 30
0.0
 11
245.5
 21
87.0
 31
0.0
  0
ARC
  5
1379
100
AcDbEntity
  8
2
100
AcDbCircle
 10
265.313658
 20
76.75
 30
0.0
 40
16.53997
100
AcDbArc
 50
157.798037
 51
202.201963
  0
LINE
  5
137A
100
AcDbEntity
  8
3
100
AcDbLine
 10
245.5
 20
68.0
 30
0.0
 11
245.5
 21
87.0
 31
0.0
  0
LINE
  5
137B
100
AcDbEntity
  8
2
100
AcDbLine
 10
248.753479
 20
64.751907
 30
0.0
 11
248.744736
 21
76.253223
 31
0.0
  0
LINE
  5
137C
100
AcDbEntity
  8
3
100
AcDbLine
 10
248.753479
 20
58.955254
 30
0.0
 11
248.753479
 21
64.751907
 31
0.0
  0
ARC
  5
137D
100
AcDbEntity
  8
2
100
AcDbCircle
 10
254.0
 20
71.919422
 30
0.0
 40
4.24438
100
AcDbArc
 50
199.537509
 51
340.462491
  0
LINE
  5
137E
100
AcDbEntity
  8
3
100
AcDbLine
 10
245.5
 20
68.0
 30
0.0
 11
246.55355
 21
65.541716
 31
0.0
  0
ARC
  5
137F
100
AcDbEntity
  8
2
100
AcDbCircle
 10
254.0
 20
81.635125
 30
0.0
 40
4.22645
100
AcDbArc
 50
18.840598
 51
161.159402
  0
LINE
  5
1380
100
AcDbEntity
  8
3
100
AcDbLine
 10
248.657474
 20
139.5
 30
0.0
 11
248.75
 21
109.40273
 31
0.0
  0
LINE
  5
1381
100
AcDbEntity
  8
3
100
AcDbLine
 10
245.5
 20
106.0
 30
0.0
 11
246.55355
 21
108.458283
 31
0.0
  0
LINE
  5
1382
100
AcDbEntity
  8
3
100
AcDbLine
 10
244.5
 20
139.5
 30
0.0
 11
248.657474
 21
139.5
 31
0.0
  0
LINE
  5
1383
100
AcDbEntity
  8
3
100
AcDbLine
 10
278.5
 20
87.0
 30
0.0
 11
278.5
 21
103.0
 31
0.0
  0
LINE
  5
1384
100
AcDbEntity
  8
3
100
AcDbLine
 10
278.5
 20
87.0
 30
0.0
 11
278.5
 21
71.0
 31
0.0
  0
LINE
  5
1385
100
AcDbEntity
  8
3
100
AcDbLine
 10
275.5
 20
68.0
 30
0.0
 11
262.5
 21
68.0
 31
0.0
  0
LINE
  5
1386
100
AcDbEntity
  8
2
100
AcDbLine
 10
258.559572
 20
64.549306
 30
0.0
 11
259.213938
 21
75.115817
 31
0.0
  0
LINE
  5
1387
100
AcDbEntity
  8
3
100
AcDbLine
 10
262.5
 20
59.280547
 30
0.0
 11
262.5
 21
66.25
 31
0.0
  0
LINE
  5
1388
100
AcDbEntity
  8
3
100
AcDbLine
 10
262.5
 20
56.841786
 30
0.0
 11
262.5
 21
59.280547
 31
0.0
  0
LINE
  5
1389
100
AcDbEntity
  8
3
100
AcDbLine
 10
262.5
 20
68.0
 30
0.0
 11
262.5
 21
66.0
 31
0.0
  0
ARC
  5
138A
100
AcDbEntity
  8
3
100
AcDbCircle
 10
275.5
 20
71.0
 30
0.0
 40
3.0
100
AcDbArc
 50
270.0
 51
0.0
  0
LINE
  5
138B
100
AcDbEntity
  8
3
100
AcDbLine
 10
262.5
 20
133.256072
 30
0.0
 11
262.5
 21
108.0
 31
0.0
  0
LINE
  5
138C
100
AcDbEntity
  8
3
100
AcDbLine
 10
275.5
 20
106.0
 30
0.0
 11
262.5
 21
106.0
 31
0.0
  0
LINE
  5
138D
100
AcDbEntity
  8
3
100
AcDbLine
 10
262.5
 20
106.0
 30
0.0
 11
262.5
 21
108.0
 31
0.0
  0
ARC
  5
138E
100
AcDbEntity
  8
3
100
AcDbCircle
 10
275.5
 20
103.0
 30
0.0
 40
3.0
100
AcDbArc
 50
0.0
 51
90.0
  0
LINE
  5
138F
100
AcDbEntity
  8
3
100
AcDbLine
 10
262.5
 20
138.0
 30
0.0
 11
262.5
 21
133.256072
 31
0.0
  0
LINE
  5
1390
100
AcDbEntity
  8
1
100
AcDbLine
 10
237.891592
 20
149.0
 30
0.0
 11
266.540035
 21
149.0
 31
0.0
  0
ARC
  5
1391
100
AcDbEntity
  8
3
100
AcDbCircle
 10
253.5
 20
153.0
 30
0.0
 40
9.0
100
AcDbArc
 50
0.0
 51
180.0
  0
ARC
  5
1392
100
AcDbEntity
  8
3
100
AcDbCircle
 10
262.986998
 20
149.526005
 30
0.0
 40
3.507964
100
AcDbArc
 50
97.979934
 51
135.150169
  0
ENDBLK
  5
1394
100
AcDbEntity
  8
0
100
AcDbBlockEnd
  0
BLOCK
  5
13A0
100
AcDbEntity
  8
0
100
AcDbBlockBegin
  2
*D7
 70
     1
 10
0.0
 20
0.0
 30
0.0
  3
*D7
  1

  0
LINE
  5
1396
100
AcDbEntity
  8
0
  6
BYBLOCK
 62
     0
100
AcDbLine
 10
299.286314
 20
170.726622
 30
0.0
 11
299.286314
 21
234.489655
 31
0.0
  0
LINE
  5
1397
100
AcDbEntity
  8
0
  6
BYBLOCK
 62
     0
100
AcDbLine
 10
315.286314
 20
165.726622
 30
0.0
 11
315.286314
 21
234.489655
 31
0.0
  0
LINE
  5
1398
100
AcDbEntity
  8
0
  6
BYBLOCK
 62
     0
100
AcDbLine
 10
301.286314
 20
233.489655
 30
0.0
 11
304.767566
 21
233.489655
 31
0.0
  0
LINE
  5
1399
100
AcDbEntity
  8
0
  6
BYBLOCK
 62
     0
100
AcDbLine
 10
313.286314
 20
233.489655
 30
0.0
 11
311.3509
 21
233.489655
 31
0.0
  0
SOLID
  5
139A
100
AcDbEntity
  8
0
  6
BYBLOCK
 62
     0
100
AcDbTrace
 10
301.286314
 20
233.822988
 30
0.0
 11
301.286314
 21
233.156322
 31
0.0
 12
299.286314
 22
233.489655
 32
0.0
 13
299.286314
 23
233.489655
 33
0.0
  0
SOLID
  5
139B
100
AcDbEntity
  8
0
  6
BYBLOCK
 62
     0
100
AcDbTrace
 10
313.286314
 20
233.822988
 30
0.0
 11
313.286314
 21
233.156322
 31
0.0
 12
315.286314
 22
233.489655
 32
0.0
 13
315.286314
 23
233.489655
 33
0.0
  0
MTEXT
  5
139C
100
AcDbEntity
  8
0
  6
BYBLOCK
 62
     0
100
AcDbMText
 10
308.059233
 20
233.489655
 30
0.0
 40
4.0
 41
0.0
 71
     5
 72
     5
  1
\A1;16
  0
POINT
  5
139D
100
AcDbEntity
  8
DEFPOINTS
  6
BYBLOCK
 62
     0
100
AcDbPoint
 10
299.286314
 20
169.726622
 30
0.0
  0
POINT
  5
139E
100
AcDbEntity
  8
DEFPOINTS
  6
BYBLOCK
 62
     0
100
AcDbPoint
 10
315.286314
 20
164.726622
 30
0.0
  0
POINT
  5
139F
100
AcDbEntity
  8
DEFPOINTS
  6
BYBLOCK
 62
     0
100
AcDbPoint
 10
315.286314
 20
233.489655
 30
0.0
  0
ENDBLK
  5
13A1
100
AcDbEntity
  8
0
100
AcDbBlockEnd
  0
BLOCK
  5
13AD
100
AcDbEntity
  8
0
100
AcDbBlockBegin
  2
*D8
 70
     1
 10
0.0
 20
0.0
 30
0.0
  3
*D8
  1

  0
LINE
  5
13A3
100
AcDbEntity
  8
0
  6
BYBLOCK
 62
     0
100
AcDbLine
 10
289.286314
 20
223.726622
 30
0.0
 11
255.074409
 21
223.726622
 31
0.0
  0
LINE
  5
13A4
100
AcDbEntity
  8
0
  6
BYBLOCK
 62
     0
100
AcDbLine
 10
289.286314
 20
73.726622
 30
0.0
 11
255.074409
 21
73.726622
 31
0.0
  0
LINE
  5
13A5
100
AcDbEntity
  8
0
  6
BYBLOCK
 62
     0
100
AcDbLine
 10
256.074409
 20
221.726622
 30
0.0
 11
256.074409
 21
154.028285
 31
0.0
  0
LINE
  5
13A6
100
AcDbEntity
  8
0
  6
BYBLOCK
 62
     0
100
AcDbLine
 10
256.074409
 20
75.726622
 30
0.0
 11
256.074409
 21
144.111618
 31
0.0
  0
SOLID
  5
13A7
100
AcDbEntity
  8
0
  6
BYBLOCK
 62
     0
100
AcDbTrace
 10
255.741076
 20
221.726622
 30
0.0
 11
256.407742
 21
221.726622
 31
0.0
 12
256.074409
 22
223.726622
 32
0.0
 13
256.074409
 23
223.726622
 33
0.0
  0
SOLID
  5
13A8
100
AcDbEntity
  8
0
  6
BYBLOCK
 62
     0
100
AcDbTrace
 10
255.741076
 20
75.726622
 30
0.0
 11
256.407742
 21
75.726622
 31
0.0
 12
256.074409
 22
73.726622
 32
0.0
 13
256.074409
 23
73.726622
 33
0.0
  0
MTEXT
  5
13A9
100
AcDbEntity
  8
0
  6
BYBLOCK
 62
     0
100
AcDbMText
 10
256.074409
 20
149.069952
 30
0.0
 40
4.0
 41
0.0
 71
     5
 72
     5
  1
\A1;150
 11
0.0
 21
1.0
 31
0.0
  0
POINT
  5
13AA
100
AcDbEntity
  8
DEFPOINTS
  6
BYBLOCK
 62
     0
100
AcDbPoint
 10
290.286314
 20
223.726622
 30
0.0
  0
POINT
  5
13AB
100
AcDbEntity
  8
DEFPOINTS
  6
BYBLOCK
 62
     0
100
AcDbPoint
 10
290.286314
 20
73.726622
 30
0.0
  0
POINT
  5
13AC
100
AcDbEntity
  8
DEFPOINTS
  6
BYBLOCK
 62
     0
100
AcDbPoint
 10
256.074409
 20
73.726622
 30
0.0
  0
ENDBLK
  5
13AE
100
AcDbEntity
  8
0
100
AcDbBlockEnd
  0
BLOCK
  5
13B3
100
AcDbEntity
  8
0
100
AcDbBlockBegin
  2
A$C50765934
 70
     0
 10
0.0
 20
0.0
 30
0.0
  3
A$C50765934
  1

  0
INSERT
  5
13B0
100
AcDbEntity
  8
0
100
AcDbBlockReference
  2
A$C28A64BA6
 10
-0.496239
 20
0.0
 30
9.257983
  0
DIMENSION
  5
13B1
100
AcDbEntity
  8
0
100
AcDbDimension
  2
*D8
 10
218.791857
 20
12.0
 30
9.257983
 11
218.791857
 21
87.34333
 31
9.257983
 12
-37.282552
 22
-61.726622
 32
9.257983
 70
   128
  3
STANDARD
100
AcDbAlignedDimension
 13
253.003761
 23
162.0
 33
9.257983
 14
253.003761
 24
12.0
 34
9.257983
 50
90.0
100
AcDbRotatedDimension
1001
ACAD
1000
DSTYLE
1002
{
1070
   140
1040
4.0
1070
    77
1070
     0
1070
    40
1040
1.0
1070
   141
1040
0.0
1070
    41
1040
2.0
1002
}
  0
DIMENSION
  5
13B2
100
AcDbEntity
  8
0
100
AcDbDimension
  2
*D7
 10
278.003761
 20
171.763033
 30
9.257983
 11
270.776681
 21
171.763033
 31
9.257983
 12
-37.282552
 22
-61.726622
 32
9.257983
 70
   128
  3
STANDARD
100
AcDbAlignedDimension
 13
262.003761
 23
108.0
 33
9.257983
 14
278.003761
 24
103.0
 34
9.257983
100
AcDbRotatedDimension
1001
ACAD
1000
DSTYLE
1002
{
1070
   140
1040
4.0
1070
    77
1070
     0
1070
    40
1040
1.0
1070
   141
1040
0.0
1070
    41
1040
2.0
1002
}
  0
ENDBLK
  5
13B4
100
AcDbEntity
  8
0
100
AcDbBlockEnd
  0
BLOCK
  5
1474
100
AcDbEntity
  8
0
100
AcDbBlockBegin
  2
A$C12236B7C
 70
     0
 10
0.0
 20
0.0
 30
0.0
  3
A$C12236B7C
  1

  0
ARC
  5
1469
100
AcDbEntity
  8
3
100
AcDbCircle
 10
24.975
 20
32.461185
 30
0.0
 40
32.461535
100
AcDbArc
 50
229.748095
 51
297.571522
  0
ARC
  5
146A
100
AcDbEntity
  8
3
100
AcDbCircle
 10
24.975
 20
-12.088815
 30
0.0
 40
32.461535
100
AcDbArc
 50
62.428478
 51
130.251905
  0
LINE
  5
146B
100
AcDbEntity
  8
1
100
AcDbLine
 10
55.5
 20
10.186185
 30
0.0
 11
0.0
 21
10.186185
 31
0.0
  0
ARC
  5
146C
100
AcDbEntity
  8
3
100
AcDbCircle
 10
5.333333
 20
10.186185
 30
0.0
 40
2.833333
100
AcDbArc
 50
118.072487
 51
241.927513
  0
LINE
  5
146D
100
AcDbEntity
  8
3
100
AcDbLine
 10
58.5
 20
16.686185
 30
0.0
 11
62.0
 21
16.686185
 31
0.0
  0
LINE
  5
146E
100
AcDbEntity
  8
3
100
AcDbLine
 10
64.5
 20
3.686185
 30
0.0
 11
58.5
 21
3.686185
 31
0.0
  0
LINE
  5
146F
100
AcDbEntity
  8
1
100
AcDbLine
 10
58.5
 20
10.186185
 30
0.0
 11
84.0
 21
10.186185
 31
0.0
  0
LINE
  5
1470
100
AcDbEntity
  8
3
100
AcDbLine
 10
58.5
 20
3.686185
 30
0.0
 11
58.5
 21
16.686185
 31
0.0
  0
ARC
  5
1471
100
AcDbEntity
  8
3
100
AcDbCircle
 10
49.25
 20
-16.688815
 30
0.0
 40
22.376397
100
AcDbArc
 50
65.582534
 51
114.417466
  0
ARC
  5
1472
100
AcDbEntity
  8
3
100
AcDbCircle
 10
49.25
 20
37.061185
 30
0.0
 40
22.376397
100
AcDbArc
 50
245.582534
 51
294.417466
  0
LINE
  5
1473
100
AcDbEntity
  8
3
100
AcDbLine
 10
66.5
 20
16.686185
 30
0.0
 11
62.0
 21
16.686185
 31
0.0
  0
ENDBLK
  5
1475
100
AcDbEntity
  8
0
100
AcDbBlockEnd
  0
BLOCK
  5
14EF
100
AcDbEntity
  8
0
100
AcDbBlockBegin
  2
A$C1E8C0F59
 70
     0
 10
0.0
 20
0.0
 30
0.0
  3
A$C1E8C0F59
  1

  0
LINE
  5
148F
100
AcDbEntity
  8
1
100
AcDbLine
 10
86.0
 20
87.0
 30
0.0
 11
9.789764
 21
43.0
 31
0.0
  0
ARC
  5
1490
100
AcDbEntity
  8
3
100
AcDbCircle
 10
86.0
 20
87.0
 30
0.0
 40
62.847304
100
AcDbArc
 50
322.227014
 51
337.772986
  0
LINE
  5
1491
100
AcDbEntity
  8
3
100
AcDbLine
 10
98.471809
 20
67.675043
 30
0.0
 11
134.309518
 21
48.138832
 31
0.0
  0
ARC
  5
1492
100
AcDbEntity
  8
3
100
AcDbCircle
 10
86.0
 20
87.0
 30
0.0
 40
62.847304
100
AcDbArc
 50
202.227014
 51
217.772986
  0
LINE
  5
1493
100
AcDbEntity
  8
3
100
AcDbLine
 10
73.528191
 20
67.675043
 30
0.0
 11
37.690482
 21
48.138832
 31
0.0
  0
ARC
  5
1494
100
AcDbEntity
  8
3
100
AcDbCircle
 10
86.0
 20
87.0
 30
0.0
 40
71.0
100
AcDbArc
 50
101.372282
 51
90.0
  0
CIRCLE
  5
1495
100
AcDbEntity
  8
3
100
AcDbCircle
 10
86.0
 20
87.0
 30
0.0
 40
80.0
  0
LINE
  5
1496
100
AcDbEntity
  8
1
100
AcDbLine
 10
86.0
 20
171.0
 30
0.0
 11
86.0
 21
0.0
 31
0.0
  0
ARC
  5
1497
100
AcDbEntity
  8
3
100
AcDbCircle
 10
86.0
 20
87.0
 30
0.0
 40
62.0
100
AcDbArc
 50
218.813913
 51
321.186087
  0
ARC
  5
1498
100
AcDbEntity
  8
3
100
AcDbCircle
 10
37.327017
 20
49.52191
 30
0.0
 40
1.430039
100
AcDbArc
 50
225.389911
 51
284.72404
  0
ARC
  5
1499
100
AcDbEntity
  8
3
100
AcDbCircle
 10
134.672982
 20
49.52191
 30
0.0
 40
1.430039
100
AcDbArc
 50
255.27596
 51
314.610089
  0
LINE
  5
149A
100
AcDbEntity
  8
1
100
AcDbLine
 10
67.0
 20
154.0
 30
0.0
 11
104.0
 21
154.0
 31
0.0
  0
ARC
  5
149B
100
AcDbEntity
  8
3
100
AcDbCircle
 10
86.0
 20
87.0
 30
0.0
 40
22.34126
100
AcDbArc
 50
184.835271
 51
235.164729
  0
ARC
  5
149C
100
AcDbEntity
  8
3
100
AcDbCircle
 10
86.0
 20
87.0
 30
0.0
 40
23.0
100
AcDbArc
 50
117.162888
 51
182.837112
  0
CIRCLE
  5
149D
100
AcDbEntity
  8
3
100
AcDbCircle
 10
86.0
 20
87.0
 30
0.0
 40
19.0
  0
ARC
  5
149E
100
AcDbEntity
  8
3
100
AcDbCircle
 10
86.0
 20
87.0
 30
0.0
 40
62.0
100
AcDbArc
 50
98.813913
 51
201.186087
  0
LINE
  5
149F
100
AcDbEntity
  8
1
100
AcDbLine
 10
0.0
 20
87.0
 30
0.0
 11
171.0
 21
87.0
 31
0.0
  0
LINE
  5
14A0
100
AcDbEntity
  8
3
100
AcDbLine
 10
63.028191
 20
85.861576
 30
0.0
 11
28.190482
 21
64.593314
 31
0.0
  0
ARC
  5
14A1
100
AcDbEntity
  8
3
100
AcDbCircle
 10
29.20653
 20
63.587006
 30
0.0
 40
1.430039
100
AcDbArc
 50
135.27596
 51
194.610089
  0
ARC
  5
14A2
100
AcDbEntity
  8
3
100
AcDbCircle
 10
62.66367
 20
84.80317
 30
0.0
 40
1.11942
100
AcDbArc
 50
16.271951
 51
70.996005
  0
ARC
  5
14A3
100
AcDbEntity
  8
3
100
AcDbCircle
 10
86.0
 20
87.0
 30
0.0
 40
62.0
100
AcDbArc
 50
338.813913
 51
81.186087
  0
LINE
  5
14A4
100
AcDbEntity
  8
3
100
AcDbLine
 10
75.5
 20
107.463382
 30
0.0
 11
76.5
 21
148.267855
 31
0.0
  0
LINE
  5
14A5
100
AcDbEntity
  8
3
100
AcDbLine
 10
96.5
 20
107.463382
 30
0.0
 11
95.5
 21
148.267855
 31
0.0
  0
TEXT
  5
14A6
100
AcDbEntity
  8
3
100
AcDbText
 10
111.878824
 20
69.375709
 30
0.0
 40
5.0
  1
S/SN-160
 50
330.0
 41
0.75
  7
BIGFONT
100
AcDbText
  0
LINE
  5
14A7
100
AcDbEntity
  8
3
100
AcDbLine
 10
108.971809
 20
85.861576
 30
0.0
 11
143.809518
 21
64.593314
 31
0.0
  0
ARC
  5
14A8
100
AcDbEntity
  8
3
100
AcDbCircle
 10
86.0
 20
87.0
 30
0.0
 40
21.005952
100
AcDbArc
 50
270.0
 51
90.0
  0
ARC
  5
14A9
100
AcDbEntity
  8
3
100
AcDbCircle
 10
86.0
 20
87.0
 30
0.0
 40
23.0
100
AcDbArc
 50
357.162888
 51
62.837112
  0
ARC
  5
14AA
100
AcDbEntity
  8
3
100
AcDbCircle
 10
86.0
 20
87.0
 30
0.0
 40
22.34126
100
AcDbArc
 50
304.835271
 51
355.164729
  0
ARC
  5
14AB
100
AcDbEntity
  8
3
100
AcDbCircle
 10
86.0
 20
87.0
 30
0.0
 40
23.0
100
AcDbArc
 50
237.162888
 51
302.837112
  0
ARC
  5
14AC
100
AcDbEntity
  8
3
100
AcDbCircle
 10
72.429324
 20
67.888561
 30
0.0
 40
1.11942
100
AcDbArc
 50
349.003995
 51
43.728049
  0
ARC
  5
14AD
100
AcDbEntity
  8
3
100
AcDbCircle
 10
99.570676
 20
67.888561
 30
0.0
 40
1.11942
100
AcDbArc
 50
136.271951
 51
190.996005
  0
ARC
  5
14AE
100
AcDbEntity
  8
3
100
AcDbCircle
 10
109.33633
 20
84.80317
 30
0.0
 40
1.11942
100
AcDbArc
 50
109.003995
 51
163.728049
  0
ARC
  5
14AF
100
AcDbEntity
  8
3
100
AcDbCircle
 10
86.0
 20
87.0
 30
0.0
 40
22.34126
100
AcDbArc
 50
64.835271
 51
115.164729
  0
ARC
  5
14B0
100
AcDbEntity
  8
3
100
AcDbCircle
 10
76.234346
 20
108.30827
 30
0.0
 40
1.11942
100
AcDbArc
 50
229.003995
 51
283.728049
  0
ARC
  5
14B1
100
AcDbEntity
  8
3
100
AcDbCircle
 10
95.765654
 20
108.30827
 30
0.0
 40
1.11942
100
AcDbArc
 50
256.271951
 51
310.996005
  0
ARC
  5
14B2
100
AcDbEntity
  8
3
100
AcDbCircle
 10
142.79347
 20
63.587006
 30
0.0
 40
1.430039
100
AcDbArc
 50
345.389911
 51
44.72404
  0
ARC
  5
14B3
100
AcDbEntity
  8
3
100
AcDbCircle
 10
86.0
 20
154.0
 30
0.0
 40
7.757032
100
AcDbArc
 50
270.0
 51
352.593084
  0
ARC
  5
14B4
100
AcDbEntity
  8
3
100
AcDbCircle
 10
86.0
 20
154.0
 30
0.0
 40
9.5
100
AcDbArc
 50
186.042328
 51
270.0
  0
ARC
  5
14B5
100
AcDbEntity
  8
3
100
AcDbCircle
 10
86.0
 20
87.0
 30
0.0
 40
62.847304
100
AcDbArc
 50
97.549754
 51
97.772986
  0
ARC
  5
14B6
100
AcDbEntity
  8
3
100
AcDbCircle
 10
77.879513
 20
147.891085
 30
0.0
 40
1.430039
100
AcDbArc
 50
105.389911
 51
164.72404
  0
ARC
  5
14B7
100
AcDbEntity
  8
3
100
AcDbCircle
 10
71.564567
 20
151.379222
 30
0.0
 40
5.244919
100
AcDbArc
 50
18.000111
 51
85.237824
  0
ARC
  5
14B8
100
AcDbEntity
  8
3
100
AcDbCircle
 10
86.0
 20
87.0
 30
0.0
 40
62.847304
100
AcDbArc
 50
82.227014
 51
84.212512
  0
ARC
  5
14B9
100
AcDbEntity
  8
3
100
AcDbCircle
 10
94.120487
 20
147.891085
 30
0.0
 40
1.430039
100
AcDbArc
 50
15.27596
 51
74.610089
  0
ARC
  5
14BA
100
AcDbEntity
  8
3
100
AcDbCircle
 10
99.255023
 20
151.02144
 30
0.0
 40
5.904112
100
AcDbArc
 50
96.899909
 51
160.420434
  0
ARC
  5
14BB
100
AcDbEntity
  8
3
100
AcDbCircle
 10
230.683875
 20
56.5
 30
0.0
 40
15.062713
100
AcDbArc
 50
336.525891
 51
1.034899
  0
ARC
  5
14BC
100
AcDbEntity
  8
3
100
AcDbCircle
 10
251.316125
 20
56.5
 30
0.0
 40
15.062713
100
AcDbArc
 50
178.965101
 51
203.474109
  0
LINE
  5
14BD
100
AcDbEntity
  8
3
100
AcDbLine
 10
232.0
 20
87.0
 30
0.0
 11
232.0
 21
16.0
 31
0.0
  0
LINE
  5
14BE
100
AcDbEntity
  8
3
100
AcDbLine
 10
250.0
 20
16.0
 30
0.0
 11
250.0
 21
56.841786
 31
0.0
  0
LINE
  5
14BF
100
AcDbEntity
  8
1
100
AcDbLine
 10
241.0
 20
171.5
 30
0.0
 11
241.0
 21
0.0
 31
0.0
  0
ARC
  5
14C0
100
AcDbEntity
  8
3
100
AcDbCircle
 10
241.0
 20
16.0
 30
0.0
 40
9.0
100
AcDbArc
 50
180.0
 51
0.0
  0
LINE
  5
14C1
100
AcDbEntity
  8
1
100
AcDbLine
 10
241.0
 20
16.0
 30
0.0
 11
253.814036
 21
16.0
 31
0.0
  0
ARC
  5
14C2
100
AcDbEntity
  8
3
100
AcDbCircle
 10
241.0
 20
19.0
 30
0.0
 40
6.0
100
AcDbArc
 50
0.940343
 51
179.059657
  0
LINE
  5
14C3
100
AcDbEntity
  8
1
100
AcDbLine
 10
241.0
 20
16.0
 30
0.0
 11
229.31703
 21
16.0
 31
0.0
  0
ARC
  5
14C4
100
AcDbEntity
  8
3
100
AcDbCircle
 10
231.513002
 20
19.473995
 30
0.0
 40
3.507964
100
AcDbArc
 50
277.979934
 51
0.424744
  0
ARC
  5
14C5
100
AcDbEntity
  8
3
100
AcDbCircle
 10
250.486997
 20
19.473995
 30
0.0
 40
3.507964
100
AcDbArc
 50
179.575256
 51
262.020066
  0
ARC
  5
14C6
100
AcDbEntity
  8
3
100
AcDbCircle
 10
241.0
 20
51.91347
 30
0.0
 40
3.774639
100
AcDbArc
 50
201.991251
 51
326.273483
  0
ARC
  5
14C7
100
AcDbEntity
  8
2
100
AcDbCircle
 10
241.447584
 20
51.699572
 30
0.0
 40
3.279666
100
AcDbArc
 50
322.980494
 51
338.545628
  0
LINE
  5
14C8
100
AcDbEntity
  8
3
100
AcDbLine
 10
236.168626
 20
144.5
 30
0.0
 11
236.25
 21
109.341261
 31
0.0
  0
LINE
  5
14C9
100
AcDbEntity
  8
3
100
AcDbLine
 10
245.814921
 20
145.881841
 30
0.0
 11
246.75
 21
109.341261
 31
0.0
  0
LINE
  5
14CA
100
AcDbEntity
  8
3
100
AcDbLine
 10
250.0
 20
158.0
 30
0.0
 11
250.0
 21
138.0
 31
0.0
  0
LINE
  5
14CB
100
AcDbEntity
  8
3
100
AcDbLine
 10
232.0
 20
87.0
 30
0.0
 11
232.0
 21
158.0
 31
0.0
  0
LINE
  5
14CC
100
AcDbEntity
  8
3
100
AcDbLine
 10
263.0
 20
68.0
 30
0.0
 11
250.0
 21
68.0
 31
0.0
  0
LINE
  5
14CD
100
AcDbEntity
  8
3
100
AcDbLine
 10
263.0
 20
106.0
 30
0.0
 11
250.0
 21
106.0
 31
0.0
  0
LINE
  5
14CE
100
AcDbEntity
  8
1
100
AcDbLine
 10
225.607979
 20
87.0
 30
0.0
 11
285.607548
 21
87.0
 31
0.0
  0
LINE
  5
14CF
100
AcDbEntity
  8
1
100
AcDbLine
 10
241.0
 20
87.0
 30
0.0
 11
241.0
 21
118.5
 31
0.0
  0
LINE
  5
14D0
100
AcDbEntity
  8
3
100
AcDbLine
 10
233.0
 20
106.0
 30
0.0
 11
233.0
 21
87.0
 31
0.0
  0
ARC
  5
14D1
100
AcDbEntity
  8
2
100
AcDbCircle
 10
230.207908
 20
76.75
 30
0.0
 40
16.520005
100
AcDbArc
 50
337.769774
 51
22.230226
  0
ARC
  5
14D2
100
AcDbEntity
  8
2
100
AcDbCircle
 10
252.813657
 20
76.75
 30
0.0
 40
16.53997
100
AcDbArc
 50
157.798037
 51
202.201963
  0
LINE
  5
14D3
100
AcDbEntity
  8
3
100
AcDbLine
 10
233.0
 20
68.0
 30
0.0
 11
233.0
 21
87.0
 31
0.0
  0
LINE
  5
14D4
100
AcDbEntity
  8
1
100
AcDbLine
 10
241.0
 20
87.0
 30
0.0
 11
241.0
 21
55.5
 31
0.0
  0
ARC
  5
14D5
100
AcDbEntity
  8
2
100
AcDbCircle
 10
241.5
 20
71.919422
 30
0.0
 40
4.24438
100
AcDbArc
 50
199.537509
 51
340.462491
  0
ARC
  5
14D6
100
AcDbEntity
  8
3
100
AcDbCircle
 10
241.533961
 20
82.918848
 30
0.0
 40
18.918806
100
AcDbArc
 50
246.709358
 51
296.582971
  0
LINE
  5
14D7
100
AcDbEntity
  8
2
100
AcDbLine
 10
236.279773
 20
64.744285
 30
0.0
 11
236.31493
 21
76.230582
 31
0.0
  0
LINE
  5
14D8
100
AcDbEntity
  8
3
100
AcDbLine
 10
236.255869
 20
56.772054
 30
0.0
 11
236.279773
 21
64.744285
 31
0.0
  0
LINE
  5
14D9
100
AcDbEntity
  8
3
100
AcDbLine
 10
233.0
 20
68.0
 30
0.0
 11
234.05355
 21
65.541717
 31
0.0
  0
LINE
  5
14DA
100
AcDbEntity
  8
2
100
AcDbLine
 10
246.148734
 20
64.571502
 30
0.0
 11
246.741132
 21
75.631665
 31
0.0
  0
LINE
  5
14DB
100
AcDbEntity
  8
3
100
AcDbLine
 10
250.0
 20
56.841786
 30
0.0
 11
250.0
 21
66.0
 31
0.0
  0
LINE
  5
14DC
100
AcDbEntity
  8
3
100
AcDbLine
 10
245.74413
 20
56.772054
 30
0.0
 11
246.148734
 21
64.571502
 31
0.0
  0
LINE
  5
14DD
100
AcDbEntity
  8
3
100
AcDbLine
 10
250.0
 20
68.0
 30
0.0
 11
250.0
 21
66.0
 31
0.0
  0
ARC
  5
14DE
100
AcDbEntity
  8
2
100
AcDbCircle
 10
241.5
 20
81.635126
 30
0.0
 40
4.22645
100
AcDbArc
 50
18.840598
 51
161.159402
  0
LINE
  5
14DF
100
AcDbEntity
  8
1
100
AcDbLine
 10
233.0
 20
87.0
 30
0.0
 11
242.0
 21
87.0
 31
0.0
  0
LINE
  5
14E0
100
AcDbEntity
  8
1
100
AcDbLine
 10
233.0
 20
87.0
 30
0.0
 11
242.0
 21
87.0
 31
0.0
  0
LINE
  5
14E1
100
AcDbEntity
  8
3
100
AcDbLine
 10
250.0
 20
138.0
 30
0.0
 11
250.0
 21
106.0
 31
0.0
  0
ARC
  5
14E2
100
AcDbEntity
  8
3
100
AcDbCircle
 10
241.533961
 20
91.081153
 30
0.0
 40
18.918806
100
AcDbArc
 50
63.417029
 51
113.290642
  0
LINE
  5
14E3
100
AcDbEntity
  8
3
100
AcDbLine
 10
233.0
 20
106.0
 30
0.0
 11
234.05355
 21
108.458284
 31
0.0
  0
LINE
  5
14E4
100
AcDbEntity
  8
3
100
AcDbLine
 10
250.0
 20
106.0
 30
0.0
 11
250.0
 21
108.0
 31
0.0
  0
LINE
  5
14E5
100
AcDbEntity
  8
3
100
AcDbLine
 10
266.0
 20
87.0
 30
0.0
 11
266.0
 21
103.0
 31
0.0
  0
LINE
  5
14E6
100
AcDbEntity
  8
3
100
AcDbLine
 10
266.0
 20
87.0
 30
0.0
 11
266.0
 21
71.0
 31
0.0
  0
ARC
  5
14E7
100
AcDbEntity
  8
3
100
AcDbCircle
 10
263.0
 20
71.0
 30
0.0
 40
3.0
100
AcDbArc
 50
270.0
 51
0.0
  0
ARC
  5
14E8
100
AcDbEntity
  8
3
100
AcDbCircle
 10
263.0
 20
103.0
 30
0.0
 40
3.0
100
AcDbArc
 50
0.0
 51
90.0
  0
LINE
  5
14E9
100
AcDbEntity
  8
1
100
AcDbLine
 10
226.0
 20
154.0
 30
0.0
 11
251.5
 21
154.0
 31
0.0
  0
ARC
  5
14EA
100
AcDbEntity
  8
3
100
AcDbCircle
 10
241.0
 20
158.0
 30
0.0
 40
9.0
100
AcDbArc
 50
0.0
 51
180.0
  0
LINE
  5
14EB
100
AcDbEntity
  8
3
100
AcDbLine
 10
232.0
 20
144.5
 30
0.0
 11
236.168626
 21
144.5
 31
0.0
  0
LINE
  5
14EC
100
AcDbEntity
  8
3
100
AcDbLine
 10
248.0
 20
157.0
 30
0.0
 11
248.0
 21
146.5
 31
0.0
  0
LINE
  5
14ED
100
AcDbEntity
  8
3
100
AcDbLine
 10
248.0
 20
146.5
 30
0.0
 11
245.814921
 21
145.881841
 31
0.0
  0
ARC
  5
14EE
100
AcDbEntity
  8
3
100
AcDbCircle
 10
250.486997
 20
154.526005
 30
0.0
 40
3.507964
100
AcDbArc
 50
97.979934
 51
135.150169
  0
ENDBLK
  5
14F0
100
AcDbEntity
  8
0
100
AcDbBlockEnd
  0
BLOCK
  5
14FC
100
AcDbEntity
  8
0
100
AcDbBlockBegin
  2
*D12
 70
     1
 10
0.0
 20
0.0
 30
0.0
  3
*D12
  1

  0
LINE
  5
14F2
100
AcDbEntity
  8
0
  6
BYBLOCK
 62
     0
100
AcDbLine
 10
281.545488
 20
220.68665
 30
0.0
 11
238.966435
 21
220.68665
 31
0.0
  0
LINE
  5
14F3
100
AcDbEntity
  8
0
  6
BYBLOCK
 62
     0
100
AcDbLine
 10
281.545488
 20
60.68665
 30
0.0
 11
238.966435
 21
60.68665
 31
0.0
  0
LINE
  5
14F4
100
AcDbEntity
  8
0
  6
BYBLOCK
 62
     0
100
AcDbLine
 10
239.966435
 20
218.68665
 30
0.0
 11
239.966435
 21
145.988313
 31
0.0
  0
LINE
  5
14F5
100
AcDbEntity
  8
0
  6
BYBLOCK
 62
     0
100
AcDbLine
 10
239.966435
 20
62.68665
 30
0.0
 11
239.966435
 21
136.071646
 31
0.0
  0
SOLID
  5
14F6
100
AcDbEntity
  8
0
  6
BYBLOCK
 62
     0
100
AcDbTrace
 10
239.633102
 20
218.68665
 30
0.0
 11
240.299769
 21
218.68665
 31
0.0
 12
239.966435
 22
220.68665
 32
0.0
 13
239.966435
 23
220.68665
 33
0.0
  0
SOLID
  5
14F7
100
AcDbEntity
  8
0
  6
BYBLOCK
 62
     0
100
AcDbTrace
 10
239.633102
 20
62.68665
 30
0.0
 11
240.299769
 21
62.68665
 31
0.0
 12
239.966435
 22
60.68665
 32
0.0
 13
239.966435
 23
60.68665
 33
0.0
  0
MTEXT
  5
14F8
100
AcDbEntity
  8
0
  6
BYBLOCK
 62
     0
100
AcDbMText
 10
239.966435
 20
141.02998
 30
0.0
 40
4.0
 41
0.0
 71
     5
 72
     5
  1
\A1;160
 11
0.0
 21
1.0
 31
0.0
  0
POINT
  5
14F9
100
AcDbEntity
  8
DEFPOINTS
  6
BYBLOCK
 62
     0
100
AcDbPoint
 10
282.545488
 20
220.68665
 30
0.0
  0
POINT
  5
14FA
100
AcDbEntity
  8
DEFPOINTS
  6
BYBLOCK
 62
     0
100
AcDbPoint
 10
282.545488
 20
60.68665
 30
0.0
  0
POINT
  5
14FB
100
AcDbEntity
  8
DEFPOINTS
  6
BYBLOCK
 62
     0
100
AcDbPoint
 10
239.966435
 20
60.68665
 30
0.0
  0
ENDBLK
  5
14FD
100
AcDbEntity
  8
0
100
AcDbBlockEnd
  0
BLOCK
  5
1501
100
AcDbEntity
  8
0
100
AcDbBlockBegin
  2
A$C325F7C1E
 70
     0
 10
0.0
 20
0.0
 30
0.0
  3
A$C325F7C1E
  1

  0
INSERT
  5
14FF
100
AcDbEntity
  8
0
100
AcDbBlockReference
  2
A$C1E8C0F59
 10
-0.482604
 20
0.0
 30
9.003616
  0
DIMENSION
  5
1500
100
AcDbEntity
  8
0
100
AcDbDimension
  2
*D12
 10
197.938343
 20
7.0
 30
9.003616
 11
197.938343
 21
87.343329
 31
9.003616
 12
-42.028092
 22
-53.68665
 32
9.003616
 70
   128
  3
STANDARD
100
AcDbAlignedDimension
 13
240.517396
 23
167.0
 33
9.003616
 14
240.517396
 24
7.0
 34
9.003616
 50
90.0
100
AcDbRotatedDimension
1001
ACAD
1000
DSTYLE
1002
{
1070
   140
1040
4.0
1070
    77
1070
     0
1070
    40
1040
1.0
1070
   141
1040
0.0
1070
    41
1040
2.0
1002
}
  0
ENDBLK
  5
1502
100
AcDbEntity
  8
0
100
AcDbBlockEnd
  0
BLOCK
  5
15B3
100
AcDbEntity
  8
0
100
AcDbBlockBegin
  2
A$C0E736477
 70
     0
 10
0.0
 20
0.0
 30
0.0
  3
A$C0E736477
  1

  0
ARC
  5
15A8
100
AcDbEntity
  8
3
100
AcDbCircle
 10
24.975
 20
32.461185
 30
0.0
 40
32.461535
100
AcDbArc
 50
229.748095
 51
297.571522
  0
ARC
  5
15A9
100
AcDbEntity
  8
3
100
AcDbCircle
 10
24.975
 20
-12.088815
 30
0.0
 40
32.461535
100
AcDbArc
 50
62.428478
 51
130.251905
  0
LINE
  5
15AA
100
AcDbEntity
  8
1
100
AcDbLine
 10
55.5
 20
10.186185
 30
0.0
 11
0.0
 21
10.186185
 31
0.0
  0
ARC
  5
15AB
100
AcDbEntity
  8
3
100
AcDbCircle
 10
5.333333
 20
10.186185
 30
0.0
 40
2.833333
100
AcDbArc
 50
118.072487
 51
241.927513
  0
LINE
  5
15AC
100
AcDbEntity
  8
3
100
AcDbLine
 10
58.5
 20
16.686185
 30
0.0
 11
62.0
 21
16.686185
 31
0.0
  0
LINE
  5
15AD
100
AcDbEntity
  8
3
100
AcDbLine
 10
64.5
 20
3.686185
 30
0.0
 11
58.5
 21
3.686185
 31
0.0
  0
LINE
  5
15AE
100
AcDbEntity
  8
1
100
AcDbLine
 10
58.5
 20
10.186185
 30
0.0
 11
84.0
 21
10.186185
 31
0.0
  0
LINE
  5
15AF
100
AcDbEntity
  8
3
100
AcDbLine
 10
58.5
 20
3.686185
 30
0.0
 11
58.5
 21
16.686185
 31
0.0
  0
ARC
  5
15B0
100
AcDbEntity
  8
3
100
AcDbCircle
 10
49.25
 20
-16.688815
 30
0.0
 40
22.376397
100
AcDbArc
 50
65.582534
 51
114.417466
  0
ARC
  5
15B1
100
AcDbEntity
  8
3
100
AcDbCircle
 10
49.25
 20
37.061185
 30
0.0
 40
22.376397
100
AcDbArc
 50
245.582534
 51
294.417466
  0
LINE
  5
15B2
100
AcDbEntity
  8
3
100
AcDbLine
 10
66.5
 20
16.686185
 30
0.0
 11
62.0
 21
16.686185
 31
0.0
  0
ENDBLK
  5
15B4
100
AcDbEntity
  8
0
100
AcDbBlockEnd
  0
BLOCK
  5
162A
100
AcDbEntity
  8
0
100
AcDbBlockBegin
  2
A$C68E55F1B
 70
     0
 10
0.0
 20
0.0
 30
0.0
  3
A$C68E55F1B
  1

  0
LINE
  5
15CF
100
AcDbEntity
  8
1
100
AcDbLine
 10
0.0
 20
100.5
 30
0.0
 11
193.366095
 21
100.5
 31
0.0
  0
TEXT
  5
15D0
100
AcDbEntity
  8
3
100
AcDbText
 10
121.306916
 20
82.11891
 30
0.0
 40
5.0
  1
Ｓ/ＳＮ-180
 50
330.0
 41
0.75
  7
BIGFONT
100
AcDbText
  0
LINE
  5
15D1
100
AcDbEntity
  8
1
100
AcDbLine
 10
94.5
 20
100.5
 30
0.0
 11
11.956416
 21
52.84344
 31
0.0
  0
ARC
  5
15D2
100
AcDbEntity
  8
3
100
AcDbCircle
 10
94.5
 20
100.5
 30
0.0
 40
23.5
100
AcDbArc
 50
236.539105
 51
303.460895
  0
ARC
  5
15D3
100
AcDbEntity
  8
3
100
AcDbCircle
 10
94.5
 20
100.5
 30
0.0
 40
70.0
100
AcDbArc
 50
337.799926
 51
82.200074
  0
LINE
  5
15D4
100
AcDbEntity
  8
3
100
AcDbLine
 10
107.457142
 20
80.894835
 30
0.0
 11
149.810907
 21
57.596578
 31
0.0
  0
LINE
  5
15D5
100
AcDbEntity
  8
3
100
AcDbLine
 10
117.957142
 20
99.081369
 30
0.0
 11
159.310907
 21
74.051061
 31
0.0
  0
LINE
  5
15D6
100
AcDbEntity
  8
3
100
AcDbLine
 10
71.042859
 20
99.081369
 30
0.0
 11
29.689094
 21
74.051061
 31
0.0
  0
LINE
  5
15D7
100
AcDbEntity
  8
3
100
AcDbLine
 10
81.542859
 20
80.894835
 30
0.0
 11
39.189094
 21
57.596578
 31
0.0
  0
ARC
  5
15D8
100
AcDbEntity
  8
3
100
AcDbCircle
 10
94.5
 20
100.5
 30
0.0
 40
80.0
100
AcDbArc
 50
100.806923
 51
90.0
  0
ARC
  5
15D9
100
AcDbEntity
  8
3
100
AcDbCircle
 10
94.5
 20
100.5
 30
0.0
 40
70.0
100
AcDbArc
 50
97.799926
 51
202.200074
  0
CIRCLE
  5
15DA
100
AcDbEntity
  8
3
100
AcDbCircle
 10
94.5
 20
100.5
 30
0.0
 40
90.0
  0
LINE
  5
15DB
100
AcDbEntity
  8
1
100
AcDbLine
 10
94.5
 20
195.0
 30
0.0
 11
94.5
 21
0.0
 31
0.0
  0
ARC
  5
15DC
100
AcDbEntity
  8
3
100
AcDbCircle
 10
94.5
 20
100.5
 30
0.0
 40
70.0
100
AcDbArc
 50
217.799926
 51
322.200074
  0
ARC
  5
15DD
100
AcDbEntity
  8
3
100
AcDbCircle
 10
31.167269
 20
72.09299
 30
0.0
 40
2.453373
100
AcDbArc
 50
127.049672
 51
199.79119
  0
ARC
  5
15DE
100
AcDbEntity
  8
3
100
AcDbCircle
 10
94.5
 20
100.5
 30
0.0
 40
71.858259
100
AcDbArc
 50
204.009006
 51
215.990994
  0
ARC
  5
15DF
100
AcDbEntity
  8
3
100
AcDbCircle
 10
38.232442
 20
59.855751
 30
0.0
 40
2.453373
100
AcDbArc
 50
220.20881
 51
292.950328
  0
ARC
  5
15E0
100
AcDbEntity
  8
3
100
AcDbCircle
 10
94.5
 20
100.5
 30
0.0
 40
71.858259
100
AcDbArc
 50
324.009006
 51
335.990994
  0
ARC
  5
15E1
100
AcDbEntity
  8
3
100
AcDbCircle
 10
150.767558
 20
59.855751
 30
0.0
 40
2.453373
100
AcDbArc
 50
247.049672
 51
319.79119
  0
ARC
  5
15E2
100
AcDbEntity
  8
3
100
AcDbCircle
 10
157.832732
 20
72.09299
 30
0.0
 40
2.453373
100
AcDbArc
 50
340.20881
 51
52.950328
  0
ARC
  5
15E3
100
AcDbEntity
  8
3
100
AcDbCircle
 10
94.5
 20
175.5
 30
0.0
 40
10.0
100
AcDbArc
 50
188.626927
 51
270.0
  0
LINE
  5
15E4
100
AcDbEntity
  8
3
100
AcDbLine
 10
84.0
 20
121.523796
 30
0.0
 11
85.0
 21
169.852361
 31
0.0
  0
LINE
  5
15E5
100
AcDbEntity
  8
3
100
AcDbLine
 10
105.0
 20
121.523796
 30
0.0
 11
104.0
 21
169.852361
 31
0.0
  0
CIRCLE
  5
15E6
100
AcDbEntity
  8
3
100
AcDbCircle
 10
94.5
 20
100.5
 30
0.0
 40
21.0
  0
ARC
  5
15E7
100
AcDbEntity
  8
3
100
AcDbCircle
 10
94.5
 20
100.5
 30
0.0
 40
23.5
100
AcDbArc
 50
356.539105
 51
63.460895
  0
ARC
  5
15E8
100
AcDbEntity
  8
3
100
AcDbCircle
 10
84.708439
 20
122.22545
 30
0.0
 40
0.997097
100
AcDbArc
 50
224.7243
 51
287.002294
  0
ARC
  5
15E9
100
AcDbEntity
  8
3
100
AcDbCircle
 10
104.291561
 20
122.22545
 30
0.0
 40
0.997097
100
AcDbArc
 50
252.997706
 51
315.2757
  0
ARC
  5
15EA
100
AcDbEntity
  8
3
100
AcDbCircle
 10
94.5
 20
100.5
 30
0.0
 40
23.5
100
AcDbArc
 50
116.539105
 51
183.460895
  0
CIRCLE
  5
15EB
100
AcDbEntity
  8
3
100
AcDbCircle
 10
94.5
 20
100.5
 30
0.0
 40
19.0
  0
ARC
  5
15EC
100
AcDbEntity
  8
3
100
AcDbCircle
 10
94.5
 20
100.5
 30
0.0
 40
22.84126
100
AcDbArc
 50
185.423111
 51
234.576889
  0
ARC
  5
15ED
100
AcDbEntity
  8
3
100
AcDbCircle
 10
70.789428
 20
98.117016
 30
0.0
 40
0.997097
100
AcDbArc
 50
12.997706
 51
75.2757
  0
ARC
  5
15EE
100
AcDbEntity
  8
3
100
AcDbCircle
 10
80.58099
 20
81.157535
 30
0.0
 40
0.997097
100
AcDbArc
 50
344.7243
 51
47.002294
  0
ARC
  5
15EF
100
AcDbEntity
  8
3
100
AcDbCircle
 10
108.419011
 20
81.157535
 30
0.0
 40
0.997097
100
AcDbArc
 50
132.997706
 51
195.2757
  0
ARC
  5
15F0
100
AcDbEntity
  8
3
100
AcDbCircle
 10
94.5
 20
100.5
 30
0.0
 40
22.84126
100
AcDbArc
 50
305.423111
 51
354.576889
  0
ARC
  5
15F1
100
AcDbEntity
  8
3
100
AcDbCircle
 10
118.210572
 20
98.117016
 30
0.0
 40
0.997097
100
AcDbArc
 50
104.7243
 51
167.002294
  0
ARC
  5
15F2
100
AcDbEntity
  8
3
100
AcDbCircle
 10
94.5
 20
100.5
 30
0.0
 40
22.84126
100
AcDbArc
 50
65.423111
 51
114.576889
  0
LINE
  5
15F3
100
AcDbEntity
  8
1
100
AcDbLine
 10
75.5
 20
175.5
 30
0.0
 11
112.0
 21
175.5
 31
0.0
  0
ARC
  5
15F4
100
AcDbEntity
  8
3
100
AcDbCircle
 10
77.983988
 20
172.442376
 30
0.0
 40
6.809688
100
AcDbArc
 50
13.222691
 51
77.136695
  0
ARC
  5
15F5
100
AcDbEntity
  8
3
100
AcDbCircle
 10
87.434826
 20
168.551259
 30
0.0
 40
2.453373
100
AcDbArc
 50
129.544279
 51
172.950328
  0
ARC
  5
15F6
100
AcDbEntity
  8
3
100
AcDbCircle
 10
109.073256
 20
174.006812
 30
0.0
 40
6.152085
100
AcDbArc
 50
114.725654
 51
175.401893
  0
ARC
  5
15F7
100
AcDbEntity
  8
3
100
AcDbCircle
 10
94.5
 20
175.5
 30
0.0
 40
8.5
100
AcDbArc
 50
270.0
 51
353.436168
  0
ARC
  5
15F8
100
AcDbEntity
  8
3
100
AcDbCircle
 10
101.565174
 20
168.551259
 30
0.0
 40
2.453373
100
AcDbArc
 50
7.049672
 51
79.79119
  0
LINE
  5
15F9
100
AcDbEntity
  8
3
100
AcDbLine
 10
245.748047
 20
66.29076
 30
0.0
 11
245.748047
 21
77.738548
 31
0.0
  0
LINE
  5
15FA
100
AcDbEntity
  8
3
100
AcDbLine
 10
260.5
 20
67.781734
 30
0.0
 11
260.5
 21
79.0
 31
0.0
  0
LINE
  5
15FB
100
AcDbEntity
  8
2
100
AcDbLine
 10
256.202184
 20
89.345566
 30
0.0
 11
255.957703
 21
77.371804
 31
0.0
  0
ARC
  5
15FC
100
AcDbEntity
  8
3
100
AcDbCircle
 10
251.023475
 20
96.21113
 30
0.0
 40
19.2111
100
AcDbArc
 50
243.000853
 51
299.556649
  0
LINE
  5
15FD
100
AcDbEntity
  8
3
100
AcDbLine
 10
240.5
 20
100.5
 30
0.0
 11
240.5
 21
20.5
 31
0.0
  0
LINE
  5
15FE
100
AcDbEntity
  8
1
100
AcDbLine
 10
250.5
 20
194.0
 30
0.0
 11
250.5
 21
0.5
 31
0.0
  0
LINE
  5
15FF
100
AcDbEntity
  8
1
100
AcDbLine
 10
264.5
 20
20.5
 30
0.0
 11
237.5
 21
20.5
 31
0.0
  0
ARC
  5
1600
100
AcDbEntity
  8
3
100
AcDbCircle
 10
250.5
 20
61.346739
 30
0.0
 40
3.750161
100
AcDbArc
 50
201.045852
 51
270.0
  0
ARC
  5
1601
100
AcDbEntity
  8
3
100
AcDbCircle
 10
250.5
 20
20.5
 30
0.0
 40
10.0
100
AcDbArc
 50
180.0
 51
0.0
  0
ARC
  5
1602
100
AcDbEntity
  8
3
100
AcDbCircle
 10
250.5
 20
23.5
 30
0.0
 40
7.0
100
AcDbArc
 50
0.0
 51
180.0
  0
ARC
  5
1603
100
AcDbEntity
  8
3
100
AcDbCircle
 10
238.416667
 20
25.583333
 30
0.0
 40
5.493683
100
AcDbArc
 50
292.285588
 51
337.714412
  0
ARC
  5
1604
100
AcDbEntity
  8
3
100
AcDbCircle
 10
260.7178
 20
66.0
 30
0.0
 40
14.972576
100
AcDbArc
 50
178.887273
 51
203.623988
  0
LINE
  5
1605
100
AcDbEntity
  8
3
100
AcDbLine
 10
260.5
 20
20.5
 30
0.0
 11
260.5
 21
67.781734
 31
0.0
  0
ARC
  5
1606
100
AcDbEntity
  8
3
100
AcDbCircle
 10
262.583333
 20
25.583333
 30
0.0
 40
5.493683
100
AcDbArc
 50
202.285588
 51
247.714412
  0
LINE
  5
1607
100
AcDbEntity
  8
3
100
AcDbLine
 10
255.231008
 20
66.269114
 30
0.0
 11
255.957703
 21
77.371804
 31
0.0
  0
ARC
  5
1608
100
AcDbEntity
  8
3
100
AcDbCircle
 10
240.2822
 20
66.0
 30
0.0
 40
14.972576
100
AcDbArc
 50
336.376012
 51
1.032754
  0
ARC
  5
1609
100
AcDbEntity
  8
3
100
AcDbCircle
 10
250.5
 20
61.346739
 30
0.0
 40
3.750161
100
AcDbArc
 50
270.0
 51
338.954148
  0
LINE
  5
160A
100
AcDbEntity
  8
3
100
AcDbLine
 10
245.689962
 20
166.5
 30
0.0
 11
245.75
 21
123.570663
 31
0.0
  0
LINE
  5
160B
100
AcDbEntity
  8
3
100
AcDbLine
 10
255.300929
 20
167.388888
 30
0.0
 11
256.25
 21
123.570663
 31
0.0
  0
LINE
  5
160C
100
AcDbEntity
  8
3
100
AcDbLine
 10
260.5
 20
180.5
 30
0.0
 11
260.5
 21
158.178387
 31
0.0
  0
LINE
  5
160D
100
AcDbEntity
  8
3
100
AcDbLine
 10
240.5
 20
100.5
 30
0.0
 11
240.5
 21
180.5
 31
0.0
  0
ARC
  5
160E
100
AcDbEntity
  8
2
100
AcDbCircle
 10
251.0
 20
85.268241
 30
0.0
 40
4.373405
100
AcDbArc
 50
203.848313
 51
336.151687
  0
ARC
  5
160F
100
AcDbEntity
  8
2
100
AcDbCircle
 10
251.0
 20
94.691553
 30
0.0
 40
4.389815
100
AcDbArc
 50
24.328281
 51
155.671719
  0
LINE
  5
1610
100
AcDbEntity
  8
1
100
AcDbLine
 10
218.694899
 20
100.5
 30
0.0
 11
282.549067
 21
100.5
 31
0.0
  0
LINE
  5
1611
100
AcDbEntity
  8
3
100
AcDbLine
 10
241.5
 20
119.5
 30
0.0
 11
242.302072
 21
121.906216
 31
0.0
  0
LINE
  5
1612
100
AcDbEntity
  8
3
100
AcDbLine
 10
241.5
 20
100.5
 30
0.0
 11
241.5
 21
81.5
 31
0.0
  0
LINE
  5
1613
100
AcDbEntity
  8
2
100
AcDbLine
 10
245.748047
 20
77.738548
 30
0.0
 11
245.748047
 21
88.843512
 31
0.0
  0
ARC
  5
1614
100
AcDbEntity
  8
2
100
AcDbCircle
 10
262.871013
 20
90.0
 30
0.0
 40
17.150483
100
AcDbArc
 50
157.728365
 51
202.271635
  0
LINE
  5
1615
100
AcDbEntity
  8
3
100
AcDbLine
 10
241.5
 20
81.5
 30
0.0
 11
242.302072
 21
79.093784
 31
0.0
  0
LINE
  5
1616
100
AcDbEntity
  8
3
100
AcDbLine
 10
241.5
 20
100.5
 30
0.0
 11
241.5
 21
119.5
 31
0.0
  0
ARC
  5
1617
100
AcDbEntity
  8
3
100
AcDbCircle
 10
252.907334
 20
95.928194
 30
0.0
 40
28.059387
100
AcDbArc
 50
104.812072
 51
112.207236
  0
LINE
  5
1618
100
AcDbEntity
  8
3
100
AcDbLine
 10
245.75
 20
123.570663
 30
0.0
 11
245.733967
 21
123.055155
 31
0.0
  0
LINE
  5
1619
100
AcDbEntity
  8
3
100
AcDbLine
 10
260.5
 20
119.5
 30
0.0
 11
260.5
 21
121.5
 31
0.0
  0
LINE
  5
161A
100
AcDbEntity
  8
3
100
AcDbLine
 10
276.5
 20
100.5
 30
0.0
 11
276.5
 21
84.5
 31
0.0
  0
LINE
  5
161B
100
AcDbEntity
  8
3
100
AcDbLine
 10
273.5
 20
81.5
 30
0.0
 11
260.5
 21
81.5
 31
0.0
  0
ARC
  5
161C
100
AcDbEntity
  8
2
100
AcDbCircle
 10
238.538693
 20
90.0
 30
0.0
 40
17.698154
100
AcDbArc
 50
338.452654
 51
21.547346
  0
LINE
  5
161D
100
AcDbEntity
  8
3
100
AcDbLine
 10
260.5
 20
81.5
 30
0.0
 11
260.5
 21
79.5
 31
0.0
  0
ARC
  5
161E
100
AcDbEntity
  8
3
100
AcDbCircle
 10
273.5
 20
84.5
 30
0.0
 40
3.0
100
AcDbArc
 50
270.0
 51
0.0
  0
LINE
  5
161F
100
AcDbEntity
  8
3
100
AcDbLine
 10
273.5
 20
119.5
 30
0.0
 11
260.5
 21
119.5
 31
0.0
  0
LINE
  5
1620
100
AcDbEntity
  8
3
100
AcDbLine
 10
276.5
 20
100.5
 30
0.0
 11
276.5
 21
116.5
 31
0.0
  0
ARC
  5
1621
100
AcDbEntity
  8
3
100
AcDbCircle
 10
273.5
 20
116.5
 30
0.0
 40
3.0
100
AcDbArc
 50
0.0
 51
90.0
  0
LINE
  5
1622
100
AcDbEntity
  8
3
100
AcDbLine
 10
260.5
 20
158.178387
 30
0.0
 11
260.5
 21
122.0
 31
0.0
  0
ARC
  5
1623
100
AcDbEntity
  8
3
100
AcDbCircle
 10
252.882809
 20
111.262703
 30
0.0
 40
12.760245
100
AcDbArc
 50
53.348439
 51
74.699505
  0
LINE
  5
1624
100
AcDbEntity
  8
1
100
AcDbLine
 10
236.0
 20
175.5
 30
0.0
 11
265.5
 21
175.5
 31
0.0
  0
ARC
  5
1625
100
AcDbEntity
  8
3
100
AcDbCircle
 10
250.5
 20
180.5
 30
0.0
 40
10.0
100
AcDbArc
 50
0.0
 51
180.0
  0
LINE
  5
1626
100
AcDbEntity
  8
3
100
AcDbLine
 10
240.5
 20
166.5
 30
0.0
 11
245.689962
 21
166.5
 31
0.0
  0
LINE
  5
1627
100
AcDbEntity
  8
3
100
AcDbLine
 10
257.5
 20
177.5
 30
0.0
 11
257.5
 21
168.0
 31
0.0
  0
LINE
  5
1628
100
AcDbEntity
  8
3
100
AcDbLine
 10
257.5
 20
168.0
 30
0.0
 11
255.300929
 21
167.388888
 31
0.0
  0
ARC
  5
1629
100
AcDbEntity
  8
3
100
AcDbCircle
 10
262.583333
 20
175.416667
 30
0.0
 40
5.493683
100
AcDbArc
 50
112.285588
 51
157.714412
  0
ENDBLK
  5
162B
100
AcDbEntity
  8
0
100
AcDbBlockEnd
  0
BLOCK
  5
1637
100
AcDbEntity
  8
0
100
AcDbBlockBegin
  2
*D16
 70
     1
 10
0.0
 20
0.0
 30
0.0
  3
*D16
  1

  0
LINE
  5
162D
100
AcDbEntity
  8
0
  6
BYBLOCK
 62
     0
100
AcDbLine
 10
280.428869
 20
241.263024
 30
0.0
 11
238.234255
 21
241.263024
 31
0.0
  0
LINE
  5
162E
100
AcDbEntity
  8
0
  6
BYBLOCK
 62
     0
100
AcDbLine
 10
280.428869
 20
61.263024
 30
0.0
 11
238.234255
 21
61.263024
 31
0.0
  0
LINE
  5
162F
100
AcDbEntity
  8
0
  6
BYBLOCK
 62
     0
100
AcDbLine
 10
239.234255
 20
239.263024
 30
0.0
 11
239.234255
 21
156.221005
 31
0.0
  0
LINE
  5
1630
100
AcDbEntity
  8
0
  6
BYBLOCK
 62
     0
100
AcDbLine
 10
239.234255
 20
63.263024
 30
0.0
 11
239.234255
 21
146.304338
 31
0.0
  0
SOLID
  5
1631
100
AcDbEntity
  8
0
  6
BYBLOCK
 62
     0
100
AcDbTrace
 10
238.900922
 20
239.263024
 30
0.0
 11
239.567589
 21
239.263024
 31
0.0
 12
239.234255
 22
241.263024
 32
0.0
 13
239.234255
 23
241.263024
 33
0.0
  0
SOLID
  5
1632
100
AcDbEntity
  8
0
  6
BYBLOCK
 62
     0
100
AcDbTrace
 10
238.900922
 20
63.263024
 30
0.0
 11
239.567589
 21
63.263024
 31
0.0
 12
239.234255
 22
61.263024
 32
0.0
 13
239.234255
 23
61.263024
 33
0.0
  0
MTEXT
  5
1633
100
AcDbEntity
  8
0
  6
BYBLOCK
 62
     0
100
AcDbMText
 10
239.234255
 20
151.262671
 30
0.0
 40
4.0
 41
0.0
 71
     5
 72
     5
  1
\A1;180
 11
0.0
 21
1.0
 31
0.0
  0
POINT
  5
1634
100
AcDbEntity
  8
DEFPOINTS
  6
BYBLOCK
 62
     0
100
AcDbPoint
 10
281.428869
 20
241.263024
 30
0.0
  0
POINT
  5
1635
100
AcDbEntity
  8
DEFPOINTS
  6
BYBLOCK
 62
     0
100
AcDbPoint
 10
281.428869
 20
61.263024
 30
0.0
  0
POINT
  5
1636
100
AcDbEntity
  8
DEFPOINTS
  6
BYBLOCK
 62
     0
100
AcDbPoint
 10
239.234255
 20
61.263024
 30
0.0
  0
ENDBLK
  5
1638
100
AcDbEntity
  8
0
100
AcDbBlockEnd
  0
BLOCK
  5
163C
100
AcDbEntity
  8
0
100
AcDbBlockBegin
  2
A$C50CE67E4
 70
     0
 10
0.0
 20
0.0
 30
0.0
  3
A$C50CE67E4
  1

  0
INSERT
  5
163A
100
AcDbEntity
  8
0
100
AcDbBlockReference
  2
A$C68E55F1B
 10
-0.513019
 20
0.0
 30
9.571049
  0
DIMENSION
  5
163B
100
AcDbEntity
  8
0
100
AcDbDimension
  2
*D16
 10
207.792368
 20
10.5
 30
9.571049
 11
207.792368
 21
100.499648
 31
9.571049
 12
-31.441887
 22
-50.763023
 32
9.571049
 70
   128
  3
STANDARD
100
AcDbAlignedDimension
 13
249.986981
 23
190.5
 33
9.571049
 14
249.986981
 24
10.5
 34
9.571049
 50
90.0
100
AcDbRotatedDimension
1001
ACAD
1000
DSTYLE
1002
{
1070
   140
1040
4.0
1070
    77
1070
     0
1070
    40
1040
1.0
1070
   141
1040
0.0
1070
    41
1040
2.0
1002
}
  0
ENDBLK
  5
163D
100
AcDbEntity
  8
0
100
AcDbBlockEnd
  0
BLOCK
  5
16E7
100
AcDbEntity
  8
0
100
AcDbBlockBegin
  2
A$C01E076B9
 70
     0
 10
0.0
 20
0.0
 30
0.0
  3
A$C01E076B9
  1

  0
ARC
  5
16DD
100
AcDbEntity
  8
3
100
AcDbCircle
 10
24.975
 20
32.461185
 30
0.0
 40
32.461535
100
AcDbArc
 50
229.748095
 51
297.571522
  0
ARC
  5
16DE
100
AcDbEntity
  8
3
100
AcDbCircle
 10
24.975
 20
-12.088815
 30
0.0
 40
32.461535
100
AcDbArc
 50
62.428478
 51
130.251905
  0
LINE
  5
16DF
100
AcDbEntity
  8
1
100
AcDbLine
 10
55.5
 20
10.186185
 30
0.0
 11
0.0
 21
10.186185
 31
0.0
  0
ARC
  5
16E0
100
AcDbEntity
  8
3
100
AcDbCircle
 10
5.333333
 20
10.186185
 30
0.0
 40
2.833333
100
AcDbArc
 50
118.072487
 51
241.927513
  0
LINE
  5
16E1
100
AcDbEntity
  8
3
100
AcDbLine
 10
58.5
 20
16.686185
 30
0.0
 11
62.0
 21
16.686185
 31
0.0
  0
LINE
  5
16E2
100
AcDbEntity
  8
3
100
AcDbLine
 10
64.5
 20
3.686185
 30
0.0
 11
58.5
 21
3.686185
 31
0.0
  0
LINE
  5
16E3
100
AcDbEntity
  8
1
100
AcDbLine
 10
58.5
 20
10.186185
 30
0.0
 11
84.0
 21
10.186185
 31
0.0
  0
LINE
  5
16E4
100
AcDbEntity
  8
3
100
AcDbLine
 10
58.5
 20
3.686185
 30
0.0
 11
58.5
 21
16.686185
 31
0.0
  0
ARC
  5
16E5
100
AcDbEntity
  8
3
100
AcDbCircle
 10
49.25
 20
-16.688815
 30
0.0
 40
22.376397
100
AcDbArc
 50
65.582534
 51
114.417466
  0
ARC
  5
16E6
100
AcDbEntity
  8
3
100
AcDbCircle
 10
49.25
 20
37.061185
 30
0.0
 40
22.376397
100
AcDbArc
 50
245.582534
 51
294.417466
  0
ENDBLK
  5
16E8
100
AcDbEntity
  8
0
100
AcDbBlockEnd
  0
ENDSEC
  0
SECTION
  2
ENTITIES
  0
INSERT
  5
F8
100
AcDbEntity
  8
ASHADE
 62
     1
100
AcDbBlockReference
  2
AVE_RENDER
 10
0.0
 20
0.0
 30
0.0
1001
AVE_RENDER
1002
{
1070
     2
1000
Pref
1070
    30
1070
    20
1070
     0
1070
     0
1000

1070
    10
1070
     0
1070
    30
1040
1.0
1070
     1
1040
0.3
1040
0.7
1040
0.0
1040
10.0
1010
-1.0
1020
-1.0
1030
-1.0
1040
0.3
1070
    49
1002
}
  0
INSERT
  5
F9
100
AcDbEntity
  8
ASHADE
 62
     3
100
AcDbBlockReference
  2
AVE_RENDER
 10
0.0
 20
0.0
 30
0.0
1001
AVE_RENDER
1002
{
1070
     0
1000
Full Opt
1070
     0
1070
     1
1070
     1
1070
     1
1070
     0
1070
     0
1070
     0
1070
     1
1070
     1
1040
0.0001
1040
0.0001
1002
}
  0
INSERT
  5
FA
100
AcDbEntity
  8
ASHADE
 62
     4
100
AcDbBlockReference
  2
AVE_RENDER
 10
0.0
 20
0.0
 30
0.0
1001
AVE_RENDER
1002
{
1070
     0
1000
Quick Opt
1070
     0
1070
     1
1070
     1
1070
     1
1070
     0
1070
     0
1070
     1
1002
}
  0
HATCH
  5
EAE
100
AcDbEntity
  8
0
  6
CONTINUOUS
100
AcDbHatch
 10
0.0
 20
0.0
 30
0.0
210
0.0
220
0.0
230
1.0
  2
ANSI31
 70
     0
 71
     0
 91
        7
 92
        7
 72
     1
 73
     1
 93
       12
 10
262.9999999999999
 20
165.0
 42
0.0
 10
241.5
 20
165.0
 42
0.0
 10
241.5
 20
163.7746552230707
 42
-0.2721596082980698
 10
244.6483072701649
 20
161.9253196319411
 42
-0.2498418479505638
 10
244.6996602578422
 20
149.4072238118318
 42
-0.1759538270673097
 10
242.9022995188798
 20
147.7399432486012
 42
-0.0620936201109865
 10
241.5
 20
147.0422796021932
 42
0.0
 10
241.5
 20
144.026247578633
 42
0.1293808649254978
 10
251.0
 20
145.9999999999999
 42
0.0
 10
251.0
 20
147.5
 42
0.0
 10
261.5
 20
147.5
 42
0.4142135623730951
 10
262.9999999999999
 20
149.0
 42
0.0
 97
        0
 92
        7
 72
     1
 73
     1
 93
        6
 10
241.5
 20
165.0
 42
0.0
 10
233.9999999999999
 20
165.0
 42
0.0
 10
233.9999999999999
 20
157.270011778561
 42
0.0
 10
236.6619141878134
 20
160.1511255403871
 42
0.050659441681317
 10
238.5765144498573
 20
162.2754545881572
 42
-0.241277940474536
 10
241.5
 20
163.7746552230707
 42
0.0
 97
        0
 92
        7
 72
     1
 73
     1
 93
       14
 10
234.9999999999999
 20
145.5374063839876
 42
0.0324315232587184
 10
237.3292764512209
 20
144.7146793056477
 42
0.0
 10
239.419485842388
 20
146.1124462100204
 42
-0.0752527437237129
 10
241.0740288351336
 20
146.9094008113962
 42
0.0176274973545809
 10
241.5
 20
147.0422796021932
 42
0.0
 10
241.5
 20
147.4571250920255
 42
-0.2754795702407734
 10
238.3436837383937
 20
149.3453779418196
 42
0.0009565591874279
 10
238.367537992075
 20
149.3018123963288
 42
0.271762934324019
 10
241.5
 20
147.4571250920255
 42
0.0
 10
241.5
 20
163.7746552230707
 42
0.2375528082741129
 10
238.6064440578731
 20
162.3164614724272
 42
-0.0515587960841011
 10
236.6619141878135
 20
160.1511255403872
 42
0.0
 10
233.9999999999999
 20
157.270011778561
 42
0.0
 10
234.0
 20
147.9999999999998
 42
0.0
 97
        0
 92
        7
 72
     1
 73
     1
 93
        4
 10
244.6996602578428
 20
149.4072238118329
 42
0.2498418479505401
 10
244.6483072701649
 20
161.9253196319411
 42
0.2721596082980711
 10
241.5
 20
163.7746552230707
 42
0.0
 10
241.5
 20
147.4571250920255
 42
0.2815326192276521
 97
        0
 92
        7
 72
     1
 73
     1
 93
        4
 10
241.9999999999999
 20
102.5
 42
0.4142135623730924
 10
250.0
 20
110.4999999999999
 42
-0.231401098189398
 10
247.9791303715507
 20
112.9999999999999
 42
0.3899832787427757
 10
241.9999999999999
 20
118.5
 42
0.0
 97
        0
 92
        7
 72
     1
 73
     1
 93
        4
 10
242.0
 20
118.5
 42
0.389983278742777
 10
236.0208696284493
 20
113.0
 42
-0.2249662648716755
 10
234.0806660971535
 20
110.5388092186417
 42
0.0
 10
242.0
 20
110.5
 42
0.0
 97
        0
 92
        7
 72
     1
 73
     1
 93
        4
 10
234.0806660971535
 20
110.5388092186417
 42
-0.0061164277429119
 10
233.9999999999999
 20
110.4999999999999
 42
0.4142135623730951
 10
241.9999999999999
 20
102.4999999999999
 42
0.0
 10
242.0
 20
110.5
 42
0.0
 97
        0
 75
     0
 76
     1
 52
0.0
 41
12.0
 77
     0
 78
     1
 53
45.0
 43
0.0
 44
0.0
 45
-1.060660171779821
 46
1.060660171779821
 79
     0
 47
0.1604
 98
        7
 10
274.534263
 20
154.621809
 10
255.278408
 20
163.123022
 10
254.797012
 20
153.980208
 10
263.141216
 20
157.188213
 10
243.724896
 20
115.323752
 10
239.71326
 20
115.323752
 10
238.910933
 20
107.624541
  0
POINT
  5
1661
100
AcDbEntity
  8
DEFPOINTS
  6
BYBLOCK
 62
     0
100
AcDbPoint
 10
211.424649
 20
243.494871
 30
9.571049
  0
POINT
  5
1662
100
AcDbEntity
  8
DEFPOINTS
  6
BYBLOCK
 62
     0
100
AcDbPoint
 10
211.424649
 20
63.494871
 30
9.571049
  0
LINE
  5
1664
100
AcDbEntity
  8
1
100
AcDbLine
 10
-39.075351
 20
153.494871
 30
9.571049
 11
55.424649
 21
153.494871
 31
9.571049
  0
LINE
  5
1666
100
AcDbEntity
  8
1
100
AcDbLine
 10
55.424649
 20
153.494871
 30
9.571049
 11
-27.118935
 21
105.838311
 31
9.571049
  0
ARC
  5
1667
100
AcDbEntity
  8
3
100
AcDbCircle
 10
55.424649
 20
153.494871
 30
9.571049
 40
23.5
100
AcDbArc
 50
236.539105
 51
270.0
  0
LINE
  5
166B
100
AcDbEntity
  8
3
100
AcDbLine
 10
31.967508
 20
152.07624
 30
9.571049
 11
-9.386257
 21
127.045932
 31
9.571049
  0
LINE
  5
166C
100
AcDbEntity
  8
3
100
AcDbLine
 10
42.467508
 20
133.889706
 30
9.571049
 11
0.113743
 21
110.591449
 31
9.571049
  0
ARC
  5
166D
100
AcDbEntity
  8
3
100
AcDbCircle
 10
55.424649
 20
153.494871
 30
9.571049
 40
80.0
100
AcDbArc
 50
100.806923
 51
270.0
  0
ARC
  5
166E
100
AcDbEntity
  8
3
100
AcDbCircle
 10
55.424649
 20
153.494871
 30
9.571049
 40
70.0
100
AcDbArc
 50
97.799926
 51
202.200074
  0
ARC
  5
166F
100
AcDbEntity
  8
3
100
AcDbCircle
 10
55.424649
 20
153.494871
 30
9.571049
 40
90.0
100
AcDbArc
 50
90.0
 51
270.0
  0
LINE
  5
1670
100
AcDbEntity
  8
1
100
AcDbLine
 10
55.424649
 20
247.994871
 30
9.571049
 11
55.424649
 21
52.994871
 31
9.571049
  0
ARC
  5
1671
100
AcDbEntity
  8
3
100
AcDbCircle
 10
55.424649
 20
153.494871
 30
9.571049
 40
70.0
100
AcDbArc
 50
217.799926
 51
270.0
  0
ARC
  5
1672
100
AcDbEntity
  8
3
100
AcDbCircle
 10
-7.908082
 20
125.087861
 30
9.571049
 40
2.453373
100
AcDbArc
 50
127.049672
 51
199.79119
  0
ARC
  5
1673
100
AcDbEntity
  8
3
100
AcDbCircle
 10
55.424649
 20
153.494871
 30
9.571049
 40
71.858259
100
AcDbArc
 50
204.009006
 51
215.990994
  0
ARC
  5
1674
100
AcDbEntity
  8
3
100
AcDbCircle
 10
-0.842908
 20
112.850622
 30
9.571049
 40
2.453373
100
AcDbArc
 50
220.20881
 51
292.950328
  0
ARC
  5
1678
100
AcDbEntity
  8
3
100
AcDbCircle
 10
55.424649
 20
228.494871
 30
9.571049
 40
10.0
100
AcDbArc
 50
188.626927
 51
270.0
  0
LINE
  5
1679
100
AcDbEntity
  8
3
100
AcDbLine
 10
44.924649
 20
174.518667
 30
9.571049
 11
45.924649
 21
222.847232
 31
9.571049
  0
ARC
  5
167B
100
AcDbEntity
  8
3
100
AcDbCircle
 10
55.424649
 20
153.494871
 30
9.571049
 40
21.0
100
AcDbArc
 50
90.0
 51
270.0
  0
ARC
  5
167D
100
AcDbEntity
  8
3
100
AcDbCircle
 10
45.633088
 20
175.220321
 30
9.571049
 40
0.997097
100
AcDbArc
 50
224.7243
 51
287.002294
  0
ARC
  5
167F
100
AcDbEntity
  8
3
100
AcDbCircle
 10
55.424649
 20
153.494871
 30
9.571049
 40
23.5
100
AcDbArc
 50
116.539105
 51
183.460895
  0
ARC
  5
1680
100
AcDbEntity
  8
3
100
AcDbCircle
 10
55.424649
 20
153.494871
 30
9.571049
 40
19.0
100
AcDbArc
 50
90.0
 51
270.0
  0
ARC
  5
1681
100
AcDbEntity
  8
3
100
AcDbCircle
 10
55.424649
 20
153.494871
 30
9.571049
 40
22.84126
100
AcDbArc
 50
185.423111
 51
234.576889
  0
ARC
  5
1682
100
AcDbEntity
  8
3
100
AcDbCircle
 10
31.714078
 20
151.111887
 30
9.571049
 40
0.997097
100
AcDbArc
 50
12.997706
 51
75.2757
  0
ARC
  5
1683
100
AcDbEntity
  8
3
100
AcDbCircle
 10
41.505639
 20
134.152406
 30
9.571049
 40
0.997097
100
AcDbArc
 50
344.7243
 51
47.002294
  0
ARC
  5
1687
100
AcDbEntity
  8
3
100
AcDbCircle
 10
55.424649
 20
153.494871
 30
9.571049
 40
22.84126
100
AcDbArc
 50
90.0
 51
114.576889
  0
LINE
  5
1688
100
AcDbEntity
  8
1
100
AcDbLine
 10
36.424649
 20
228.494871
 30
9.571049
 11
55.424649
 21
228.494871
 31
9.571049
  0
ARC
  5
1689
100
AcDbEntity
  8
3
100
AcDbCircle
 10
38.908637
 20
225.437247
 30
9.571049
 40
6.809688
100
AcDbArc
 50
13.222691
 51
77.136695
  0
ARC
  5
168A
100
AcDbEntity
  8
3
100
AcDbCircle
 10
48.359476
 20
221.54613
 30
9.571049
 40
2.453373
100
AcDbArc
 50
129.544279
 51
172.950328
  0
LINE
  5
168E
100
AcDbEntity
  8
3
100
AcDbLine
 10
206.672697
 20
119.285631
 30
9.571049
 11
206.672697
 21
130.733419
 31
9.571049
  0
LINE
  5
168F
100
AcDbEntity
  8
3
100
AcDbLine
 10
221.424649
 20
120.776605
 30
9.571049
 11
221.424649
 21
131.994871
 31
9.571049
  0
LINE
  5
1690
100
AcDbEntity
  8
2
100
AcDbLine
 10
217.126833
 20
142.340437
 30
9.571049
 11
216.882352
 21
130.366675
 31
9.571049
  0
ARC
  5
1691
100
AcDbEntity
  8
3
100
AcDbCircle
 10
211.948124
 20
149.206
 30
9.571049
 40
19.2111
100
AcDbArc
 50
243.000853
 51
299.556649
  0
LINE
  5
1692
100
AcDbEntity
  8
3
100
AcDbLine
 10
201.424649
 20
153.494871
 30
9.571049
 11
201.424649
 21
73.494871
 31
9.571049
  0
LINE
  5
1693
100
AcDbEntity
  8
1
100
AcDbLine
 10
211.424649
 20
246.994871
 30
9.571049
 11
211.424649
 21
53.494871
 31
9.571049
  0
LINE
  5
1694
100
AcDbEntity
  8
1
100
AcDbLine
 10
225.424649
 20
73.494871
 30
9.571049
 11
198.424649
 21
73.494871
 31
9.571049
  0
ARC
  5
1695
100
AcDbEntity
  8
3
100
AcDbCircle
 10
211.424649
 20
114.34161
 30
9.571049
 40
3.750161
100
AcDbArc
 50
201.045852
 51
270.0
  0
ARC
  5
1696
100
AcDbEntity
  8
3
100
AcDbCircle
 10
211.424649
 20
73.494871
 30
9.571049
 40
10.0
100
AcDbArc
 50
180.0
 51
0.0
  0
ARC
  5
1697
100
AcDbEntity
  8
3
100
AcDbCircle
 10
211.424649
 20
76.494871
 30
9.571049
 40
7.0
100
AcDbArc
 50
0.0
 51
180.0
  0
ARC
  5
1698
100
AcDbEntity
  8
3
100
AcDbCircle
 10
199.341316
 20
78.578204
 30
9.571049
 40
5.493683
100
AcDbArc
 50
292.285588
 51
337.714412
  0
ARC
  5
1699
100
AcDbEntity
  8
3
100
AcDbCircle
 10
221.642449
 20
118.994871
 30
9.571049
 40
14.972576
100
AcDbArc
 50
178.887273
 51
203.623988
  0
LINE
  5
169A
100
AcDbEntity
  8
3
100
AcDbLine
 10
221.424649
 20
73.494871
 30
9.571049
 11
221.424649
 21
120.776605
 31
9.571049
  0
ARC
  5
169B
100
AcDbEntity
  8
3
100
AcDbCircle
 10
223.507983
 20
78.578204
 30
9.571049
 40
5.493683
100
AcDbArc
 50
202.285588
 51
247.714412
  0
LINE
  5
169C
100
AcDbEntity
  8
3
100
AcDbLine
 10
216.155657
 20
119.263985
 30
9.571049
 11
216.882352
 21
130.366675
 31
9.571049
  0
ARC
  5
169D
100
AcDbEntity
  8
3
100
AcDbCircle
 10
201.20685
 20
118.994871
 30
9.571049
 40
14.972576
100
AcDbArc
 50
336.376012
 51
1.032754
  0
ARC
  5
169E
100
AcDbEntity
  8
3
100
AcDbCircle
 10
211.424649
 20
114.34161
 30
9.571049
 40
3.750161
100
AcDbArc
 50
270.0
 51
338.954148
  0
LINE
  5
169F
100
AcDbEntity
  8
3
100
AcDbLine
 10
206.614611
 20
219.494871
 30
9.571049
 11
206.674649
 21
176.565534
 31
9.571049
  0
LINE
  5
16A0
100
AcDbEntity
  8
3
100
AcDbLine
 10
216.225578
 20
220.383759
 30
9.571049
 11
217.174649
 21
176.565534
 31
9.571049
  0
LINE
  5
16A1
100
AcDbEntity
  8
3
100
AcDbLine
 10
221.424649
 20
233.494871
 30
9.571049
 11
221.424649
 21
211.173258
 31
9.571049
  0
LINE
  5
16A2
100
AcDbEntity
  8
3
100
AcDbLine
 10
201.424649
 20
153.494871
 30
9.571049
 11
201.424649
 21
233.494871
 31
9.571049
  0
ARC
  5
16A3
100
AcDbEntity
  8
2
100
AcDbCircle
 10
211.924649
 20
138.263112
 30
9.571049
 40
4.373405
100
AcDbArc
 50
203.848313
 51
336.151687
  0
ARC
  5
16A4
100
AcDbEntity
  8
2
100
AcDbCircle
 10
211.924649
 20
147.686424
 30
9.571049
 40
4.389815
100
AcDbArc
 50
24.328281
 51
155.671719
  0
LINE
  5
16A5
100
AcDbEntity
  8
1
100
AcDbLine
 10
179.619549
 20
153.494871
 30
9.571049
 11
243.473716
 21
153.494871
 31
9.571049
  0
LINE
  5
16A6
100
AcDbEntity
  8
3
100
AcDbLine
 10
202.424649
 20
172.494871
 30
9.571049
 11
203.226722
 21
174.901087
 31
9.571049
  0
LINE
  5
16A7
100
AcDbEntity
  8
3
100
AcDbLine
 10
202.424649
 20
153.494871
 30
9.571049
 11
202.424649
 21
134.494871
 31
9.571049
  0
LINE
  5
16A8
100
AcDbEntity
  8
2
100
AcDbLine
 10
206.672697
 20
130.733419
 30
9.571049
 11
206.672697
 21
141.838383
 31
9.571049
  0
ARC
  5
16A9
100
AcDbEntity
  8
2
100
AcDbCircle
 10
223.795662
 20
142.994871
 30
9.571049
 40
17.150483
100
AcDbArc
 50
157.728365
 51
202.271635
  0
LINE
  5
16AA
100
AcDbEntity
  8
3
100
AcDbLine
 10
202.424649
 20
134.494871
 30
9.571049
 11
203.226722
 21
132.088655
 31
9.571049
  0
LINE
  5
16AB
100
AcDbEntity
  8
3
100
AcDbLine
 10
202.424649
 20
153.494871
 30
9.571049
 11
202.424649
 21
172.494871
 31
9.571049
  0
ARC
  5
16AC
100
AcDbEntity
  8
3
100
AcDbCircle
 10
213.831983
 20
148.923065
 30
9.571049
 40
28.059387
100
AcDbArc
 50
104.812072
 51
112.207236
  0
LINE
  5
16AD
100
AcDbEntity
  8
3
100
AcDbLine
 10
206.674649
 20
176.565534
 30
9.571049
 11
206.658616
 21
176.050026
 31
9.571049
  0
LINE
  5
16AE
100
AcDbEntity
  8
3
100
AcDbLine
 10
221.424649
 20
172.494871
 30
9.571049
 11
221.424649
 21
174.494871
 31
9.571049
  0
LINE
  5
16AF
100
AcDbEntity
  8
3
100
AcDbLine
 10
237.424649
 20
153.494871
 30
9.571049
 11
237.424649
 21
137.494871
 31
9.571049
  0
LINE
  5
16B0
100
AcDbEntity
  8
3
100
AcDbLine
 10
234.424649
 20
134.494871
 30
9.571049
 11
221.424649
 21
134.494871
 31
9.571049
  0
ARC
  5
16B1
100
AcDbEntity
  8
2
100
AcDbCircle
 10
199.463342
 20
142.994871
 30
9.571049
 40
17.698154
100
AcDbArc
 50
338.452654
 51
21.547346
  0
LINE
  5
16B2
100
AcDbEntity
  8
3
100
AcDbLine
 10
221.424649
 20
134.494871
 30
9.571049
 11
221.424649
 21
132.494871
 31
9.571049
  0
ARC
  5
16B3
100
AcDbEntity
  8
3
100
AcDbCircle
 10
234.424649
 20
137.494871
 30
9.571049
 40
3.0
100
AcDbArc
 50
270.0
 51
0.0
  0
LINE
  5
16B4
100
AcDbEntity
  8
3
100
AcDbLine
 10
234.424649
 20
172.494871
 30
9.571049
 11
221.424649
 21
172.494871
 31
9.571049
  0
LINE
  5
16B5
100
AcDbEntity
  8
3
100
AcDbLine
 10
237.424649
 20
153.494871
 30
9.571049
 11
237.424649
 21
169.494871
 31
9.571049
  0
ARC
  5
16B6
100
AcDbEntity
  8
3
100
AcDbCircle
 10
234.424649
 20
169.494871
 30
9.571049
 40
3.0
100
AcDbArc
 50
0.0
 51
90.0
  0
LINE
  5
16B7
100
AcDbEntity
  8
3
100
AcDbLine
 10
221.424649
 20
211.173258
 30
9.571049
 11
221.424649
 21
174.994871
 31
9.571049
  0
ARC
  5
16B8
100
AcDbEntity
  8
3
100
AcDbCircle
 10
213.807458
 20
164.257574
 30
9.571049
 40
12.760245
100
AcDbArc
 50
53.348439
 51
74.699505
  0
LINE
  5
16B9
100
AcDbEntity
  8
1
100
AcDbLine
 10
196.924649
 20
228.494871
 30
9.571049
 11
226.424649
 21
228.494871
 31
9.571049
  0
ARC
  5
16BA
100
AcDbEntity
  8
3
100
AcDbCircle
 10
211.424649
 20
233.494871
 30
9.571049
 40
10.0
100
AcDbArc
 50
0.0
 51
180.0
  0
LINE
  5
16BB
100
AcDbEntity
  8
3
100
AcDbLine
 10
201.424649
 20
219.494871
 30
9.571049
 11
206.614611
 21
219.494871
 31
9.571049
  0
LINE
  5
16BC
100
AcDbEntity
  8
3
100
AcDbLine
 10
218.424649
 20
230.494871
 30
9.571049
 11
218.424649
 21
220.994871
 31
9.571049
  0
LINE
  5
16BD
100
AcDbEntity
  8
3
100
AcDbLine
 10
218.424649
 20
220.994871
 30
9.571049
 11
216.225578
 21
220.383759
 31
9.571049
  0
ARC
  5
16BE
100
AcDbEntity
  8
3
100
AcDbCircle
 10
223.507983
 20
228.411538
 30
9.571049
 40
5.493683
100
AcDbArc
 50
112.285588
 51
157.714412
  0
ARC
  5
16C0
100
AcDbEntity
  8
3
100
AcDbCircle
 10
55.424649
 20
153.494871
 30
9.571049
 40
90.0
100
AcDbArc
 50
270.0
 51
90.0
  0
ARC
  5
16C1
100
AcDbEntity
  8
3
100
AcDbCircle
 10
55.424649
 20
153.494871
 30
9.571049
 40
80.0
100
AcDbArc
 50
270.0
 51
79.193077
  0
ARC
  5
16C2
100
AcDbEntity
  8
3
100
AcDbCircle
 10
55.424649
 20
153.494871
 30
9.571049
 40
21.0
100
AcDbArc
 50
270.0
 51
90.0
  0
ARC
  5
16C3
100
AcDbEntity
  8
3
100
AcDbCircle
 10
55.424649
 20
153.494871
 30
9.571049
 40
19.0
100
AcDbArc
 50
270.0
 51
90.0
  0
ARC
  5
16C4
100
AcDbEntity
  8
3
100
AcDbCircle
 10
55.424649
 20
153.494871
 30
9.571049
 40
22.84126
100
AcDbArc
 50
305.423111
 51
354.576889
  0
ARC
  5
16C5
100
AcDbEntity
  8
3
100
AcDbCircle
 10
55.424649
 20
153.494871
 30
9.571049
 40
70.0
100
AcDbArc
 50
337.799926
 51
82.200074
  0
LINE
  5
16C6
100
AcDbEntity
  8
3
100
AcDbLine
 10
78.881791
 20
152.07624
 30
9.571049
 11
120.235556
 21
127.045932
 31
9.571049
  0
LINE
  5
16C7
100
AcDbEntity
  8
1
100
AcDbLine
 10
55.424649
 20
153.494871
 30
9.571049
 11
137.968234
 21
105.838311
 31
9.571049
  0
ARC
  5
16C8
100
AcDbEntity
  8
3
100
AcDbCircle
 10
55.424649
 20
153.494871
 30
9.571049
 40
70.0
100
AcDbArc
 50
270.0
 51
322.200074
  0
LINE
  5
16C9
100
AcDbEntity
  8
3
100
AcDbLine
 10
68.381791
 20
133.889706
 30
9.571049
 11
110.735556
 21
110.591449
 31
9.571049
  0
ARC
  5
16CA
100
AcDbEntity
  8
3
100
AcDbCircle
 10
55.424649
 20
153.494871
 30
9.571049
 40
71.858259
100
AcDbArc
 50
324.009006
 51
335.990994
  0
ARC
  5
16CB
100
AcDbEntity
  8
3
100
AcDbCircle
 10
111.692207
 20
112.850622
 30
9.571049
 40
2.453373
100
AcDbArc
 50
247.049672
 51
319.79119
  0
ARC
  5
16CC
100
AcDbEntity
  8
3
100
AcDbCircle
 10
118.757381
 20
125.087861
 30
9.571049
 40
2.453373
100
AcDbArc
 50
340.20881
 51
52.950328
  0
ARC
  5
16CD
100
AcDbEntity
  8
3
100
AcDbCircle
 10
55.424649
 20
153.494871
 30
9.571049
 40
23.5
100
AcDbArc
 50
270.0
 51
303.460895
  0
ARC
  5
16CE
100
AcDbEntity
  8
3
100
AcDbCircle
 10
69.34366
 20
134.152406
 30
9.571049
 40
0.997097
100
AcDbArc
 50
132.997706
 51
195.2757
  0
ARC
  5
16CF
100
AcDbEntity
  8
3
100
AcDbCircle
 10
71.940662
 20
225.437247
 30
9.571049
 40
6.809688
100
AcDbArc
 50
102.863305
 51
166.777309
  0
LINE
  5
16D0
100
AcDbEntity
  8
1
100
AcDbLine
 10
149.924649
 20
153.494871
 30
9.571049
 11
55.424649
 21
153.494871
 31
9.571049
  0
LINE
  5
16D1
100
AcDbEntity
  8
3
100
AcDbLine
 10
65.924649
 20
174.518667
 30
9.571049
 11
64.924649
 21
222.847232
 31
9.571049
  0
ARC
  5
16D2
100
AcDbEntity
  8
3
100
AcDbCircle
 10
55.424649
 20
153.494871
 30
9.571049
 40
23.5
100
AcDbArc
 50
356.539105
 51
63.460895
  0
ARC
  5
16D3
100
AcDbEntity
  8
3
100
AcDbCircle
 10
79.135221
 20
151.111887
 30
9.571049
 40
0.997097
100
AcDbArc
 50
104.7243
 51
167.002294
  0
ARC
  5
16D4
100
AcDbEntity
  8
3
100
AcDbCircle
 10
55.424649
 20
153.494871
 30
9.571049
 40
22.84126
100
AcDbArc
 50
65.423111
 51
90.0
  0
ARC
  5
16D5
100
AcDbEntity
  8
3
100
AcDbCircle
 10
65.216211
 20
175.220321
 30
9.571049
 40
0.997097
100
AcDbArc
 50
252.997706
 51
315.2757
  0
ARC
  5
16D6
100
AcDbEntity
  8
3
100
AcDbCircle
 10
55.424649
 20
228.494871
 30
9.571049
 40
10.0
100
AcDbArc
 50
270.0
 51
351.373073
  0
ARC
  5
16D7
100
AcDbEntity
  8
3
100
AcDbCircle
 10
62.489823
 20
221.54613
 30
9.571049
 40
2.453373
100
AcDbArc
 50
7.049672
 51
50.455721
  0
LINE
  5
16D8
100
AcDbEntity
  8
1
100
AcDbLine
 10
74.424649
 20
228.494871
 30
9.571049
 11
55.424649
 21
228.494871
 31
9.571049
  0
ARC
  5
16EA
100
AcDbEntity
  8
3
100
AcDbCircle
 10
55.424649
 20
228.494871
 30
9.571049
 40
10.0
100
AcDbArc
 50
180.0
 51
360.0
  0
CIRCLE
  5
175B
100
AcDbEntity
  8
3
100
AcDbCircle
 10
55.424649
 20
228.494871
 30
9.571049
 40
6.5
  0
CIRCLE
  5
175C
100
AcDbEntity
  8
3
100
AcDbCircle
 10
55.424649
 20
228.494871
 30
9.571049
 40
4.0
  0
CIRCLE
  5
175D
100
AcDbEntity
  8
3
100
AcDbCircle
 10
55.424649
 20
228.494871
 30
9.571049
 40
3.0
  0
LINE
  5
175E
100
AcDbEntity
  8
3
100
AcDbLine
 10
201.424649
 20
221.994871
 30
9.571049
 11
203.424649
 21
221.994871
 31
9.571049
  0
LINE
  5
175F
100
AcDbEntity
  8
3
100
AcDbLine
 10
203.424649
 20
221.994871
 30
9.571049
 11
203.424649
 21
234.994871
 31
9.571049
  0
LINE
  5
1760
100
AcDbEntity
  8
3
100
AcDbLine
 10
203.424649
 20
234.994871
 30
9.571049
 11
201.537789
 21
234.994871
 31
9.571049
  0
LINE
  5
1762
100
AcDbEntity
  8
3
100
AcDbLine
 10
203.424649
 20
228.494871
 30
9.571049
 11
203.424649
 21
232.494871
 31
9.571049
  0
LINE
  5
1763
100
AcDbEntity
  8
3
100
AcDbLine
 10
203.424649
 20
232.494871
 30
9.571049
 11
219.832803
 21
232.494871
 31
9.571049
  0
LINE
  5
1765
100
AcDbEntity
  8
3
100
AcDbLine
 10
218.424649
 20
224.494871
 30
9.571049
 11
203.424649
 21
224.494871
 31
9.571049
  0
LINE
  5
1767
100
AcDbEntity
  8
3
100
AcDbLine
 10
203.424649
 20
231.494871
 30
9.571049
 11
218.961158
 21
231.494871
 31
9.571049
  0
LINE
  5
1769
100
AcDbEntity
  8
3
100
AcDbLine
 10
218.424649
 20
225.494871
 30
9.571049
 11
203.424649
 21
225.494871
 31
9.571049
  0
ENDSEC
  0
SECTION
  2
OBJECTS
  0
DICTIONARY
  5
3D1
100
AcDbDictionary
  3
ACAD_GROUP
350
3D2
  3
ACAD_MLINESTYLE
350
3D3
  3
ACDBVARIABLEDICTIONARY
350
E1C
  0
DICTIONARY
  5
3D2
102
{ACAD_REACTORS
330
3D1
102
}
100
AcDbDictionary
  0
DICTIONARY
  5
3D3
102
{ACAD_REACTORS
330
3D1
102
}
100
AcDbDictionary
  3
STANDARD
350
3E0
  0
DICTIONARY
  5
E1C
102
{ACAD_REACTORS
330
3D1
102
}
100
AcDbDictionary
  3
SORTENTS
350
E1D
  0
MLINESTYLE
  5
3E0
102
{ACAD_REACTORS
330
3D3
102
}
100
AcDbMlineStyle
  2
STANDARD
 70
     0
  3

 62
     0
 51
90.0
 52
90.0
 71
     2
 49
0.5
 62
   256
  6
BYLAYER
 49
-0.5
 62
   256
  6
BYLAYER
  0
DICTIONARYVAR
  5
E1D
102
{ACAD_REACTORS
330
E1C
102
}
100
DictionaryVariables
280
     0
  1
96
  0
ENDSEC
  0
EOF
