  0
SECTION
  2
HEADER
  9
$ACADVER
  1
AC1014
  9
$ACADMAINTVER
 70
     0
  9
$DWGCODEPAGE
  3
ANSI_932
  9
$INSBASE
 10
0.0
 20
0.0
 30
0.0
  9
$EXTMIN
 10
14.196932
 20
96.569524
 30
8.416617
  9
$EXTMAX
 10
268.696932
 20
251.569524
 30
8.416617
  9
$LIMMIN
 10
0.0
 20
0.0
  9
$LIMMAX
 10
400.0
 20
280.0
  9
$ORTHOMODE
 70
     1
  9
$REGENMODE
 70
     1
  9
$FILLMODE
 70
     0
  9
$QTEXTMODE
 70
     0
  9
$MIRRTEXT
 70
     1
  9
$DRAGMODE
 70
     2
  9
$LTSCALE
 40
1.0
  9
$OSMODE
 70
    32
  9
$ATTMODE
 70
     1
  9
$TEXTSIZE
 40
5.0
  9
$TRACEWID
 40
0.05
  9
$TEXTSTYLE
  7
BIGFONT
  9
$CLAYER
  8
3
  9
$CELTYPE
  6
BYLAYER
  9
$CECOLOR
 62
   256
  9
$CELTSCALE
 40
1.0
  9
$DELOBJ
 70
     1
  9
$DISPSILH
 70
     0
  9
$DIMSCALE
 40
0.0
  9
$DIMASZ
 40
2.5
  9
$DIMEXO
 40
1.0
  9
$DIMDLI
 40
0.38
  9
$DIMRND
 40
0.0
  9
$DIMDLE
 40
0.0
  9
$DIMEXE
 40
1.0
  9
$DIMTP
 40
0.0
  9
$DIMTM
 40
0.0
  9
$DIMTXT
 40
5.0
  9
$DIMCEN
 40
0.09
  9
$DIMTSZ
 40
0.0
  9
$DIMTOL
 70
     0
  9
$DIMLIM
 70
     0
  9
$DIMTIH
 70
     0
  9
$DIMTOH
 70
     1
  9
$DIMSE1
 70
     0
  9
$DIMSE2
 70
     0
  9
$DIMTAD
 70
     0
  9
$DIMZIN
 70
     8
  9
$DIMBLK
  1

  9
$DIMASO
 70
     1
  9
$DIMSHO
 70
     1
  9
$DIMPOST
  1

  9
$DIMAPOST
  1

  9
$DIMALT
 70
     0
  9
$DIMALTD
 70
     2
  9
$DIMALTF
 40
25.4
  9
$DIMLFAC
 40
1.0
  9
$DIMTOFL
 70
     0
  9
$DIMTVP
 40
0.0
  9
$DIMTIX
 70
     0
  9
$DIMSOXD
 70
     0
  9
$DIMSAH
 70
     0
  9
$DIMBLK1
  1

  9
$DIMBLK2
  1

  9
$DIMSTYLE
  2
STANDARD
  9
$DIMCLRD
 70
     0
  9
$DIMCLRE
 70
     0
  9
$DIMCLRT
 70
     0
  9
$DIMTFAC
 40
1.0
  9
$DIMGAP
 40
0.09
  9
$DIMJUST
 70
     0
  9
$DIMSD1
 70
     0
  9
$DIMSD2
 70
     0
  9
$DIMTOLJ
 70
     1
  9
$DIMTZIN
 70
     8
  9
$DIMALTZ
 70
     0
  9
$DIMALTTZ
 70
     0
  9
$DIMFIT
 70
     3
  9
$DIMUPT
 70
     1
  9
$DIMUNIT
 70
     2
  9
$DIMDEC
 70
     1
  9
$DIMTDEC
 70
     1
  9
$DIMALTU
 70
     2
  9
$DIMALTTD
 70
     2
  9
$DIMTXSTY
  7
STANDARD
  9
$DIMAUNIT
 70
     0
  9
$LUNITS
 70
     2
  9
$LUPREC
 70
     2
  9
$SKETCHINC
 40
0.1
  9
$FILLETRAD
 40
1.5
  9
$AUNITS
 70
     0
  9
$AUPREC
 70
     0
  9
$MENU
  1
acad
  9
$ELEVATION
 40
0.0
  9
$PELEVATION
 40
0.0
  9
$THICKNESS
 40
0.0
  9
$LIMCHECK
 70
     0
  9
$BLIPMODE
 70
     1
  9
$CHAMFERA
 40
0.0
  9
$CHAMFERB
 40
0.0
  9
$CHAMFERC
 40
0.0
  9
$CHAMFERD
 40
0.0
  9
$SKPOLY
 70
     0
  9
$TDCREATE
 40
2449283.567812500
  9
$TDUPDATE
 40
2453089.716587997
  9
$TDINDWG
 40
0.9766529630
  9
$TDUSRTIMER
 40
0.9766529630
  9
$USRTIMER
 70
     1
  9
$ANGBASE
 50
0.0
  9
$ANGDIR
 70
     0
  9
$PDMODE
 70
     0
  9
$PDSIZE
 40
0.0
  9
$PLINEWID
 40
0.0
  9
$COORDS
 70
     2
  9
$SPLFRAME
 70
     0
  9
$SPLINETYPE
 70
     6
  9
$SPLINESEGS
 70
     8
  9
$ATTDIA
 70
     0
  9
$ATTREQ
 70
     1
  9
$HANDLING
 70
     1
  9
$HANDSEED
  5
13B7
  9
$SURFTAB1
 70
     6
  9
$SURFTAB2
 70
     6
  9
$SURFTYPE
 70
     6
  9
$SURFU
 70
     6
  9
$SURFV
 70
     6
  9
$UCSNAME
  2

  9
$UCSORG
 10
0.0
 20
0.0
 30
0.0
  9
$UCSXDIR
 10
1.0
 20
0.0
 30
0.0
  9
$UCSYDIR
 10
0.0
 20
1.0
 30
0.0
  9
$PUCSNAME
  2

  9
$PUCSORG
 10
0.0
 20
0.0
 30
0.0
  9
$PUCSXDIR
 10
1.0
 20
0.0
 30
0.0
  9
$PUCSYDIR
 10
0.0
 20
1.0
 30
0.0
  9
$USERI1
 70
     0
  9
$USERI2
 70
     0
  9
$USERI3
 70
     0
  9
$USERI4
 70
     0
  9
$USERI5
 70
     0
  9
$USERR1
 40
0.0
  9
$USERR2
 40
0.0
  9
$USERR3
 40
0.0
  9
$USERR4
 40
0.0
  9
$USERR5
 40
0.0
  9
$WORLDVIEW
 70
     1
  9
$SHADEDGE
 70
     3
  9
$SHADEDIF
 70
    70
  9
$TILEMODE
 70
     1
  9
$MAXACTVP
 70
    16
  9
$PINSBASE
 10
0.0
 20
0.0
 30
0.0
  9
$PLIMCHECK
 70
     0
  9
$PEXTMIN
 10
1.000000E+20
 20
1.000000E+20
 30
1.000000E+20
  9
$PEXTMAX
 10
-1.000000E+20
 20
-1.000000E+20
 30
-1.000000E+20
  9
$PLIMMIN
 10
0.0
 20
0.0
  9
$PLIMMAX
 10
12.0
 20
9.0
  9
$UNITMODE
 70
     0
  9
$VISRETAIN
 70
     0
  9
$PLINEGEN
 70
     0
  9
$PSLTSCALE
 70
     1
  9
$TREEDEPTH
 70
  3020
  9
$PICKSTYLE
 70
     1
  9
$CMLSTYLE
  2
STANDARD
  9
$CMLJUST
 70
     0
  9
$CMLSCALE
 40
1.0
  9
$PROXYGRAPHICS
 70
     1
  9
$MEASUREMENT
 70
     0
  0
ENDSEC
  0
SECTION
  2
CLASSES
  0
CLASS
  1
LWPOLYLINE
  2
AcDbPolyline
  3
"AutoCAD"
 90
        0
280
     0
281
     1
  0
CLASS
  1
DICTIONARYVAR
  2
AcDbDictionaryVar
  3
"AutoCAD"
 90
        0
280
     0
281
     0
  0
CLASS
  1
HATCH
  2
AcDbHatch
  3
"ACAD_SEDONA"
 90
        0
280
     0
281
     1
  0
ENDSEC
  0
SECTION
  2
TABLES
  0
TABLE
  2
VPORT
  5
3CD
100
AcDbSymbolTable
 70
     1
  0
VPORT
  5
13A4
100
AcDbSymbolTableRecord
100
AcDbViewportTableRecord
  2
*ACTIVE
 70
     0
 10
0.0
 20
0.0
 11
1.0
 21
1.0
 12
248.004956
 22
195.31987
 13
0.0
 23
0.0
 14
1.0
 24
1.0
 15
5.0
 25
5.0
 16
0.0
 26
0.0
 36
1.0
 17
0.0
 27
0.0
 37
0.0
 40
460.646319
 41
1.591963
 42
50.0
 43
0.0
 44
0.0
 50
0.0
 51
0.0
 71
     0
 72
 20000
 73
     1
 74
     1
 75
     0
 76
     0
 77
     0
 78
     0
  0
ENDTAB
  0
TABLE
  2
LTYPE
  5
3CA
100
AcDbSymbolTable
 70
    29
  0
LTYPE
  5
3D7
100
AcDbSymbolTableRecord
100
AcDbLinetypeTableRecord
  2
BYBLOCK
 70
     0
  3

 72
    65
 73
     0
 40
0.0
  0
LTYPE
  5
3D8
100
AcDbSymbolTableRecord
100
AcDbLinetypeTableRecord
  2
BYLAYER
 70
     0
  3

 72
    65
 73
     0
 40
0.0
  0
LTYPE
  5
3D9
100
AcDbSymbolTableRecord
100
AcDbLinetypeTableRecord
  2
CONTINUOUS
 70
     0
  3
Solid line
 72
    65
 73
     0
 40
0.0
  0
LTYPE
  5
3F5
100
AcDbSymbolTableRecord
100
AcDbLinetypeTableRecord
  2
BORDER
 70
     0
  3
__ __ . __ __ . __ __ . __ __ . __ __ . __ __ .
 72
    65
 73
     6
 40
1.75
 49
0.5
 74
     0
 49
-0.25
 74
     0
 49
0.5
 74
     0
 49
-0.25
 74
     0
 49
0.0
 74
     0
 49
-0.25
 74
     0
  0
LTYPE
  5
3F6
100
AcDbSymbolTableRecord
100
AcDbLinetypeTableRecord
  2
BORDER2
 70
     0
  3
__.__.__.__.__.__.__.__.__.__.__.__.__.__.__.__
 72
    65
 73
     6
 40
0.875
 49
0.25
 74
     0
 49
-0.125
 74
     0
 49
0.25
 74
     0
 49
-0.125
 74
     0
 49
0.0
 74
     0
 49
-0.125
 74
     0
  0
LTYPE
  5
3F7
100
AcDbSymbolTableRecord
100
AcDbLinetypeTableRecord
  2
BORDERX2
 70
     0
  3
____  ____  .  ____  ____  .  ____  ____  .  __
 72
    65
 73
     6
 40
3.5
 49
1.0
 74
     0
 49
-0.5
 74
     0
 49
1.0
 74
     0
 49
-0.5
 74
     0
 49
0.0
 74
     0
 49
-0.5
 74
     0
  0
LTYPE
  5
3F8
100
AcDbSymbolTableRecord
100
AcDbLinetypeTableRecord
  2
CENTER
 70
     0
  3
____ _ ____ _ ____ _ ____ _ ____ _ ____ _ ____ 
 72
    65
 73
     4
 40
2.0
 49
1.25
 74
     0
 49
-0.25
 74
     0
 49
0.25
 74
     0
 49
-0.25
 74
     0
  0
LTYPE
  5
3F9
100
AcDbSymbolTableRecord
100
AcDbLinetypeTableRecord
  2
CENTER2
 70
     0
  3
___ _ ___ _ ___ _ ___ _ ___ _ ___ _ ___ _ ___ _
 72
    65
 73
     4
 40
1.125
 49
0.75
 74
     0
 49
-0.125
 74
     0
 49
0.125
 74
     0
 49
-0.125
 74
     0
  0
LTYPE
  5
3FA
100
AcDbSymbolTableRecord
100
AcDbLinetypeTableRecord
  2
CENTERX2
 70
     0
  3
________  __  ________  __  ________  __  _____
 72
    65
 73
     4
 40
4.0
 49
2.5
 74
     0
 49
-0.5
 74
     0
 49
0.5
 74
     0
 49
-0.5
 74
     0
  0
LTYPE
  5
3FB
100
AcDbSymbolTableRecord
100
AcDbLinetypeTableRecord
  2
DASHDOT
 70
     0
  3
__ . __ . __ . __ . __ . __ . __ . __ . __ . __
 72
    65
 73
     4
 40
1.0
 49
0.5
 74
     0
 49
-0.25
 74
     0
 49
0.0
 74
     0
 49
-0.25
 74
     0
  0
LTYPE
  5
3FC
100
AcDbSymbolTableRecord
100
AcDbLinetypeTableRecord
  2
DASHDOT2
 70
     0
  3
_._._._._._._._._._._._._._._._._._._._._._._._
 72
    65
 73
     4
 40
0.5
 49
0.25
 74
     0
 49
-0.125
 74
     0
 49
0.0
 74
     0
 49
-0.125
 74
     0
  0
LTYPE
  5
3FD
100
AcDbSymbolTableRecord
100
AcDbLinetypeTableRecord
  2
DASHDOTX2
 70
     0
  3
____  .  ____  .  ____  .  ____  .  ____  .  __
 72
    65
 73
     4
 40
2.0
 49
1.0
 74
     0
 49
-0.5
 74
     0
 49
0.0
 74
     0
 49
-0.5
 74
     0
  0
LTYPE
  5
3FE
100
AcDbSymbolTableRecord
100
AcDbLinetypeTableRecord
  2
DASHED
 70
     0
  3
__ __ __ __ __ __ __ __ __ __ __ __ __ __ __ __
 72
    65
 73
     2
 40
0.75
 49
0.5
 74
     0
 49
-0.25
 74
     0
  0
LTYPE
  5
3FF
100
AcDbSymbolTableRecord
100
AcDbLinetypeTableRecord
  2
DASHED2
 70
     0
  3
_ _ _ _ _ _ _ _ _ _ _ _ _ _ _ _ _ _ _ _ _ _ _ _
 72
    65
 73
     2
 40
0.375
 49
0.25
 74
     0
 49
-0.125
 74
     0
  0
LTYPE
  5
400
100
AcDbSymbolTableRecord
100
AcDbLinetypeTableRecord
  2
DASHEDX2
 70
     0
  3
____  ____  ____  ____  ____  ____  ____  ____ 
 72
    65
 73
     2
 40
1.5
 49
1.0
 74
     0
 49
-0.5
 74
     0
  0
LTYPE
  5
401
100
AcDbSymbolTableRecord
100
AcDbLinetypeTableRecord
  2
DIVIDE
 70
     0
  3
____ . . ____ . . ____ . . ____ . . ____ . . __
 72
    65
 73
     6
 40
1.25
 49
0.5
 74
     0
 49
-0.25
 74
     0
 49
0.0
 74
     0
 49
-0.25
 74
     0
 49
0.0
 74
     0
 49
-0.25
 74
     0
  0
LTYPE
  5
402
100
AcDbSymbolTableRecord
100
AcDbLinetypeTableRecord
  2
DIVIDE2
 70
     0
  3
__..__..__..__..__..__..__..__..__..__..__..__.
 72
    65
 73
     6
 40
0.625
 49
0.25
 74
     0
 49
-0.125
 74
     0
 49
0.0
 74
     0
 49
-0.125
 74
     0
 49
0.0
 74
     0
 49
-0.125
 74
     0
  0
LTYPE
  5
403
100
AcDbSymbolTableRecord
100
AcDbLinetypeTableRecord
  2
DIVIDEX2
 70
     0
  3
________  .  .  ________  .  .  ________  .  . 
 72
    65
 73
     6
 40
2.5
 49
1.0
 74
     0
 49
-0.5
 74
     0
 49
0.0
 74
     0
 49
-0.5
 74
     0
 49
0.0
 74
     0
 49
-0.5
 74
     0
  0
LTYPE
  5
404
100
AcDbSymbolTableRecord
100
AcDbLinetypeTableRecord
  2
DOT
 70
     0
  3
. . . . . . . . . . . . . . . . . . . . . . . .
 72
    65
 73
     2
 40
0.25
 49
0.0
 74
     0
 49
-0.25
 74
     0
  0
LTYPE
  5
405
100
AcDbSymbolTableRecord
100
AcDbLinetypeTableRecord
  2
DOT2
 70
     0
  3
...............................................
 72
    65
 73
     2
 40
0.125
 49
0.0
 74
     0
 49
-0.125
 74
     0
  0
LTYPE
  5
406
100
AcDbSymbolTableRecord
100
AcDbLinetypeTableRecord
  2
DOTX2
 70
     0
  3
.  .  .  .  .  .  .  .  .  .  .  .  .  .  .  . 
 72
    65
 73
     2
 40
0.5
 49
0.0
 74
     0
 49
-0.5
 74
     0
  0
LTYPE
  5
407
100
AcDbSymbolTableRecord
100
AcDbLinetypeTableRecord
  2
HIDDEN
 70
     0
  3
__ __ __ __ __ __ __ __ __ __ __ __ __ __ __ __
 72
    65
 73
     2
 40
0.375
 49
0.25
 74
     0
 49
-0.125
 74
     0
  0
LTYPE
  5
408
100
AcDbSymbolTableRecord
100
AcDbLinetypeTableRecord
  2
HIDDEN2
 70
     0
  3
_ _ _ _ _ _ _ _ _ _ _ _ _ _ _ _ _ _ _ _ _ _ _ _
 72
    65
 73
     2
 40
0.1875
 49
0.125
 74
     0
 49
-0.0625
 74
     0
  0
LTYPE
  5
409
100
AcDbSymbolTableRecord
100
AcDbLinetypeTableRecord
  2
HIDDENX2
 70
     0
  3
____ ____ ____ ____ ____ ____ ____ ____ ____ __
 72
    65
 73
     2
 40
0.75
 49
0.5
 74
     0
 49
-0.25
 74
     0
  0
LTYPE
  5
40A
100
AcDbSymbolTableRecord
100
AcDbLinetypeTableRecord
  2
PHANTOM
 70
     0
  3
______  __  __  ______  __  __  ______  __  __ 
 72
    65
 73
     6
 40
2.5
 49
1.25
 74
     0
 49
-0.25
 74
     0
 49
0.25
 74
     0
 49
-0.25
 74
     0
 49
0.25
 74
     0
 49
-0.25
 74
     0
  0
LTYPE
  5
40B
100
AcDbSymbolTableRecord
100
AcDbLinetypeTableRecord
  2
PHANTOM2
 70
     0
  3
___ _ _ ___ _ _ ___ _ _ ___ _ _ ___ _ _ ___ _ _
 72
    65
 73
     6
 40
1.25
 49
0.625
 74
     0
 49
-0.125
 74
     0
 49
0.125
 74
     0
 49
-0.125
 74
     0
 49
0.125
 74
     0
 49
-0.125
 74
     0
  0
LTYPE
  5
40C
100
AcDbSymbolTableRecord
100
AcDbLinetypeTableRecord
  2
PHANTOMX2
 70
     0
  3
____________    ____    ____    ____________   
 72
    65
 73
     6
 40
5.0
 49
2.5
 74
     0
 49
-0.5
 74
     0
 49
0.5
 74
     0
 49
-0.5
 74
     0
 49
0.5
 74
     0
 49
-0.5
 74
     0
  0
LTYPE
  5
40D
100
AcDbSymbolTableRecord
100
AcDbLinetypeTableRecord
  2
TENSEN
 70
     0
  3

 72
    65
 73
     2
 40
4.0
 49
3.0
 74
     0
 49
-1.0
 74
     0
  0
LTYPE
  5
40E
100
AcDbSymbolTableRecord
100
AcDbLinetypeTableRecord
  2
ITTEN
 70
     0
  3

 72
    65
 73
     4
 40
8.0
 49
5.0
 74
     0
 49
-1.0
 74
     0
 49
1.0
 74
     0
 49
-1.0
 74
     0
  0
LTYPE
  5
40F
100
AcDbSymbolTableRecord
100
AcDbLinetypeTableRecord
  2
TENSEN3
 70
     0
  3

 72
    65
 73
     2
 40
4.0
 49
3.0
 74
     0
 49
-1.0
 74
     0
  0
LTYPE
  5
410
100
AcDbSymbolTableRecord
100
AcDbLinetypeTableRecord
  2
ITTEN1
 70
     0
  3

 72
    65
 73
     4
 40
8.2
 49
5.0
 74
     0
 49
-1.0
 74
     0
 49
1.2
 74
     0
 49
-1.0
 74
     0
  0
ENDTAB
  0
TABLE
  2
LAYER
  5
3C7
100
AcDbSymbolTable
 70
    12
  0
LAYER
  5
3D4
100
AcDbSymbolTableRecord
100
AcDbLayerTableRecord
  2
0
 70
     0
 62
     7
  6
CONTINUOUS
  0
LAYER
  5
416
100
AcDbSymbolTableRecord
100
AcDbLayerTableRecord
  2
DAI
 70
     0
 62
     8
  6
CONTINUOUS
  0
LAYER
  5
417
100
AcDbSymbolTableRecord
100
AcDbLayerTableRecord
  2
1
 70
     0
 62
     1
  6
ITTEN1
  0
LAYER
  5
418
100
AcDbSymbolTableRecord
100
AcDbLayerTableRecord
  2
2
 70
     0
 62
     2
  6
TENSEN
  0
LAYER
  5
419
100
AcDbSymbolTableRecord
100
AcDbLayerTableRecord
  2
3
 70
     0
 62
     3
  6
CONTINUOUS
  0
LAYER
  5
41A
100
AcDbSymbolTableRecord
100
AcDbLayerTableRecord
  2
4
 70
     0
 62
     6
  6
CONTINUOUS
  0
LAYER
  5
41B
100
AcDbSymbolTableRecord
100
AcDbLayerTableRecord
  2
5
 70
     0
 62
     6
  6
TENSEN3
  0
LAYER
  5
41C
100
AcDbSymbolTableRecord
100
AcDbLayerTableRecord
  2
6
 70
     0
 62
     6
  6
ITTEN
  0
LAYER
  5
41D
100
AcDbSymbolTableRecord
100
AcDbLayerTableRecord
  2
7
 70
     0
 62
     3
  6
TENSEN
  0
LAYER
  5
41E
100
AcDbSymbolTableRecord
100
AcDbLayerTableRecord
  2
8
 70
     0
 62
     3
  6
ITTEN1
  0
LAYER
  5
41F
100
AcDbSymbolTableRecord
100
AcDbLayerTableRecord
  2
DEFPOINTS
 70
     0
 62
     7
  6
CONTINUOUS
  0
LAYER
  5
420
100
AcDbSymbolTableRecord
100
AcDbLayerTableRecord
  2
ASHADE
 70
     0
 62
     7
  6
CONTINUOUS
  0
ENDTAB
  0
TABLE
  2
STYLE
  5
3C8
100
AcDbSymbolTable
 70
    20
  0
STYLE
  5
3D5
100
AcDbSymbolTableRecord
100
AcDbTextStyleTableRecord
  2
STANDARD
 70
     0
 40
0.0
 41
1.0
 50
0.0
 71
     0
 42
0.2
  3
txt
  4

  0
STYLE
  5
3E2
100
AcDbSymbolTableRecord
100
AcDbTextStyleTableRecord
  2
TEXT-1
 70
     0
 40
0.0
 41
1.0
 50
0.0
 71
     0
 42
0.2
  3
italicc.shx
  4

  0
STYLE
  5
3E3
100
AcDbSymbolTableRecord
100
AcDbTextStyleTableRecord
  2
TEST1
 70
     0
 40
0.0
 41
1.0
 50
0.0
 71
     0
 42
0.2
  3
italicc.shx
  4

  0
STYLE
  5
3E4
100
AcDbSymbolTableRecord
100
AcDbTextStyleTableRecord
  2
TEST2
 70
     0
 40
10.0
 41
1.0
 50
0.0
 71
     0
 42
10.0
  3
txt
  4
extfont
  0
STYLE
  5
3E5
100
AcDbSymbolTableRecord
100
AcDbTextStyleTableRecord
  2
BIGFONT
 70
     0
 40
5.0
 41
0.7
 50
0.0
 71
     0
 42
5.0
  3
txt.shx
  4
extfont.shx
  0
STYLE
  5
3E6
100
AcDbSymbolTableRecord
100
AcDbTextStyleTableRecord
  2
ROMAND
 70
     0
 40
4.0
 41
0.6
 50
0.0
 71
     0
 42
4.0
  3
romand
  4

  0
STYLE
  5
3E7
100
AcDbSymbolTableRecord
100
AcDbTextStyleTableRecord
  2
EXTFONT
 70
     0
 40
3.5
 41
0.5
 50
0.0
 71
     0
 42
3.5
  3
txt.shx
  4
extfont
  0
STYLE
  5
3E8
100
AcDbSymbolTableRecord
100
AcDbTextStyleTableRecord
  2
ROMANS
 70
     0
 40
2.5
 41
0.6
 50
0.0
 71
     0
 42
2.5
  3
romans
  4

  0
STYLE
  5
3E9
100
AcDbSymbolTableRecord
100
AcDbTextStyleTableRecord
  2
SCRIPTC
 70
     0
 40
20.0
 41
1.0
 50
0.0
 71
     0
 42
20.0
  3
complex.shx
  4

  0
STYLE
  5
3EA
100
AcDbSymbolTableRecord
100
AcDbTextStyleTableRecord
  2
SCRIPTS
 70
     0
 40
20.0
 41
1.0
 50
0.0
 71
     0
 42
20.0
  3
scripts
  4

  0
STYLE
  5
3EB
100
AcDbSymbolTableRecord
100
AcDbTextStyleTableRecord
  2
ROMANT
 70
     0
 40
20.0
 41
1.0
 50
0.0
 71
     0
 42
20.0
  3
romant
  4

  0
STYLE
  5
3EC
100
AcDbSymbolTableRecord
100
AcDbTextStyleTableRecord
  2
GOTHICE
 70
     0
 40
20.0
 41
1.0
 50
0.0
 71
     0
 42
20.0
  3
gothice
  4

  0
STYLE
  5
3ED
100
AcDbSymbolTableRecord
100
AcDbTextStyleTableRecord
  2
GOTHICG
 70
     0
 40
20.0
 41
1.0
 50
0.0
 71
     0
 42
20.0
  3
gothicg
  4

  0
STYLE
  5
3EE
100
AcDbSymbolTableRecord
100
AcDbTextStyleTableRecord
  2
SANSSERIF
 70
     0
 40
20.0
 41
1.0
 50
0.0
 71
     0
 42
20.0
  3
sas_____.pfb
  4

  0
STYLE
  5
3EF
100
AcDbSymbolTableRecord
100
AcDbTextStyleTableRecord
  2
TECHNICBOLD
 70
     0
 40
20.0
 41
1.0
 50
0.0
 71
     0
 42
20.0
  3
teb_____.pfb
  4

  0
STYLE
  5
3F0
100
AcDbSymbolTableRecord
100
AcDbTextStyleTableRecord
  2
TXT
 70
     0
 40
20.0
 41
1.0
 50
0.0
 71
     0
 42
20.0
  3
txt
  4

  0
STYLE
  5
3F1
100
AcDbSymbolTableRecord
100
AcDbTextStyleTableRecord
  2
MONOTXT
 70
     0
 40
20.0
 41
1.0
 50
0.0
 71
     0
 42
20.0
  3
monotxt
  4

  0
STYLE
  5
3F2
100
AcDbSymbolTableRecord
100
AcDbTextStyleTableRecord
  2
TECHNICLIGHT
 70
     0
 40
3.6
 41
0.8
 50
0.0
 71
     0
 42
3.6
  3
tel_____.pfb
  4

  0
STYLE
  5
3F3
100
AcDbSymbolTableRecord
100
AcDbTextStyleTableRecord
  2
GREEKS
 70
     0
 40
20.0
 41
1.0
 50
0.0
 71
     0
 42
20.0
  3
greeks
  4

  0
STYLE
  5
3F4
100
AcDbSymbolTableRecord
100
AcDbTextStyleTableRecord
  2
ASHADE
 70
     0
 40
0.2
 41
1.0
 50
0.0
 71
     0
 42
5.0
  3
simplex
  4

  0
ENDTAB
  0
TABLE
  2
VIEW
  5
3CB
100
AcDbSymbolTable
 70
     1
  0
VIEW
  5
411
100
AcDbSymbolTableRecord
100
AcDbViewTableRecord
  2
OLE1
 70
     0
 40
108.5
 10
105.318611
 20
217.75
 41
173.637221
 11
0.0
 21
0.0
 31
1.0
 12
0.0
 22
0.0
 32
0.0
 42
50.0
 43
0.0
 44
0.0
 50
0.0
 71
     0
  0
ENDTAB
  0
TABLE
  2
UCS
  5
3CC
100
AcDbSymbolTable
 70
     0
  0
ENDTAB
  0
TABLE
  2
APPID
  5
3CE
100
AcDbSymbolTable
 70
     2
  0
APPID
  5
3D6
100
AcDbSymbolTableRecord
100
AcDbRegAppTableRecord
  2
ACAD
 70
     0
  0
APPID
  5
414
100
AcDbSymbolTableRecord
100
AcDbRegAppTableRecord
  2
AVE_RENDER
 70
     0
  0
ENDTAB
  0
TABLE
  2
DIMSTYLE
  5
3CF
100
AcDbSymbolTable
 70
     1
  0
DIMSTYLE
105
425
100
AcDbSymbolTableRecord
100
AcDbDimStyleTableRecord
  2
STANDARD
 70
     0
  3

  4

  5

  6

  7

 40
1.0
 41
0.18
 42
0.0625
 43
0.38
 44
0.18
 45
0.0
 46
0.0
 47
0.0
 48
0.0
140
0.18
141
0.09
142
0.0
143
25.4
144
1.0
145
0.0
146
1.0
147
0.09
 71
     0
 72
     0
 73
     1
 74
     1
 75
     0
 76
     0
 77
     0
 78
     0
170
     0
171
     2
172
     0
173
     0
174
     0
175
     0
176
     0
177
     0
178
     0
270
     2
271
     4
272
     4
273
     2
274
     2
340
3D5
275
     0
280
     0
281
     0
282
     0
283
     1
284
     0
285
     0
286
     0
287
     3
288
     0
  0
ENDTAB
  0
TABLE
  2
BLOCK_RECORD
  5
3C6
100
AcDbSymbolTable
 70
     6
  0
BLOCK_RECORD
  5
3DD
100
AcDbSymbolTableRecord
100
AcDbBlockTableRecord
  2
*MODEL_SPACE
  0
BLOCK_RECORD
  5
3DA
100
AcDbSymbolTableRecord
100
AcDbBlockTableRecord
  2
*PAPER_SPACE
  0
BLOCK_RECORD
  5
3E1
100
AcDbSymbolTableRecord
100
AcDbBlockTableRecord
  2
AVE_RENDER
  0
BLOCK_RECORD
  5
1182
100
AcDbSymbolTableRecord
100
AcDbBlockTableRecord
  2
A$C31B725D5
  0
BLOCK_RECORD
  5
11DB
100
AcDbSymbolTableRecord
100
AcDbBlockTableRecord
  2
A$C5CFE5BB2
  0
BLOCK_RECORD
  5
1200
100
AcDbSymbolTableRecord
100
AcDbBlockTableRecord
  2
*D3
  0
BLOCK_RECORD
  5
120D
100
AcDbSymbolTableRecord
100
AcDbBlockTableRecord
  2
A$C29A46910
  0
BLOCK_RECORD
  5
130D
100
AcDbSymbolTableRecord
100
AcDbBlockTableRecord
  2
A$C5E405B83
  0
ENDTAB
  0
ENDSEC
  0
SECTION
  2
BLOCKS
  0
BLOCK
  5
423
100
AcDbEntity
  8
0
100
AcDbBlockBegin
  2
*MODEL_SPACE
 70
     0
 10
0.0
 20
0.0
 30
0.0
  3
*MODEL_SPACE
  1

  0
ENDBLK
  5
424
100
AcDbEntity
  8
0
100
AcDbBlockEnd
  0
BLOCK
  5
421
100
AcDbEntity
 67
     1
  8
0
100
AcDbBlockBegin
  2
*PAPER_SPACE
 70
     0
 10
0.0
 20
0.0
 30
0.0
  3
*PAPER_SPACE
  1

  0
ENDBLK
  5
422
100
AcDbEntity
 67
     1
  8
0
100
AcDbBlockEnd
  0
BLOCK
  5
F6
100
AcDbEntity
  8
0
100
AcDbBlockBegin
  2
AVE_RENDER
 70
     0
 10
0.0
 20
0.0
 30
0.0
  3
AVE_RENDER
  1
AVE_RENDER
  0
ENDBLK
  5
F7
100
AcDbEntity
  8
0
100
AcDbBlockEnd
  0
BLOCK
  5
1184
100
AcDbEntity
  8
0
100
AcDbBlockBegin
  2
A$C31B725D5
 70
     0
 10
0.0
 20
0.0
 30
0.0
  3
A$C31B725D5
  1

  0
TEXT
  5
1183
100
AcDbEntity
  8
0
100
AcDbText
 10
0.0
 20
0.0
 30
0.0
 40
5.0
  1
平型ハンドル車
 41
0.7
  7
BIGFONT
100
AcDbText
  0
ENDBLK
  5
1185
100
AcDbEntity
  8
0
100
AcDbBlockEnd
  0
BLOCK
  5
11E6
100
AcDbEntity
  8
0
100
AcDbBlockBegin
  2
A$C5CFE5BB2
 70
     0
 10
0.0
 20
0.0
 30
0.0
  3
A$C5CFE5BB2
  1

  0
ARC
  5
11DC
100
AcDbEntity
  8
3
100
AcDbCircle
 10
26.505888
 20
-9.518297
 30
0.0
 40
25.508766
100
AcDbArc
 50
61.953
 51
131.810447
  0
ARC
  5
11DD
100
AcDbEntity
  8
3
100
AcDbCircle
 10
26.505888
 20
25.507847
 30
0.0
 40
25.508766
100
AcDbArc
 50
228.189553
 51
298.047
  0
LINE
  5
11DE
100
AcDbEntity
  8
1
100
AcDbLine
 10
53.5
 20
7.994775
 30
0.0
 11
0.0
 21
7.994775
 31
0.0
  0
ARC
  5
11DF
100
AcDbEntity
  8
3
100
AcDbCircle
 10
10.125
 20
7.994775
 30
0.0
 40
1.625
100
AcDbArc
 50
112.619865
 51
247.380135
  0
ARC
  5
11E0
100
AcDbEntity
  8
3
100
AcDbCircle
 10
45.0
 20
33.619775
 30
0.0
 40
21.625
100
AcDbArc
 50
252.507675
 51
287.492325
  0
ARC
  5
11E1
100
AcDbEntity
  8
3
100
AcDbCircle
 10
45.0
 20
-17.630225
 30
0.0
 40
21.625
100
AcDbArc
 50
72.507675
 51
107.492325
  0
LINE
  5
11E2
100
AcDbEntity
  8
1
100
AcDbLine
 10
53.5
 20
7.994775
 30
0.0
 11
74.5
 21
7.994775
 31
0.0
  0
LINE
  5
11E3
100
AcDbEntity
  8
3
100
AcDbLine
 10
51.5
 20
2.994775
 30
0.0
 11
51.5
 21
12.994775
 31
0.0
  0
LINE
  5
11E4
100
AcDbEntity
  8
3
100
AcDbLine
 10
58.5
 20
2.994775
 30
0.0
 11
51.5
 21
2.994775
 31
0.0
  0
LINE
  5
11E5
100
AcDbEntity
  8
3
100
AcDbLine
 10
51.5
 20
12.994775
 30
0.0
 11
58.5
 21
12.994775
 31
0.0
  0
ENDBLK
  5
11E7
100
AcDbEntity
  8
0
100
AcDbBlockEnd
  0
BLOCK
  5
120B
100
AcDbEntity
  8
0
100
AcDbBlockBegin
  2
*D3
 70
     1
 10
0.0
 20
0.0
 30
0.0
  3
*D3
  1

  0
LINE
  5
1201
100
AcDbEntity
  8
0
  6
BYBLOCK
 62
     0
100
AcDbLine
 10
276.528196
 20
206.302995
 30
0.0
 11
235.305533
 21
206.302995
 31
0.0
  0
LINE
  5
1202
100
AcDbEntity
  8
0
  6
BYBLOCK
 62
     0
100
AcDbLine
 10
276.528196
 20
66.302995
 30
0.0
 11
235.305533
 21
66.302995
 31
0.0
  0
LINE
  5
1203
100
AcDbEntity
  8
0
  6
BYBLOCK
 62
     0
100
AcDbLine
 10
236.305533
 20
204.302995
 30
0.0
 11
236.305533
 21
140.871967
 31
0.0
  0
LINE
  5
1204
100
AcDbEntity
  8
0
  6
BYBLOCK
 62
     0
100
AcDbLine
 10
236.305533
 20
68.302995
 30
0.0
 11
236.305533
 21
130.9553
 31
0.0
  0
SOLID
  5
1205
100
AcDbEntity
  8
0
  6
BYBLOCK
 62
     0
100
AcDbTrace
 10
235.972199
 20
204.302995
 30
0.0
 11
236.638866
 21
204.302995
 31
0.0
 12
236.305533
 22
206.302995
 32
0.0
 13
236.305533
 23
206.302995
 33
0.0
  0
SOLID
  5
1206
100
AcDbEntity
  8
0
  6
BYBLOCK
 62
     0
100
AcDbTrace
 10
235.972199
 20
68.302995
 30
0.0
 11
236.638866
 21
68.302995
 31
0.0
 12
236.305533
 22
66.302995
 32
0.0
 13
236.305533
 23
66.302995
 33
0.0
  0
MTEXT
  5
1207
100
AcDbEntity
  8
0
  6
BYBLOCK
 62
     0
100
AcDbMText
 10
236.305533
 20
135.913634
 30
0.0
 40
4.0
 41
0.0
 71
     5
 72
     5
  1
\A1;140
 11
0.0
 21
1.0
 31
0.0
  0
POINT
  5
1208
100
AcDbEntity
  8
DEFPOINTS
  6
BYBLOCK
 62
     0
100
AcDbPoint
 10
277.528196
 20
206.302995
 30
0.0
  0
POINT
  5
1209
100
AcDbEntity
  8
DEFPOINTS
  6
BYBLOCK
 62
     0
100
AcDbPoint
 10
277.528196
 20
66.302995
 30
0.0
  0
POINT
  5
120A
100
AcDbEntity
  8
DEFPOINTS
  6
BYBLOCK
 62
     0
100
AcDbPoint
 10
236.305533
 20
66.302995
 30
0.0
  0
ENDBLK
  5
120C
100
AcDbEntity
  8
0
100
AcDbBlockEnd
  0
BLOCK
  5
1270
100
AcDbEntity
  8
0
100
AcDbBlockBegin
  2
A$C29A46910
 70
     0
 10
0.0
 20
0.0
 30
0.0
  3
A$C29A46910
  1

  0
ARC
  5
120E
100
AcDbEntity
  8
3
100
AcDbCircle
 10
77.04886
 20
77.5
 30
8.416617
 40
61.0
100
AcDbArc
 50
0.0
 51
90.0
  0
LINE
  5
120F
100
AcDbEntity
  8
1
100
AcDbLine
 10
-0.45114
 20
77.5
 30
8.416617
 11
152.54886
 21
77.5
 31
8.416617
  0
CIRCLE
  5
1210
100
AcDbEntity
  8
3
100
AcDbCircle
 10
77.04886
 20
77.5
 30
8.416617
 40
70.0
  0
ARC
  5
1211
100
AcDbEntity
  8
3
100
AcDbCircle
 10
77.04886
 20
77.5
 30
8.416617
 40
18.0
100
AcDbArc
 50
270.0
 51
90.0
  0
ARC
  5
1212
100
AcDbEntity
  8
3
100
AcDbCircle
 10
77.04886
 20
77.5
 30
8.416617
 40
22.0
100
AcDbArc
 50
355.583002
 51
64.416998
  0
ARC
  5
1213
100
AcDbEntity
  8
3
100
AcDbCircle
 10
77.04886
 20
77.5
 30
8.416617
 40
19.488389
100
AcDbArc
 50
270.0
 51
90.0
  0
ARC
  5
1214
100
AcDbEntity
  8
3
100
AcDbCircle
 10
77.04886
 20
77.5
 30
8.416617
 40
52.0
100
AcDbArc
 50
339.966766
 51
80.033234
  0
ARC
  5
1215
100
AcDbEntity
  8
3
100
AcDbCircle
 10
77.04886
 20
77.5
 30
8.416617
 40
52.0
100
AcDbArc
 50
99.966766
 51
200.033234
  0
ARC
  5
1216
100
AcDbEntity
  8
3
100
AcDbCircle
 10
77.04886
 20
77.5
 30
8.416617
 40
18.0
100
AcDbArc
 50
90.0
 51
270.0
  0
ARC
  5
1217
100
AcDbEntity
  8
3
100
AcDbCircle
 10
77.04886
 20
77.5
 30
8.416617
 40
22.0
100
AcDbArc
 50
115.583002
 51
184.416998
  0
ARC
  5
1218
100
AcDbEntity
  8
3
100
AcDbCircle
 10
77.04886
 20
77.5
 30
8.416617
 40
19.25514
100
AcDbArc
 50
90.0
 51
270.0
  0
LINE
  5
1219
100
AcDbEntity
  8
1
100
AcDbLine
 10
77.04886
 20
155.0
 30
8.416617
 11
77.04886
 21
0.0
 31
8.416617
  0
ARC
  5
121A
100
AcDbEntity
  8
3
100
AcDbCircle
 10
77.04886
 20
77.5
 30
8.416617
 40
61.0
100
AcDbArc
 50
100.388858
 51
0.0
  0
LINE
  5
121B
100
AcDbEntity
  8
1
100
AcDbLine
 10
77.04886
 20
77.5
 30
8.416617
 11
11.844377
 21
39.854174
 31
8.416617
  0
LINE
  5
121C
100
AcDbEntity
  8
1
100
AcDbLine
 10
77.04886
 20
77.5
 30
8.416617
 11
142.036836
 21
39.979174
 31
8.416617
  0
ARC
  5
121D
100
AcDbEntity
  8
3
100
AcDbCircle
 10
77.04886
 20
77.5
 30
8.416617
 40
22.0
100
AcDbArc
 50
235.583002
 51
304.416998
  0
ARC
  5
121E
100
AcDbEntity
  8
3
100
AcDbCircle
 10
77.04886
 20
77.5
 30
8.416617
 40
52.0
100
AcDbArc
 50
219.966766
 51
320.033234
  0
LINE
  5
121F
100
AcDbEntity
  8
3
100
AcDbLine
 10
55.114201
 20
75.805674
 30
8.416617
 11
28.195168
 21
59.686612
 31
8.416617
  0
LINE
  5
1220
100
AcDbEntity
  8
3
100
AcDbLine
 10
64.614201
 20
59.351191
 30
8.416617
 11
37.195168
 21
44.098155
 31
8.416617
  0
ARC
  5
1221
100
AcDbEntity
  8
3
100
AcDbCircle
 10
55.460136
 20
65.035744
 30
8.416617
 40
28.709586
100
AcDbArc
 50
193.129921
 51
226.870079
  0
ARC
  5
1222
100
AcDbEntity
  8
3
100
AcDbCircle
 10
36.498006
 20
45.554313
 30
8.416617
 40
1.614445
100
AcDbArc
 50
245.662844
 51
295.583615
  0
ARC
  5
1223
100
AcDbEntity
  8
3
100
AcDbCircle
 10
29.107657
 20
58.354773
 30
8.416617
 40
1.614445
100
AcDbArc
 50
124.416385
 51
174.337156
  0
ARC
  5
1224
100
AcDbEntity
  8
3
100
AcDbCircle
 10
80.612438
 20
79.557433
 30
8.416617
 40
25.041839
100
AcDbArc
 50
190.022534
 51
229.977466
  0
ARC
  5
1225
100
AcDbEntity
  8
3
100
AcDbCircle
 10
64.083596
 20
59.816763
 30
8.416617
 40
0.705903
100
AcDbArc
 50
318.735141
 51
53.010996
  0
ARC
  5
1226
100
AcDbEntity
  8
3
100
AcDbCircle
 10
55.252095
 20
75.11337
 30
8.416617
 40
0.705903
100
AcDbArc
 50
6.989004
 51
101.264859
  0
LINE
  5
1227
100
AcDbEntity
  8
3
100
AcDbLine
 10
98.983519
 20
75.805674
 30
8.416617
 11
125.902552
 21
59.686612
 31
8.416617
  0
LINE
  5
1228
100
AcDbEntity
  8
3
100
AcDbLine
 10
89.483519
 20
59.351191
 30
8.416617
 11
116.902552
 21
44.098155
 31
8.416617
  0
TEXT
  5
1229
100
AcDbEntity
  8
3
100
AcDbText
 10
96.705593
 20
63.084936
 30
8.416617
 40
5.0
  1
S/SN-140
 50
330.0
 41
0.75
  7
BIGFONT
100
AcDbText
  0
ARC
  5
122A
100
AcDbEntity
  8
3
100
AcDbCircle
 10
98.845624
 20
75.11337
 30
8.416617
 40
0.705903
100
AcDbArc
 50
78.735141
 51
173.010996
  0
ARC
  5
122B
100
AcDbEntity
  8
3
100
AcDbCircle
 10
73.485282
 20
79.557433
 30
8.416617
 40
25.041839
100
AcDbArc
 50
310.022534
 51
349.977466
  0
ARC
  5
122C
100
AcDbEntity
  8
3
100
AcDbCircle
 10
90.014124
 20
59.816763
 30
8.416617
 40
0.705903
100
AcDbArc
 50
126.989004
 51
221.264859
  0
ARC
  5
122D
100
AcDbEntity
  8
3
100
AcDbCircle
 10
98.637584
 20
65.035744
 30
8.416617
 40
28.709586
100
AcDbArc
 50
313.129921
 51
346.870079
  0
ARC
  5
122E
100
AcDbEntity
  8
3
100
AcDbCircle
 10
117.599714
 20
45.554313
 30
8.416617
 40
1.614445
100
AcDbArc
 50
244.416385
 51
294.337156
  0
ARC
  5
122F
100
AcDbEntity
  8
3
100
AcDbCircle
 10
124.990063
 20
58.354773
 30
8.416617
 40
1.614445
100
AcDbArc
 50
5.662844
 51
55.583615
  0
ARC
  5
1230
100
AcDbEntity
  8
3
100
AcDbCircle
 10
77.04886
 20
102.428511
 30
8.416617
 40
28.709586
100
AcDbArc
 50
73.129921
 51
81.029997
  0
ARC
  5
1231
100
AcDbEntity
  8
3
100
AcDbCircle
 10
77.04886
 20
135.5
 30
8.416617
 40
6.5
100
AcDbArc
 50
270.0
 51
0.0
  0
ARC
  5
1232
100
AcDbEntity
  8
3
100
AcDbCircle
 10
77.04886
 20
73.385134
 30
8.416617
 40
25.041839
100
AcDbArc
 50
70.022534
 51
109.977466
  0
LINE
  5
1233
100
AcDbEntity
  8
1
100
AcDbLine
 10
55.04886
 20
135.5
 30
8.416617
 11
92.051792
 21
135.5
 31
8.416617
  0
LINE
  5
1234
100
AcDbEntity
  8
3
100
AcDbLine
 10
67.54886
 20
97.343135
 30
8.416617
 11
68.04886
 21
128.715232
 31
8.416617
  0
ARC
  5
1235
100
AcDbEntity
  8
3
100
AcDbCircle
 10
68.217359
 20
97.569866
 30
8.416617
 40
0.705903
100
AcDbArc
 50
198.735141
 51
293.010996
  0
ARC
  5
1236
100
AcDbEntity
  8
3
100
AcDbCircle
 10
66.163858
 20
134.554001
 30
8.416617
 40
2.948243
100
AcDbArc
 50
358.950496
 51
109.367232
  0
ARC
  5
1237
100
AcDbEntity
  8
3
100
AcDbCircle
 10
69.658511
 20
128.590913
 30
8.416617
 40
1.614445
100
AcDbArc
 50
125.662844
 51
175.583615
  0
ARC
  5
1238
100
AcDbEntity
  8
3
100
AcDbCircle
 10
77.04886
 20
135.5
 30
8.416617
 40
8.0
100
AcDbArc
 50
180.0
 51
270.0
  0
ARC
  5
1239
100
AcDbEntity
  8
3
100
AcDbCircle
 10
77.04886
 20
102.428511
 30
8.416617
 40
28.709586
100
AcDbArc
 50
102.494618
 51
106.870079
  0
LINE
  5
123A
100
AcDbEntity
  8
3
100
AcDbLine
 10
86.54886
 20
97.343135
 30
8.416617
 11
86.04886
 21
128.715232
 31
8.416617
  0
ARC
  5
123B
100
AcDbEntity
  8
3
100
AcDbCircle
 10
85.88036
 20
97.569866
 30
8.416617
 40
0.705903
100
AcDbArc
 50
246.989004
 51
341.264859
  0
ARC
  5
123C
100
AcDbEntity
  8
3
100
AcDbCircle
 10
84.439209
 20
128.590913
 30
8.416617
 40
1.614445
100
AcDbArc
 50
4.416385
 51
54.337156
  0
ARC
  5
123D
100
AcDbEntity
  8
3
100
AcDbCircle
 10
77.04886
 20
135.5
 30
8.416617
 40
8.0
100
AcDbArc
 50
15.115832
 51
18.405055
  0
ARC
  5
123E
100
AcDbEntity
  8
3
100
AcDbCircle
 10
86.126879
 20
135.390096
 30
8.416617
 40
2.580361
100
AcDbArc
 50
102.944502
 51
181.053857
  0
DIMENSION
  5
123F
100
AcDbEntity
  8
0
100
AcDbDimension
  2
*D3
 10
183.326197
 20
7.5
 30
8.416617
 11
183.326197
 21
77.110639
 31
8.416617
 12
-52.979336
 22
-58.802995
 32
8.416617
 70
   128
  3
STANDARD
100
AcDbAlignedDimension
 13
224.54886
 23
147.5
 33
8.416617
 14
224.54886
 24
7.5
 34
8.416617
 50
90.0
100
AcDbRotatedDimension
1001
ACAD
1000
DSTYLE
1002
{
1070
   140
1040
4.0
1070
    77
1070
     0
1070
    40
1040
1.0
1070
   141
1040
0.0
1070
    41
1040
2.0
1002
}
  0
LINE
  5
1240
100
AcDbEntity
  8
3
100
AcDbLine
 10
248.54886
 20
77.5
 30
8.416617
 11
248.54886
 21
61.5
 31
8.416617
  0
LINE
  5
1241
100
AcDbEntity
  8
3
100
AcDbLine
 10
216.54886
 20
77.5
 30
8.416617
 11
216.54886
 21
59.5
 31
8.416617
  0
LINE
  5
1242
100
AcDbEntity
  8
1
100
AcDbLine
 10
224.54886
 20
154.0
 30
8.416617
 11
224.54886
 21
0.0
 31
8.416617
  0
LINE
  5
1243
100
AcDbEntity
  8
3
100
AcDbLine
 10
215.54886
 20
16.5
 30
8.416617
 11
215.54886
 21
77.5
 31
8.416617
  0
LINE
  5
1244
100
AcDbEntity
  8
3
100
AcDbLine
 10
233.54886
 20
16.5
 30
8.416617
 11
233.54886
 21
59.5
 31
8.416617
  0
ARC
  5
1245
100
AcDbEntity
  8
3
100
AcDbCircle
 10
224.54886
 20
16.5
 30
8.416617
 40
9.0
100
AcDbArc
 50
180.0
 51
0.0
  0
ARC
  5
1246
100
AcDbEntity
  8
3
100
AcDbCircle
 10
224.54886
 20
18.5
 30
8.416617
 40
7.0
100
AcDbArc
 50
4.096044
 51
175.903956
  0
ARC
  5
1247
100
AcDbEntity
  8
3
100
AcDbCircle
 10
214.474765
 20
19.431325
 30
8.416617
 40
3.121914
100
AcDbArc
 50
290.123814
 51
357.377737
  0
ARC
  5
1248
100
AcDbEntity
  8
3
100
AcDbCircle
 10
234.622954
 20
19.431325
 30
8.416617
 40
3.121914
100
AcDbArc
 50
182.622263
 51
249.876186
  0
LINE
  5
1249
100
AcDbEntity
  8
3
100
AcDbLine
 10
246.54886
 20
59.5
 30
8.416617
 11
233.54886
 21
59.5
 31
8.416617
  0
LINE
  5
124A
100
AcDbEntity
  8
3
100
AcDbLine
 10
219.869804
 20
56.539558
 30
8.416617
 11
219.989931
 21
51.755961
 31
8.416617
  0
LINE
  5
124B
100
AcDbEntity
  8
3
100
AcDbLine
 10
229.185057
 20
56.519637
 30
8.416617
 11
229.063766
 21
51.815634
 31
8.416617
  0
ARC
  5
124C
100
AcDbEntity
  8
2
100
AcDbCircle
 10
234.167566
 20
51.785514
 30
8.416617
 40
14.172783
100
AcDbArc
 50
161.881981
 51
179.804311
  0
ARC
  5
124D
100
AcDbEntity
  8
2
100
AcDbCircle
 10
211.499635
 20
51.51241
 30
8.416617
 40
17.561899
100
AcDbArc
 50
1.048988
 51
15.486833
  0
ARC
  5
124E
100
AcDbEntity
  8
3
100
AcDbCircle
 10
224.580029
 20
47.662953
 30
8.416617
 40
3.588064
100
AcDbArc
 50
210.25976
 51
329.74024
  0
ARC
  5
124F
100
AcDbEntity
  8
3
100
AcDbCircle
 10
232.781511
 20
51.909837
 30
8.416617
 40
12.820609
100
AcDbArc
 50
180.440379
 51
208.18274
  0
ARC
  5
1250
100
AcDbEntity
  8
3
100
AcDbCircle
 10
215.115941
 20
51.990387
 30
8.416617
 40
13.981441
100
AcDbArc
 50
333.970477
 51
358.989926
  0
ARC
  5
1251
100
AcDbEntity
  8
2
100
AcDbCircle
 10
224.543147
 20
63.604804
 30
8.416617
 40
4.253617
100
AcDbArc
 50
213.018674
 51
326.981326
  0
ARC
  5
1252
100
AcDbEntity
  8
2
100
AcDbCircle
 10
224.580029
 20
55.975414
 30
8.416617
 40
3.711329
100
AcDbArc
 50
33.377736
 51
146.622264
  0
ARC
  5
1253
100
AcDbEntity
  8
2
100
AcDbCircle
 10
224.639298
 20
71.460717
 30
8.416617
 40
4.345898
100
AcDbArc
 50
35.414823
 51
145.730599
  0
ARC
  5
1254
100
AcDbEntity
  8
3
100
AcDbCircle
 10
225.54886
 20
69.55
 30
8.416617
 40
14.05
100
AcDbArc
 50
235.291951
 51
304.708049
  0
LINE
  5
1255
100
AcDbEntity
  8
2
100
AcDbLine
 10
219.810842
 20
66.912819
 30
8.416617
 11
219.870538
 21
56.410429
 31
8.416617
  0
ARC
  5
1256
100
AcDbEntity
  8
2
100
AcDbCircle
 10
236.72757
 20
67.508568
 30
8.416617
 40
16.93529
100
AcDbArc
 50
157.798486
 51
201.553855
  0
LINE
  5
1257
100
AcDbEntity
  8
3
100
AcDbLine
 10
216.54886
 20
59.5
 30
8.416617
 11
217.54886
 21
58.0
 31
8.416617
  0
ARC
  5
1258
100
AcDbEntity
  8
2
100
AcDbCircle
 10
233.127308
 20
51.936039
 30
8.416617
 40
13.138534
100
AcDbArc
 50
152.428754
 51
161.185492
  0
ARC
  5
1259
100
AcDbEntity
  8
2
100
AcDbCircle
 10
211.466301
 20
67.726783
 30
8.416617
 40
17.845913
100
AcDbArc
 50
338.847147
 51
20.508831
  0
LINE
  5
125A
100
AcDbEntity
  8
2
100
AcDbLine
 10
229.302552
 20
66.972492
 30
8.416617
 11
229.183159
 21
56.350757
 31
8.416617
  0
ARC
  5
125B
100
AcDbEntity
  8
2
100
AcDbCircle
 10
215.438917
 20
51.936039
 30
8.416617
 40
13.667691
100
AcDbArc
 50
18.166802
 51
26.418957
  0
LINE
  5
125C
100
AcDbEntity
  8
3
100
AcDbLine
 10
233.54886
 20
59.5
 30
8.416617
 11
233.54886
 21
58.0
 31
8.416617
  0
ARC
  5
125D
100
AcDbEntity
  8
3
100
AcDbCircle
 10
246.54886
 20
61.5
 30
8.416617
 40
2.0
100
AcDbArc
 50
270.0
 51
0.0
  0
LINE
  5
125E
100
AcDbEntity
  8
3
100
AcDbLine
 10
229.29886
 20
98.426973
 30
8.416617
 11
229.071312
 21
128.200344
 31
8.416617
  0
LINE
  5
125F
100
AcDbEntity
  8
3
100
AcDbLine
 10
219.79886
 20
98.426973
 30
8.416617
 11
220.018033
 21
127.104604
 31
8.416617
  0
LINE
  5
1260
100
AcDbEntity
  8
3
100
AcDbLine
 10
233.54886
 20
138.5
 30
8.416617
 11
233.54886
 21
95.5
 31
8.416617
  0
LINE
  5
1261
100
AcDbEntity
  8
3
100
AcDbLine
 10
215.54886
 20
138.5
 30
8.416617
 11
215.54886
 21
77.5
 31
8.416617
  0
LINE
  5
1262
100
AcDbEntity
  8
3
100
AcDbLine
 10
246.54886
 20
95.5
 30
8.416617
 11
233.54886
 21
95.5
 31
8.416617
  0
LINE
  5
1263
100
AcDbEntity
  8
1
100
AcDbLine
 10
211.403851
 20
77.5
 30
8.416617
 11
254.04886
 21
77.5
 31
8.416617
  0
ARC
  5
1264
100
AcDbEntity
  8
3
100
AcDbCircle
 10
221.514808
 20
68.201045
 30
8.416617
 40
31.212149
100
AcDbArc
 50
67.321696
 51
75.558478
  0
ARC
  5
1265
100
AcDbEntity
  8
3
100
AcDbCircle
 10
224.54886
 20
88.45
 30
8.416617
 40
11.05
100
AcDbArc
 50
115.458946
 51
129.307648
  0
LINE
  5
1266
100
AcDbEntity
  8
3
100
AcDbLine
 10
216.54886
 20
77.5
 30
8.416617
 11
216.54886
 21
95.5
 31
8.416617
  0
LINE
  5
1267
100
AcDbEntity
  8
3
100
AcDbLine
 10
216.54886
 20
95.5
 30
8.416617
 11
217.54886
 21
97.0
 31
8.416617
  0
LINE
  5
1268
100
AcDbEntity
  8
3
100
AcDbLine
 10
233.54886
 20
95.5
 30
8.416617
 11
233.54886
 21
97.0
 31
8.416617
  0
LINE
  5
1269
100
AcDbEntity
  8
3
100
AcDbLine
 10
248.54886
 20
77.5
 30
8.416617
 11
248.54886
 21
93.5
 31
8.416617
  0
ARC
  5
126A
100
AcDbEntity
  8
3
100
AcDbCircle
 10
246.54886
 20
93.5
 30
8.416617
 40
2.0
100
AcDbArc
 50
0.0
 51
90.0
  0
ARC
  5
126B
100
AcDbEntity
  8
3
100
AcDbCircle
 10
224.54886
 20
138.5
 30
8.416617
 40
9.0
100
AcDbArc
 50
0.0
 51
180.0
  0
LINE
  5
126C
100
AcDbEntity
  8
3
100
AcDbLine
 10
215.54886
 20
127.5
 30
8.416617
 11
220.018033
 21
127.104604
 31
8.416617
  0
LINE
  5
126D
100
AcDbEntity
  8
3
100
AcDbLine
 10
231.504309
 20
129.0
 30
8.416617
 11
229.071312
 21
128.200344
 31
8.416617
  0
LINE
  5
126E
100
AcDbEntity
  8
3
100
AcDbLine
 10
231.504309
 20
135.711506
 30
8.416617
 11
231.504309
 21
129.0
 31
8.416617
  0
ARC
  5
126F
100
AcDbEntity
  8
3
100
AcDbCircle
 10
234.622954
 20
135.568674
 30
8.416617
 40
3.121914
100
AcDbArc
 50
110.123814
 51
177.377737
  0
ENDBLK
  5
1271
100
AcDbEntity
  8
0
100
AcDbBlockEnd
  0
BLOCK
  5
1318
100
AcDbEntity
  8
0
100
AcDbBlockBegin
  2
A$C5E405B83
 70
     0
 10
0.0
 20
0.0
 30
0.0
  3
A$C5E405B83
  1

  0
ARC
  5
130E
100
AcDbEntity
  8
3
100
AcDbCircle
 10
26.505888
 20
-9.518297
 30
0.0
 40
25.508766
100
AcDbArc
 50
61.953
 51
131.810447
  0
ARC
  5
130F
100
AcDbEntity
  8
3
100
AcDbCircle
 10
26.505888
 20
25.507847
 30
0.0
 40
25.508766
100
AcDbArc
 50
228.189553
 51
298.047
  0
LINE
  5
1310
100
AcDbEntity
  8
1
100
AcDbLine
 10
53.5
 20
7.994775
 30
0.0
 11
0.0
 21
7.994775
 31
0.0
  0
ARC
  5
1311
100
AcDbEntity
  8
3
100
AcDbCircle
 10
10.125
 20
7.994775
 30
0.0
 40
1.625
100
AcDbArc
 50
112.619865
 51
247.380135
  0
ARC
  5
1312
100
AcDbEntity
  8
3
100
AcDbCircle
 10
45.0
 20
33.619775
 30
0.0
 40
21.625
100
AcDbArc
 50
252.507675
 51
287.492325
  0
ARC
  5
1313
100
AcDbEntity
  8
3
100
AcDbCircle
 10
45.0
 20
-17.630225
 30
0.0
 40
21.625
100
AcDbArc
 50
72.507675
 51
107.492325
  0
LINE
  5
1314
100
AcDbEntity
  8
1
100
AcDbLine
 10
53.5
 20
7.994775
 30
0.0
 11
74.5
 21
7.994775
 31
0.0
  0
LINE
  5
1315
100
AcDbEntity
  8
3
100
AcDbLine
 10
51.5
 20
2.994775
 30
0.0
 11
51.5
 21
12.994775
 31
0.0
  0
LINE
  5
1316
100
AcDbEntity
  8
3
100
AcDbLine
 10
58.5
 20
2.994775
 30
0.0
 11
51.5
 21
2.994775
 31
0.0
  0
LINE
  5
1317
100
AcDbEntity
  8
3
100
AcDbLine
 10
51.5
 20
12.994775
 30
0.0
 11
58.5
 21
12.994775
 31
0.0
  0
ENDBLK
  5
1319
100
AcDbEntity
  8
0
100
AcDbBlockEnd
  0
ENDSEC
  0
SECTION
  2
ENTITIES
  0
INSERT
  5
F8
100
AcDbEntity
  8
ASHADE
 62
     1
100
AcDbBlockReference
  2
AVE_RENDER
 10
0.0
 20
0.0
 30
0.0
1001
AVE_RENDER
1002
{
1070
     2
1000
Pref
1070
    30
1070
    20
1070
     0
1070
     0
1000

1070
    10
1070
     0
1070
    30
1040
1.0
1070
     1
1040
0.3
1040
0.7
1040
0.0
1040
10.0
1010
-1.0
1020
-1.0
1030
-1.0
1040
0.3
1070
    49
1002
}
  0
INSERT
  5
F9
100
AcDbEntity
  8
ASHADE
 62
     3
100
AcDbBlockReference
  2
AVE_RENDER
 10
0.0
 20
0.0
 30
0.0
1001
AVE_RENDER
1002
{
1070
     0
1000
Full Opt
1070
     0
1070
     1
1070
     1
1070
     1
1070
     0
1070
     0
1070
     0
1070
     1
1070
     1
1040
0.0001
1040
0.0001
1002
}
  0
INSERT
  5
FA
100
AcDbEntity
  8
ASHADE
 62
     4
100
AcDbBlockReference
  2
AVE_RENDER
 10
0.0
 20
0.0
 30
0.0
1001
AVE_RENDER
1002
{
1070
     0
1000
Quick Opt
1070
     0
1070
     1
1070
     1
1070
     1
1070
     0
1070
     0
1070
     1
1002
}
  0
HATCH
  5
EAE
100
AcDbEntity
  8
0
  6
CONTINUOUS
100
AcDbHatch
 10
0.0
 20
0.0
 30
0.0
210
0.0
220
0.0
230
1.0
  2
ANSI31
 70
     0
 71
     0
 91
        7
 92
        7
 72
     1
 73
     1
 93
       12
 10
262.9999999999999
 20
165.0
 42
0.0
 10
241.5
 20
165.0
 42
0.0
 10
241.5
 20
163.7746552230707
 42
-0.2721596082980698
 10
244.6483072701649
 20
161.9253196319411
 42
-0.2498418479505638
 10
244.6996602578422
 20
149.4072238118318
 42
-0.1759538270673097
 10
242.9022995188798
 20
147.7399432486012
 42
-0.0620936201109865
 10
241.5
 20
147.0422796021932
 42
0.0
 10
241.5
 20
144.026247578633
 42
0.1293808649254978
 10
251.0
 20
145.9999999999999
 42
0.0
 10
251.0
 20
147.5
 42
0.0
 10
261.5
 20
147.5
 42
0.4142135623730951
 10
262.9999999999999
 20
149.0
 42
0.0
 97
        0
 92
        7
 72
     1
 73
     1
 93
        6
 10
241.5
 20
165.0
 42
0.0
 10
233.9999999999999
 20
165.0
 42
0.0
 10
233.9999999999999
 20
157.270011778561
 42
0.0
 10
236.6619141878134
 20
160.1511255403871
 42
0.050659441681317
 10
238.5765144498573
 20
162.2754545881572
 42
-0.241277940474536
 10
241.5
 20
163.7746552230707
 42
0.0
 97
        0
 92
        7
 72
     1
 73
     1
 93
       14
 10
234.9999999999999
 20
145.5374063839876
 42
0.0324315232587184
 10
237.3292764512209
 20
144.7146793056477
 42
0.0
 10
239.419485842388
 20
146.1124462100204
 42
-0.0752527437237129
 10
241.0740288351336
 20
146.9094008113962
 42
0.0176274973545809
 10
241.5
 20
147.0422796021932
 42
0.0
 10
241.5
 20
147.4571250920255
 42
-0.2754795702407734
 10
238.3436837383937
 20
149.3453779418196
 42
0.0009565591874279
 10
238.367537992075
 20
149.3018123963288
 42
0.271762934324019
 10
241.5
 20
147.4571250920255
 42
0.0
 10
241.5
 20
163.7746552230707
 42
0.2375528082741129
 10
238.6064440578731
 20
162.3164614724272
 42
-0.0515587960841011
 10
236.6619141878135
 20
160.1511255403872
 42
0.0
 10
233.9999999999999
 20
157.270011778561
 42
0.0
 10
234.0
 20
147.9999999999998
 42
0.0
 97
        0
 92
        7
 72
     1
 73
     1
 93
        4
 10
244.6996602578428
 20
149.4072238118329
 42
0.2498418479505401
 10
244.6483072701649
 20
161.9253196319411
 42
0.2721596082980711
 10
241.5
 20
163.7746552230707
 42
0.0
 10
241.5
 20
147.4571250920255
 42
0.2815326192276521
 97
        0
 92
        7
 72
     1
 73
     1
 93
        4
 10
241.9999999999999
 20
102.5
 42
0.4142135623730924
 10
250.0
 20
110.4999999999999
 42
-0.231401098189398
 10
247.9791303715507
 20
112.9999999999999
 42
0.3899832787427757
 10
241.9999999999999
 20
118.5
 42
0.0
 97
        0
 92
        7
 72
     1
 73
     1
 93
        4
 10
242.0
 20
118.5
 42
0.389983278742777
 10
236.0208696284493
 20
113.0
 42
-0.2249662648716755
 10
234.0806660971535
 20
110.5388092186417
 42
0.0
 10
242.0
 20
110.5
 42
0.0
 97
        0
 92
        7
 72
     1
 73
     1
 93
        4
 10
234.0806660971535
 20
110.5388092186417
 42
-0.0061164277429119
 10
233.9999999999999
 20
110.4999999999999
 42
0.4142135623730951
 10
241.9999999999999
 20
102.4999999999999
 42
0.0
 10
242.0
 20
110.5
 42
0.0
 97
        0
 75
     0
 76
     1
 52
0.0
 41
12.0
 77
     0
 78
     1
 53
45.0
 43
0.0
 44
0.0
 45
-1.060660171779821
 46
1.060660171779821
 79
     0
 47
0.1604
 98
        7
 10
274.534263
 20
154.621809
 10
255.278408
 20
163.123022
 10
254.797012
 20
153.980208
 10
263.141216
 20
157.188213
 10
243.724896
 20
115.323752
 10
239.71326
 20
115.323752
 10
238.910933
 20
107.624541
  0
LINE
  5
1274
100
AcDbEntity
  8
1
100
AcDbLine
 10
14.196932
 20
174.069524
 30
8.416617
 11
91.696932
 21
174.069524
 31
8.416617
  0
ARC
  5
1275
100
AcDbEntity
  8
3
100
AcDbCircle
 10
91.696932
 20
174.069524
 30
8.416617
 40
70.0
100
AcDbArc
 50
90.0
 51
270.0
  0
ARC
  5
127A
100
AcDbEntity
  8
3
100
AcDbCircle
 10
91.696932
 20
174.069524
 30
8.416617
 40
52.0
100
AcDbArc
 50
99.966766
 51
200.033234
  0
ARC
  5
127B
100
AcDbEntity
  8
3
100
AcDbCircle
 10
91.696932
 20
174.069524
 30
8.416617
 40
18.0
100
AcDbArc
 50
90.0
 51
270.0
  0
ARC
  5
127C
100
AcDbEntity
  8
3
100
AcDbCircle
 10
91.696932
 20
174.069524
 30
8.416617
 40
22.0
100
AcDbArc
 50
115.583002
 51
184.416998
  0
ARC
  5
127D
100
AcDbEntity
  8
3
100
AcDbCircle
 10
91.696932
 20
174.069524
 30
8.416617
 40
19.25514
100
AcDbArc
 50
90.0
 51
270.0
  0
LINE
  5
127E
100
AcDbEntity
  8
1
100
AcDbLine
 10
91.696932
 20
251.569524
 30
8.416617
 11
91.696932
 21
96.569524
 31
8.416617
  0
ARC
  5
127F
100
AcDbEntity
  8
3
100
AcDbCircle
 10
91.696932
 20
174.069524
 30
8.416617
 40
61.0
100
AcDbArc
 50
100.388858
 51
270.0
  0
LINE
  5
1280
100
AcDbEntity
  8
1
100
AcDbLine
 10
91.696932
 20
174.069524
 30
8.416617
 11
26.492449
 21
136.423698
 31
8.416617
  0
ARC
  5
1282
100
AcDbEntity
  8
3
100
AcDbCircle
 10
91.696932
 20
174.069524
 30
8.416617
 40
22.0
100
AcDbArc
 50
235.583002
 51
270.0
  0
ARC
  5
1283
100
AcDbEntity
  8
3
100
AcDbCircle
 10
91.696932
 20
174.069524
 30
8.416617
 40
52.0
100
AcDbArc
 50
219.966766
 51
270.0
  0
LINE
  5
1284
100
AcDbEntity
  8
3
100
AcDbLine
 10
69.762273
 20
172.375198
 30
8.416617
 11
42.84324
 21
156.256136
 31
8.416617
  0
LINE
  5
1285
100
AcDbEntity
  8
3
100
AcDbLine
 10
79.262273
 20
155.920715
 30
8.416617
 11
51.84324
 21
140.667679
 31
8.416617
  0
ARC
  5
1286
100
AcDbEntity
  8
3
100
AcDbCircle
 10
70.108208
 20
161.605268
 30
8.416617
 40
28.709586
100
AcDbArc
 50
193.129921
 51
226.870079
  0
ARC
  5
1287
100
AcDbEntity
  8
3
100
AcDbCircle
 10
51.146077
 20
142.123837
 30
8.416617
 40
1.614445
100
AcDbArc
 50
245.662844
 51
295.583615
  0
ARC
  5
1288
100
AcDbEntity
  8
3
100
AcDbCircle
 10
43.755729
 20
154.924297
 30
8.416617
 40
1.614445
100
AcDbArc
 50
124.416385
 51
174.337156
  0
ARC
  5
1289
100
AcDbEntity
  8
3
100
AcDbCircle
 10
95.26051
 20
176.126956
 30
8.416617
 40
25.041839
100
AcDbArc
 50
190.022534
 51
229.977466
  0
ARC
  5
128A
100
AcDbEntity
  8
3
100
AcDbCircle
 10
78.731668
 20
156.386287
 30
8.416617
 40
0.705903
100
AcDbArc
 50
318.735141
 51
53.010996
  0
ARC
  5
128B
100
AcDbEntity
  8
3
100
AcDbCircle
 10
69.900167
 20
171.682894
 30
8.416617
 40
0.705903
100
AcDbArc
 50
6.989004
 51
101.264859
  0
ARC
  5
1297
100
AcDbEntity
  8
3
100
AcDbCircle
 10
91.696932
 20
169.954658
 30
8.416617
 40
25.041839
100
AcDbArc
 50
90.0
 51
109.977466
  0
LINE
  5
1298
100
AcDbEntity
  8
1
100
AcDbLine
 10
69.696932
 20
232.069524
 30
8.416617
 11
91.696932
 21
232.069524
 31
8.416617
  0
LINE
  5
1299
100
AcDbEntity
  8
3
100
AcDbLine
 10
82.196932
 20
193.912658
 30
8.416617
 11
82.696932
 21
225.284756
 31
8.416617
  0
ARC
  5
129A
100
AcDbEntity
  8
3
100
AcDbCircle
 10
82.865431
 20
194.13939
 30
8.416617
 40
0.705903
100
AcDbArc
 50
198.735141
 51
293.010996
  0
ARC
  5
129B
100
AcDbEntity
  8
3
100
AcDbCircle
 10
80.81193
 20
231.123524
 30
8.416617
 40
2.948243
100
AcDbArc
 50
358.950496
 51
109.367232
  0
ARC
  5
129C
100
AcDbEntity
  8
3
100
AcDbCircle
 10
84.306583
 20
225.160437
 30
8.416617
 40
1.614445
100
AcDbArc
 50
125.662844
 51
175.583615
  0
ARC
  5
129D
100
AcDbEntity
  8
3
100
AcDbCircle
 10
91.696932
 20
232.069524
 30
8.416617
 40
8.0
100
AcDbArc
 50
180.0
 51
270.0
  0
ARC
  5
129E
100
AcDbEntity
  8
3
100
AcDbCircle
 10
91.696932
 20
198.998035
 30
8.416617
 40
28.709586
100
AcDbArc
 50
102.494618
 51
106.870079
  0
LINE
  5
12A5
100
AcDbEntity
  8
3
100
AcDbLine
 10
263.196932
 20
174.069524
 30
8.416617
 11
263.196932
 21
158.069524
 31
8.416617
  0
LINE
  5
12A6
100
AcDbEntity
  8
3
100
AcDbLine
 10
231.196932
 20
174.069524
 30
8.416617
 11
231.196932
 21
156.069524
 31
8.416617
  0
LINE
  5
12A7
100
AcDbEntity
  8
1
100
AcDbLine
 10
239.196932
 20
250.569524
 30
8.416617
 11
239.196932
 21
96.569524
 31
8.416617
  0
LINE
  5
12A8
100
AcDbEntity
  8
3
100
AcDbLine
 10
230.196932
 20
113.069524
 30
8.416617
 11
230.196932
 21
174.069524
 31
8.416617
  0
LINE
  5
12A9
100
AcDbEntity
  8
3
100
AcDbLine
 10
248.196932
 20
113.069524
 30
8.416617
 11
248.196932
 21
156.069524
 31
8.416617
  0
ARC
  5
12AA
100
AcDbEntity
  8
3
100
AcDbCircle
 10
239.196932
 20
113.069524
 30
8.416617
 40
9.0
100
AcDbArc
 50
180.0
 51
0.0
  0
ARC
  5
12AB
100
AcDbEntity
  8
3
100
AcDbCircle
 10
239.196932
 20
115.069524
 30
8.416617
 40
7.0
100
AcDbArc
 50
4.096044
 51
175.903956
  0
ARC
  5
12AC
100
AcDbEntity
  8
3
100
AcDbCircle
 10
229.122837
 20
116.000849
 30
8.416617
 40
3.121914
100
AcDbArc
 50
290.123814
 51
357.377737
  0
ARC
  5
12AD
100
AcDbEntity
  8
3
100
AcDbCircle
 10
249.271026
 20
116.000849
 30
8.416617
 40
3.121914
100
AcDbArc
 50
182.622263
 51
249.876186
  0
LINE
  5
12AE
100
AcDbEntity
  8
3
100
AcDbLine
 10
261.196932
 20
156.069524
 30
8.416617
 11
248.196932
 21
156.069524
 31
8.416617
  0
LINE
  5
12AF
100
AcDbEntity
  8
3
100
AcDbLine
 10
234.517876
 20
153.109082
 30
8.416617
 11
234.638003
 21
148.325485
 31
8.416617
  0
LINE
  5
12B0
100
AcDbEntity
  8
3
100
AcDbLine
 10
243.833129
 20
153.089161
 30
8.416617
 11
243.711838
 21
148.385157
 31
8.416617
  0
ARC
  5
12B1
100
AcDbEntity
  8
2
100
AcDbCircle
 10
248.815638
 20
148.355038
 30
8.416617
 40
14.172783
100
AcDbArc
 50
161.881981
 51
179.804311
  0
ARC
  5
12B2
100
AcDbEntity
  8
2
100
AcDbCircle
 10
226.147707
 20
148.081933
 30
8.416617
 40
17.561899
100
AcDbArc
 50
1.048988
 51
15.486833
  0
ARC
  5
12B3
100
AcDbEntity
  8
3
100
AcDbCircle
 10
239.2281
 20
144.232477
 30
8.416617
 40
3.588064
100
AcDbArc
 50
210.25976
 51
329.74024
  0
ARC
  5
12B4
100
AcDbEntity
  8
3
100
AcDbCircle
 10
247.429583
 20
148.47936
 30
8.416617
 40
12.820609
100
AcDbArc
 50
180.440379
 51
208.18274
  0
ARC
  5
12B5
100
AcDbEntity
  8
3
100
AcDbCircle
 10
229.764013
 20
148.55991
 30
8.416617
 40
13.981441
100
AcDbArc
 50
333.970477
 51
358.989926
  0
ARC
  5
12B6
100
AcDbEntity
  8
2
100
AcDbCircle
 10
239.191219
 20
160.174328
 30
8.416617
 40
4.253617
100
AcDbArc
 50
213.018674
 51
326.981326
  0
ARC
  5
12B7
100
AcDbEntity
  8
2
100
AcDbCircle
 10
239.2281
 20
152.544938
 30
8.416617
 40
3.711329
100
AcDbArc
 50
33.377736
 51
146.622264
  0
ARC
  5
12B8
100
AcDbEntity
  8
2
100
AcDbCircle
 10
239.28737
 20
168.030241
 30
8.416617
 40
4.345898
100
AcDbArc
 50
35.414823
 51
145.730599
  0
ARC
  5
12B9
100
AcDbEntity
  8
3
100
AcDbCircle
 10
240.196932
 20
166.119524
 30
8.416617
 40
14.05
100
AcDbArc
 50
235.291951
 51
304.708049
  0
LINE
  5
12BA
100
AcDbEntity
  8
2
100
AcDbLine
 10
234.458914
 20
163.482343
 30
8.416617
 11
234.51861
 21
152.979952
 31
8.416617
  0
ARC
  5
12BB
100
AcDbEntity
  8
2
100
AcDbCircle
 10
251.375641
 20
164.078092
 30
8.416617
 40
16.93529
100
AcDbArc
 50
157.798486
 51
201.553855
  0
LINE
  5
12BC
100
AcDbEntity
  8
3
100
AcDbLine
 10
231.196932
 20
156.069524
 30
8.416617
 11
232.196932
 21
154.569524
 31
8.416617
  0
ARC
  5
12BD
100
AcDbEntity
  8
2
100
AcDbCircle
 10
247.77538
 20
148.505562
 30
8.416617
 40
13.138534
100
AcDbArc
 50
152.428754
 51
161.185492
  0
ARC
  5
12BE
100
AcDbEntity
  8
2
100
AcDbCircle
 10
226.114373
 20
164.296307
 30
8.416617
 40
17.845913
100
AcDbArc
 50
338.847147
 51
20.508831
  0
LINE
  5
12BF
100
AcDbEntity
  8
2
100
AcDbLine
 10
243.950624
 20
163.542016
 30
8.416617
 11
243.83123
 21
152.92028
 31
8.416617
  0
ARC
  5
12C0
100
AcDbEntity
  8
2
100
AcDbCircle
 10
230.086989
 20
148.505562
 30
8.416617
 40
13.667691
100
AcDbArc
 50
18.166802
 51
26.418957
  0
LINE
  5
12C1
100
AcDbEntity
  8
3
100
AcDbLine
 10
248.196932
 20
156.069524
 30
8.416617
 11
248.196932
 21
154.569524
 31
8.416617
  0
ARC
  5
12C2
100
AcDbEntity
  8
3
100
AcDbCircle
 10
261.196932
 20
158.069524
 30
8.416617
 40
2.0
100
AcDbArc
 50
270.0
 51
0.0
  0
LINE
  5
12C3
100
AcDbEntity
  8
3
100
AcDbLine
 10
243.946932
 20
194.996497
 30
8.416617
 11
243.719384
 21
224.769867
 31
8.416617
  0
LINE
  5
12C4
100
AcDbEntity
  8
3
100
AcDbLine
 10
234.446932
 20
194.996497
 30
8.416617
 11
234.666105
 21
223.674127
 31
8.416617
  0
LINE
  5
12C5
100
AcDbEntity
  8
3
100
AcDbLine
 10
248.196932
 20
235.069524
 30
8.416617
 11
248.196932
 21
192.069524
 31
8.416617
  0
LINE
  5
12C6
100
AcDbEntity
  8
3
100
AcDbLine
 10
230.196932
 20
235.069524
 30
8.416617
 11
230.196932
 21
174.069524
 31
8.416617
  0
LINE
  5
12C7
100
AcDbEntity
  8
3
100
AcDbLine
 10
261.196932
 20
192.069524
 30
8.416617
 11
248.196932
 21
192.069524
 31
8.416617
  0
LINE
  5
12C8
100
AcDbEntity
  8
1
100
AcDbLine
 10
226.051923
 20
174.069524
 30
8.416617
 11
268.696932
 21
174.069524
 31
8.416617
  0
ARC
  5
12C9
100
AcDbEntity
  8
3
100
AcDbCircle
 10
236.162879
 20
164.770568
 30
8.416617
 40
31.212149
100
AcDbArc
 50
67.321696
 51
75.558478
  0
ARC
  5
12CA
100
AcDbEntity
  8
3
100
AcDbCircle
 10
239.196932
 20
185.019524
 30
8.416617
 40
11.05
100
AcDbArc
 50
115.458946
 51
129.307648
  0
LINE
  5
12CB
100
AcDbEntity
  8
3
100
AcDbLine
 10
231.196932
 20
174.069524
 30
8.416617
 11
231.196932
 21
192.069524
 31
8.416617
  0
LINE
  5
12CC
100
AcDbEntity
  8
3
100
AcDbLine
 10
231.196932
 20
192.069524
 30
8.416617
 11
232.196932
 21
193.569524
 31
8.416617
  0
LINE
  5
12CD
100
AcDbEntity
  8
3
100
AcDbLine
 10
248.196932
 20
192.069524
 30
8.416617
 11
248.196932
 21
193.569524
 31
8.416617
  0
LINE
  5
12CE
100
AcDbEntity
  8
3
100
AcDbLine
 10
263.196932
 20
174.069524
 30
8.416617
 11
263.196932
 21
190.069524
 31
8.416617
  0
ARC
  5
12CF
100
AcDbEntity
  8
3
100
AcDbCircle
 10
261.196932
 20
190.069524
 30
8.416617
 40
2.0
100
AcDbArc
 50
0.0
 51
90.0
  0
ARC
  5
12D0
100
AcDbEntity
  8
3
100
AcDbCircle
 10
239.196932
 20
235.069524
 30
8.416617
 40
9.0
100
AcDbArc
 50
0.0
 51
180.0
  0
LINE
  5
12D1
100
AcDbEntity
  8
3
100
AcDbLine
 10
230.196932
 20
224.069524
 30
8.416617
 11
234.666105
 21
223.674127
 31
8.416617
  0
LINE
  5
12D2
100
AcDbEntity
  8
3
100
AcDbLine
 10
246.152381
 20
225.569524
 30
8.416617
 11
243.719384
 21
224.769867
 31
8.416617
  0
LINE
  5
12D3
100
AcDbEntity
  8
3
100
AcDbLine
 10
246.152381
 20
232.281029
 30
8.416617
 11
246.152381
 21
225.569524
 31
8.416617
  0
ARC
  5
12D4
100
AcDbEntity
  8
3
100
AcDbCircle
 10
249.271026
 20
232.138198
 30
8.416617
 40
3.121914
100
AcDbArc
 50
110.123814
 51
177.377737
  0
ARC
  5
12F1
100
AcDbEntity
  8
3
100
AcDbCircle
 10
91.696932
 20
174.069524
 30
8.416617
 40
70.0
100
AcDbArc
 50
270.0
 51
90.0
  0
ARC
  5
12F2
100
AcDbEntity
  8
3
100
AcDbCircle
 10
91.696932
 20
174.069524
 30
8.416617
 40
61.0
100
AcDbArc
 50
270.0
 51
79.611142
  0
ARC
  5
12F3
100
AcDbEntity
  8
3
100
AcDbCircle
 10
91.696932
 20
174.069524
 30
8.416617
 40
52.0
100
AcDbArc
 50
270.0
 51
320.033234
  0
LINE
  5
12F4
100
AcDbEntity
  8
1
100
AcDbLine
 10
91.696932
 20
174.069524
 30
8.416617
 11
156.901414
 21
136.423698
 31
8.416617
  0
LINE
  5
12F5
100
AcDbEntity
  8
1
100
AcDbLine
 10
169.196932
 20
174.069524
 30
8.416617
 11
91.696932
 21
174.069524
 31
8.416617
  0
LINE
  5
12F6
100
AcDbEntity
  8
1
100
AcDbLine
 10
113.696932
 20
232.069524
 30
8.416617
 11
91.696932
 21
232.069524
 31
8.416617
  0
ARC
  5
12F7
100
AcDbEntity
  8
3
100
AcDbCircle
 10
88.133354
 20
176.126956
 30
8.416617
 40
25.041839
100
AcDbArc
 50
310.022534
 51
349.977466
  0
LINE
  5
12F8
100
AcDbEntity
  8
3
100
AcDbLine
 10
104.13159
 20
155.920715
 30
8.416617
 11
131.550624
 21
140.667679
 31
8.416617
  0
ARC
  5
12F9
100
AcDbEntity
  8
3
100
AcDbCircle
 10
91.696932
 20
174.069524
 30
8.416617
 40
19.25514
100
AcDbArc
 50
270.0
 51
90.0
  0
ARC
  5
12FA
100
AcDbEntity
  8
3
100
AcDbCircle
 10
91.696932
 20
174.069524
 30
8.416617
 40
22.0
100
AcDbArc
 50
355.583002
 51
64.416998
  0
ARC
  5
12FB
100
AcDbEntity
  8
3
100
AcDbCircle
 10
91.696932
 20
174.069524
 30
8.416617
 40
18.0
100
AcDbArc
 50
270.0
 51
90.0
  0
ARC
  5
12FC
100
AcDbEntity
  8
3
100
AcDbCircle
 10
91.696932
 20
174.069524
 30
8.416617
 40
52.0
100
AcDbArc
 50
339.966766
 51
80.033234
  0
ARC
  5
12FD
100
AcDbEntity
  8
3
100
AcDbCircle
 10
113.285655
 20
161.605268
 30
8.416617
 40
28.709586
100
AcDbArc
 50
313.129921
 51
346.870079
  0
LINE
  5
12FE
100
AcDbEntity
  8
3
100
AcDbLine
 10
113.63159
 20
172.375198
 30
8.416617
 11
140.550624
 21
156.256136
 31
8.416617
  0
ARC
  5
12FF
100
AcDbEntity
  8
3
100
AcDbCircle
 10
139.638135
 20
154.924297
 30
8.416617
 40
1.614445
100
AcDbArc
 50
5.662844
 51
55.583615
  0
ARC
  5
1300
100
AcDbEntity
  8
3
100
AcDbCircle
 10
132.247786
 20
142.123837
 30
8.416617
 40
1.614445
100
AcDbArc
 50
244.416385
 51
294.337156
  0
ARC
  5
1301
100
AcDbEntity
  8
3
100
AcDbCircle
 10
113.493696
 20
171.682894
 30
8.416617
 40
0.705903
100
AcDbArc
 50
78.735141
 51
173.010996
  0
ARC
  5
1302
100
AcDbEntity
  8
3
100
AcDbCircle
 10
91.696932
 20
232.069524
 30
8.416617
 40
8.0
100
AcDbArc
 50
270.0
 51
0.0
  0
ARC
  5
1303
100
AcDbEntity
  8
3
100
AcDbCircle
 10
91.696932
 20
174.069524
 30
8.416617
 40
22.0
100
AcDbArc
 50
270.0
 51
304.416998
  0
ARC
  5
1304
100
AcDbEntity
  8
3
100
AcDbCircle
 10
104.662196
 20
156.386287
 30
8.416617
 40
0.705903
100
AcDbArc
 50
126.989004
 51
221.264859
  0
LINE
  5
1305
100
AcDbEntity
  8
3
100
AcDbLine
 10
101.196932
 20
193.912658
 30
8.416617
 11
100.696932
 21
225.284756
 31
8.416617
  0
ARC
  5
1306
100
AcDbEntity
  8
3
100
AcDbCircle
 10
91.696932
 20
169.954658
 30
8.416617
 40
25.041839
100
AcDbArc
 50
70.022534
 51
90.0
  0
ARC
  5
1307
100
AcDbEntity
  8
3
100
AcDbCircle
 10
100.528432
 20
194.13939
 30
8.416617
 40
0.705903
100
AcDbArc
 50
246.989004
 51
341.264859
  0
ARC
  5
1308
100
AcDbEntity
  8
3
100
AcDbCircle
 10
99.08728
 20
225.160437
 30
8.416617
 40
1.614445
100
AcDbArc
 50
4.416385
 51
54.337156
  0
ARC
  5
1309
100
AcDbEntity
  8
3
100
AcDbCircle
 10
91.696932
 20
198.998035
 30
8.416617
 40
28.709586
100
AcDbArc
 50
73.129921
 51
77.505382
  0
ARC
  5
130A
100
AcDbEntity
  8
3
100
AcDbCircle
 10
102.581934
 20
231.123524
 30
8.416617
 40
2.948243
100
AcDbArc
 50
70.632768
 51
181.049504
  0
LINE
  5
1324
100
AcDbEntity
  8
1
100
AcDbLine
 10
227.196932
 20
232.069524
 30
8.416617
 11
248.196932
 21
232.069524
 31
8.416617
  0
CIRCLE
  5
1396
100
AcDbEntity
  8
3
100
AcDbCircle
 10
91.696932
 20
232.069524
 30
8.416617
 40
5.0
  0
CIRCLE
  5
1397
100
AcDbEntity
  8
3
100
AcDbCircle
 10
91.696932
 20
232.069524
 30
8.416617
 40
3.0
  0
CIRCLE
  5
1398
100
AcDbEntity
  8
3
100
AcDbCircle
 10
91.696932
 20
232.069524
 30
8.416617
 40
2.0
  0
LINE
  5
1399
100
AcDbEntity
  8
3
100
AcDbLine
 10
230.196932
 20
227.069524
 30
8.416617
 11
232.196932
 21
227.069524
 31
8.416617
  0
LINE
  5
139A
100
AcDbEntity
  8
3
100
AcDbLine
 10
232.196932
 20
227.069524
 30
8.416617
 11
232.196932
 21
237.069524
 31
8.416617
  0
LINE
  5
139B
100
AcDbEntity
  8
3
100
AcDbLine
 10
232.196932
 20
237.069524
 30
8.416617
 11
230.421967
 21
237.069524
 31
8.416617
  0
LINE
  5
139C
100
AcDbEntity
  8
3
100
AcDbLine
 10
232.196932
 20
232.069524
 30
8.416617
 11
232.196932
 21
235.069524
 31
8.416617
  0
LINE
  5
139D
100
AcDbEntity
  8
3
100
AcDbLine
 10
232.196932
 20
235.069524
 30
8.416617
 11
248.196932
 21
235.069524
 31
8.416617
  0
LINE
  5
139F
100
AcDbEntity
  8
3
100
AcDbLine
 10
246.152381
 20
229.069524
 30
8.416617
 11
232.196932
 21
229.069524
 31
8.416617
  0
LINE
  5
13A1
100
AcDbEntity
  8
3
100
AcDbLine
 10
232.196932
 20
234.069524
 30
8.416617
 11
246.818205
 21
234.069524
 31
8.416617
  0
LINE
  5
13A3
100
AcDbEntity
  8
3
100
AcDbLine
 10
246.152381
 20
230.069524
 30
8.416617
 11
232.196932
 21
230.069524
 31
8.416617
  0
ENDSEC
  0
SECTION
  2
OBJECTS
  0
DICTIONARY
  5
3D1
100
AcDbDictionary
  3
ACAD_GROUP
350
3D2
  3
ACAD_MLINESTYLE
350
3D3
  3
ACDBVARIABLEDICTIONARY
350
E1C
  0
DICTIONARY
  5
3D2
102
{ACAD_REACTORS
330
3D1
102
}
100
AcDbDictionary
  0
DICTIONARY
  5
3D3
102
{ACAD_REACTORS
330
3D1
102
}
100
AcDbDictionary
  3
STANDARD
350
3E0
  0
DICTIONARY
  5
E1C
102
{ACAD_REACTORS
330
3D1
102
}
100
AcDbDictionary
  3
SORTENTS
350
E1D
  0
MLINESTYLE
  5
3E0
102
{ACAD_REACTORS
330
3D3
102
}
100
AcDbMlineStyle
  2
STANDARD
 70
     0
  3

 62
     0
 51
90.0
 52
90.0
 71
     2
 49
0.5
 62
   256
  6
BYLAYER
 49
-0.5
 62
   256
  6
BYLAYER
  0
DICTIONARYVAR
  5
E1D
102
{ACAD_REACTORS
330
E1C
102
}
100
DictionaryVariables
280
     0
  1
96
  0
ENDSEC
  0
EOF
