  0
SECTION
  2
HEADER
  9
$ACADVER
  1
AC1015
  9
$ACADMAINTVER
 70
    13
  9
$DWGCODEPAGE
  3
ANSI_932
  9
$INSBASE
 10
0.0
 20
0.0
 30
0.0
  9
$EXTMIN
 10
193.3963688722479
 20
411.6086212387227
 30
-0.0000000000000018
  9
$EXTMAX
 10
619.9845262492094
 20
627.7346055888004
 30
0.0
  9
$LIMMIN
 10
0.0
 20
0.0
  9
$LIMMAX
 10
1125.0
 20
810.0
  9
$ORTHOMODE
 70
     0
  9
$REGENMODE
 70
     1
  9
$FILLMODE
 70
     1
  9
$QTEXTMODE
 70
     0
  9
$MIRRTEXT
 70
     1
  9
$LTSCALE
 40
30.0
  9
$ATTMODE
 70
     1
  9
$TEXTSIZE
 40
18.0
  9
$TRACEWID
 40
0.05
  9
$TEXTSTYLE
  7
BIGFONT
  9
$CLAYER
  8
3
  9
$CELTYPE
  6
BYLAYER
  9
$CECOLOR
 62
   256
  9
$CELTSCALE
 40
1.0
  9
$DISPSILH
 70
     0
  9
$DIMSCALE
 40
3.0
  9
$DIMASZ
 40
3.0
  9
$DIMEXO
 40
2.0
  9
$DIMDLI
 40
0.38
  9
$DIMRND
 40
0.0
  9
$DIMDLE
 40
0.0
  9
$DIMEXE
 40
2.0
  9
$DIMTP
 40
0.0
  9
$DIMTM
 40
0.0
  9
$DIMTXT
 40
3.2
  9
$DIMCEN
 40
0.09
  9
$DIMTSZ
 40
0.0
  9
$DIMTOL
 70
     0
  9
$DIMLIM
 70
     0
  9
$DIMTIH
 70
     0
  9
$DIMTOH
 70
     0
  9
$DIMSE1
 70
     0
  9
$DIMSE2
 70
     0
  9
$DIMTAD
 70
     1
  9
$DIMZIN
 70
     0
  9
$DIMBLK
  1

  9
$DIMASO
 70
     0
  9
$DIMSHO
 70
     0
  9
$DIMPOST
  1

  9
$DIMAPOST
  1

  9
$DIMALT
 70
     0
  9
$DIMALTD
 70
     2
  9
$DIMALTF
 40
25.4
  9
$DIMLFAC
 40
1.0
  9
$DIMTOFL
 70
     0
  9
$DIMTVP
 40
1.6
  9
$DIMTIX
 70
     1
  9
$DIMSOXD
 70
     0
  9
$DIMSAH
 70
     0
  9
$DIMBLK1
  1

  9
$DIMBLK2
  1

  9
$DIMSTYLE
  2
STANDARD
  9
$DIMCLRD
 70
     0
  9
$DIMCLRE
 70
     0
  9
$DIMCLRT
 70
     0
  9
$DIMTFAC
 40
1.0
  9
$DIMGAP
 40
0.09
  9
$DIMJUST
 70
     0
  9
$DIMSD1
 70
     0
  9
$DIMSD2
 70
     0
  9
$DIMTOLJ
 70
     1
  9
$DIMTZIN
 70
     0
  9
$DIMALTZ
 70
     0
  9
$DIMALTTZ
 70
     0
  9
$DIMUPT
 70
     0
  9
$DIMDEC
 70
     4
  9
$DIMTDEC
 70
     4
  9
$DIMALTU
 70
     2
  9
$DIMALTTD
 70
     2
  9
$DIMTXSTY
  7
BIGFONT
  9
$DIMAUNIT
 70
     0
  9
$DIMADEC
 70
     0
  9
$DIMALTRND
 40
0.0
  9
$DIMAZIN
 70
     0
  9
$DIMDSEP
 70
    46
  9
$DIMATFIT
 70
     3
  9
$DIMFRAC
 70
     0
  9
$DIMLDRBLK
  1

  9
$DIMLUNIT
 70
     2
  9
$DIMLWD
 70
    -2
  9
$DIMLWE
 70
    -2
  9
$DIMTMOVE
 70
     0
  9
$LUNITS
 70
     2
  9
$LUPREC
 70
     4
  9
$SKETCHINC
 40
0.1
  9
$FILLETRAD
 40
0.0
  9
$AUNITS
 70
     0
  9
$AUPREC
 70
     0
  9
$MENU
  1
ACAD
  9
$ELEVATION
 40
0.0
  9
$PELEVATION
 40
0.0
  9
$THICKNESS
 40
0.0
  9
$LIMCHECK
 70
     0
  9
$CHAMFERA
 40
0.0
  9
$CHAMFERB
 40
0.0
  9
$CHAMFERC
 40
0.0
  9
$CHAMFERD
 40
0.0
  9
$SKPOLY
 70
     0
  9
$TDCREATE
 40
2450683.391562499
  9
$TDUCREATE
 40
2450683.016562499
  9
$TDUPDATE
 40
2456448.426538437
  9
$TDUUPDATE
 40
2456448.051538437
  9
$TDINDWG
 40
0.0296239468
  9
$TDUSRTIMER
 40
0.0296239468
  9
$USRTIMER
 70
     1
  9
$ANGBASE
 50
0.0
  9
$ANGDIR
 70
     0
  9
$PDMODE
 70
     0
  9
$PDSIZE
 40
0.0
  9
$PLINEWID
 40
0.0
  9
$SPLFRAME
 70
     0
  9
$SPLINETYPE
 70
     6
  9
$SPLINESEGS
 70
     8
  9
$HANDSEED
  5
989
  9
$SURFTAB1
 70
     6
  9
$SURFTAB2
 70
     6
  9
$SURFTYPE
 70
     6
  9
$SURFU
 70
     6
  9
$SURFV
 70
     6
  9
$UCSBASE
  2

  9
$UCSNAME
  2

  9
$UCSORG
 10
0.0
 20
0.0
 30
0.0
  9
$UCSXDIR
 10
1.0
 20
0.0
 30
0.0
  9
$UCSYDIR
 10
0.0
 20
1.0
 30
0.0
  9
$UCSORTHOREF
  2

  9
$UCSORTHOVIEW
 70
     0
  9
$UCSORGTOP
 10
0.0
 20
0.0
 30
0.0
  9
$UCSORGBOTTOM
 10
0.0
 20
0.0
 30
0.0
  9
$UCSORGLEFT
 10
0.0
 20
0.0
 30
0.0
  9
$UCSORGRIGHT
 10
0.0
 20
0.0
 30
0.0
  9
$UCSORGFRONT
 10
0.0
 20
0.0
 30
0.0
  9
$UCSORGBACK
 10
0.0
 20
0.0
 30
0.0
  9
$PUCSBASE
  2

  9
$PUCSNAME
  2

  9
$PUCSORG
 10
0.0
 20
0.0
 30
0.0
  9
$PUCSXDIR
 10
1.0
 20
0.0
 30
0.0
  9
$PUCSYDIR
 10
0.0
 20
1.0
 30
0.0
  9
$PUCSORTHOREF
  2

  9
$PUCSORTHOVIEW
 70
     0
  9
$PUCSORGTOP
 10
0.0
 20
0.0
 30
0.0
  9
$PUCSORGBOTTOM
 10
0.0
 20
0.0
 30
0.0
  9
$PUCSORGLEFT
 10
0.0
 20
0.0
 30
0.0
  9
$PUCSORGRIGHT
 10
0.0
 20
0.0
 30
0.0
  9
$PUCSORGFRONT
 10
0.0
 20
0.0
 30
0.0
  9
$PUCSORGBACK
 10
0.0
 20
0.0
 30
0.0
  9
$USERI1
 70
     0
  9
$USERI2
 70
     0
  9
$USERI3
 70
     0
  9
$USERI4
 70
     0
  9
$USERI5
 70
     0
  9
$USERR1
 40
0.0
  9
$USERR2
 40
0.0
  9
$USERR3
 40
0.0
  9
$USERR4
 40
0.0
  9
$USERR5
 40
0.0
  9
$WORLDVIEW
 70
     1
  9
$SHADEDGE
 70
     3
  9
$SHADEDIF
 70
    70
  9
$TILEMODE
 70
     1
  9
$MAXACTVP
 70
    16
  9
$PINSBASE
 10
0.0
 20
0.0
 30
0.0
  9
$PLIMCHECK
 70
     0
  9
$PEXTMIN
 10
1.000000000000000E+20
 20
1.000000000000000E+20
 30
1.000000000000000E+20
  9
$PEXTMAX
 10
-1.000000000000000E+20
 20
-1.000000000000000E+20
 30
-1.000000000000000E+20
  9
$PLIMMIN
 10
0.0
 20
0.0
  9
$PLIMMAX
 10
12.0
 20
9.0
  9
$UNITMODE
 70
     0
  9
$VISRETAIN
 70
     0
  9
$PLINEGEN
 70
     1
  9
$PSLTSCALE
 70
     0
  9
$TREEDEPTH
 70
  3020
  9
$CMLSTYLE
  2
STANDARD
  9
$CMLJUST
 70
     0
  9
$CMLSCALE
 40
1.0
  9
$PROXYGRAPHICS
 70
     1
  9
$MEASUREMENT
 70
     0
  9
$CELWEIGHT
370
    -1
  9
$ENDCAPS
280
     0
  9
$JOINSTYLE
280
     0
  9
$LWDISPLAY
290
     0
  9
$INSUNITS
 70
     0
  9
$HYPERLINKBASE
  1

  9
$STYLESHEET
  1

  9
$XEDIT
290
     1
  9
$CEPSNTYPE
380
     0
  9
$PSTYLEMODE
290
     1
  9
$FINGERPRINTGUID
  2
{78A0EB95-08F5-416D-B7A8-6DA5ECDADDB6}
  9
$VERSIONGUID
  2
{44797010-325F-4514-90B5-FF7B5CE75EA8}
  9
$EXTNAMES
290
     1
  9
$PSVPSCALE
 40
0.0
  9
$OLESTARTUP
290
     0
  0
ENDSEC
  0
SECTION
  2
CLASSES
  0
CLASS
  1
DICTIONARYVAR
  2
AcDbDictionaryVar
  3
AutoCAD 2000
 90
        0
280
     0
281
     0
  0
CLASS
  1
ACDBDICTIONARYWDFLT
  2
AcDbDictionaryWithDefault
  3
AutoCAD 2000
 90
        0
280
     0
281
     0
  0
CLASS
  1
ACDBPLACEHOLDER
  2
AcDbPlaceHolder
  3
AutoCAD 2000
 90
        0
280
     0
281
     0
  0
CLASS
  1
LAYOUT
  2
AcDbLayout
  3
AutoCAD 2000
 90
        0
280
     0
281
     0
  0
CLASS
  1
AMGSETTINGSOBJ
  2
AmgSettingsObj
  3
"AcadM|Product Description: AutoCAD Mechanical 2000|Company: Autodesk"
 90
        0
280
     0
281
     0
  0
CLASS
  1
ACME_DOCUMENT
  2
AcMeDbDoc
  3
AcMeServices
 90
        0
280
     0
281
     0
  0
CLASS
  1
ACMESCOPE
  2
AcMeScope
  3
AcMeServices
 90
        0
280
     0
281
     0
  0
CLASS
  1
ACMECOMMANDHISTORY
  2
AcMeCommandHistory
  3
AcMeServices
 90
        0
280
     0
281
     0
  0
CLASS
  1
ACIMSYSVARMAN
  2
AcImSysVarManager
  3
AcMeServices
 90
        0
280
     0
281
     0
  0
CLASS
  1
ACIMREALSYSVAR
  2
AcImRealSysVar
  3
AcMeServices
 90
        0
280
     0
281
     0
  0
CLASS
  1
ACIMINTSYSVAR
  2
AcImIntSysVar
  3
AcMeServices
 90
        0
280
     0
281
     0
  0
CLASS
  1
ACMEDRAWINGMAN
  2
AcMeDrawingMan
  3
AcMeServices
 90
        0
280
     0
281
     0
  0
CLASS
  1
ACMEVIEW
  2
AcMeView
  3
AcMeServices
 90
        0
280
     0
281
     0
  0
CLASS
  1
ACDBENTITYCACHE
  2
AcMeEntityCache
  3
AcMeServices
 90
        0
280
     0
281
     0
  0
CLASS
  1
GSMANAGER
  2
AcMeGSManager
  3
AcMeServices
 90
        0
280
     0
281
     0
  0
CLASS
  1
AMDTINTERNALREACTOR
  2
AmdtInternalReactor
  3
AcMeServices
 90
        0
280
     0
281
     0
  0
CLASS
  1
ACMESTATEMGR
  2
AcMeStateMgr
  3
AcMeServices
 90
        0
280
     0
281
     0
  0
CLASS
  1
ACGREFMASTER
  2
AcGrefMaster
  3
AcAttribServices
 90
        0
280
     0
281
     0
  0
CLASS
  1
AM_DRAWING_MGR
  2
AcDmDwgMgr
  3
AcMechDwgViewMgmt
 90
        0
280
     0
281
     0
  0
CLASS
  1
AM_DWG_DOCUMENT
  2
AcDmDwgDocument
  3
AcMechDwgViewMgmt
 90
        0
280
     0
281
     0
  0
CLASS
  1
AM_DWG_SHEET
  2
AcDmSheet
  3
AcMechDwgViewMgmt
 90
        0
280
     0
281
     0
  0
CLASS
  1
AM_VIEWDIMPARMAP
  2
AcDmViewDimParMap
  3
AcMechDwgViewMgmt
 90
        0
280
     0
281
     0
  0
CLASS
  1
AM_DWGMGR_NAME
  2
AcDmDwgMgrName
  3
AcMechDwgViewMgmt
 90
        0
280
     0
281
     0
  0
CLASS
  1
ACME_DATABASE
  2
AcMeDbDatabase
  3
AcMeServices
 90
        0
280
     0
281
     0
  0
CLASS
  1
ACRFINSADJUSTERMGR
  2
AcRfInsAdjusterMgr
  3
AcMeServices
 90
        0
280
     0
281
     0
  0
CLASS
  1
ACGREFACADMASTER
  2
AcGrefacadMaster
  3
AcGrefServices
 90
        0
280
     0
281
     0
  0
CLASS
  1
AMDTMENUSTATEMGR
  2
AmdtMenuStateMgr
  3
McadcomServices
 90
        0
280
     0
281
     0
  0
CLASS
  1
AMDTMCOMMENUSTATE
  2
AmdtMcomMenuState
  3
McadcomServices
 90
        0
280
     0
281
     0
  0
CLASS
  1
AMIMASTER
  2
AmiMaster
  3
AmiServices
 90
        0
280
     0
281
     0
  0
CLASS
  1
ASAPP
  2
AcAsAppObject
  3
AutoSurfServices
 90
        0
280
     0
281
     0
  0
CLASS
  1
IM_STATIC_MAN
  2
AcImStaticVarManager
  3
AcMeServices
 90
        0
280
     0
281
     0
  0
CLASS
  1
ACIMSTRSYSVAR
  2
AcImStrSysVar
  3
AcMeServices
 90
        0
280
     0
281
     0
  0
CLASS
  1
ACIMDBLSTATICVAR
  2
AcImDblStaticVar
  3
AcMeServices
 90
        0
280
     0
281
     0
  0
CLASS
  1
ACIMSTRSTATICVAR
  2
AcImStrStaticVar
  3
AcMeServices
 90
        0
280
     0
281
     0
  0
CLASS
  1
ACIMINTSTATICVAR
  2
AcImIntStaticVar
  3
AcMeServices
 90
        0
280
     0
281
     0
  0
CLASS
  1
ACASGREFMASTER
  2
AcAsGrefMaster
  3
AutoSurfResolverServices
 90
        0
280
     0
281
     0
  0
CLASS
  1
ACADGREFMODULE
  2
AcAdGrefModule
  3
AdGrefServices
 90
        0
280
     0
281
     0
  0
CLASS
  1
AMDTMAPISURFMOUDULE
  2
AmdtMApiSurfModule
  3
MApiSurfServices
 90
        0
280
     0
281
     0
  0
CLASS
  1
MAPIAMMOUDLE
  2
MApiAmModule
  3
MApiAmServices
 90
        0
280
     0
281
     0
  0
CLASS
  1
AMDTADMENUSTATE
  2
AmdtAdMenuState
  3
DesignerServices
 90
        0
280
     0
281
     0
  0
CLASS
  1
ADAPPL
  2
AcAdAppl
  3
DesignerServices
 90
        0
280
     0
281
     0
  0
CLASS
  1
DEPMGR
  2
AcAdDepMgr
  3
DesignerServices
 90
        0
280
     0
281
     0
  0
CLASS
  1
PARAMMGR
  2
AcAdParamMgr
  3
DesignerServices
 90
        0
280
     0
281
     0
  0
CLASS
  1
PARAMSCOPE
  2
AcAdParamScope
  3
DesignerServices
 90
        0
280
     0
281
     0
  0
CLASS
  1
NAMEDAPPL
  2
AcAdNamedAppl
  3
DesignerServices
 90
        0
280
     0
281
     0
  0
CLASS
  1
AMDTDMMENUSTATE
  2
AmdtDmMenuState
  3
AcMechDwgViewMgmt
 90
        0
280
     0
281
     0
  0
CLASS
  1
MAPIADMODULE
  2
MApiAdModule
  3
MApiAdServices
 90
        0
280
     0
281
     0
  0
CLASS
  1
AMDTAMMENUSTATE
  2
AmdtAmMenuState
  3
DesignerAssemblies
 90
        0
280
     0
281
     0
  0
CLASS
  1
ACAMPROJECT
  2
AcAmProject
  3
DesignerAssemblies
 90
        0
280
     0
281
     0
  0
CLASS
  1
ACAMGRCOMPDEF
  2
AcAmGrCompDef
  3
DesignerAssemblies
 90
        0
280
     0
281
     0
  0
CLASS
  1
ACCMCONTEXT
  2
AcCmContext
  3
DesignerAssemblies
 90
        0
280
     0
281
     0
  0
CLASS
  1
ACAMCOMPDEF
  2
AcAmCompDef
  3
DesignerAssemblies
 90
        0
280
     0
281
     0
  0
CLASS
  1
ACAMCOMPDEFMGR
  2
AcAmCompDefMgr
  3
DesignerAssemblies
 90
        0
280
     0
281
     0
  0
CLASS
  1
AMCONTEXTMGR
  2
AcAmContextMgr
  3
DesignerAssemblies
 90
        0
280
     0
281
     0
  0
CLASS
  1
ACAMCONTEXTMODELER
  2
AcAmContextModeler
  3
DesignerAssemblies
 90
        0
280
     0
281
     0
  0
CLASS
  1
ACMDATADICTIONARY
  2
AcmDataDictionary
  3
"AcmSymBB|Product Description: AutoCAD Mechanical 2000|Company: Autodesk"
 90
        0
280
     0
281
     0
  0
CLASS
  1
ACMDATAENTRYBLOCK
  2
AcmDataEntryBlock
  3
"AcmSymBB|Product Description: AutoCAD Mechanical 2000|Company: Autodesk"
 90
        0
280
     0
281
     0
  0
CLASS
  1
CATALOGSTATE
  2
AcAmCatalogState
  3
DesignerAssemblies
 90
        0
280
     0
281
     0
  0
CLASS
  1
ACAMGRCOMPDEFSET
  2
AcAmGrCompDefSet
  3
DesignerAssemblies
 90
        0
280
     0
281
     0
  0
CLASS
  1
AMDTBROWSERDBTAB
  2
AmdtBrowserDbTab
  3
McadcomServices
 90
        0
280
     0
281
     0
  0
CLASS
  1
CBROWSERAPPOBJECT
  2
CBrowserAppObject
  3
McadcomServices
 90
        0
280
     0
281
     0
  0
CLASS
  1
DM_PLACEHOLDER
  2
AcDmSelsetPlaceholder
  3
AcMechDwgViewMgmt
 90
        0
280
     0
281
     0
  0
CLASS
  1
AMGOBJPROPCFG
  2
AmgObjPropCfg
  3
"AmgLay|Product Description: AutoCAD Mechanical 2000|Company: Autodesk"
 90
        1
280
     0
281
     0
  0
CLASS
  1
ACAMGFILTERDAT
  2
AcAmgFilterDat
  3
"AcadM|Product Description: AutoCAD Mechanical 2000|Company: Autodesk"
 90
        0
280
     0
281
     0
  0
CLASS
  1
ACMSTANDARDISO
  2
AcmStandardISO
  3
"Amdt_StdImp|Product Description: AutoCAD Mechanical 2000|Company: Autodesk"
 90
        0
280
     0
281
     0
  0
CLASS
  1
AMDTEDGESTANDARDISO
  2
AmdtEdgeStdISO
  3
"Amdt_StdImp|Product Description: AutoCAD Mechanical 2000|Company: Autodesk"
 90
        0
280
     0
281
     0
  0
CLASS
  1
ACMSURFSTANDARDISO
  2
AcmSurfTextStdISO
  3
"Amdt_StdImp|Product Description: AutoCAD Mechanical 2000|Company: Autodesk"
 90
        0
280
     0
281
     0
  0
CLASS
  1
ACMFCFSTANDARDISO
  2
AcmFCFStdISO
  3
"Amdt_StdImp|Product Description: AutoCAD Mechanical 2000|Company: Autodesk"
 90
        0
280
     0
281
     0
  0
CLASS
  1
ACMWELDSTANDARDISO
  2
AcmWeldingStdISO
  3
"Amdt_StdImp|Product Description: AutoCAD Mechanical 2000|Company: Autodesk"
 90
        0
280
     0
281
     0
  0
CLASS
  1
ACMIDSTANDARDISO
  2
AcmIdStdISO
  3
"Amdt_StdImp|Product Description: AutoCAD Mechanical 2000|Company: Autodesk"
 90
        0
280
     0
281
     0
  0
CLASS
  1
ACMDATUMSTANDARDISO
  2
AcmDatumStdISO
  3
"Amdt_StdImp|Product Description: AutoCAD Mechanical 2000|Company: Autodesk"
 90
        0
280
     0
281
     0
  0
CLASS
  1
ACMBOMSTANDARDISO
  2
AcmBOMStdISO
  3
"Amdt_StdImp|Product Description: AutoCAD Mechanical 2000|Company: Autodesk"
 90
        0
280
     0
281
     0
  0
CLASS
  1
ACMDETAILSTANDARDISO
  2
AmdtDetailSymStdISO
  3
"Amdt_StdImp|Product Description: AutoCAD Mechanical 2000|Company: Autodesk"
 90
        0
280
     0
281
     0
  0
CLASS
  1
ACMSECTIONSTANDARDISO
  2
AmdtSectionSymStdISO
  3
"Amdt_StdImp|Product Description: AutoCAD Mechanical 2000|Company: Autodesk"
 90
        0
280
     0
281
     0
  0
CLASS
  1
ACMCENTERLINESTANDARDISO
  2
AmdtCenterLineStdISO
  3
"Amdt_StdImp|Product Description: AutoCAD Mechanical 2000|Company: Autodesk"
 90
        0
280
     0
281
     0
  0
CLASS
  1
ACMTHREADLINESTANDARDISO
  2
AmdtThreadLineStdISO
  3
"Amdt_StdImp|Product Description: AutoCAD Mechanical 2000|Company: Autodesk"
 90
        0
280
     0
281
     0
  0
CLASS
  1
ACMNOTESTANDARDISO
  2
AmdtNoteStdISO
  3
"Amdt_StdImp|Product Description: AutoCAD Mechanical 2000|Company: Autodesk"
 90
        0
280
     0
281
     0
  0
CLASS
  1
ACAMGLAYSTD
  2
AcAmgLayStd
  3
"AcAmgLayStd|Product Description: AutoCAD Mechanical 2000|Company: Autodesk"
 90
        0
280
     0
281
     0
  0
CLASS
  1
ACAMGDIMSTD
  2
AcAmgDimStd
  3
"AcAmgDimStd|Product Description: AutoCAD Mechanical 2000|Company: Autodesk"
 90
        0
280
     0
281
     0
  0
CLASS
  1
ACAMGHOLECHARTSTDISO
  2
AcAmgHoleChartStdISO
  3
ACMSYMBB_MODULE_NAME
 90
        0
280
     0
281
     0
  0
CLASS
  1
ACAMGTITLESTD
  2
AcAmgTitleStd
  3
"TITLEAPP"
 90
        0
280
     0
281
     0
  0
CLASS
  1
AMDTFORMULAUPDATEDISPATCHER
  2
AmdtFormulaUpdateDispatcher
  3
AcMeServices
 90
        0
280
     0
281
     0
  0
CLASS
  1
LAYER_INDEX
  2
AcDbLayerIndex
  3
AutoCAD 2000
 90
        0
280
     0
281
     0
  0
CLASS
  1
IDBUFFER
  2
AcDbIdBuffer
  3
AutoCAD 2000
 90
        0
280
     0
281
     0
  0
ENDSEC
  0
SECTION
  2
TABLES
  0
TABLE
  2
VPORT
  5
117
330
0
100
AcDbSymbolTable
 70
     3
  0
VPORT
  5
988
330
117
100
AcDbSymbolTableRecord
100
AcDbViewportTableRecord
  2
*Active
 70
     0
 10
0.0
 20
0.0
 11
1.0
 21
1.0
 12
0.0
 22
0.0
 13
0.0
 23
0.0
 14
0.5
 24
0.5
 15
1.0
 25
1.0
 16
0.0
 26
0.0
 36
1.0
 17
477.0008306689486
 27
532.3921269999999
 37
0.0
 40
551.0365380989187
 41
1.489721886336154
 42
50.0
 43
0.0
 44
0.0
 50
0.0
 51
0.0
 71
     0
 72
   500
 73
     1
 74
     1
 75
     0
 76
     0
 77
     0
 78
     1
281
     0
 65
     0
110
0.0
120
0.0
130
0.0
111
1.0
121
0.0
131
0.0
112
0.0
122
1.0
132
0.0
 79
     0
146
0.0
  0
ENDTAB
  0
TABLE
  2
LTYPE
  5
114
330
0
100
AcDbSymbolTable
 70
    22
  0
LTYPE
  5
120
330
114
100
AcDbSymbolTableRecord
100
AcDbLinetypeTableRecord
  2
BYBLOCK
 70
     0
  3

 72
    65
 73
     0
 40
0.0
  0
LTYPE
  5
121
330
114
100
AcDbSymbolTableRecord
100
AcDbLinetypeTableRecord
  2
BYLAYER
 70
     0
  3

 72
    65
 73
     0
 40
0.0
  0
LTYPE
  5
122
330
114
100
AcDbSymbolTableRecord
100
AcDbLinetypeTableRecord
  2
CONTINUOUS
 70
     0
  3
実線
 72
    65
 73
     0
 40
0.0
  0
LTYPE
  5
130
330
114
100
AcDbSymbolTableRecord
100
AcDbLinetypeTableRecord
  2
CENTER
 70
     0
  3
____ _ ____ _ ____ _ ____ _ ____ _ ____ _ ____
 72
    65
 73
     4
 40
2.0
 49
1.25
 74
     0
 49
-0.25
 74
     0
 49
0.25
 74
     0
 49
-0.25
 74
     0
  0
LTYPE
  5
131
330
114
100
AcDbSymbolTableRecord
100
AcDbLinetypeTableRecord
  2
TENSEN1
 70
     0
  3

 72
    65
 73
     2
 40
0.4
 49
0.3
 74
     0
 49
-0.1
 74
     0
  0
LTYPE
  5
1D2
330
114
100
AcDbSymbolTableRecord
100
AcDbLinetypeTableRecord
  2
TENSEN
 70
     0
  3

 72
    65
 73
     2
 40
4.0
 49
3.0
 74
     0
 49
-1.0
 74
     0
  0
LTYPE
  5
1D3
330
114
100
AcDbSymbolTableRecord
100
AcDbLinetypeTableRecord
  2
ITTEN1
 70
     0
  3

 72
    65
 73
     4
 40
8.199999999999999
 49
5.0
 74
     0
 49
-1.0
 74
     0
 49
1.199999999999999
 74
     0
 49
-1.0
 74
     0
  0
LTYPE
  5
630
330
114
100
AcDbSymbolTableRecord
100
AcDbLinetypeTableRecord
  2
HIDDEN
 70
     0
  3
Hidden __ __ __ __ __ __ __ __ __ __ __ __ __ _
 72
    65
 73
     2
 40
0.375
 49
0.25
 74
     0
 49
-0.125
 74
     0
  0
LTYPE
  5
631
330
114
100
AcDbSymbolTableRecord
100
AcDbLinetypeTableRecord
  2
PHANTOM2
 70
     0
  3
Phantom (.5x) ___ _ _ ___ _ _ ___ _ _ ___ _ _
 72
    65
 73
     6
 40
1.25
 49
0.625
 74
     0
 49
-0.125
 74
     0
 49
0.125
 74
     0
 49
-0.125
 74
     0
 49
0.125
 74
     0
 49
-0.125
 74
     0
  0
LTYPE
  5
693
330
114
100
AcDbSymbolTableRecord
100
AcDbLinetypeTableRecord
  2
ASULTYPE
 70
     0
  3
実線
 72
    65
 73
     2
 40
3.0
 49
2.5
 74
     0
 49
0.5
 74
     0
  0
LTYPE
  5
694
330
114
100
AcDbSymbolTableRecord
100
AcDbLinetypeTableRecord
  2
ASVLTYPE
 70
     0
  3
__ __ __ __ __ __ __ __ __ __ __ __ __ __ __ __ __ __ __ __ __
 72
    65
 73
     2
 40
0.75
 49
0.5
 74
     0
 49
-0.25
 74
     0
  0
LTYPE
  5
6D5
330
114
100
AcDbSymbolTableRecord
100
AcDbLinetypeTableRecord
  2
AM_ISO02W050
 70
     0
  3
__ __ __ __ __ __ __ __ __ __ __ __ __ __ __
 72
    65
 73
     2
 40
7.5
 49
6.0
 74
     0
 49
-1.5
 74
     0
  0
LTYPE
  5
6D6
330
114
100
AcDbSymbolTableRecord
100
AcDbLinetypeTableRecord
  2
AM_ISO08W050
 70
     0
  3
____ . ____ . ____ . ____ . ____ . ____ . ____
 72
    65
 73
     4
 40
18.0
 49
12.0
 74
     0
 49
-1.5
 74
     0
 49
3.0
 74
     0
 49
-1.5
 74
     0
  0
LTYPE
  5
6D7
330
114
100
AcDbSymbolTableRecord
100
AcDbLinetypeTableRecord
  2
AM_ISO09W050
 70
     0
  3
_____ . . _____ . . _____ . . ____ .. ____
 72
    65
 73
     6
 40
22.5
 49
12.0
 74
     0
 49
-1.5
 74
     0
 49
3.0
 74
     0
 49
-1.5
 74
     0
 49
3.0
 74
     0
 49
-1.5
 74
     0
  0
LTYPE
  5
6D8
330
114
100
AcDbSymbolTableRecord
100
AcDbLinetypeTableRecord
  2
Amconstr
 70
     0
  3
_______________________
 72
    65
 73
     2
 40
9999.0
 49
9999.0
 74
     0
 49
0.0
 74
     0
  0
LTYPE
  5
6D9
330
114
100
AcDbSymbolTableRecord
100
AcDbLinetypeTableRecord
  2
AM_ISO08W050x2
 70
     0
  3
__ . __ . __ . __ . __ . __
 72
    65
 73
     4
 40
9.0
 49
6.0
 74
     0
 49
-0.75
 74
     0
 49
1.5
 74
     0
 49
-0.75
 74
     0
  0
LTYPE
  5
6DA
330
114
100
AcDbSymbolTableRecord
100
AcDbLinetypeTableRecord
  2
AM_ISO02W050x2
 70
     0
  3
 _ _ _ _ _ _ _ _ _ _ _ _
 72
    65
 73
     2
 40
3.75
 49
3.0
 74
     0
 49
-0.75
 74
     0
  0
LTYPE
  5
6DD
330
114
100
AcDbSymbolTableRecord
100
AcDbLinetypeTableRecord
  2
Amzigzag
 70
     0
  3
/\/-/\/-/\/-/\/-/\/-/\/
 72
    65
 73
     2
 40
11.00009999999999
 49
0.0001
 74
     4
 75
   135
340
6DC
 46
0.04
 50
0.0
 44
0.0
 45
0.0
 49
-11.0
 74
     0
  0
LTYPE
  5
6DE
330
114
100
AcDbSymbolTableRecord
100
AcDbLinetypeTableRecord
  2
CENTER2
 70
     0
  3
Center (.5x) ___ _ ___ _ ___ _ ___ _ ___ _ ___
 72
    65
 73
     4
 40
1.125
 49
0.75
 74
     0
 49
-0.125
 74
     0
 49
0.125
 74
     0
 49
-0.125
 74
     0
  0
LTYPE
  5
6DF
330
114
100
AcDbSymbolTableRecord
100
AcDbLinetypeTableRecord
  2
HIDDEN2
 70
     0
  3
Hidden (.5x) _ _ _ _ _ _ _ _ _ _ _ _ _ _ _ _ _
 72
    65
 73
     2
 40
0.1875
 49
0.125
 74
     0
 49
-0.0625
 74
     0
  0
LTYPE
  5
6E0
330
114
100
AcDbSymbolTableRecord
100
AcDbLinetypeTableRecord
  2
Amzigzag2
 70
     0
  3
/\/-/\/-/\/-/\/-/\/-/\/
 72
    65
 73
     2
 40
0.4401
 49
0.0001
 74
     4
 75
   135
340
6DC
 46
0.0016
 50
0.0
 44
0.0
 45
0.0
 49
-0.4400000000000001
 74
     0
  0
LTYPE
  5
746
330
114
100
AcDbSymbolTableRecord
100
AcDbLinetypeTableRecord
  2
ACISOWELD
 70
     0
  3
_ _ _ _ _
 72
    65
 73
     2
 40
2.0
 49
2.0
 74
     0
 49
-1.0
 74
     0
  0
LTYPE
  5
747
330
114
100
AcDbSymbolTableRecord
100
AcDbLinetypeTableRecord
  2
ACISOTGB
 70
     0
  3
__ . . __ . .
 72
    65
 73
     6
 40
9.0
 49
4.0
 74
     0
 49
-1.0
 74
     0
 49
1.0
 74
     0
 49
-1.0
 74
     0
 49
1.0
 74
     0
 49
-1.0
 74
     0
  0
LTYPE
  5
748
330
114
100
AcDbSymbolTableRecord
100
AcDbLinetypeTableRecord
  2
ACISOTGL
 70
     0
  3
_ _ _ _ _
 72
    65
 73
     2
 40
3.0
 49
2.0
 74
     0
 49
-1.0
 74
     0
  0
ENDTAB
  0
TABLE
  2
LAYER
  5
111
330
0
100
AcDbSymbolTable
 70
     8
  0
LAYER
  5
11D
330
111
100
AcDbSymbolTableRecord
100
AcDbLayerTableRecord
  2
0
 70
     0
 62
     7
  6
CONTINUOUS
370
    -3
390
606
  0
LAYER
  5
136
330
111
100
AcDbSymbolTableRecord
100
AcDbLayerTableRecord
  2
1
 70
     0
 62
     1
  6
CENTER
370
    -3
390
606
  0
LAYER
  5
137
330
111
100
AcDbSymbolTableRecord
100
AcDbLayerTableRecord
  2
10
 70
     0
 62
     7
  6
CONTINUOUS
370
    -3
390
606
  0
LAYER
  5
138
330
111
100
AcDbSymbolTableRecord
100
AcDbLayerTableRecord
  2
11
 70
     0
 62
     7
  6
CONTINUOUS
370
    -3
390
606
  0
LAYER
  5
139
330
111
100
AcDbSymbolTableRecord
100
AcDbLayerTableRecord
  2
2
 70
     0
 62
     7
  6
TENSEN1
370
    -3
390
606
  0
LAYER
  5
1D4
330
111
100
AcDbSymbolTableRecord
100
AcDbLayerTableRecord
  2
3
 70
     0
 62
     7
  6
CONTINUOUS
370
    -3
390
606
  0
LAYER
  5
1D5
330
111
100
AcDbSymbolTableRecord
100
AcDbLayerTableRecord
  2
5
 70
     0
 62
     7
  6
CONTINUOUS
370
    -3
390
606
  0
LAYER
  5
1D6
330
111
100
AcDbSymbolTableRecord
100
AcDbLayerTableRecord
  2
DEFPOINTS
 70
     0
 62
     7
  6
CONTINUOUS
290
     0
370
    -3
390
606
  0
ENDTAB
  0
TABLE
  2
STYLE
  5
112
330
0
100
AcDbSymbolTable
 70
     7
  0
STYLE
  5
11E
330
112
100
AcDbSymbolTableRecord
100
AcDbTextStyleTableRecord
  2
STANDARD
 70
     0
 40
0.0
 41
1.0
 50
0.0
 71
     0
 42
0.2
  3
TXT
  4
BIGFONT
  0
STYLE
  5
12D
330
112
100
AcDbSymbolTableRecord
100
AcDbTextStyleTableRecord
  2
K80
 70
     0
 40
0.0
 41
0.8
 50
0.0
 71
     0
 42
0.2
  3
TXT
  4
BIGFONT
  0
STYLE
  5
12E
330
112
100
AcDbSymbolTableRecord
100
AcDbTextStyleTableRecord
  2
07500
 70
     0
 40
0.0
 41
0.75
 50
0.0
 71
     0
 42
0.2
  3
TXT
  4
BIGFONT
  0
STYLE
  5
12F
330
112
100
AcDbSymbolTableRecord
100
AcDbTextStyleTableRecord
  2
BIGFONT
 70
     0
 40
18.0
 41
0.8
 50
0.0
 71
     0
 42
18.0
  3
txt.shx
  4
bigfont
  0
STYLE
  5
6DC
330
112
100
AcDbSymbolTableRecord
100
AcDbTextStyleTableRecord
  2

 70
     1
 40
0.0
 41
1.0
 50
0.0
 71
     0
 42
18.0
  3
ltypeshp.shx
  4

  0
STYLE
  5
749
330
112
100
AcDbSymbolTableRecord
100
AcDbTextStyleTableRecord
  2
ACISOTS
 70
     0
 40
1.0
 41
1.0
 50
0.0
 71
     0
 42
5.0
  3
isocp.shx
  4
extfont.shx
  0
STYLE
  5
74A
330
112
100
AcDbSymbolTableRecord
100
AcDbTextStyleTableRecord
  2
ACISOGDT
 70
     0
 40
0.0
 41
1.0
 50
0.0
 71
     0
 42
5.0
  3
amgdt.shx
  4

  0
ENDTAB
  0
TABLE
  2
VIEW
  5
115
330
0
100
AcDbSymbolTable
 70
     1
  0
VIEW
  5
132
330
115
100
AcDbSymbolTableRecord
100
AcDbViewTableRecord
  2
ALL
 70
     0
 40
810.0
 10
662.9747899999999
 20
405.0
 41
0.0
 11
0.0
 21
0.0
 31
1.0
 12
0.0
 22
0.0
 32
0.0
 42
50.0
 43
0.0
 44
0.0
 50
0.0
 71
     0
281
     0
 72
     0
  0
ENDTAB
  0
TABLE
  2
UCS
  5
116
330
0
100
AcDbSymbolTable
 70
     0
  0
ENDTAB
  0
TABLE
  2
APPID
  5
118
330
0
100
AcDbSymbolTable
 70
    12
  0
APPID
  5
11F
330
118
100
AcDbSymbolTableRecord
100
AcDbRegAppTableRecord
  2
ACAD
 70
     0
  0
APPID
  5
60F
330
118
100
AcDbSymbolTableRecord
100
AcDbRegAppTableRecord
  2
GENIUS_GENDIM_13
 70
     0
  0
APPID
  5
610
330
118
100
AcDbSymbolTableRecord
100
AcDbRegAppTableRecord
  2
GENIUS_GENDTOL_13
 70
     0
  0
APPID
  5
611
330
118
100
AcDbSymbolTableRecord
100
AcDbRegAppTableRecord
  2
GENIUS_GE3DTOL_13
 70
     0
  0
APPID
  5
613
330
118
100
AcDbSymbolTableRecord
100
AcDbRegAppTableRecord
  2
MCAD_NO_VIS
 70
     0
  0
APPID
  5
614
330
118
100
AcDbSymbolTableRecord
100
AcDbRegAppTableRecord
  2
ACAD_TEMP_GRAPHIC
 70
     0
  0
APPID
  5
646
330
118
100
AcDbSymbolTableRecord
100
AcDbRegAppTableRecord
  2
AD_DRAW
 70
     0
  0
APPID
  5
649
330
118
100
AcDbSymbolTableRecord
100
AcDbRegAppTableRecord
  2
ACATTRIBSERVICES
 70
     0
  0
APPID
  5
695
330
118
100
AcDbSymbolTableRecord
100
AcDbRegAppTableRecord
  2
ASURF_PCURVE_APPNAME
 70
     0
  0
APPID
  5
6C4
330
118
100
AcDbSymbolTableRecord
100
AcDbRegAppTableRecord
  2
DESIGNERASSEMBLIES
 70
     0
  0
APPID
  5
6CC
330
118
100
AcDbSymbolTableRecord
100
AcDbRegAppTableRecord
  2
ACADM_DIM_EDIT
 70
     0
  0
APPID
  5
6CD
330
118
100
AcDbSymbolTableRecord
100
AcDbRegAppTableRecord
  2
AMDT_DM_ADJ
 70
     0
  0
ENDTAB
  0
TABLE
  2
DIMSTYLE
  5
119
330
0
100
AcDbSymbolTable
 70
     8
100
AcDbDimStyleTable
 71
     0
  0
DIMSTYLE
105
135
102
{ACAD_REACTORS
330
1D9
330
211
330
212
330
232
330
233
330
237
330
253
330
254
330
255
330
267
330
268
102
}
330
119
100
AcDbSymbolTableRecord
100
AcDbDimStyleTableRecord
  2
STANDARD
 70
     0
340
12F
  0
DIMSTYLE
105
74B
330
119
100
AcDbSymbolTableRecord
100
AcDbDimStyleTableRecord
  2
AM_ISO
 70
     0
  4
"
 41
2.5
 42
1.0
 43
10.0
 44
1.0
 47
0.1
 48
0.1
 73
     0
 74
     0
 77
     1
 78
     8
 79
     2
140
3.5
141
0.0
143
0.0393701
146
0.71
147
1.5
172
     1
176
   256
177
   256
178
     2
271
     2
272
     3
274
     4
283
     0
284
     8
340
11E
371
    -1
372
    -1
  0
DIMSTYLE
105
74C
330
119
100
AcDbSymbolTableRecord
100
AcDbDimStyleTableRecord
  2
AM_ISO$3
 70
     0
  4
"
 41
2.5
 42
1.0
 43
10.0
 44
1.0
 47
0.1
 48
0.1
 73
     0
 77
     1
 78
     8
 79
     2
140
3.5
141
0.0
143
0.0393701
146
0.71
147
1.5
176
   256
177
   256
178
     2
271
     2
272
     3
274
     4
283
     0
284
     8
288
     1
289
     0
340
11E
371
    -1
372
    -1
  0
DIMSTYLE
105
74D
330
119
100
AcDbSymbolTableRecord
100
AcDbDimStyleTableRecord
  2
AM_ISO$4
 70
     0
  4
"
 41
2.5
 42
1.0
 43
10.0
 44
1.0
 47
0.1
 48
0.1
 73
     0
 77
     1
 78
     8
 79
     2
140
3.5
141
0.0
143
0.0393701
146
0.71
147
1.5
176
   256
177
   256
178
     2
271
     2
272
     3
274
     4
283
     0
284
     8
288
     1
289
     0
340
11E
371
    -1
372
    -1
  0
DIMSTYLE
105
74E
330
119
100
AcDbSymbolTableRecord
100
AcDbDimStyleTableRecord
  2
AM_ISO$6
 70
     0
  4
"
 41
2.5
 42
1.0
 43
10.0
 44
1.0
 47
0.1
 48
0.1
 73
     0
 74
     0
 78
     8
 79
     2
140
3.5
141
0.0
143
0.0393701
146
0.71
147
1.5
172
     1
176
   256
177
   256
178
     2
271
     2
272
     3
274
     4
283
     0
284
     8
340
11E
371
    -1
372
    -1
  0
DIMSTYLE
105
74F
330
119
100
AcDbSymbolTableRecord
100
AcDbDimStyleTableRecord
  2
AM_ISO$7
 70
     0
  4
"
 41
2.5
 42
1.0
 43
10.0
 44
1.0
 47
0.1
 48
0.1
 73
     0
 74
     0
 77
     1
 78
     8
 79
     2
140
5.0
141
0.0
143
0.0393701
146
0.71
147
1.5
172
     1
176
   256
177
   256
178
     2
271
     2
272
     3
274
     4
283
     0
284
     8
340
11E
371
    -1
372
    -1
  0
DIMSTYLE
105
750
330
119
100
AcDbSymbolTableRecord
100
AcDbDimStyleTableRecord
  2
AM_ISO$SF
 70
     0
  4
"
 41
2.5
 42
1.0
 43
10.0
 44
1.0
 47
0.1
 48
0.1
 73
     0
 74
     0
 75
     1
 76
     1
 77
     1
 78
     8
 79
     2
140
3.5
141
0.0
143
0.0393701
146
0.71
147
1.5
172
     1
176
   256
177
   256
178
     2
271
     2
272
     3
274
     4
283
     0
284
     8
340
11E
371
    -1
372
    -1
  0
DIMSTYLE
105
751
330
119
100
AcDbSymbolTableRecord
100
AcDbDimStyleTableRecord
  2
AM_ISO$SH
 70
     0
  4
"
 41
2.5
 42
1.0
 43
10.0
 44
1.0
 47
0.1
 48
0.1
 73
     0
 74
     0
 75
     1
 76
     1
 77
     1
 78
     8
 79
     2
140
3.5
141
0.0
143
0.0393701
144
2.0
146
0.71
147
1.5
172
     1
173
     1
176
   256
177
   256
178
     2
271
     2
272
     3
274
     4
283
     0
284
     8
340
11E
343
728
371
    -1
372
    -1
  0
ENDTAB
  0
TABLE
  2
BLOCK_RECORD
  5
110
330
0
100
AcDbSymbolTable
 70
    31
  0
BLOCK_RECORD
  5
126
102
{ACAD_XDICTIONARY
360
97B
102
}
330
110
100
AcDbSymbolTableRecord
100
AcDbBlockTableRecord
  2
*MODEL_SPACE
340
609
  0
BLOCK_RECORD
  5
123
330
110
100
AcDbSymbolTableRecord
100
AcDbBlockTableRecord
  2
*PAPER_SPACE
340
60A
  0
BLOCK_RECORD
  5
12B
330
110
100
AcDbSymbolTableRecord
100
AcDbBlockTableRecord
  2
WAKU
340
0
  0
BLOCK_RECORD
  5
12C
330
110
100
AcDbSymbolTableRecord
100
AcDbBlockTableRecord
  2
QQ
340
0
  0
BLOCK_RECORD
  5
143
330
110
100
AcDbSymbolTableRecord
100
AcDbBlockTableRecord
  2
*D2
340
0
  0
BLOCK_RECORD
  5
150
330
110
100
AcDbSymbolTableRecord
100
AcDbBlockTableRecord
  2
*D3
340
0
  0
BLOCK_RECORD
  5
15D
330
110
100
AcDbSymbolTableRecord
100
AcDbBlockTableRecord
  2
*D4
340
0
  0
BLOCK_RECORD
  5
16A
330
110
100
AcDbSymbolTableRecord
100
AcDbBlockTableRecord
  2
*D5
340
0
  0
BLOCK_RECORD
  5
177
330
110
100
AcDbSymbolTableRecord
100
AcDbBlockTableRecord
  2
*D6
340
0
  0
BLOCK_RECORD
  5
184
330
110
100
AcDbSymbolTableRecord
100
AcDbBlockTableRecord
  2
*D7
340
0
  0
BLOCK_RECORD
  5
18F
330
110
100
AcDbSymbolTableRecord
100
AcDbBlockTableRecord
  2
*D8
340
0
  0
BLOCK_RECORD
  5
19C
330
110
100
AcDbSymbolTableRecord
100
AcDbBlockTableRecord
  2
*D9
340
0
  0
BLOCK_RECORD
  5
1A9
330
110
100
AcDbSymbolTableRecord
100
AcDbBlockTableRecord
  2
*D10
340
0
  0
BLOCK_RECORD
  5
1B7
330
110
100
AcDbSymbolTableRecord
100
AcDbBlockTableRecord
  2
*D11
340
0
  0
BLOCK_RECORD
  5
1C5
330
110
100
AcDbSymbolTableRecord
100
AcDbBlockTableRecord
  2
*D12
340
0
  0
BLOCK_RECORD
  5
1D7
330
110
100
AcDbSymbolTableRecord
100
AcDbBlockTableRecord
  2
A$C61FB467F
340
0
  0
BLOCK_RECORD
  5
6BB
330
110
100
AcDbSymbolTableRecord
100
AcDbBlockTableRecord
  2
*U14
340
0
  0
BLOCK_RECORD
  5
6EB
330
110
100
AcDbSymbolTableRecord
100
AcDbBlockTableRecord
  2
*D15
340
0
  0
BLOCK_RECORD
  5
6F8
330
110
100
AcDbSymbolTableRecord
100
AcDbBlockTableRecord
  2
*D16
340
0
  0
BLOCK_RECORD
  5
701
330
110
100
AcDbSymbolTableRecord
100
AcDbBlockTableRecord
  2
*D17
340
0
  0
BLOCK_RECORD
  5
70E
330
110
100
AcDbSymbolTableRecord
100
AcDbBlockTableRecord
  2
*D18
340
0
  0
BLOCK_RECORD
  5
71B
330
110
100
AcDbSymbolTableRecord
100
AcDbBlockTableRecord
  2
*D19
340
0
  0
BLOCK_RECORD
  5
728
330
110
100
AcDbSymbolTableRecord
100
AcDbBlockTableRecord
  2
GENAXEH
340
0
  0
BLOCK_RECORD
  5
72C
330
110
100
AcDbSymbolTableRecord
100
AcDbBlockTableRecord
  2
*D21
340
0
  0
BLOCK_RECORD
  5
739
330
110
100
AcDbSymbolTableRecord
100
AcDbBlockTableRecord
  2
*D22
340
0
  0
BLOCK_RECORD
  5
88C
330
110
100
AcDbSymbolTableRecord
100
AcDbBlockTableRecord
  2
*D24
340
0
  0
BLOCK_RECORD
  5
898
330
110
100
AcDbSymbolTableRecord
100
AcDbBlockTableRecord
  2
*D25
340
0
  0
BLOCK_RECORD
  5
8A4
330
110
100
AcDbSymbolTableRecord
100
AcDbBlockTableRecord
  2
*D26
340
0
  0
BLOCK_RECORD
  5
8AD
330
110
100
AcDbSymbolTableRecord
100
AcDbBlockTableRecord
  2
*D27
340
0
  0
BLOCK_RECORD
  5
8BA
330
110
100
AcDbSymbolTableRecord
100
AcDbBlockTableRecord
  2
*D28
340
0
  0
BLOCK_RECORD
  5
8C7
330
110
100
AcDbSymbolTableRecord
100
AcDbBlockTableRecord
  2
*D29
340
0
  0
BLOCK_RECORD
  5
8D4
330
110
100
AcDbSymbolTableRecord
100
AcDbBlockTableRecord
  2
*D30
340
0
  0
ENDTAB
  0
ENDSEC
  0
SECTION
  2
BLOCKS
  0
BLOCK
  5
13C
330
126
100
AcDbEntity
  8
0
100
AcDbBlockBegin
  2
*MODEL_SPACE
 70
     0
 10
0.0
 20
0.0
 30
0.0
  3
*MODEL_SPACE
  1

  0
ENDBLK
  5
13D
330
126
100
AcDbEntity
  8
0
100
AcDbBlockEnd
  0
BLOCK
  5
13A
330
123
100
AcDbEntity
 67
     1
  8
0
100
AcDbBlockBegin
  2
*PAPER_SPACE
 70
     0
 10
0.0
 20
0.0
 30
0.0
  3
*PAPER_SPACE
  1

  0
ENDBLK
  5
13B
330
123
100
AcDbEntity
 67
     1
  8
0
100
AcDbBlockEnd
  0
BLOCK
  5
2E
330
12B
100
AcDbEntity
  8
0
100
AcDbBlockBegin
  2
WAKU
 70
     0
 10
549.0
 20
0.0
 30
0.0
  3
WAKU
  1

  0
LINE
  5
2F
330
12B
100
AcDbEntity
  8
11
100
AcDbLine
 10
452.0
 20
12.0
 30
0.0
 11
549.0
 21
12.0
 31
0.0
  0
LINE
  5
30
330
12B
100
AcDbEntity
  8
11
100
AcDbLine
 10
477.0
 20
0.0
 30
0.0
 11
477.0
 21
12.0
 31
0.0
  0
LINE
  5
31
330
12B
100
AcDbEntity
  8
11
100
AcDbLine
 10
452.0
 20
12.0
 30
0.0
 11
452.0
 21
0.0
 31
0.0
  0
TEXT
  5
32
330
12B
100
AcDbEntity
  8
11
100
AcDbText
 10
454.0
 20
8.5
 30
0.0
 40
2.5
  1
尺度
100
AcDbText
  0
TEXT
  5
33
330
12B
100
AcDbEntity
  8
11
100
AcDbText
 10
479.0
 20
8.5
 30
0.0
 40
2.5
  1
図番
100
AcDbText
  0
ENDBLK
  5
34
330
12B
100
AcDbEntity
  8
0
100
AcDbBlockEnd
  0
BLOCK
  5
35
330
12C
100
AcDbEntity
  8
0
100
AcDbBlockBegin
  2
QQ
 70
     0
 10
270.0
 20
0.0
 30
0.0
  3
QQ
  1

  0
LINE
  5
36
330
12C
100
AcDbEntity
  8
11
100
AcDbLine
 10
173.0
 20
36.0
 30
0.0
 11
270.0
 21
36.0
 31
0.0
  0
TEXT
  5
37
330
12C
100
AcDbEntity
  8
11
100
AcDbText
 10
175.0
 20
32.5
 30
0.0
 40
2.5
  1
部品名称
100
AcDbText
  0
LINE
  5
38
330
12C
100
AcDbEntity
  8
11
100
AcDbLine
 10
173.0
 20
36.0
 30
0.0
 11
173.0
 21
0.0
 31
0.0
  0
LINE
  5
39
330
12C
100
AcDbEntity
  8
11
100
AcDbLine
 10
173.0
 20
24.0
 30
0.0
 11
270.0
 21
24.0
 31
0.0
  0
TEXT
  5
3A
330
12C
100
AcDbEntity
  8
11
100
AcDbText
 10
175.0
 20
20.5
 30
0.0
 40
2.5
  1
品番
100
AcDbText
  0
LINE
  5
3B
330
12C
100
AcDbEntity
  8
11
100
AcDbLine
 10
173.0
 20
12.0
 30
0.0
 11
270.0
 21
12.0
 31
0.0
  0
TEXT
  5
3C
330
12C
100
AcDbEntity
  8
11
100
AcDbText
 10
175.0
 20
8.5
 30
0.0
 40
2.5
  1
尺度
100
AcDbText
  0
TEXT
  5
3D
330
12C
100
AcDbEntity
  8
11
100
AcDbText
 10
200.0
 20
8.5
 30
0.0
 40
2.5
  1
図番
100
AcDbText
  0
LINE
  5
3E
330
12C
100
AcDbEntity
  8
11
100
AcDbLine
 10
198.0
 20
0.0
 30
0.0
 11
198.0
 21
12.0
 31
0.0
  0
ENDBLK
  5
3F
330
12C
100
AcDbEntity
  8
0
100
AcDbBlockEnd
  0
BLOCK
  5
14E
330
143
100
AcDbEntity
  8
0
100
AcDbBlockBegin
  2
*D2
 70
     1
 10
0.0
 20
0.0
 30
0.0
  3
*D2
  1

  0
LINE
  5
144
330
143
100
AcDbEntity
  8
0
  6
ByBlock
 62
     0
100
AcDbLine
 10
113.25
 20
259.0
 30
0.0
 11
227.4999999999999
 21
259.0
 31
0.0
  0
LINE
  5
145
330
143
100
AcDbEntity
  8
0
  6
ByBlock
 62
     0
100
AcDbLine
 10
113.25
 20
59.0
 30
0.0
 11
227.4999999999999
 21
59.0
 31
0.0
  0
LINE
  5
146
330
143
100
AcDbEntity
  8
0
  6
ByBlock
 62
     0
100
AcDbLine
 10
226.5
 20
257.0
 30
0.0
 11
226.5
 21
163.756667
 31
0.0
  0
LINE
  5
147
330
143
100
AcDbEntity
  8
0
  6
ByBlock
 62
     0
100
AcDbLine
 10
226.5
 20
61.0
 30
0.0
 11
226.5
 21
154.243333
 31
0.0
  0
SOLID
  5
148
330
143
100
AcDbEntity
  8
0
  6
ByBlock
 62
     0
100
AcDbTrace
 10
226.1666669999999
 20
257.0
 30
0.0
 11
226.833333
 21
257.0
 31
0.0
 12
226.5
 22
259.0
 32
0.0
 13
226.5
 23
259.0
 33
0.0
  0
SOLID
  5
149
330
143
100
AcDbEntity
  8
0
  6
ByBlock
 62
     0
100
AcDbTrace
 10
226.1666669999999
 20
61.0
 30
0.0
 11
226.833333
 21
61.0
 31
0.0
 12
226.5
 22
59.0
 32
0.0
 13
226.5
 23
59.0
 33
0.0
  0
MTEXT
  5
14A
330
143
100
AcDbEntity
  8
0
  6
ByBlock
 62
     0
100
AcDbMText
 10
226.5
 20
159.0
 30
0.0
 40
4.0
 41
0.0
 71
     5
 72
     5
  1
\A1;200
 11
0.0
 21
1.0
 31
0.0
 73
     1
 44
1.0
  0
POINT
  5
14B
330
143
100
AcDbEntity
  8
DEFPOINTS
  6
ByBlock
 62
     0
100
AcDbPoint
 10
111.25
 20
259.0
 30
0.0
  0
POINT
  5
14C
330
143
100
AcDbEntity
  8
DEFPOINTS
  6
ByBlock
 62
     0
100
AcDbPoint
 10
111.25
 20
59.0
 30
0.0
  0
POINT
  5
14D
330
143
100
AcDbEntity
  8
DEFPOINTS
  6
ByBlock
 62
     0
100
AcDbPoint
 10
226.5
 20
59.0
 30
0.0
  0
ENDBLK
  5
14F
330
143
100
AcDbEntity
  8
0
100
AcDbBlockEnd
  0
BLOCK
  5
15B
330
150
100
AcDbEntity
  8
0
100
AcDbBlockBegin
  2
*D3
 70
     1
 10
0.0
 20
0.0
 30
0.0
  3
*D3
  1

  0
LINE
  5
151
330
150
100
AcDbEntity
  8
0
  6
ByBlock
 62
     0
100
AcDbLine
 10
272.5
 20
249.5
 30
0.0
 11
272.5
 21
277.0009229999999
 31
0.0
  0
LINE
  5
152
330
150
100
AcDbEntity
  8
0
  6
ByBlock
 62
     0
100
AcDbLine
 10
326.5
 20
178.0
 30
0.0
 11
326.5
 21
277.0009229999999
 31
0.0
  0
LINE
  5
153
330
150
100
AcDbEntity
  8
0
  6
ByBlock
 62
     0
100
AcDbLine
 10
274.5
 20
276.000923
 30
0.0
 11
296.5020649999999
 21
276.000923
 31
0.0
  0
LINE
  5
154
330
150
100
AcDbEntity
  8
0
  6
ByBlock
 62
     0
100
AcDbLine
 10
324.5
 20
276.000923
 30
0.0
 11
303.3487319999999
 21
276.000923
 31
0.0
  0
SOLID
  5
155
330
150
100
AcDbEntity
  8
0
  6
ByBlock
 62
     0
100
AcDbTrace
 10
274.5
 20
276.3342559999999
 30
0.0
 11
274.5
 21
275.667589
 31
0.0
 12
272.5
 22
276.000923
 32
0.0
 13
272.5
 23
276.000923
 33
0.0
  0
SOLID
  5
156
330
150
100
AcDbEntity
  8
0
  6
ByBlock
 62
     0
100
AcDbTrace
 10
324.5
 20
276.3342559999999
 30
0.0
 11
324.5
 21
275.667589
 31
0.0
 12
326.5
 22
276.000923
 32
0.0
 13
326.5
 23
276.000923
 33
0.0
  0
MTEXT
  5
157
330
150
100
AcDbEntity
  8
0
  6
ByBlock
 62
     0
100
AcDbMText
 10
299.9253979999999
 20
276.000923
 30
0.0
 40
4.0
 41
0.0
 71
     5
 72
     5
  1
\A1;54
 73
     1
 44
1.0
  0
POINT
  5
158
330
150
100
AcDbEntity
  8
DEFPOINTS
  6
ByBlock
 62
     0
100
AcDbPoint
 10
272.5
 20
247.5
 30
0.0
  0
POINT
  5
159
330
150
100
AcDbEntity
  8
DEFPOINTS
  6
ByBlock
 62
     0
100
AcDbPoint
 10
326.5
 20
176.0
 30
0.0
  0
POINT
  5
15A
330
150
100
AcDbEntity
  8
DEFPOINTS
  6
ByBlock
 62
     0
100
AcDbPoint
 10
326.5
 20
276.000923
 30
0.0
  0
ENDBLK
  5
15C
330
150
100
AcDbEntity
  8
0
100
AcDbBlockEnd
  0
BLOCK
  5
168
330
15D
100
AcDbEntity
  8
0
100
AcDbBlockBegin
  2
*D4
 70
     1
 10
0.0
 20
0.0
 30
0.0
  3
*D4
  1

  0
LINE
  5
15E
330
15D
100
AcDbEntity
  8
0
  6
ByBlock
 62
     0
100
AcDbLine
 10
272.5
 20
249.5
 30
0.0
 11
272.5
 21
273.1596559999999
 31
0.0
  0
LINE
  5
15F
330
15D
100
AcDbEntity
  8
0
  6
ByBlock
 62
     0
100
AcDbLine
 10
295.5
 20
249.5
 30
0.0
 11
295.5
 21
273.1596559999999
 31
0.0
  0
LINE
  5
160
330
15D
100
AcDbEntity
  8
0
  6
ByBlock
 62
     0
100
AcDbLine
 10
274.5
 20
272.159656
 30
0.0
 11
280.524787
 21
272.159656
 31
0.0
  0
LINE
  5
161
330
15D
100
AcDbEntity
  8
0
  6
ByBlock
 62
     0
100
AcDbLine
 10
293.5
 20
272.159656
 30
0.0
 11
287.3714529999999
 21
272.159656
 31
0.0
  0
SOLID
  5
162
330
15D
100
AcDbEntity
  8
0
  6
ByBlock
 62
     0
100
AcDbTrace
 10
274.5
 20
272.492989
 30
0.0
 11
274.5
 21
271.826322
 31
0.0
 12
272.5
 22
272.159656
 32
0.0
 13
272.5
 23
272.159656
 33
0.0
  0
SOLID
  5
163
330
15D
100
AcDbEntity
  8
0
  6
ByBlock
 62
     0
100
AcDbTrace
 10
293.5
 20
272.492989
 30
0.0
 11
293.5
 21
271.826322
 31
0.0
 12
295.5
 22
272.159656
 32
0.0
 13
295.5
 23
272.159656
 33
0.0
  0
MTEXT
  5
164
330
15D
100
AcDbEntity
  8
0
  6
ByBlock
 62
     0
100
AcDbMText
 10
283.94812
 20
272.159656
 30
0.0
 40
4.0
 41
0.0
 71
     5
 72
     5
  1
\A1;23
 73
     1
 44
1.0
  0
POINT
  5
165
330
15D
100
AcDbEntity
  8
DEFPOINTS
  6
ByBlock
 62
     0
100
AcDbPoint
 10
272.5
 20
247.5
 30
0.0
  0
POINT
  5
166
330
15D
100
AcDbEntity
  8
DEFPOINTS
  6
ByBlock
 62
     0
100
AcDbPoint
 10
295.5
 20
247.5
 30
0.0
  0
POINT
  5
167
330
15D
100
AcDbEntity
  8
DEFPOINTS
  6
ByBlock
 62
     0
100
AcDbPoint
 10
295.5
 20
272.159656
 30
0.0
  0
ENDBLK
  5
169
330
15D
100
AcDbEntity
  8
0
100
AcDbBlockEnd
  0
BLOCK
  5
175
330
16A
100
AcDbEntity
  8
0
100
AcDbBlockBegin
  2
*D5
 70
     1
 10
0.0
 20
0.0
 30
0.0
  3
*D5
  1

  0
LINE
  5
16B
330
16A
100
AcDbEntity
  8
0
  6
ByBlock
 62
     0
100
AcDbLine
 10
309.5
 20
183.0
 30
0.0
 11
309.5
 21
208.09391
 31
0.0
  0
LINE
  5
16C
330
16A
100
AcDbEntity
  8
0
  6
ByBlock
 62
     0
100
AcDbLine
 10
326.5
 20
178.0
 30
0.0
 11
326.5
 21
208.09391
 31
0.0
  0
LINE
  5
16D
330
16A
100
AcDbEntity
  8
0
  6
ByBlock
 62
     0
100
AcDbLine
 10
311.5
 20
207.09391
 30
0.0
 11
315.5507549999999
 21
207.09391
 31
0.0
  0
LINE
  5
16E
330
16A
100
AcDbEntity
  8
0
  6
ByBlock
 62
     0
100
AcDbLine
 10
324.5
 20
207.09391
 30
0.0
 11
321.064089
 21
207.09391
 31
0.0
  0
SOLID
  5
16F
330
16A
100
AcDbEntity
  8
0
  6
ByBlock
 62
     0
100
AcDbTrace
 10
311.5
 20
207.427244
 30
0.0
 11
311.5
 21
206.760577
 31
0.0
 12
309.5
 22
207.09391
 32
0.0
 13
309.5
 23
207.09391
 33
0.0
  0
SOLID
  5
170
330
16A
100
AcDbEntity
  8
0
  6
ByBlock
 62
     0
100
AcDbTrace
 10
324.5
 20
207.427244
 30
0.0
 11
324.5
 21
206.760577
 31
0.0
 12
326.5
 22
207.09391
 32
0.0
 13
326.5
 23
207.09391
 33
0.0
  0
MTEXT
  5
171
330
16A
100
AcDbEntity
  8
0
  6
ByBlock
 62
     0
100
AcDbMText
 10
318.307422
 20
207.09391
 30
0.0
 40
4.0
 41
0.0
 71
     5
 72
     5
  1
\A1;17
 73
     1
 44
1.0
  0
POINT
  5
172
330
16A
100
AcDbEntity
  8
DEFPOINTS
  6
ByBlock
 62
     0
100
AcDbPoint
 10
309.5
 20
181.0
 30
0.0
  0
POINT
  5
173
330
16A
100
AcDbEntity
  8
DEFPOINTS
  6
ByBlock
 62
     0
100
AcDbPoint
 10
326.5
 20
176.0
 30
0.0
  0
POINT
  5
174
330
16A
100
AcDbEntity
  8
DEFPOINTS
  6
ByBlock
 62
     0
100
AcDbPoint
 10
326.5
 20
207.09391
 30
0.0
  0
ENDBLK
  5
176
330
16A
100
AcDbEntity
  8
0
100
AcDbBlockEnd
  0
BLOCK
  5
182
330
177
100
AcDbEntity
  8
0
100
AcDbBlockBegin
  2
*D6
 70
     1
 10
0.0
 20
0.0
 30
0.0
  3
*D6
  1

  0
LINE
  5
178
330
177
100
AcDbEntity
  8
0
  6
ByBlock
 62
     0
100
AcDbLine
 10
325.4999999999999
 20
179.0
 30
0.0
 11
343.204054
 21
179.0
 31
0.0
  0
LINE
  5
179
330
177
100
AcDbEntity
  8
0
  6
ByBlock
 62
     0
100
AcDbLine
 10
325.4999999999999
 20
139.0
 30
0.0
 11
343.204054
 21
139.0
 31
0.0
  0
LINE
  5
17A
330
177
100
AcDbEntity
  8
0
  6
ByBlock
 62
     0
100
AcDbLine
 10
342.2040539999999
 20
177.0
 30
0.0
 11
342.2040539999999
 21
160.570861
 31
0.0
  0
LINE
  5
17B
330
177
100
AcDbEntity
  8
0
  6
ByBlock
 62
     0
100
AcDbLine
 10
342.2040539999999
 20
141.0
 30
0.0
 11
342.2040539999999
 21
154.390861
 31
0.0
  0
SOLID
  5
17C
330
177
100
AcDbEntity
  8
0
  6
ByBlock
 62
     0
100
AcDbTrace
 10
341.87072
 20
177.0
 30
0.0
 11
342.537387
 21
177.0
 31
0.0
 12
342.2040539999999
 22
179.0
 32
0.0
 13
342.2040539999999
 23
179.0
 33
0.0
  0
SOLID
  5
17D
330
177
100
AcDbEntity
  8
0
  6
ByBlock
 62
     0
100
AcDbTrace
 10
341.87072
 20
141.0
 30
0.0
 11
342.537387
 21
141.0
 31
0.0
 12
342.2040539999999
 22
139.0
 32
0.0
 13
342.2040539999999
 23
139.0
 33
0.0
  0
MTEXT
  5
17E
330
177
100
AcDbEntity
  8
0
  6
ByBlock
 62
     0
100
AcDbMText
 10
342.2040539999999
 20
157.480861
 30
0.0
 40
4.0
 41
0.0
 71
     5
 72
     5
  1
\A1;40
 11
0.0
 21
1.0
 31
0.0
 73
     1
 44
1.0
  0
POINT
  5
17F
330
177
100
AcDbEntity
  8
DEFPOINTS
  6
ByBlock
 62
     0
100
AcDbPoint
 10
323.4999999999999
 20
179.0
 30
0.0
  0
POINT
  5
180
330
177
100
AcDbEntity
  8
DEFPOINTS
  6
ByBlock
 62
     0
100
AcDbPoint
 10
323.4999999999999
 20
139.0
 30
0.0
  0
POINT
  5
181
330
177
100
AcDbEntity
  8
DEFPOINTS
  6
ByBlock
 62
     0
100
AcDbPoint
 10
342.2040539999999
 20
139.0
 30
0.0
  0
ENDBLK
  5
183
330
177
100
AcDbEntity
  8
0
100
AcDbBlockEnd
  0
BLOCK
  5
18D
330
184
100
AcDbEntity
  8
0
100
AcDbBlockBegin
  2
*D7
 70
     1
 10
0.0
 20
0.0
 30
0.0
  3
*D7
  1

  0
LINE
  5
185
330
184
100
AcDbEntity
  8
0
  6
ByBlock
 62
     0
100
AcDbLine
 10
339.507088
 20
190.559211
 30
0.0
 11
337.5070879999999
 21
190.559211
 31
0.0
  0
LINE
  5
186
330
184
100
AcDbEntity
  8
0
  6
ByBlock
 62
     0
100
AcDbLine
 10
337.5070879999999
 20
190.559211
 30
0.0
 11
325.5799319999999
 21
178.1619169999999
 31
0.0
  0
MTEXT
  5
187
330
184
100
AcDbEntity
  8
0
  6
ByBlock
 62
     0
100
AcDbMText
 10
342.930421
 20
190.559211
 30
0.0
 40
4.0
 41
0.0
 71
     5
 72
     5
  1
\A1;R3
 73
     1
 44
1.0
  0
SOLID
  5
188
330
184
100
AcDbEntity
  8
0
  6
ByBlock
 62
     0
100
AcDbTrace
 10
326.72634
 20
179.8342979999999
 30
0.0
 11
327.206766
 21
179.3720909999999
 31
0.0
 12
325.5799319999999
 22
178.1619169999999
 32
0.0
 13
325.5799319999999
 23
178.1619169999999
 33
0.0
  0
LINE
  5
189
330
184
100
AcDbEntity
  8
0
  6
ByBlock
 62
     0
100
AcDbLine
 10
323.41
 20
176.0
 30
0.0
 11
323.5899999999999
 21
176.0
 31
0.0
  0
LINE
  5
18A
330
184
100
AcDbEntity
  8
0
  6
ByBlock
 62
     0
100
AcDbLine
 10
323.4999999999999
 20
175.91
 30
0.0
 11
323.4999999999999
 21
176.09
 31
0.0
  0
POINT
  5
18B
330
184
100
AcDbEntity
  8
DEFPOINTS
  6
ByBlock
 62
     0
100
AcDbPoint
 10
325.5799319999999
 20
178.1619169999999
 30
0.0
  0
POINT
  5
18C
330
184
100
AcDbEntity
  8
DEFPOINTS
  6
ByBlock
 62
     0
100
AcDbPoint
 10
323.4999999999999
 20
176.0
 30
0.0
  0
ENDBLK
  5
18E
330
184
100
AcDbEntity
  8
0
100
AcDbBlockEnd
  0
BLOCK
  5
19A
330
18F
100
AcDbEntity
  8
0
100
AcDbBlockBegin
  2
*D8
 70
     1
 10
0.0
 20
0.0
 30
0.0
  3
*D8
  1

  0
LINE
  5
190
330
18F
100
AcDbEntity
  8
0
  6
ByBlock
 62
     0
100
AcDbLine
 10
286.5
 20
179.0
 30
0.0
 11
286.5
 21
217.5
 31
0.0
  0
LINE
  5
191
330
18F
100
AcDbEntity
  8
0
  6
ByBlock
 62
     0
100
AcDbLine
 10
326.5
 20
178.0
 30
0.0
 11
326.5
 21
217.5
 31
0.0
  0
LINE
  5
192
330
18F
100
AcDbEntity
  8
0
  6
ByBlock
 62
     0
100
AcDbLine
 10
288.5
 20
216.5
 30
0.0
 11
303.91
 21
216.5
 31
0.0
  0
LINE
  5
193
330
18F
100
AcDbEntity
  8
0
  6
ByBlock
 62
     0
100
AcDbLine
 10
324.5
 20
216.5
 30
0.0
 11
310.0899999999999
 21
216.5
 31
0.0
  0
SOLID
  5
194
330
18F
100
AcDbEntity
  8
0
  6
ByBlock
 62
     0
100
AcDbTrace
 10
288.5
 20
216.833333
 30
0.0
 11
288.5
 21
216.1666669999999
 31
0.0
 12
286.5
 22
216.5
 32
0.0
 13
286.5
 23
216.5
 33
0.0
  0
SOLID
  5
195
330
18F
100
AcDbEntity
  8
0
  6
ByBlock
 62
     0
100
AcDbTrace
 10
324.5
 20
216.833333
 30
0.0
 11
324.5
 21
216.1666669999999
 31
0.0
 12
326.5
 22
216.5
 32
0.0
 13
326.5
 23
216.5
 33
0.0
  0
MTEXT
  5
196
330
18F
100
AcDbEntity
  8
0
  6
ByBlock
 62
     0
100
AcDbMText
 10
307.0
 20
216.5
 30
0.0
 40
4.0
 41
0.0
 71
     5
 72
     5
  1
\A1;40
 73
     1
 44
1.0
  0
POINT
  5
197
330
18F
100
AcDbEntity
  8
DEFPOINTS
  6
ByBlock
 62
     0
100
AcDbPoint
 10
286.5
 20
177.0
 30
0.0
  0
POINT
  5
198
330
18F
100
AcDbEntity
  8
DEFPOINTS
  6
ByBlock
 62
     0
100
AcDbPoint
 10
326.5
 20
176.0
 30
0.0
  0
POINT
  5
199
330
18F
100
AcDbEntity
  8
DEFPOINTS
  6
ByBlock
 62
     0
100
AcDbPoint
 10
326.5
 20
216.5
 30
0.0
  0
ENDBLK
  5
19B
330
18F
100
AcDbEntity
  8
0
100
AcDbBlockEnd
  0
BLOCK
  5
1A7
330
19C
100
AcDbEntity
  8
0
100
AcDbBlockBegin
  2
*D9
 70
     1
 10
0.0
 20
0.0
 30
0.0
  3
*D9
  1

  0
LINE
  5
19D
330
19C
100
AcDbEntity
  8
0
  6
ByBlock
 62
     0
100
AcDbLine
 10
292.0
 20
159.0
 30
0.0
 11
247.0
 21
159.0
 31
0.0
  0
LINE
  5
19E
330
19C
100
AcDbEntity
  8
0
  6
ByBlock
 62
     0
100
AcDbLine
 10
292.3895529999999
 20
243.0
 30
0.0
 11
247.0
 21
243.0
 31
0.0
  0
LINE
  5
19F
330
19C
100
AcDbEntity
  8
0
  6
ByBlock
 62
     0
100
AcDbLine
 10
248.0
 20
161.0
 30
0.0
 11
248.0
 21
197.5766669999999
 31
0.0
  0
LINE
  5
1A0
330
19C
100
AcDbEntity
  8
0
  6
ByBlock
 62
     0
100
AcDbLine
 10
248.0
 20
241.0
 30
0.0
 11
248.0
 21
204.4233329999999
 31
0.0
  0
SOLID
  5
1A1
330
19C
100
AcDbEntity
  8
0
  6
ByBlock
 62
     0
100
AcDbTrace
 10
247.6666669999999
 20
161.0
 30
0.0
 11
248.333333
 21
161.0
 31
0.0
 12
248.0
 22
159.0
 32
0.0
 13
248.0
 23
159.0
 33
0.0
  0
SOLID
  5
1A2
330
19C
100
AcDbEntity
  8
0
  6
ByBlock
 62
     0
100
AcDbTrace
 10
247.6666669999999
 20
241.0
 30
0.0
 11
248.333333
 21
241.0
 31
0.0
 12
248.0
 22
243.0
 32
0.0
 13
248.0
 23
243.0
 33
0.0
  0
MTEXT
  5
1A3
330
19C
100
AcDbEntity
  8
0
  6
ByBlock
 62
     0
100
AcDbMText
 10
248.0
 20
201.0
 30
0.0
 40
4.0
 41
0.0
 71
     5
 72
     5
  1
\A1;84
 11
0.0
 21
1.0
 31
0.0
 73
     1
 44
1.0
  0
POINT
  5
1A4
330
19C
100
AcDbEntity
  8
DEFPOINTS
  6
ByBlock
 62
     0
100
AcDbPoint
 10
294.0
 20
159.0
 30
0.0
  0
POINT
  5
1A5
330
19C
100
AcDbEntity
  8
DEFPOINTS
  6
ByBlock
 62
     0
100
AcDbPoint
 10
294.3895529999999
 20
243.0
 30
0.0
  0
POINT
  5
1A6
330
19C
100
AcDbEntity
  8
DEFPOINTS
  6
ByBlock
 62
     0
100
AcDbPoint
 10
248.0
 20
243.0
 30
0.0
  0
ENDBLK
  5
1A8
330
19C
100
AcDbEntity
  8
0
100
AcDbBlockEnd
  0
BLOCK
  5
1B5
330
1A9
100
AcDbEntity
  8
0
100
AcDbBlockBegin
  2
*D10
 70
     1
 10
0.0
 20
0.0
 30
0.0
  3
*D10
  1

  0
LINE
  5
1AA
330
1A9
100
AcDbEntity
  8
0
  6
ByBlock
 62
     0
100
AcDbLine
 10
312.5
 20
177.0
 30
0.0
 11
265.923333
 21
177.0
 31
0.0
  0
LINE
  5
1AB
330
1A9
100
AcDbEntity
  8
0
  6
ByBlock
 62
     0
100
AcDbLine
 10
312.5
 20
141.0
 30
0.0
 11
265.923333
 21
141.0
 31
0.0
  0
LINE
  5
1AC
330
1A9
100
AcDbEntity
  8
0
  6
ByBlock
 62
     0
100
AcDbLine
 10
266.923333
 20
175.0
 30
0.0
 11
266.923333
 21
143.0
 31
0.0
  0
LINE
  5
1AD
330
1A9
100
AcDbEntity
  8
0
  6
ByBlock
 62
     0
100
AcDbLine
 10
266.923333
 20
141.0
 30
0.0
 11
266.923333
 21
132.0
 31
0.0
  0
LINE
  5
1AE
330
1A9
100
AcDbEntity
  8
0
  6
ByBlock
 62
     0
100
AcDbLine
 10
266.923333
 20
132.0
 30
0.0
 11
264.923333
 21
132.0
 31
0.0
  0
SOLID
  5
1AF
330
1A9
100
AcDbEntity
  8
0
  6
ByBlock
 62
     0
100
AcDbTrace
 10
266.5899999999999
 20
175.0
 30
0.0
 11
267.256667
 21
175.0
 31
0.0
 12
266.923333
 22
177.0
 32
0.0
 13
266.923333
 23
177.0
 33
0.0
  0
SOLID
  5
1B0
330
1A9
100
AcDbEntity
  8
0
  6
ByBlock
 62
     0
100
AcDbTrace
 10
266.5899999999999
 20
143.0
 30
0.0
 11
267.256667
 21
143.0
 31
0.0
 12
266.923333
 22
141.0
 32
0.0
 13
266.923333
 23
141.0
 33
0.0
  0
MTEXT
  5
1B1
330
1A9
100
AcDbEntity
  8
0
  6
ByBlock
 62
     0
100
AcDbMText
 10
261.5
 20
132.0
 30
0.0
 40
4.0
 41
0.0
 71
     5
 72
     5
  1
\A1;36
 73
     1
 44
1.0
  0
POINT
  5
1B2
330
1A9
100
AcDbEntity
  8
DEFPOINTS
  6
ByBlock
 62
     0
100
AcDbPoint
 10
314.5
 20
177.0
 30
0.0
  0
POINT
  5
1B3
330
1A9
100
AcDbEntity
  8
DEFPOINTS
  6
ByBlock
 62
     0
100
AcDbPoint
 10
314.5
 20
141.0
 30
0.0
  0
POINT
  5
1B4
330
1A9
100
AcDbEntity
  8
DEFPOINTS
  6
ByBlock
 62
     0
100
AcDbPoint
 10
266.923333
 20
141.0
 30
0.0
  0
ENDBLK
  5
1B6
330
1A9
100
AcDbEntity
  8
0
100
AcDbBlockEnd
  0
BLOCK
  5
1C3
330
1B7
100
AcDbEntity
  8
0
100
AcDbBlockBegin
  2
*D11
 70
     1
 10
0.0
 20
0.0
 30
0.0
  3
*D11
  1

  0
LINE
  5
1B8
330
1B7
100
AcDbEntity
  8
0
  6
ByBlock
 62
     0
100
AcDbLine
 10
299.0616499999999
 20
251.0499999999999
 30
0.0
 11
263.243333
 21
251.0499999999999
 31
0.0
  0
LINE
  5
1B9
330
1B7
100
AcDbEntity
  8
0
  6
ByBlock
 62
     0
100
AcDbLine
 10
298.4999999999999
 20
234.9499999999999
 30
0.0
 11
263.243333
 21
234.9499999999999
 31
0.0
  0
LINE
  5
1BA
330
1B7
100
AcDbEntity
  8
0
  6
ByBlock
 62
     0
100
AcDbLine
 10
264.243333
 20
236.9499999999999
 30
0.0
 11
264.243333
 21
249.05
 31
0.0
  0
LINE
  5
1BB
330
1B7
100
AcDbEntity
  8
0
  6
ByBlock
 62
     0
100
AcDbLine
 10
264.243333
 20
251.0499999999999
 30
0.0
 11
264.243333
 21
260.4999999999999
 31
0.0
  0
LINE
  5
1BC
330
1B7
100
AcDbEntity
  8
0
  6
ByBlock
 62
     0
100
AcDbLine
 10
264.243333
 20
260.4999999999999
 30
0.0
 11
266.243333
 21
260.4999999999999
 31
0.0
  0
SOLID
  5
1BD
330
1B7
100
AcDbEntity
  8
0
  6
ByBlock
 62
     0
100
AcDbTrace
 10
263.91
 20
236.9499999999999
 30
0.0
 11
264.5766669999999
 21
236.9499999999999
 31
0.0
 12
264.243333
 22
234.9499999999999
 32
0.0
 13
264.243333
 23
234.9499999999999
 33
0.0
  0
SOLID
  5
1BE
330
1B7
100
AcDbEntity
  8
0
  6
ByBlock
 62
     0
100
AcDbTrace
 10
263.91
 20
249.05
 30
0.0
 11
264.5766669999999
 21
249.05
 31
0.0
 12
264.243333
 22
251.0499999999999
 32
0.0
 13
264.243333
 23
251.0499999999999
 33
0.0
  0
MTEXT
  5
1BF
330
1B7
100
AcDbEntity
  8
0
  6
ByBlock
 62
     0
100
AcDbMText
 10
271.0
 20
260.4999999999999
 30
0.0
 40
4.0
 41
0.0
 71
     5
 72
     5
  1
\A1;16.1
 73
     1
 44
1.0
  0
POINT
  5
1C0
330
1B7
100
AcDbEntity
  8
DEFPOINTS
  6
ByBlock
 62
     0
100
AcDbPoint
 10
301.0616499999999
 20
251.0499999999999
 30
0.0
  0
POINT
  5
1C1
330
1B7
100
AcDbEntity
  8
DEFPOINTS
  6
ByBlock
 62
     0
100
AcDbPoint
 10
300.4999999999999
 20
234.9499999999999
 30
0.0
  0
POINT
  5
1C2
330
1B7
100
AcDbEntity
  8
DEFPOINTS
  6
ByBlock
 62
     0
100
AcDbPoint
 10
264.243333
 20
234.9499999999999
 30
0.0
  0
ENDBLK
  5
1C4
330
1B7
100
AcDbEntity
  8
0
100
AcDbBlockEnd
  0
BLOCK
  5
1D0
330
1C5
100
AcDbEntity
  8
0
100
AcDbBlockBegin
  2
*D12
 70
     1
 10
0.0
 20
0.0
 30
0.0
  3
*D12
  1

  0
LINE
  5
1C6
330
1C5
100
AcDbEntity
  8
0
  6
ByBlock
 62
     0
100
AcDbLine
 10
300.4999999999999
 20
249.5
 30
0.0
 11
300.4999999999999
 21
268.0
 31
0.0
  0
LINE
  5
1C7
330
1C5
100
AcDbEntity
  8
0
  6
ByBlock
 62
     0
100
AcDbLine
 10
302.4995529999999
 20
253.0499999999999
 30
0.0
 11
302.4995529999999
 21
268.0
 31
0.0
  0
LINE
  5
1C8
330
1C5
100
AcDbEntity
  8
0
  6
ByBlock
 62
     0
100
AcDbLine
 10
304.499553
 20
267.0
 30
0.0
 11
306.499553
 21
267.0
 31
0.0
  0
LINE
  5
1C9
330
1C5
100
AcDbEntity
  8
0
  6
ByBlock
 62
     0
100
AcDbLine
 10
298.4999999999999
 20
267.0
 30
0.0
 11
293.923333
 21
267.0
 31
0.0
  0
SOLID
  5
1CA
330
1C5
100
AcDbEntity
  8
0
  6
ByBlock
 62
     0
100
AcDbTrace
 10
304.499553
 20
267.3333329999999
 30
0.0
 11
304.499553
 21
266.666667
 31
0.0
 12
302.4995529999999
 22
267.0
 32
0.0
 13
302.4995529999999
 23
267.0
 33
0.0
  0
SOLID
  5
1CB
330
1C5
100
AcDbEntity
  8
0
  6
ByBlock
 62
     0
100
AcDbTrace
 10
298.4999999999999
 20
267.3333329999999
 30
0.0
 11
298.4999999999999
 21
266.666667
 31
0.0
 12
300.4999999999999
 22
267.0
 32
0.0
 13
300.4999999999999
 23
267.0
 33
0.0
  0
MTEXT
  5
1CC
330
1C5
100
AcDbEntity
  8
0
  6
ByBlock
 62
     0
100
AcDbMText
 10
292.5
 20
267.0
 30
0.0
 40
4.0
 41
0.0
 71
     5
 72
     5
  1
\A1;2
 73
     1
 44
1.0
  0
POINT
  5
1CD
330
1C5
100
AcDbEntity
  8
DEFPOINTS
  6
ByBlock
 62
     0
100
AcDbPoint
 10
300.4999999999999
 20
247.5
 30
0.0
  0
POINT
  5
1CE
330
1C5
100
AcDbEntity
  8
DEFPOINTS
  6
ByBlock
 62
     0
100
AcDbPoint
 10
302.4995529999999
 20
251.0499999999999
 30
0.0
  0
POINT
  5
1CF
330
1C5
100
AcDbEntity
  8
DEFPOINTS
  6
ByBlock
 62
     0
100
AcDbPoint
 10
302.4995529999999
 20
267.0
 30
0.0
  0
ENDBLK
  5
1D1
330
1C5
100
AcDbEntity
  8
0
100
AcDbBlockEnd
  0
BLOCK
  5
281
330
1D7
100
AcDbEntity
  8
0
100
AcDbBlockBegin
  2
A$C61FB467F
 70
     0
 10
0.0
 20
0.0
 30
0.0
  3
A$C61FB467F
  1

  0
ARC
  5
1D8
330
1D7
100
AcDbEntity
  8
3
100
AcDbCircle
 10
106.0
 20
107.0
 30
0.0
 40
88.49999999999999
100
AcDbArc
 50
270.0
 51
88.551663
  0
DIMENSION
  5
1D9
330
1D7
100
AcDbEntity
  8
0
100
AcDbDimension
  2
*D2
 10
221.2499999999999
 20
7.0
 30
0.0
 11
221.2499999999999
 21
107.0
 31
0.0
 12
-5.25
 22
-52.0
 32
0.0
 70
   128
 71
     5
 42
-1.0
  3
STANDARD
100
AcDbAlignedDimension
 13
106.0
 23
207.0
 33
0.0
 14
106.0
 24
7.0
 34
0.0
 50
90.0
100
AcDbRotatedDimension
1001
ACAD
1000
DSTYLE
1002
{
1070
    78
1070
     8
1070
   288
1070
     1
1070
   284
1070
     8
1070
   140
1040
4.0
1070
    73
1070
     0
1070
   272
1070
     2
1070
    42
1040
2.0
1070
    44
1040
1.0
1070
   271
1070
     2
1070
    41
1040
2.0
1002
}
  0
ARC
  5
1DA
330
1D7
100
AcDbEntity
  8
3
100
AcDbCircle
 10
106.0
 20
107.0
 30
0.0
 40
79.0
100
AcDbArc
 50
337.637863
 51
82.362137
  0
LINE
  5
1DB
330
1D7
100
AcDbEntity
  8
1
100
AcDbLine
 10
198.664718
 20
53.5
 30
0.0
 11
106.0
 21
107.0
 31
0.0
  0
LINE
  5
1DC
330
1D7
100
AcDbEntity
  8
1
100
AcDbLine
 10
106.0
 20
107.0
 30
0.0
 11
213.5
 21
107.0
 31
0.0
  0
CIRCLE
  5
1DD
330
1D7
100
AcDbEntity
  8
3
100
AcDbCircle
 10
106.0
 20
107.0
 30
0.0
 40
100.0
  0
ARC
  5
1DE
330
1D7
100
AcDbEntity
  8
3
100
AcDbCircle
 10
106.0
 20
107.0
 30
0.0
 40
20.0
100
AcDbArc
 50
270.0
 51
90.0
  0
ARC
  5
1DF
330
1D7
100
AcDbEntity
  8
3
100
AcDbCircle
 10
106.0
 20
107.0
 30
0.0
 40
21.75522
100
AcDbArc
 50
270.0
 51
90.0
  0
TEXT
  5
1E0
330
1D7
100
AcDbEntity
  8
3
100
AcDbText
 10
137.4531029999999
 20
85.96442299999999
 30
0.0
 40
5.0
  1
P/PN-200
 50
330.0
 41
0.8
  7
BIGFONT
100
AcDbText
  0
ARC
  5
1E1
330
1D7
100
AcDbEntity
  8
3
100
AcDbCircle
 10
118.887019
 20
86.50931599999999
 30
0.0
 40
1.916091999999999
100
AcDbArc
 50
107.197112
 51
171.3653159999999
  0
ARC
  5
1E2
330
1D7
100
AcDbEntity
  8
3
100
AcDbCircle
 10
104.5521549999999
 20
107.8359129999999
 30
0.0
 40
23.86772
100
AcDbArc
 50
305.23005
 51
354.76995
  0
ARC
  5
1E3
330
1D7
100
AcDbEntity
  8
3
100
AcDbCircle
 10
107.4478439999999
 20
107.8359129999999
 30
0.0
 40
23.86772
100
AcDbArc
 50
185.23005
 51
234.76995
  0
ARC
  5
1E4
330
1D7
100
AcDbEntity
  8
3
100
AcDbCircle
 10
93.11298
 20
86.50931599999999
 30
0.0
 40
1.916091999999999
100
AcDbArc
 50
8.634684
 51
72.802888
  0
LINE
  5
1E5
330
1D7
100
AcDbEntity
  8
1
100
AcDbLine
 10
13.335282
 20
53.5
 30
0.0
 11
106.0
 21
107.0
 31
0.0
  0
LINE
  5
1E6
330
1D7
100
AcDbEntity
  8
3
100
AcDbLine
 10
128.9926449999999
 20
107.5815959999999
 30
0.0
 11
179.0590149999999
 21
76.943714
 31
0.0
  0
LINE
  5
1E7
330
1D7
100
AcDbEntity
  8
3
100
AcDbLine
 10
83.007354
 20
107.5815959999999
 30
0.0
 11
32.940985
 21
76.943714
 31
0.0
  0
ARC
  5
1E8
330
1D7
100
AcDbEntity
  8
3
100
AcDbCircle
 10
106.0
 20
107.0
 30
0.0
 40
21.0
100
AcDbArc
 50
90.0
 51
270.0
  0
LINE
  5
1E9
330
1D7
100
AcDbEntity
  8
1
100
AcDbLine
 10
106.0
 20
107.0
 30
0.0
 11
106.0
 21
0.0
 31
0.0
  0
ARC
  5
1EA
330
1D7
100
AcDbEntity
  8
3
100
AcDbCircle
 10
106.0
 20
107.0
 30
0.0
 40
79.0
100
AcDbArc
 50
97.63786299999999
 51
202.362137
  0
ARC
  5
1EB
330
1D7
100
AcDbEntity
  8
3
100
AcDbCircle
 10
106.0
 20
107.0
 30
0.0
 40
88.49999999999999
100
AcDbArc
 50
100.415834
 51
270.0
  0
ARC
  5
1EC
330
1D7
100
AcDbEntity
  8
3
100
AcDbCircle
 10
106.0
 20
107.0
 30
0.0
 40
79.0
100
AcDbArc
 50
217.637863
 51
322.362137
  0
LINE
  5
1ED
330
1D7
100
AcDbEntity
  8
3
100
AcDbLine
 10
95.00735400000001
 20
86.79698700000001
 30
0.0
 11
43.440985
 21
58.75718
 31
0.0
  0
ARC
  5
1EE
330
1D7
100
AcDbEntity
  8
3
100
AcDbCircle
 10
84.82014000000001
 20
94.77180200000001
 30
0.0
 40
56.061976
100
AcDbArc
 50
200.503
 51
219.497
  0
ARC
  5
1EF
330
1D7
100
AcDbEntity
  8
3
100
AcDbCircle
 10
33.991038
 20
75.56265899999999
 30
0.0
 40
1.734913
100
AcDbArc
 50
127.246711
 51
194.2455709999999
  0
ARC
  5
1F0
330
1D7
100
AcDbEntity
  8
3
100
AcDbCircle
 10
42.769983
 20
60.35708
 30
0.0
 40
1.734913
100
AcDbArc
 50
225.754429
 51
292.753289
  0
LINE
  5
1F1
330
1D7
100
AcDbEntity
  8
3
100
AcDbLine
 10
116.9926449999999
 20
86.79698700000001
 30
0.0
 11
168.5590149999999
 21
58.75718
 31
0.0
  0
ARC
  5
1F2
330
1D7
100
AcDbEntity
  8
3
100
AcDbCircle
 10
106.0
 20
107.0
 30
0.0
 40
23.0
100
AcDbArc
 50
241.448981
 51
298.5510189999999
  0
ARC
  5
1F3
330
1D7
100
AcDbEntity
  8
3
100
AcDbCircle
 10
127.17986
 20
94.77180200000001
 30
0.0
 40
56.061976
100
AcDbArc
 50
320.5029999999999
 51
339.4969999999999
  0
ARC
  5
1F4
330
1D7
100
AcDbEntity
  8
3
100
AcDbCircle
 10
169.2300159999999
 20
60.35708
 30
0.0
 40
1.734913
100
AcDbArc
 50
247.2467109999999
 51
314.245571
  0
ARC
  5
1F5
330
1D7
100
AcDbEntity
  8
3
100
AcDbCircle
 10
178.008962
 20
75.56265899999999
 30
0.0
 40
1.734913
100
AcDbArc
 50
345.754429
 51
52.753289
  0
LINE
  5
1F6
330
1D7
100
AcDbEntity
  8
1
100
AcDbLine
 10
106.0
 20
107.0
 30
0.0
 11
0.0
 21
107.0
 31
0.0
  0
LINE
  5
1F7
330
1D7
100
AcDbEntity
  8
3
100
AcDbLine
 10
118.0
 20
126.621417
 30
0.0
 11
116.5
 21
185.2991059999999
 31
0.0
  0
LINE
  5
1F8
330
1D7
100
AcDbEntity
  8
3
100
AcDbLine
 10
94.0
 20
126.621417
 30
0.0
 11
95.5
 21
185.2991059999999
 31
0.0
  0
LINE
  5
1F9
330
1D7
100
AcDbEntity
  8
1
100
AcDbLine
 10
106.0
 20
214.0
 30
0.0
 11
106.0
 21
107.0
 31
0.0
  0
ARC
  5
1FA
330
1D7
100
AcDbEntity
  8
3
100
AcDbCircle
 10
106.0
 20
105.3281729999999
 30
0.0
 40
23.86772
100
AcDbArc
 50
65.23005000000001
 51
114.7699499999999
  0
ARC
  5
1FB
330
1D7
100
AcDbEntity
  8
3
100
AcDbCircle
 10
106.0
 20
107.0
 30
0.0
 40
18.0
100
AcDbArc
 50
90.0
 51
270.0
  0
ARC
  5
1FC
330
1D7
100
AcDbEntity
  8
3
100
AcDbCircle
 10
106.0
 20
107.0
 30
0.0
 40
23.0
100
AcDbArc
 50
121.4489809999999
 51
178.551019
  0
ARC
  5
1FD
330
1D7
100
AcDbEntity
  8
3
100
AcDbCircle
 10
81.811038
 20
106.084855
 30
0.0
 40
1.916091999999999
100
AcDbArc
 50
347.197112
 51
51.365316
  0
ARC
  5
1FE
330
1D7
100
AcDbEntity
  8
3
100
AcDbCircle
 10
94.698057
 20
128.405828
 30
0.0
 40
1.916091999999999
100
AcDbArc
 50
248.6346839999999
 51
312.802888
  0
ARC
  5
1FF
330
1D7
100
AcDbEntity
  8
3
100
AcDbCircle
 10
106.0
 20
107.0
 30
0.0
 40
17.0
100
AcDbArc
 50
270.0
 51
90.0
  0
ARC
  5
200
330
1D7
100
AcDbEntity
  8
3
100
AcDbCircle
 10
106.0
 20
107.0
 30
0.0
 40
23.0
100
AcDbArc
 50
1.448980999999999
 51
58.55101899999999
  0
ARC
  5
201
330
1D7
100
AcDbEntity
  8
3
100
AcDbCircle
 10
130.188962
 20
106.084855
 30
0.0
 40
1.916091999999999
100
AcDbArc
 50
128.634684
 51
192.802888
  0
ARC
  5
202
330
1D7
100
AcDbEntity
  8
3
100
AcDbCircle
 10
117.3019419999999
 20
128.405828
 30
0.0
 40
1.916091999999999
100
AcDbArc
 50
227.197112
 51
291.3653159999999
  0
CIRCLE
  5
203
330
1D7
100
AcDbEntity
  8
3
100
AcDbCircle
 10
106.0
 20
191.0
 30
0.0
 40
5.0
  0
ARC
  5
204
330
1D7
100
AcDbEntity
  8
3
100
AcDbCircle
 10
106.0
 20
191.0
 30
0.0
 40
8.05
100
AcDbArc
 50
90.0
 51
270.0
  0
LINE
  5
205
330
1D7
100
AcDbEntity
  8
1
100
AcDbLine
 10
88.0
 20
191.0
 30
0.0
 11
123.2499999999999
 21
191.0
 31
0.0
  0
ARC
  5
206
330
1D7
100
AcDbEntity
  8
3
100
AcDbCircle
 10
106.0
 20
191.0
 30
0.0
 40
11.0
100
AcDbArc
 50
185.215909
 51
270.0
  0
ARC
  5
207
330
1D7
100
AcDbEntity
  8
3
100
AcDbCircle
 10
97.22105400000002
 20
185.08026
 30
0.0
 40
1.734913
100
AcDbArc
 50
133.196783
 51
172.7532889999999
  0
ARC
  5
208
330
1D7
100
AcDbEntity
  8
3
100
AcDbCircle
 10
89.03138400000001
 20
187.662224
 30
0.0
 40
6.452548
100
AcDbArc
 50
21.24168099999999
 51
81.366483
  0
ARC
  5
209
330
1D7
100
AcDbEntity
  8
3
100
AcDbCircle
 10
118.8259949999999
 20
190.706719
 30
0.0
 40
3.837219
100
AcDbArc
 50
87.400935
 51
175.616575
  0
ARC
  5
20A
330
1D7
100
AcDbEntity
  8
3
100
AcDbCircle
 10
106.0
 20
191.0
 30
0.0
 40
9.0
100
AcDbArc
 50
270.0
 51
0.0
  0
ARC
  5
20B
330
1D7
100
AcDbEntity
  8
3
100
AcDbCircle
 10
114.7789449999999
 20
185.08026
 30
0.0
 40
1.734913
100
AcDbArc
 50
7.246711000000001
 51
74.245571
  0
CIRCLE
  5
20C
330
1D7
100
AcDbEntity
  8
3
100
AcDbCircle
 10
106.0
 20
191.0
 30
0.0
 40
4.0
  0
ARC
  5
20D
330
1D7
100
AcDbEntity
  8
3
100
AcDbCircle
 10
106.0
 20
131.4563959999999
 30
0.0
 40
56.061976
100
AcDbArc
 50
80.503
 51
81.76267800000001
  0
LINE
  5
20E
330
1D7
100
AcDbEntity
  8
2
100
AcDbLine
 10
307.873595
 20
88.064607
 30
0.0
 11
302.490747
 21
74.36281099999999
 31
0.0
  0
LINE
  5
20F
330
1D7
100
AcDbEntity
  8
2
100
AcDbLine
 10
309.25
 20
89.0
 30
0.0
 11
311.25
 21
86.0
 31
0.0
  0
LINE
  5
210
330
1D7
100
AcDbEntity
  8
3
100
AcDbLine
 10
318.25
 20
83.71997699999999
 30
0.0
 11
318.25
 21
107.0
 31
0.0
  0
DIMENSION
  5
211
330
1D7
100
AcDbEntity
  8
0
100
AcDbDimension
  2
*D10
 10
261.673333
 20
89.0
 30
0.0
 11
256.25
 21
80.0
 31
0.0
 12
-5.25
 22
-52.0
 32
0.0
 70
   128
 71
     5
 42
-1.0
  3
STANDARD
100
AcDbAlignedDimension
 13
309.25
 23
125.0
 33
0.0
 14
309.25
 24
89.0
 34
0.0
 50
90.0
100
AcDbRotatedDimension
1001
ACAD
1000
DSTYLE
1002
{
1070
    78
1070
     8
1070
   288
1070
     1
1070
   284
1070
     8
1070
   140
1040
4.0
1070
    73
1070
     0
1070
   272
1070
     2
1070
    42
1040
2.0
1070
    44
1040
1.0
1070
   271
1070
     2
1070
    41
1040
2.0
1002
}
  0
DIMENSION
  5
212
330
1D7
100
AcDbEntity
  8
0
100
AcDbDimension
  2
*D6
 10
364.9540529999999
 20
87.0
 30
0.0
 11
364.9540529999999
 21
105.480861
 31
0.0
 12
22.74999999999999
 22
-52.0
 32
0.0
 70
   128
 71
     5
 42
-1.0
  3
STANDARD
100
AcDbAlignedDimension
 13
346.2499999999999
 23
127.0
 33
0.0
 14
346.2499999999999
 24
87.0
 34
0.0
 50
90.0
100
AcDbRotatedDimension
1001
ACAD
1000
DSTYLE
1002
{
1070
    78
1070
     8
1070
   288
1070
     1
1070
   284
1070
     8
1070
   140
1040
4.0
1070
    73
1070
     0
1070
   272
1070
     2
1070
    42
1040
2.0
1070
    44
1040
1.0
1070
   271
1070
     2
1070
    41
1040
2.0
1002
}
  0
LINE
  5
213
330
1D7
100
AcDbEntity
  8
2
100
AcDbLine
 10
324.25
 20
90.25
 30
0.0
 11
321.176376
 21
83.51167
 31
0.0
  0
ARC
  5
214
330
1D7
100
AcDbEntity
  8
2
100
AcDbCircle
 10
321.1923069999999
 20
94.18269200000001
 30
0.0
 40
8.236771
100
AcDbArc
 50
195.366578
 51
228.644189
  0
ARC
  5
215
330
1D7
100
AcDbEntity
  8
2
100
AcDbCircle
 10
318.875
 20
92.87499999999999
 30
0.0
 40
5.929270999999999
100
AcDbArc
 50
304.695154
 51
341.5650509999999
  0
LINE
  5
216
330
1D7
100
AcDbEntity
  8
1
100
AcDbLine
 10
318.75
 20
90.0
 30
0.0
 11
318.75
 21
82.75
 31
0.0
  0
LINE
  5
217
330
1D7
100
AcDbEntity
  8
3
100
AcDbLine
 10
332.25
 20
107.0
 30
0.0
 11
332.25
 21
85.0
 31
0.0
  0
ARC
  5
218
330
1D7
100
AcDbEntity
  8
3
100
AcDbCircle
 10
346.2499999999999
 20
90.0
 30
0.0
 40
3.0
100
AcDbArc
 50
270.0
 51
0.0
  0
LINE
  5
219
330
1D7
100
AcDbEntity
  8
3
100
AcDbLine
 10
295.25
 20
107.0
 30
0.0
 11
295.25
 21
18.5
 31
0.0
  0
LINE
  5
21A
330
1D7
100
AcDbEntity
  8
1
100
AcDbLine
 10
306.7499999999999
 20
208.180981
 30
0.0
 11
306.7499999999999
 21
0.0
 31
0.0
  0
LINE
  5
21B
330
1D7
100
AcDbEntity
  8
3
100
AcDbLine
 10
321.176376
 20
83.51167
 30
0.0
 11
318.25
 21
77.096154
 31
0.0
  0
ARC
  5
21C
330
1D7
100
AcDbEntity
  8
2
100
AcDbCircle
 10
319.0
 20
91.76253499999999
 30
0.0
 40
4.971837999999999
100
AcDbArc
 50
229.1802239999999
 51
310.8197759999999
  0
ARC
  5
21D
330
1D7
100
AcDbEntity
  8
3
100
AcDbCircle
 10
323.035936
 20
112.5046509999999
 30
0.0
 40
29.00697899999999
100
AcDbArc
 50
260.503198
 51
288.5208609999999
  0
LINE
  5
21E
330
1D7
100
AcDbEntity
  8
3
100
AcDbLine
 10
318.25
 20
83.71997699999999
 30
0.0
 11
318.25
 21
18.5
 31
0.0
  0
ARC
  5
21F
330
1D7
100
AcDbEntity
  8
2
100
AcDbCircle
 10
306.7499999999999
 20
19.5
 30
0.0
 40
8.5
100
AcDbArc
 50
13.60896099999999
 51
166.391039
  0
ARC
  5
220
330
1D7
100
AcDbEntity
  8
3
100
AcDbCircle
 10
306.7499999999999
 20
18.5
 30
0.0
 40
11.5
100
AcDbArc
 50
180.0
 51
0.0
  0
ARC
  5
221
330
1D7
100
AcDbEntity
  8
2
100
AcDbCircle
 10
293.72531
 20
23.39411099999999
 30
0.0
 40
5.126109999999999
100
AcDbArc
 50
287.303664
 51
338.3150499999999
  0
LINE
  5
222
330
1D7
100
AcDbEntity
  8
1
100
AcDbLine
 10
306.7499999999999
 20
6.0
 30
0.0
 11
307.75
 21
6.0
 31
0.0
  0
ARC
  5
223
330
1D7
100
AcDbEntity
  8
2
100
AcDbCircle
 10
319.774689
 20
23.39411099999999
 30
0.0
 40
5.126109999999999
100
AcDbArc
 50
201.6849499999999
 51
252.6963359999999
  0
ARC
  5
224
330
1D7
100
AcDbEntity
  8
2
100
AcDbCircle
 10
323.076619
 20
67.806697
 30
0.0
 40
21.60464699999999
100
AcDbArc
 50
162.334551
 51
194.5416889999999
  0
LINE
  5
225
330
1D7
100
AcDbEntity
  8
2
100
AcDbLine
 10
318.25
 20
77.096154
 30
0.0
 11
311.4814009999999
 21
62.257303
 31
0.0
  0
ARC
  5
226
330
1D7
100
AcDbEntity
  8
2
100
AcDbCircle
 10
293.064341
 20
66.72928399999999
 30
0.0
 40
18.952222
100
AcDbArc
 50
346.3517339999999
 51
1.083563999999999
  0
ARC
  5
227
330
1D7
100
AcDbEntity
  8
2
100
AcDbCircle
 10
306.839671
 20
63.583936
 30
0.0
 40
4.827588999999999
100
AcDbArc
 50
194.4153909999999
 51
344.049761
  0
ARC
  5
228
330
1D7
100
AcDbEntity
  8
2
100
AcDbCircle
 10
307.621845
 20
71.05474
 30
0.0
 40
6.105038999999999
100
AcDbArc
 50
122.9642279999999
 51
147.189712
  0
ARC
  5
229
330
1D7
100
AcDbEntity
  8
2
100
AcDbCircle
 10
306.84676
 20
72.23507600000001
 30
0.0
 40
4.709632
100
AcDbArc
 50
31.713315
 51
91.177229
  0
ARC
  5
22A
330
1D7
100
AcDbEntity
  8
2
100
AcDbCircle
 10
306.899491
 20
72.168588
 30
0.0
 40
4.777465
100
AcDbArc
 50
91.79313499999999
 51
122.9642279999999
  0
ARC
  5
22B
330
1D7
100
AcDbEntity
  8
2
100
AcDbCircle
 10
276.62447
 20
67.866561
 30
0.0
 40
35.39727399999999
100
AcDbArc
 50
358.739168
 51
7.014553999999999
  0
ARC
  5
22C
330
1D7
100
AcDbEntity
  8
2
100
AcDbCircle
 10
306.156558
 20
71.60502
 30
0.0
 40
5.630643
100
AcDbArc
 50
5.956470999999999
 51
33.475659
  0
ARC
  5
22D
330
1D7
100
AcDbEntity
  8
2
100
AcDbCircle
 10
323.259608
 20
113.248531
 30
0.0
 40
29.77772899999999
100
AcDbArc
 50
246.214835
 51
260.3148799999999
  0
LINE
  5
22E
330
1D7
100
AcDbEntity
  8
3
100
AcDbLine
 10
346.2499999999999
 20
87.0
 30
0.0
 11
332.25
 21
87.0
 31
0.0
  0
MTEXT
  5
22F
102
{ACAD_REACTORS
330
230
102
}
330
1D7
100
AcDbEntity
  8
0
100
AcDbMText
 10
328.197244
 20
198.04856
 30
0.0
 40
4.0
 41
0.0
 71
     4
 72
     5
  1
\A1;M10-P1.5
 73
     1
 44
1.0
  0
LEADER
  5
230
330
1D7
100
AcDbEntity
  8
0
100
AcDbLeader
  3
STANDARD
 73
     0
 74
     0
 75
     1
 40
4.0
 41
24.666667
 76
     3
 10
315.2283799999999
 20
190.448382
 30
0.0
 10
326.1072439999999
 20
198.04856
 30
0.0
 10
328.1072439999999
 20
198.04856
 30
0.0
340
22F
1001
ACAD
1000
DSTYLE
1002
{
1070
    78
1070
     8
1070
   288
1070
     1
1070
   284
1070
     8
1070
   140
1040
4.0
1070
    73
1070
     0
1070
   272
1070
     2
1070
    42
1040
2.0
1070
    44
1040
1.0
1070
   271
1070
     2
1070
    41
1040
2.0
1002
}
  0
LINE
  5
231
330
1D7
100
AcDbEntity
  8
1
100
AcDbLine
 10
289.139553
 20
191.0
 30
0.0
 11
321.1170769999999
 21
191.0
 31
0.0
  0
DIMENSION
  5
232
330
1D7
100
AcDbEntity
  8
0
100
AcDbDimension
  2
*D8
 10
349.25
 20
164.5
 30
0.0
 11
329.7499999999999
 21
164.5
 31
0.0
 12
22.74999999999999
 22
-52.0
 32
0.0
 70
   128
 71
     5
 42
-1.0
  3
STANDARD
100
AcDbAlignedDimension
 13
309.25
 23
125.0
 33
0.0
 14
349.25
 24
124.0
 34
0.0
100
AcDbRotatedDimension
1001
ACAD
1000
DSTYLE
1002
{
1070
    78
1070
     8
1070
   288
1070
     1
1070
   284
1070
     8
1070
   140
1040
4.0
1070
    73
1070
     0
1070
   272
1070
     2
1070
    42
1040
2.0
1070
    44
1040
1.0
1070
   271
1070
     2
1070
    41
1040
2.0
1002
}
  0
DIMENSION
  5
233
330
1D7
100
AcDbEntity
  8
0
100
AcDbDimension
  2
*D3
 10
349.25
 20
224.000923
 30
0.0
 11
322.6753979999999
 21
224.000923
 31
0.0
 12
22.74999999999999
 22
-52.0
 32
0.0
 70
   128
 71
     5
 42
-1.0
  3
STANDARD
100
AcDbAlignedDimension
 13
295.25
 23
195.5
 33
0.0
 14
349.25
 24
124.0
 34
0.0
100
AcDbRotatedDimension
1001
ACAD
1000
DSTYLE
1002
{
1070
    78
1070
     8
1070
   288
1070
     1
1070
   284
1070
     8
1070
   140
1040
4.0
1070
    73
1070
     0
1070
   272
1070
     2
1070
    42
1040
2.0
1070
    44
1040
1.0
1070
   271
1070
     2
1070
    41
1040
2.0
1002
}
  0
ARC
  5
234
330
1D7
100
AcDbEntity
  8
2
100
AcDbCircle
 10
318.746621
 20
102.158784
 30
0.0
 40
4.841216999999999
100
AcDbArc
 50
43.642802
 51
132.1150049999999
  0
LINE
  5
235
330
1D7
100
AcDbEntity
  8
3
100
AcDbLine
 10
313.101136
 20
181.25
 30
0.0
 11
324.75
 21
131.0
 31
0.0
  0
LINE
  5
236
330
1D7
100
AcDbEntity
  8
1
100
AcDbLine
 10
288.75
 20
107.0
 30
0.0
 11
353.25
 21
107.0
 31
0.0
  0
DIMENSION
  5
237
330
1D7
100
AcDbEntity
  8
0
100
AcDbDimension
  2
*D9
 10
242.75
 20
191.0
 30
0.0
 11
242.75
 21
149.0
 31
0.0
 12
-5.25
 22
-52.0
 32
0.0
 70
   128
 71
     5
 42
-1.0
  3
STANDARD
100
AcDbAlignedDimension
 13
288.75
 23
107.0
 33
0.0
 14
289.139553
 24
191.0
 34
0.0
 50
90.0
100
AcDbRotatedDimension
1001
ACAD
1000
DSTYLE
1002
{
1070
    78
1070
     8
1070
   288
1070
     1
1070
   284
1070
     8
1070
   140
1040
4.0
1070
    73
1070
     0
1070
   272
1070
     2
1070
    42
1040
2.0
1070
    44
1040
1.0
1070
   271
1070
     2
1070
    41
1040
2.0
1002
}
  0
LINE
  5
238
330
1D7
100
AcDbEntity
  8
3
100
AcDbLine
 10
318.25
 20
195.5
 30
0.0
 11
318.25
 21
159.0392159999999
 31
0.0
  0
LINE
  5
239
330
1D7
100
AcDbEntity
  8
1
100
AcDbLine
 10
318.75
 20
130.333333
 30
0.0
 11
304.938111
 21
193.79435
 31
0.0
  0
LINE
  5
23A
330
1D7
100
AcDbEntity
  8
3
100
AcDbLine
 10
302.778409
 20
179.75
 30
0.0
 11
312.445724
 21
132.487572
 31
0.0
  0
LINE
  5
23B
330
1D7
100
AcDbEntity
  8
3
100
AcDbLine
 10
295.25
 20
107.0
 30
0.0
 11
295.25
 21
195.5
 31
0.0
  0
TEXT
  5
23C
330
1D7
100
AcDbEntity
  8
5
100
AcDbText
 10
218.032671
 20
116.6206879999999
 30
0.0
 40
3.0
  1
0.2
 50
90.0
 41
0.8
  7
BIGFONT
100
AcDbText
  0
LINE
  5
23D
330
1D7
100
AcDbEntity
  8
5
100
AcDbLine
 10
218.024757
 20
115.619162
 30
0.0
 11
218.024757
 21
112.286473
 31
0.0
  0
LINE
  5
23E
330
1D7
100
AcDbEntity
  8
5
100
AcDbLine
 10
215.454779
 20
115.619162
 30
0.0
 11
215.454779
 21
112.286473
 31
0.0
  0
LINE
  5
23F
330
1D7
100
AcDbEntity
  8
5
100
AcDbLine
 10
214.217383
 20
114.000427
 30
0.0
 11
216.692176
 21
114.000427
 31
0.0
  0
LEADER
  5
240
330
1D7
100
AcDbEntity
  8
0
100
AcDbLeader
  3
STANDARD
 76
     3
 10
310.7499999999999
 20
127.0
 30
0.0
 10
280.75
 20
152.5
 30
0.0
 10
277.7499999999999
 20
152.5
 30
0.0
1001
ACAD
1000
DSTYLE
1002
{
1070
    78
1070
     8
1070
   288
1070
     1
1070
   284
1070
     8
1070
   140
1040
4.0
1070
    73
1070
     0
1070
   272
1070
     2
1070
    42
1040
2.0
1070
    44
1040
1.0
1070
   271
1070
     2
1070
    41
1040
2.0
1002
}
  0
ARC
  5
241
330
1D7
100
AcDbEntity
  8
3
100
AcDbCircle
 10
297.75
 20
129.481628
 30
0.0
 40
15.0
100
AcDbArc
 50
0.0
 51
11.560131
  0
LINE
  5
242
330
1D7
100
AcDbEntity
  8
3
100
AcDbLine
 10
309.25
 20
107.0
 30
0.0
 11
309.25
 21
125.0
 31
0.0
  0
LINE
  5
243
330
1D7
100
AcDbEntity
  8
1
100
AcDbLine
 10
318.75
 20
130.333333
 30
0.0
 11
318.75
 21
90.0
 31
0.0
  0
LINE
  5
244
330
1D7
100
AcDbEntity
  8
2
100
AcDbLine
 10
309.25
 20
107.0
 30
0.0
 11
309.25
 21
89.0
 31
0.0
  0
LINE
  5
245
330
1D7
100
AcDbEntity
  8
2
100
AcDbLine
 10
313.25
 20
101.75
 30
0.0
 11
307.873595
 21
88.064607
 31
0.0
  0
ARC
  5
246
330
1D7
100
AcDbEntity
  8
2
100
AcDbCircle
 10
334.8434859999999
 20
96.75
 30
0.0
 40
22.109752
100
AcDbArc
 50
167.5940159999999
 51
192.405984
  0
ARC
  5
247
330
1D7
100
AcDbEntity
  8
2
100
AcDbCircle
 10
321.766304
 20
99.71195600000001
 30
0.0
 40
8.701985
100
AcDbArc
 50
136.062786
 51
168.142672
  0
ARC
  5
248
330
1D7
100
AcDbEntity
  8
3
100
AcDbCircle
 10
317.780497
 20
121.3475139999999
 30
0.0
 40
9.322175999999998
100
AcDbArc
 50
122.6582469999999
 51
134.4698289999999
  0
LINE
  5
249
330
1D7
100
AcDbEntity
  8
3
100
AcDbLine
 10
309.25
 20
125.0
 30
0.0
 11
311.25
 21
128.0
 31
0.0
  0
LINE
  5
24A
330
1D7
100
AcDbEntity
  8
3
100
AcDbLine
 10
312.7499999999999
 20
129.1958929999999
 30
0.0
 11
312.7499999999999
 21
129.481628
 31
0.0
  0
TEXT
  5
24B
330
1D7
100
AcDbEntity
  8
0
100
AcDbText
 10
262.1499999999999
 20
150.6999999999999
 30
0.0
 40
4.0
  1
面取り
 41
0.8
  7
BIGFONT
100
AcDbText
  0
LINE
  5
24C
330
1D7
100
AcDbEntity
  8
0
100
AcDbLine
 10
275.2499999999999
 20
153.5
 30
0.0
 11
278.25
 21
159.0
 31
0.0
  0
LINE
  5
24D
330
1D7
100
AcDbEntity
  8
0
100
AcDbLine
 10
275.2499999999999
 20
159.0
 30
0.0
 11
275.2499999999999
 21
153.5
 31
0.0
  0
LINE
  5
24E
330
1D7
100
AcDbEntity
  8
0
100
AcDbLine
 10
278.25
 20
159.0
 30
0.0
 11
275.2499999999999
 21
159.0
 31
0.0
  0
TEXT
  5
24F
330
1D7
100
AcDbEntity
  8
0
100
AcDbText
 10
273.6899999999999
 20
155.9199999999999
 30
0.0
 40
1.6
  1
2
 41
0.8
  7
BIGFONT
100
AcDbText
  0
TEXT
  5
250
330
1D7
100
AcDbEntity
  8
0
100
AcDbText
 10
276.69
 20
159.34
 30
0.0
 40
1.6
  1
1
 41
0.8
  7
BIGFONT
100
AcDbText
  0
MTEXT
  5
251
102
{ACAD_REACTORS
330
252
102
}
330
1D7
100
AcDbEntity
  8
0
100
AcDbMText
 10
274.4242899999999
 20
219.7023249999999
 30
0.0
 40
4.0
 41
0.0
 71
     6
 72
     5
  1
\A1;2C
 73
     1
 44
1.0
  0
LEADER
  5
252
330
1D7
100
AcDbEntity
  8
0
100
AcDbLeader
  3
STANDARD
 73
     0
 40
4.0
 41
6.666666999999999
 76
     3
 10
297.773904
 20
186.9980609999999
 30
0.0
 10
275.7548029999999
 20
219.7023249999999
 30
0.0
 10
274.51429
 20
219.7023249999999
 30
0.0
340
251
1001
ACAD
1000
DSTYLE
1002
{
1070
    78
1070
     8
1070
   288
1070
     1
1070
   284
1070
     8
1070
   140
1040
4.0
1070
    73
1070
     0
1070
   272
1070
     2
1070
    42
1040
2.0
1070
    44
1040
1.0
1070
   271
1070
     2
1070
    41
1040
2.0
1002
}
  0
DIMENSION
  5
253
330
1D7
100
AcDbEntity
  8
0
100
AcDbDimension
  2
*D4
 10
318.25
 20
220.159656
 30
0.0
 11
306.69812
 21
220.159656
 31
0.0
 12
22.74999999999999
 22
-52.0
 32
0.0
 70
   128
 71
     5
 42
-1.0
  3
STANDARD
100
AcDbAlignedDimension
 13
295.25
 23
195.5
 33
0.0
 14
318.25
 24
195.5
 34
0.0
100
AcDbRotatedDimension
1001
ACAD
1000
DSTYLE
1002
{
1070
    78
1070
     8
1070
   288
1070
     1
1070
   284
1070
     8
1070
   140
1040
4.0
1070
    73
1070
     0
1070
   272
1070
     2
1070
    42
1040
2.0
1070
    44
1040
1.0
1070
   271
1070
     2
1070
    41
1040
2.0
1002
}
  0
DIMENSION
  5
254
330
1D7
100
AcDbEntity
  8
0
100
AcDbDimension
  2
*D12
 10
297.2495529999999
 20
215.0
 30
0.0
 11
287.25
 21
215.0
 31
0.0
 12
-5.25
 22
-52.0
 32
0.0
 70
   128
 71
     5
 42
-1.0
  3
STANDARD
100
AcDbAlignedDimension
 13
295.25
 23
195.5
 33
0.0
 14
297.2495529999999
 24
199.05
 34
0.0
100
AcDbRotatedDimension
1001
ACAD
1000
DSTYLE
1002
{
1070
    78
1070
     8
1070
   288
1070
     1
1070
   284
1070
     8
1070
   140
1040
4.0
1070
    73
1070
     0
1070
   272
1070
     2
1070
    42
1040
2.0
1070
    44
1040
1.0
1070
   271
1070
     2
1070
    41
1040
2.0
1002
}
  0
DIMENSION
  5
255
330
1D7
100
AcDbEntity
  8
0
100
AcDbDimension
  2
*D11
 10
258.993333
 20
182.9499999999999
 30
0.0
 11
265.75
 21
208.4999999999999
 31
0.0
 12
-5.25
 22
-52.0
 32
0.0
 70
   128
 71
     5
 42
-1.0
  3
STANDARD
100
AcDbAlignedDimension
 13
295.81165
 23
199.05
 33
0.0
 14
295.25
 24
182.9499999999999
 34
0.0
 50
90.0
100
AcDbRotatedDimension
1001
ACAD
1000
DSTYLE
1002
{
1070
    78
1070
     8
1070
   288
1070
     1
1070
   284
1070
     8
1070
   140
1040
4.0
1070
    73
1070
     0
1070
   272
1070
     2
1070
    42
1040
2.0
1070
    44
1040
1.0
1070
   271
1070
     2
1070
    41
1040
2.0
1002
}
  0
TEXT
  5
256
330
1D7
100
AcDbEntity
  8
0
100
AcDbText
 10
271.75
 20
207.0
 30
0.0
 40
5.0
  1
ｷﾘ
 41
0.8
  7
BIGFONT
100
AcDbText
  0
LINE
  5
257
330
1D7
100
AcDbEntity
  8
3
100
AcDbLine
 10
297.2495529999999
 20
199.05
 30
0.0
 11
297.2495529999999
 21
182.9499999999999
 31
0.0
  0
ARC
  5
258
330
1D7
100
AcDbEntity
  8
3
100
AcDbCircle
 10
306.7499999999999
 20
195.5
 30
0.0
 40
11.5
100
AcDbArc
 50
0.0
 51
180.0
  0
LINE
  5
259
330
1D7
100
AcDbEntity
  8
3
100
AcDbLine
 10
298.507542
 20
195.0
 30
0.0
 11
316.932953
 21
195.0
 31
0.0
  0
LINE
  5
25A
330
1D7
100
AcDbEntity
  8
3
100
AcDbLine
 10
315.0113559999999
 20
187.0
 30
0.0
 11
298.507542
 21
187.0
 31
0.0
  0
LINE
  5
25B
330
1D7
100
AcDbEntity
  8
3
100
AcDbLine
 10
315.0113559999999
 20
186.0
 30
0.0
 11
298.196927
 21
186.0
 31
0.0
  0
LINE
  5
25C
330
1D7
100
AcDbEntity
  8
3
100
AcDbLine
 10
298.196927
 20
196.0
 30
0.0
 11
318.239125
 21
196.0
 31
0.0
  0
LINE
  5
25D
330
1D7
100
AcDbEntity
  8
3
100
AcDbLine
 10
298.507542
 20
187.0
 30
0.0
 11
297.2495529999999
 21
185.351269
 31
0.0
  0
LINE
  5
25E
330
1D7
100
AcDbEntity
  8
3
100
AcDbLine
 10
297.2495529999999
 20
182.9499999999999
 30
0.0
 11
295.2495529999999
 21
182.9499999999999
 31
0.0
  0
LINE
  5
25F
330
1D7
100
AcDbEntity
  8
3
100
AcDbLine
 10
295.25
 20
180.0
 30
0.0
 11
302.778409
 21
179.75
 31
0.0
  0
LINE
  5
260
330
1D7
100
AcDbEntity
  8
3
100
AcDbLine
 10
298.196927
 20
186.0
 30
0.0
 11
297.744537
 21
186.0
 31
0.0
  0
LINE
  5
261
330
1D7
100
AcDbEntity
  8
3
100
AcDbLine
 10
298.507542
 20
195.0
 30
0.0
 11
298.507542
 21
187.0
 31
0.0
  0
LINE
  5
262
330
1D7
100
AcDbEntity
  8
3
100
AcDbLine
 10
298.507542
 20
195.0
 30
0.0
 11
297.2495529999999
 21
196.6487309999999
 31
0.0
  0
LINE
  5
263
330
1D7
100
AcDbEntity
  8
3
100
AcDbLine
 10
315.0113559999999
 20
192.5
 30
0.0
 11
315.0113559999999
 21
182.420398
 31
0.0
  0
LINE
  5
264
330
1D7
100
AcDbEntity
  8
3
100
AcDbLine
 10
313.101136
 20
181.25
 30
0.0
 11
315.0113559999999
 21
182.420398
 31
0.0
  0
ARC
  5
265
330
1D7
100
AcDbEntity
  8
3
100
AcDbCircle
 10
319.062792
 20
191.374416
 30
0.0
 40
4.204887
100
AcDbArc
 50
101.1452559999999
 51
164.4734579999999
  0
LINE
  5
266
330
1D7
100
AcDbEntity
  8
3
100
AcDbLine
 10
295.81165
 20
199.05
 30
0.0
 11
297.2495529999999
 21
199.05
 31
0.0
  0
DIMENSION
  5
267
330
1D7
100
AcDbEntity
  8
0
100
AcDbDimension
  2
*D7
 10
346.2499999999999
 20
124.0
 30
0.0
 11
365.680421
 21
138.55921
 31
0.0
 12
22.74999999999999
 22
-52.0
 32
0.0
 70
   132
 71
     5
 42
-1.0
  3
STANDARD
100
AcDbRadialDimension
 15
348.329931
 25
126.1619169999999
 35
0.0
 40
0.0
1001
ACAD
1000
DSTYLE
1002
{
1070
    78
1070
     8
1070
   288
1070
     1
1070
   284
1070
     8
1070
   140
1040
4.0
1070
    73
1070
     0
1070
   272
1070
     2
1070
    42
1040
2.0
1070
    44
1040
1.0
1070
   271
1070
     2
1070
    41
1040
2.0
1002
}
  0
DIMENSION
  5
268
330
1D7
100
AcDbEntity
  8
0
100
AcDbDimension
  2
*D5
 10
349.25
 20
155.09391
 30
0.0
 11
341.057422
 21
155.09391
 31
0.0
 12
22.74999999999999
 22
-52.0
 32
0.0
 70
   128
 71
     5
 42
-1.0
  3
STANDARD
100
AcDbAlignedDimension
 13
332.25
 23
129.0
 33
0.0
 14
349.25
 24
124.0
 34
0.0
100
AcDbRotatedDimension
1001
ACAD
1000
DSTYLE
1002
{
1070
    78
1070
     8
1070
   288
1070
     1
1070
   284
1070
     8
1070
   140
1040
4.0
1070
    73
1070
     0
1070
   272
1070
     2
1070
    42
1040
2.0
1070
    44
1040
1.0
1070
   271
1070
     2
1070
    41
1040
2.0
1002
}
  0
LINE
  5
269
330
1D7
100
AcDbEntity
  8
3
100
AcDbLine
 10
349.25
 20
107.0
 30
0.0
 11
349.25
 21
124.0
 31
0.0
  0
ARC
  5
26A
330
1D7
100
AcDbEntity
  8
2
100
AcDbCircle
 10
289.075239
 20
95.26403
 30
0.0
 40
35.68046599999999
100
AcDbArc
 50
353.136406
 51
9.657956
  0
ARC
  5
26B
330
1D7
100
AcDbEntity
  8
2
100
AcDbCircle
 10
317.3
 20
100.575
 30
0.0
 40
6.982702
100
AcDbArc
 50
5.5473
 51
44.854948
  0
LINE
  5
26C
330
1D7
100
AcDbEntity
  8
3
100
AcDbLine
 10
349.25
 20
107.0
 30
0.0
 11
349.25
 21
90.0
 31
0.0
  0
LINE
  5
26D
330
1D7
100
AcDbEntity
  8
3
100
AcDbLine
 10
346.2499999999999
 20
127.0
 30
0.0
 11
332.25
 21
127.0
 31
0.0
  0
ARC
  5
26E
330
1D7
100
AcDbEntity
  8
3
100
AcDbCircle
 10
322.166666
 20
95.91666700000001
 30
0.0
 40
34.585843
100
AcDbArc
 50
73.04951800000001
 51
85.71639499999999
  0
LINE
  5
26F
330
1D7
100
AcDbEntity
  8
3
100
AcDbLine
 10
324.75
 20
130.4058959999999
 30
0.0
 11
324.75
 21
131.0
 31
0.0
  0
LINE
  5
270
330
1D7
100
AcDbEntity
  8
3
100
AcDbLine
 10
332.25
 20
127.0
 30
0.0
 11
332.25
 21
129.0
 31
0.0
  0
ARC
  5
271
330
1D7
100
AcDbEntity
  8
3
100
AcDbCircle
 10
346.2499999999999
 20
124.0
 30
0.0
 40
3.0
100
AcDbArc
 50
0.0
 51
90.0
  0
LINE
  5
272
330
1D7
100
AcDbEntity
  8
5
100
AcDbLine
 10
361.517839
 20
111.7113999999999
 30
0.0
 11
361.517839
 21
108.779059
 31
0.0
  0
LINE
  5
273
330
1D7
100
AcDbEntity
  8
5
100
AcDbLine
 10
357.3652309999999
 20
111.955761
 30
0.0
 11
357.3652309999999
 21
108.5346979999999
 31
0.0
  0
LINE
  5
274
330
1D7
100
AcDbEntity
  8
5
100
AcDbLine
 10
356.1438759999999
 20
110.245229
 30
0.0
 11
358.830858
 21
110.245229
 31
0.0
  0
TEXT
  5
275
330
1D7
100
AcDbEntity
  8
5
100
AcDbText
 10
358.830858
 20
112.200123
 30
0.0
 40
3.5
  1
０
 50
90.0
 41
0.8
  7
BIGFONT
100
AcDbText
  0
TEXT
  5
276
330
1D7
100
AcDbEntity
  8
5
100
AcDbText
 10
363.030858
 20
112.200123
 30
0.0
 40
3.5
  1
0.1
 50
90.0
 41
0.8
  7
BIGFONT
100
AcDbText
  0
LINE
  5
277
330
1D7
100
AcDbEntity
  8
5
100
AcDbLine
 10
336.6870309999999
 20
172.410707
 30
0.0
 11
333.2659669999999
 21
172.410707
 31
0.0
  0
LINE
  5
278
330
1D7
100
AcDbEntity
  8
5
100
AcDbLine
 10
336.4426689999999
 20
168.2580989999999
 30
0.0
 11
333.510329
 21
168.2580989999999
 31
0.0
  0
LINE
  5
279
330
1D7
100
AcDbEntity
  8
5
100
AcDbLine
 10
334.976499
 20
173.632062
 30
0.0
 11
334.976499
 21
170.94508
 31
0.0
  0
TEXT
  5
27A
330
1D7
100
AcDbEntity
  8
5
100
AcDbText
 10
336.931393
 20
166.74508
 30
0.0
 40
3.5
  1
0.1
 41
0.8
  7
BIGFONT
100
AcDbText
  0
TEXT
  5
27B
330
1D7
100
AcDbEntity
  8
5
100
AcDbText
 10
336.931393
 20
170.94508
 30
0.0
 40
3.5
  1
０
 41
0.8
  7
BIGFONT
100
AcDbText
  0
TEXT
  5
27C
330
1D7
100
AcDbEntity
  8
5
100
AcDbText
 10
325.616121
 20
217.3204799999999
 30
0.0
 40
3.5
  1
０
 41
0.8
  7
BIGFONT
100
AcDbText
  0
LINE
  5
27D
330
1D7
100
AcDbEntity
  8
5
100
AcDbLine
 10
323.661227
 20
220.0074609999999
 30
0.0
 11
323.661227
 21
217.3204799999999
 31
0.0
  0
TEXT
  5
27E
330
1D7
100
AcDbEntity
  8
5
100
AcDbText
 10
325.616121
 20
213.1204799999999
 30
0.0
 40
3.5
  1
0.1
 41
0.8
  7
BIGFONT
100
AcDbText
  0
LINE
  5
27F
330
1D7
100
AcDbEntity
  8
5
100
AcDbLine
 10
325.3717589999999
 20
218.786106
 30
0.0
 11
321.9506959999999
 21
218.786106
 31
0.0
  0
LINE
  5
280
330
1D7
100
AcDbEntity
  8
5
100
AcDbLine
 10
325.1273979999999
 20
214.633498
 30
0.0
 11
322.1950569999999
 21
214.633498
 31
0.0
  0
ENDBLK
  5
282
330
1D7
100
AcDbEntity
  8
0
100
AcDbBlockEnd
  0
BLOCK
  5
6BC
330
6BB
100
AcDbEntity
  8
0
100
AcDbBlockBegin
  2
*U14
 70
     1
 10
0.0
 20
0.0
 30
0.0
  3
*U14
  1

  0
ENDBLK
  5
6BD
330
6BB
100
AcDbEntity
  8
0
100
AcDbBlockEnd
  0
BLOCK
  5
6F6
330
6EB
100
AcDbEntity
  8
0
100
AcDbBlockBegin
  2
*D15
 70
     1
 10
0.0
 20
0.0
 30
0.0
  3
*D15
  1

  0
LINE
  5
6EC
330
6EB
100
AcDbEntity
  8
0
 62
     0
370
    -2
100
AcDbLine
 10
327.6221947075343
 20
158.0727911134668
 30
0.0
 11
327.6221947075343
 21
232.1938603872581
 31
0.0
  0
LINE
  5
6ED
330
6EB
100
AcDbEntity
  8
0
 62
     0
370
    -2
100
AcDbLine
 10
344.6221947075343
 20
153.0727911134668
 30
0.0
 11
344.6221947075343
 21
232.1938603872581
 31
0.0
  0
LINE
  5
6EE
330
6EB
100
AcDbEntity
  8
0
 62
     0
370
    -2
100
AcDbLine
 10
329.6221947075343
 20
231.1938603872582
 30
0.0
 11
333.0108399189544
 21
231.1938603872582
 31
0.0
  0
LINE
  5
6EF
330
6EB
100
AcDbEntity
  8
0
 62
     0
370
    -2
100
AcDbLine
 10
342.6221947075343
 20
231.1938603872582
 30
0.0
 11
339.5941732522878
 21
231.1938603872582
 31
0.0
  0
SOLID
  5
6F0
330
6EB
100
AcDbEntity
  8
0
 62
     0
100
AcDbTrace
 10
329.6221947075343
 20
231.5271937205915
 30
0.0
 11
329.6221947075343
 21
230.8605270539248
 31
0.0
 12
327.6221947075343
 22
231.1938603872582
 32
0.0
 13
327.6221947075343
 23
231.1938603872582
 33
0.0
  0
SOLID
  5
6F1
330
6EB
100
AcDbEntity
  8
0
 62
     0
100
AcDbTrace
 10
342.6221947075343
 20
231.5271937205915
 30
0.0
 11
342.6221947075343
 21
230.8605270539248
 31
0.0
 12
344.6221947075343
 22
231.1938603872582
 32
0.0
 13
344.6221947075343
 23
231.1938603872582
 33
0.0
  0
MTEXT
  5
6F2
330
6EB
100
AcDbEntity
  8
0
 62
     0
100
AcDbMText
 10
336.3025065856211
 20
231.1938603872582
 30
0.0
 40
4.0
 41
0.0
 71
     5
 72
     1
  1
\A1;17
 73
     1
 44
1.0
  0
POINT
  5
6F3
330
6EB
100
AcDbEntity
  8
DEFPOINTS
 62
     0
100
AcDbPoint
 10
327.6221947075343
 20
157.0727911134668
 30
0.0
  0
POINT
  5
6F4
330
6EB
100
AcDbEntity
  8
DEFPOINTS
 62
     0
100
AcDbPoint
 10
344.6221947075343
 20
152.0727911134668
 30
0.0
  0
POINT
  5
6F5
330
6EB
100
AcDbEntity
  8
DEFPOINTS
 62
     0
100
AcDbPoint
 10
344.6221947075343
 20
231.1938603872582
 30
0.0
  0
ENDBLK
  5
6F7
330
6EB
100
AcDbEntity
  8
0
100
AcDbBlockEnd
  0
BLOCK
  5
6FF
330
6F8
100
AcDbEntity
  8
0
100
AcDbBlockBegin
  2
*D16
 70
     1
 10
0.0
 20
0.0
 30
0.0
  3
*D16
  1

  0
LINE
  5
6F9
330
6F8
100
AcDbEntity
  8
0
 62
     0
370
    -2
100
AcDbLine
 10
359.2803132499742
 20
173.3368605222233
 30
0.0
 11
357.2803132499742
 21
173.3368605222234
 31
0.0
  0
LINE
  5
6FA
330
6F8
100
AcDbEntity
  8
0
 62
     0
370
    -2
100
AcDbLine
 10
357.2803132499742
 20
173.3368605222234
 30
0.0
 11
344.5869450338045
 21
156.09898727149
 31
0.0
  0
MTEXT
  5
6FB
330
6F8
100
AcDbEntity
  8
0
 62
     0
100
AcDbMText
 10
363.2386465833076
 20
173.3368605222234
 30
0.0
 40
4.0
 41
0.0
 71
     5
 72
     1
  1
\A1;R3
 73
     1
 44
1.0
  0
SOLID
  5
6FC
330
6F8
100
AcDbEntity
  8
0
 62
     0
100
AcDbTrace
 10
344.318531956603
 20
156.2966372932414
 30
0.0
 11
344.8553581110061
 21
155.9013372497387
 31
0.0
 12
343.4010449032964
 22
154.4885088082808
 32
0.0
 13
343.4010449032964
 23
154.4885088082808
 33
0.0
  0
POINT
  5
6FD
330
6F8
100
AcDbEntity
  8
DEFPOINTS
 62
     0
100
AcDbPoint
 10
343.4010449032964
 20
154.4885088082808
 30
0.0
  0
POINT
  5
6FE
330
6F8
100
AcDbEntity
  8
DEFPOINTS
 62
     0
100
AcDbPoint
 10
341.6221947075342
 20
152.0727911134669
 30
0.0
  0
ENDBLK
  5
700
330
6F8
100
AcDbEntity
  8
0
100
AcDbBlockEnd
  0
BLOCK
  5
70C
330
701
100
AcDbEntity
  8
0
100
AcDbBlockBegin
  2
*D17
 70
     1
 10
0.0
 20
0.0
 30
0.0
  3
*D17
  1

  0
LINE
  5
702
330
701
100
AcDbEntity
  8
0
 62
     0
370
    -2
100
AcDbLine
 10
342.6221947075343
 20
155.0727911134669
 30
0.0
 11
365.962983285732
 21
155.0727911134669
 31
0.0
  0
LINE
  5
703
330
701
100
AcDbEntity
  8
0
 62
     0
370
    -2
100
AcDbLine
 10
342.6221947075343
 20
115.0727911134669
 30
0.0
 11
365.9629832857319
 21
115.0727911134668
 31
0.0
  0
LINE
  5
704
330
701
100
AcDbEntity
  8
0
 62
     0
370
    -2
100
AcDbLine
 10
364.962983285732
 20
153.0727911134668
 30
0.0
 11
364.962983285732
 21
139.1322833390756
 31
0.0
  0
LINE
  5
705
330
701
100
AcDbEntity
  8
0
 62
     0
370
    -2
100
AcDbLine
 10
364.962983285732
 20
117.0727911134668
 30
0.0
 11
364.962983285732
 21
131.8822833390756
 31
0.0
  0
SOLID
  5
706
330
701
100
AcDbEntity
  8
0
 62
     0
100
AcDbTrace
 10
364.6296499523987
 20
153.0727911134668
 30
0.0
 11
365.2963166190653
 21
153.0727911134668
 31
0.0
 12
364.962983285732
 22
155.0727911134669
 32
0.0
 13
364.962983285732
 23
155.0727911134669
 33
0.0
  0
SOLID
  5
707
330
701
100
AcDbEntity
  8
0
 62
     0
100
AcDbTrace
 10
364.6296499523986
 20
117.0727911134668
 30
0.0
 11
365.2963166190652
 21
117.0727911134668
 31
0.0
 12
364.962983285732
 22
115.0727911134668
 32
0.0
 13
364.962983285732
 23
115.0727911134668
 33
0.0
  0
MTEXT
  5
708
330
701
100
AcDbEntity
  8
0
 62
     0
100
AcDbMText
 10
364.962983285732
 20
135.5072833390757
 30
0.0
 40
4.0
 41
0.0
 71
     5
 72
     1
  1
\A1;40
 11
0.0000000000000001
 21
1.0
 31
0.0
 73
     1
 44
1.0
  0
POINT
  5
709
330
701
100
AcDbEntity
  8
DEFPOINTS
 62
     0
100
AcDbPoint
 10
341.6221947075343
 20
155.0727911134669
 30
0.0
  0
POINT
  5
70A
330
701
100
AcDbEntity
  8
DEFPOINTS
 62
     0
100
AcDbPoint
 10
341.6221947075343
 20
115.0727911134669
 30
0.0
  0
POINT
  5
70B
330
701
100
AcDbEntity
  8
DEFPOINTS
 62
     0
100
AcDbPoint
 10
364.962983285732
 20
115.0727911134668
 30
0.0
  0
ENDBLK
  5
70D
330
701
100
AcDbEntity
  8
0
100
AcDbBlockEnd
  0
BLOCK
  5
719
330
70E
100
AcDbEntity
  8
0
100
AcDbBlockBegin
  2
*D18
 70
     1
 10
0.0
 20
0.0
 30
0.0
  3
*D18
  1

  0
LINE
  5
70F
330
70E
100
AcDbEntity
  8
0
 62
     0
370
    -2
100
AcDbLine
 10
301.1221947075343
 20
235.0727911134669
 30
0.0
 11
250.9133227103957
 21
235.0727911134669
 31
0.0
  0
LINE
  5
710
330
70E
100
AcDbEntity
  8
0
 62
     0
370
    -2
100
AcDbLine
 10
301.1221947075343
 20
35.07279111346689
 30
0.0
 11
250.9133227103956
 21
35.0727911134669
 31
0.0
  0
LINE
  5
711
330
70E
100
AcDbEntity
  8
0
 62
     0
370
    -2
100
AcDbLine
 10
251.9133227103957
 20
233.0727911134669
 30
0.0
 11
251.9133227103957
 21
140.7989500057423
 31
0.0
  0
LINE
  5
712
330
70E
100
AcDbEntity
  8
0
 62
     0
370
    -2
100
AcDbLine
 10
251.9133227103956
 20
37.07279111346689
 30
0.0
 11
251.9133227103957
 21
130.215616672409
 31
0.0
  0
SOLID
  5
713
330
70E
100
AcDbEntity
  8
0
 62
     0
100
AcDbTrace
 10
251.5799893770624
 20
233.0727911134669
 30
0.0
 11
252.246656043729
 21
233.0727911134669
 31
0.0
 12
251.9133227103957
 22
235.0727911134669
 32
0.0
 13
251.9133227103957
 23
235.0727911134669
 33
0.0
  0
SOLID
  5
714
330
70E
100
AcDbEntity
  8
0
 62
     0
100
AcDbTrace
 10
251.5799893770623
 20
37.07279111346689
 30
0.0
 11
252.246656043729
 21
37.07279111346689
 31
0.0
 12
251.9133227103956
 22
35.0727911134669
 32
0.0
 13
251.9133227103956
 23
35.0727911134669
 33
0.0
  0
MTEXT
  5
715
330
70E
100
AcDbEntity
  8
0
 62
     0
100
AcDbMText
 10
251.9133227103956
 20
135.5072833390757
 30
0.0
 40
4.0
 41
0.0
 71
     5
 72
     1
  1
\A1;200
 11
0.0000000000000001
 21
1.0
 31
0.0
 73
     1
 44
1.0
  0
POINT
  5
716
330
70E
100
AcDbEntity
  8
DEFPOINTS
 62
     0
100
AcDbPoint
 10
302.1221947075343
 20
235.0727911134669
 30
0.0
  0
POINT
  5
717
330
70E
100
AcDbEntity
  8
DEFPOINTS
 62
     0
100
AcDbPoint
 10
302.1221947075343
 20
35.07279111346689
 30
0.0
  0
POINT
  5
718
330
70E
100
AcDbEntity
  8
DEFPOINTS
 62
     0
100
AcDbPoint
 10
251.9133227103956
 20
35.0727911134669
 30
0.0
  0
ENDBLK
  5
71A
330
70E
100
AcDbEntity
  8
0
100
AcDbBlockEnd
  0
BLOCK
  5
726
330
71B
100
AcDbEntity
  8
0
100
AcDbBlockBegin
  2
*D19
 70
     1
 10
0.0
 20
0.0
 30
0.0
  3
*D19
  1

  0
LINE
  5
71C
330
71B
100
AcDbEntity
  8
0
 62
     0
370
    -2
100
AcDbLine
 10
144.4434193045244
 20
219.0727911134668
 30
0.0
 11
229.0196571615339
 21
219.0727911134668
 31
0.0
  0
LINE
  5
71D
330
71B
100
AcDbEntity
  8
0
 62
     0
370
    -2
100
AcDbLine
 10
224.0821558730144
 20
135.0727911134669
 30
0.0
 11
229.0196571615338
 21
135.0727911134669
 31
0.0
  0
LINE
  5
71E
330
71B
100
AcDbEntity
  8
0
 62
     0
370
    -2
100
AcDbLine
 10
228.0196571615339
 20
217.0727911134668
 30
0.0
 11
228.0196571615339
 21
181.5645590350528
 31
0.0
  0
LINE
  5
71F
330
71B
100
AcDbEntity
  8
0
 62
     0
370
    -2
100
AcDbLine
 10
228.0196571615339
 20
137.0727911134669
 30
0.0
 11
228.0196571615339
 21
173.6478923683861
 31
0.0
  0
SOLID
  5
720
330
71B
100
AcDbEntity
  8
0
 62
     0
100
AcDbTrace
 10
227.6863238282005
 20
217.0727911134668
 30
0.0
 11
228.3529904948672
 21
217.0727911134668
 31
0.0
 12
228.0196571615339
 22
219.0727911134668
 32
0.0
 13
228.0196571615339
 23
219.0727911134668
 33
0.0
  0
SOLID
  5
721
330
71B
100
AcDbEntity
  8
0
 62
     0
100
AcDbTrace
 10
227.6863238282005
 20
137.0727911134669
 30
0.0
 11
228.3529904948672
 21
137.0727911134669
 31
0.0
 12
228.0196571615339
 22
135.0727911134669
 32
0.0
 13
228.0196571615339
 23
135.0727911134669
 33
0.0
  0
MTEXT
  5
722
330
71B
100
AcDbEntity
  8
0
 62
     0
100
AcDbMText
 10
228.0196571615338
 20
177.6062257017195
 30
0.0
 40
4.0
 41
0.0
 71
     5
 72
     1
  1
\A1;84
 11
0.0000000000000001
 21
1.0
 31
0.0
 73
     1
 44
1.0
  0
POINT
  5
723
330
71B
100
AcDbEntity
  8
DEFPOINTS
 62
     0
100
AcDbPoint
 10
143.4434193045244
 20
219.0727911134668
 30
0.0
  0
POINT
  5
724
330
71B
100
AcDbEntity
  8
DEFPOINTS
 62
     0
100
AcDbPoint
 10
223.0821558730144
 20
135.0727911134669
 30
0.0
  0
POINT
  5
725
330
71B
100
AcDbEntity
  8
DEFPOINTS
 62
     0
100
AcDbPoint
 10
228.0196571615339
 20
135.0727911134669
 30
0.0
  0
ENDBLK
  5
727
330
71B
100
AcDbEntity
  8
0
100
AcDbBlockEnd
  0
BLOCK
  5
72A
330
728
100
AcDbEntity
  8
0
100
AcDbBlockBegin
  2
GENAXEH
 70
     0
 10
0.0
 20
0.0
 30
0.0
  3
GENAXEH
  1

  0
LINE
  5
729
330
728
100
AcDbEntity
  8
0
100
AcDbLine
 10
-1.0
 20
0.0
 30
0.0
 11
1.0
 21
0.0
 31
0.0
  0
ENDBLK
  5
72B
330
728
100
AcDbEntity
  8
0
100
AcDbBlockEnd
  0
BLOCK
  5
737
330
72C
100
AcDbEntity
  8
0
100
AcDbBlockBegin
  2
*D21
 70
     1
 10
0.0
 20
0.0
 30
0.0
  3
*D21
  1

  0
LINE
  5
72D
330
72C
100
AcDbEntity
  8
0
 62
     0
370
    -2
100
AcDbLine
 10
304.6221947075343
 20
116.0727911134669
 30
0.0
 11
304.6221947075343
 21
70.72560151632689
 31
0.0
  0
LINE
  5
72E
330
72C
100
AcDbEntity
  8
0
 62
     0
370
    -2
100
AcDbLine
 10
344.6221947075343
 20
117.0727911134669
 30
0.0
 11
344.6221947075343
 21
70.72560151632689
 31
0.0
  0
LINE
  5
72F
330
72C
100
AcDbEntity
  8
0
 62
     0
370
    -2
100
AcDbLine
 10
306.6221947075343
 20
71.72560151632689
 30
0.0
 11
321.4252180214341
 21
71.72560151632689
 31
0.0
  0
LINE
  5
730
330
72C
100
AcDbEntity
  8
0
 62
     0
370
    -2
100
AcDbLine
 10
342.6221947075343
 20
71.72560151632689
 30
0.0
 11
328.6752180214341
 21
71.72560151632689
 31
0.0
  0
SOLID
  5
731
330
72C
100
AcDbEntity
  8
0
 62
     0
100
AcDbTrace
 10
306.6221947075343
 20
72.05893484966022
 30
0.0
 11
306.6221947075343
 21
71.39226818299356
 31
0.0
 12
304.6221947075343
 22
71.72560151632689
 32
0.0
 13
304.6221947075343
 23
71.72560151632689
 33
0.0
  0
SOLID
  5
732
330
72C
100
AcDbEntity
  8
0
 62
     0
100
AcDbTrace
 10
342.6221947075343
 20
72.05893484966022
 30
0.0
 11
342.6221947075343
 21
71.39226818299356
 31
0.0
 12
344.6221947075343
 22
71.72560151632689
 32
0.0
 13
344.6221947075343
 23
71.72560151632689
 33
0.0
  0
MTEXT
  5
733
330
72C
100
AcDbEntity
  8
0
 62
     0
100
AcDbMText
 10
325.0502180214341
 20
71.72560151632689
 30
0.0
 40
4.0
 41
0.0
 71
     5
 72
     1
  1
\A1;40
 73
     1
 44
1.0
  0
POINT
  5
734
330
72C
100
AcDbEntity
  8
DEFPOINTS
 62
     0
100
AcDbPoint
 10
304.6221947075343
 20
117.0727911134669
 30
0.0
  0
POINT
  5
735
330
72C
100
AcDbEntity
  8
DEFPOINTS
 62
     0
100
AcDbPoint
 10
344.6221947075343
 20
118.0727911134669
 30
0.0
  0
POINT
  5
736
330
72C
100
AcDbEntity
  8
DEFPOINTS
 62
     0
100
AcDbPoint
 10
344.6221947075343
 20
71.72560151632689
 30
0.0
  0
ENDBLK
  5
738
330
72C
100
AcDbEntity
  8
0
100
AcDbBlockEnd
  0
BLOCK
  5
744
330
739
100
AcDbEntity
  8
0
100
AcDbBlockBegin
  2
*D22
 70
     1
 10
0.0
 20
0.0
 30
0.0
  3
*D22
  1

  0
LINE
  5
73A
330
739
100
AcDbEntity
  8
0
 62
     0
370
    -2
100
AcDbLine
 10
290.1838447405603
 20
227.1227911134668
 30
0.0
 11
262.4910357886918
 21
227.1227911134668
 31
0.0
  0
LINE
  5
73B
330
739
100
AcDbEntity
  8
0
 62
     0
370
    -2
100
AcDbLine
 10
289.6221947075343
 20
211.0227911134669
 30
0.0
 11
262.4910357886918
 21
211.0227911134669
 31
0.0
  0
LINE
  5
73C
330
739
100
AcDbEntity
  8
0
 62
     0
370
    -2
100
AcDbLine
 10
263.4910357886918
 20
225.1227911134668
 30
0.0
 11
263.4910357886918
 21
224.4723065095977
 31
0.0
  0
LINE
  5
73D
330
739
100
AcDbEntity
  8
0
 62
     0
370
    -2
100
AcDbLine
 10
263.4910357886918
 20
213.0227911134669
 30
0.0
 11
263.4910357886918
 21
213.8889731762644
 31
0.0
  0
SOLID
  5
73E
330
739
100
AcDbEntity
  8
0
 62
     0
100
AcDbTrace
 10
263.1577024553585
 20
225.1227911134668
 30
0.0
 11
263.8243691220251
 21
225.1227911134668
 31
0.0
 12
263.4910357886918
 22
227.1227911134668
 32
0.0
 13
263.4910357886918
 23
227.1227911134668
 33
0.0
  0
SOLID
  5
73F
330
739
100
AcDbEntity
  8
0
 62
     0
100
AcDbTrace
 10
263.1577024553585
 20
213.0227911134669
 30
0.0
 11
263.8243691220251
 21
213.0227911134669
 31
0.0
 12
263.4910357886918
 22
211.0227911134669
 32
0.0
 13
263.4910357886918
 23
211.0227911134669
 33
0.0
  0
MTEXT
  5
740
330
739
100
AcDbEntity
  8
0
 62
     0
100
AcDbMText
 10
263.4910357886918
 20
219.1806398429311
 30
0.0
 40
4.0
 41
0.0
 71
     5
 72
     1
  1
\A1;16.1
 11
0.0000000000000001
 21
1.0
 31
0.0
 73
     1
 44
1.0
  0
POINT
  5
741
330
739
100
AcDbEntity
  8
DEFPOINTS
 62
     0
100
AcDbPoint
 10
291.1838447405603
 20
227.1227911134668
 30
-0.0000000000000012
  0
POINT
  5
742
330
739
100
AcDbEntity
  8
DEFPOINTS
 62
     0
100
AcDbPoint
 10
290.6221947075343
 20
211.0227911134669
 30
-0.0000000000000012
  0
POINT
  5
743
330
739
100
AcDbEntity
  8
DEFPOINTS
 62
     0
100
AcDbPoint
 10
263.4910357886918
 20
211.0227911134669
 30
0.0
  0
ENDBLK
  5
745
330
739
100
AcDbEntity
  8
0
100
AcDbBlockEnd
  0
BLOCK
  5
896
330
88C
100
AcDbEntity
  8
0
100
AcDbBlockBegin
  2
*D24
 70
     1
 10
0.0
 20
0.0
 30
0.0
  3
*D24
  1

  0
LINE
  5
8E9
330
88C
100
AcDbEntity
  8
0
 62
     0
370
    -2
100
AcDbLine
 10
474.9355577397938
 20
610.9820966149112
 30
0.0
 11
447.1252487879254
 21
610.9820966149112
 31
0.0
  0
LINE
  5
8EA
330
88C
100
AcDbEntity
  8
0
 62
     0
370
    -2
100
AcDbLine
 10
474.3739077067679
 20
594.8820966149112
 30
0.0
 11
447.1252487879254
 21
594.8820966149112
 31
0.0
  0
LINE
  5
8EB
330
88C
100
AcDbEntity
  8
0
 62
     0
370
    -2
100
AcDbLine
 10
447.3052487879254
 20
608.9820966149112
 30
0.0
 11
447.3052487879254
 21
596.8820966149112
 31
0.0
  0
SOLID
  5
8EC
330
88C
100
AcDbEntity
  8
0
 62
     0
100
AcDbTrace
 10
446.971915454592
 20
608.9820966149112
 30
0.0
 11
447.6385821212587
 21
608.9820966149112
 31
0.0
 12
447.3052487879254
 22
610.9820966149112
 32
0.0
 13
447.3052487879254
 23
610.9820966149112
 33
0.0
  0
SOLID
  5
8ED
330
88C
100
AcDbEntity
  8
0
 62
     0
100
AcDbTrace
 10
446.971915454592
 20
596.8820966149112
 30
0.0
 11
447.6385821212587
 21
596.8820966149112
 31
0.0
 12
447.3052487879254
 22
594.8820966149112
 32
0.0
 13
447.3052487879254
 23
594.8820966149112
 33
0.0
  0
MTEXT
  5
8EE
330
88C
100
AcDbEntity
  8
0
 62
     0
100
AcDbMText
 10
447.3052487879253
 20
602.9320966149114
 30
0.0
 40
18.0
 41
0.0
 71
     5
 72
     1
  1
\A1;16.1000
  7
BIGFONT
 73
     1
 44
1.0
  0
POINT
  5
8EF
330
88C
100
AcDbEntity
  8
DEFPOINTS
 62
     0
100
AcDbPoint
 10
474.9980577397939
 20
610.9820966149112
 30
-0.0000000000000012
  0
POINT
  5
8F0
330
88C
100
AcDbEntity
  8
DEFPOINTS
 62
     0
100
AcDbPoint
 10
474.4364077067678
 20
594.8820966149112
 30
-0.0000000000000012
  0
POINT
  5
8F1
330
88C
100
AcDbEntity
  8
DEFPOINTS
 62
     0
100
AcDbPoint
 10
447.3052487879254
 20
594.8820966149112
 30
0.0
  0
ENDBLK
  5
897
330
88C
100
AcDbEntity
  8
0
100
AcDbBlockEnd
  0
BLOCK
  5
8A2
330
898
100
AcDbEntity
  8
0
100
AcDbBlockBegin
  2
*D25
 70
     1
 10
0.0
 20
0.0
 30
0.0
  3
*D25
  1

  0
LINE
  5
8FB
330
898
100
AcDbEntity
  8
0
 62
     0
370
    -2
100
AcDbLine
 10
511.4364077067678
 20
540.9945966149113
 30
0.0
 11
511.4364077067678
 21
615.2331658887026
 31
0.0
  0
LINE
  5
8FC
330
898
100
AcDbEntity
  8
0
 62
     0
370
    -2
100
AcDbLine
 10
528.4364077067677
 20
535.9945966149113
 30
0.0
 11
528.4364077067677
 21
615.2331658887026
 31
0.0
  0
LINE
  5
8FD
330
898
100
AcDbEntity
  8
0
 62
     0
370
    -2
100
AcDbLine
 10
513.4364077067678
 20
615.0531658887025
 30
0.0
 11
526.4364077067678
 21
615.0531658887025
 31
0.0
  0
SOLID
  5
8FE
330
898
100
AcDbEntity
  8
0
 62
     0
100
AcDbTrace
 10
513.4364077067678
 20
615.3864992220359
 30
0.0
 11
513.4364077067678
 21
614.7198325553691
 31
0.0
 12
511.4364077067678
 22
615.0531658887025
 32
0.0
 13
511.4364077067678
 23
615.0531658887025
 33
0.0
  0
SOLID
  5
8FF
330
898
100
AcDbEntity
  8
0
 62
     0
100
AcDbTrace
 10
526.4364077067678
 20
615.3864992220359
 30
0.0
 11
526.4364077067678
 21
614.7198325553691
 31
0.0
 12
528.4364077067677
 22
615.0531658887025
 32
0.0
 13
528.4364077067677
 23
615.0531658887025
 33
0.0
  0
MTEXT
  5
900
330
898
100
AcDbEntity
  8
0
 62
     0
100
AcDbMText
 10
519.9364077067677
 20
615.0531658887025
 30
0.0
 40
18.0
 41
0.0
 71
     5
 72
     1
  1
\A1;17.0000
  7
BIGFONT
 73
     1
 44
1.0
  0
POINT
  5
901
330
898
100
AcDbEntity
  8
DEFPOINTS
 62
     0
100
AcDbPoint
 10
511.4364077067678
 20
540.9320966149112
 30
0.0
  0
POINT
  5
902
330
898
100
AcDbEntity
  8
DEFPOINTS
 62
     0
100
AcDbPoint
 10
528.4364077067677
 20
535.9320966149113
 30
0.0
  0
POINT
  5
903
330
898
100
AcDbEntity
  8
DEFPOINTS
 62
     0
100
AcDbPoint
 10
528.4364077067677
 20
615.0531658887025
 30
0.0
  0
ENDBLK
  5
8A3
330
898
100
AcDbEntity
  8
0
100
AcDbBlockEnd
  0
BLOCK
  5
8AB
330
8A4
100
AcDbEntity
  8
0
100
AcDbBlockBegin
  2
*D26
 70
     1
 10
0.0
 20
0.0
 30
0.0
  3
*D26
  1

  0
LINE
  5
90A
330
8A4
100
AcDbEntity
  8
0
 62
     0
370
    -2
100
AcDbLine
 10
543.0945262492095
 20
557.1961660236677
 30
0.0
 11
541.0945262492096
 21
557.1961660236675
 31
0.0
  0
LINE
  5
90B
330
8A4
100
AcDbEntity
  8
0
 62
     0
370
    -2
100
AcDbLine
 10
541.0945262492096
 20
557.1961660236675
 30
0.0
 11
528.4011580330382
 21
539.9582927729343
 31
0.0
  0
MTEXT
  5
90C
330
8A4
100
AcDbEntity
  8
0
 62
     0
100
AcDbMText
 10
581.5845262492095
 20
557.1961660236675
 30
0.0
 40
18.0
 41
0.0
 71
     5
 72
     1
  1
\A1;R3.0000
  7
BIGFONT
 73
     1
 44
1.0
  0
SOLID
  5
90D
330
8A4
100
AcDbEntity
  8
0
 62
     0
100
AcDbTrace
 10
528.1327449558366
 20
540.1559427946856
 30
0.0
 11
528.6695711102396
 21
539.760642751183
 31
0.0
 12
527.2152579025299
 22
538.3478143097252
 32
0.0
 13
527.2152579025299
 23
538.3478143097252
 33
0.0
  0
POINT
  5
90E
330
8A4
100
AcDbEntity
  8
DEFPOINTS
 62
     0
100
AcDbPoint
 10
527.2152579025299
 20
538.3478143097252
 30
0.0
  0
POINT
  5
90F
330
8A4
100
AcDbEntity
  8
DEFPOINTS
 62
     0
100
AcDbPoint
 10
525.4364077067676
 20
535.9320966149113
 30
0.0
  0
ENDBLK
  5
8AC
330
8A4
100
AcDbEntity
  8
0
100
AcDbBlockEnd
  0
BLOCK
  5
8B8
330
8AD
100
AcDbEntity
  8
0
100
AcDbBlockBegin
  2
*D27
 70
     1
 10
0.0
 20
0.0
 30
0.0
  3
*D27
  1

  0
LINE
  5
91A
330
8AD
100
AcDbEntity
  8
0
 62
     0
370
    -2
100
AcDbLine
 10
327.320132303758
 20
602.9320966149112
 30
0.0
 11
412.0138701607674
 21
602.9320966149112
 31
0.0
  0
LINE
  5
91B
330
8AD
100
AcDbEntity
  8
0
 62
     0
370
    -2
100
AcDbLine
 10
406.9588688722479
 20
518.9320966149113
 30
0.0
 11
412.0138701607674
 21
518.9320966149113
 31
0.0
  0
LINE
  5
91C
330
8AD
100
AcDbEntity
  8
0
 62
     0
370
    -2
100
AcDbLine
 10
411.8338701607674
 20
600.9320966149113
 30
0.0
 11
411.8338701607674
 21
570.5555312031638
 31
0.0
  0
LINE
  5
91D
330
8AD
100
AcDbEntity
  8
0
 62
     0
370
    -2
100
AcDbLine
 10
411.8338701607674
 20
520.9320966149113
 30
0.0
 11
411.8338701607674
 21
552.3755312031637
 31
0.0
  0
SOLID
  5
91E
330
8AD
100
AcDbEntity
  8
0
 62
     0
100
AcDbTrace
 10
411.5005368274341
 20
600.9320966149113
 30
0.0
 11
412.1672034941007
 21
600.9320966149113
 31
0.0
 12
411.8338701607674
 22
602.9320966149112
 32
0.0
 13
411.8338701607674
 23
602.9320966149112
 33
0.0
  0
SOLID
  5
91F
330
8AD
100
AcDbEntity
  8
0
 62
     0
100
AcDbTrace
 10
411.5005368274341
 20
520.9320966149113
 30
0.0
 11
412.1672034941007
 21
520.9320966149113
 31
0.0
 12
411.8338701607674
 22
518.9320966149113
 32
0.0
 13
411.8338701607674
 23
518.9320966149113
 33
0.0
  0
MTEXT
  5
920
330
8AD
100
AcDbEntity
  8
0
 62
     0
100
AcDbMText
 10
411.8338701607673
 20
561.4655312031638
 30
0.0
 40
18.0
 41
0.0
 71
     5
 72
     1
  1
\A1;84.0000
  7
BIGFONT
 73
     1
 44
1.0
  0
POINT
  5
921
330
8AD
100
AcDbEntity
  8
DEFPOINTS
 62
     0
100
AcDbPoint
 10
327.2576323037579
 20
602.9320966149112
 30
0.0
  0
POINT
  5
922
330
8AD
100
AcDbEntity
  8
DEFPOINTS
 62
     0
100
AcDbPoint
 10
406.8963688722479
 20
518.9320966149113
 30
0.0
  0
POINT
  5
923
330
8AD
100
AcDbEntity
  8
DEFPOINTS
 62
     0
100
AcDbPoint
 10
411.8338701607674
 20
518.9320966149113
 30
0.0
  0
ENDBLK
  5
8B9
330
8AD
100
AcDbEntity
  8
0
100
AcDbBlockEnd
  0
BLOCK
  5
8C5
330
8BA
100
AcDbEntity
  8
0
100
AcDbBlockBegin
  2
*D28
 70
     1
 10
0.0
 20
0.0
 30
0.0
  3
*D28
  1

  0
LINE
  5
92E
330
8BA
100
AcDbEntity
  8
0
 62
     0
370
    -2
100
AcDbLine
 10
485.8739077067678
 20
618.9320966149113
 30
0.0
 11
435.5475357096292
 21
618.9320966149113
 31
0.0
  0
LINE
  5
92F
330
8BA
100
AcDbEntity
  8
0
 62
     0
370
    -2
100
AcDbLine
 10
485.8739077067678
 20
418.9320966149113
 30
0.0
 11
435.5475357096292
 21
418.9320966149113
 31
0.0
  0
LINE
  5
930
330
8BA
100
AcDbEntity
  8
0
 62
     0
370
    -2
100
AcDbLine
 10
435.7275357096292
 20
616.9320966149113
 30
0.0
 11
435.7275357096292
 21
528.4565888405199
 31
0.0
  0
LINE
  5
931
330
8BA
100
AcDbEntity
  8
0
 62
     0
370
    -2
100
AcDbLine
 10
435.7275357096292
 20
420.9320966149112
 30
0.0
 11
435.7275357096292
 21
510.2765888405199
 31
0.0
  0
SOLID
  5
932
330
8BA
100
AcDbEntity
  8
0
 62
     0
100
AcDbTrace
 10
435.3942023762959
 20
616.9320966149113
 30
0.0
 11
436.0608690429625
 21
616.9320966149113
 31
0.0
 12
435.7275357096292
 22
618.9320966149113
 32
0.0
 13
435.7275357096292
 23
618.9320966149113
 33
0.0
  0
SOLID
  5
933
330
8BA
100
AcDbEntity
  8
0
 62
     0
100
AcDbTrace
 10
435.3942023762959
 20
420.9320966149112
 30
0.0
 11
436.0608690429625
 21
420.9320966149112
 31
0.0
 12
435.7275357096292
 22
418.9320966149113
 32
0.0
 13
435.7275357096292
 23
418.9320966149113
 33
0.0
  0
MTEXT
  5
934
330
8BA
100
AcDbEntity
  8
0
 62
     0
100
AcDbMText
 10
435.7275357096291
 20
519.3665888405201
 30
0.0
 40
18.0
 41
0.0
 71
     5
 72
     1
  1
\A1;200.0000
  7
BIGFONT
 73
     1
 44
1.0
  0
POINT
  5
935
330
8BA
100
AcDbEntity
  8
DEFPOINTS
 62
     0
100
AcDbPoint
 10
485.9364077067678
 20
618.9320966149113
 30
0.0
  0
POINT
  5
936
330
8BA
100
AcDbEntity
  8
DEFPOINTS
 62
     0
100
AcDbPoint
 10
485.9364077067678
 20
418.9320966149113
 30
0.0
  0
POINT
  5
937
330
8BA
100
AcDbEntity
  8
DEFPOINTS
 62
     0
100
AcDbPoint
 10
435.7275357096292
 20
418.9320966149113
 30
0.0
  0
ENDBLK
  5
8C6
330
8BA
100
AcDbEntity
  8
0
100
AcDbBlockEnd
  0
BLOCK
  5
8D2
330
8C7
100
AcDbEntity
  8
0
100
AcDbBlockBegin
  2
*D29
 70
     1
 10
0.0
 20
0.0
 30
0.0
  3
*D29
  1

  0
LINE
  5
942
330
8C7
100
AcDbEntity
  8
0
 62
     0
370
    -2
100
AcDbLine
 10
525.4989077067677
 20
538.9320966149113
 30
0.0
 11
548.9571962849655
 21
538.9320966149113
 31
0.0
  0
LINE
  5
943
330
8C7
100
AcDbEntity
  8
0
 62
     0
370
    -2
100
AcDbLine
 10
525.4989077067677
 20
498.9320966149112
 30
0.0
 11
548.9571962849655
 21
498.9320966149112
 31
0.0
  0
LINE
  5
944
330
8C7
100
AcDbEntity
  8
0
 62
     0
370
    -2
100
AcDbLine
 10
548.7771962849656
 20
536.9320966149112
 30
0.0
 11
548.7771962849656
 21
528.4565888405199
 31
0.0
  0
LINE
  5
945
330
8C7
100
AcDbEntity
  8
0
 62
     0
370
    -2
100
AcDbLine
 10
548.7771962849656
 20
500.9320966149113
 30
0.0
 11
548.7771962849656
 21
510.2765888405199
 31
0.0
  0
SOLID
  5
946
330
8C7
100
AcDbEntity
  8
0
 62
     0
100
AcDbTrace
 10
548.4438629516322
 20
536.9320966149112
 30
0.0
 11
549.110529618299
 21
536.9320966149112
 31
0.0
 12
548.7771962849656
 22
538.9320966149113
 32
0.0
 13
548.7771962849656
 23
538.9320966149113
 33
0.0
  0
SOLID
  5
947
330
8C7
100
AcDbEntity
  8
0
 62
     0
100
AcDbTrace
 10
548.4438629516322
 20
500.9320966149113
 30
0.0
 11
549.110529618299
 21
500.9320966149113
 31
0.0
 12
548.7771962849656
 22
498.9320966149112
 32
0.0
 13
548.7771962849656
 23
498.9320966149112
 33
0.0
  0
MTEXT
  5
948
330
8C7
100
AcDbEntity
  8
0
 62
     0
100
AcDbMText
 10
548.7771962849655
 20
519.3665888405201
 30
0.0
 40
18.0
 41
0.0
 71
     5
 72
     1
  1
\A1;40.0000
  7
BIGFONT
 73
     1
 44
1.0
  0
POINT
  5
949
330
8C7
100
AcDbEntity
  8
DEFPOINTS
 62
     0
100
AcDbPoint
 10
525.4364077067678
 20
538.9320966149113
 30
0.0
  0
POINT
  5
94A
330
8C7
100
AcDbEntity
  8
DEFPOINTS
 62
     0
100
AcDbPoint
 10
525.4364077067678
 20
498.9320966149112
 30
0.0
  0
POINT
  5
94B
330
8C7
100
AcDbEntity
  8
DEFPOINTS
 62
     0
100
AcDbPoint
 10
548.7771962849656
 20
498.9320966149112
 30
0.0
  0
ENDBLK
  5
8D3
330
8C7
100
AcDbEntity
  8
0
100
AcDbBlockEnd
  0
BLOCK
  5
8DE
330
8D4
100
AcDbEntity
  8
0
100
AcDbBlockBegin
  2
*D30
 70
     1
 10
0.0
 20
0.0
 30
0.0
  3
*D30
  1

  0
LINE
  5
955
330
8D4
100
AcDbEntity
  8
0
 62
     0
370
    -2
100
AcDbLine
 10
488.4364077067679
 20
500.8695966149113
 30
0.0
 11
488.4364077067679
 21
455.4049070177712
 31
0.0
  0
LINE
  5
956
330
8D4
100
AcDbEntity
  8
0
 62
     0
370
    -2
100
AcDbLine
 10
528.4364077067677
 20
501.8695966149112
 30
0.0
 11
528.4364077067677
 21
455.4049070177712
 31
0.0
  0
LINE
  5
957
330
8D4
100
AcDbEntity
  8
0
 62
     0
370
    -2
100
AcDbLine
 10
490.4364077067678
 20
455.5849070177712
 30
0.0
 11
526.4364077067678
 21
455.5849070177712
 31
0.0
  0
SOLID
  5
958
330
8D4
100
AcDbEntity
  8
0
 62
     0
100
AcDbTrace
 10
490.4364077067678
 20
455.9182403511045
 30
0.0
 11
490.4364077067678
 21
455.2515736844379
 31
0.0
 12
488.4364077067679
 22
455.5849070177712
 32
0.0
 13
488.4364077067679
 23
455.5849070177712
 33
0.0
  0
SOLID
  5
959
330
8D4
100
AcDbEntity
  8
0
 62
     0
100
AcDbTrace
 10
526.4364077067678
 20
455.9182403511045
 30
0.0
 11
526.4364077067678
 21
455.2515736844379
 31
0.0
 12
528.4364077067677
 22
455.5849070177712
 32
0.0
 13
528.4364077067677
 23
455.5849070177712
 33
0.0
  0
MTEXT
  5
95A
330
8D4
100
AcDbEntity
  8
0
 62
     0
100
AcDbMText
 10
508.4364077067678
 20
455.5849070177712
 30
0.0
 40
18.0
 41
0.0
 71
     5
 72
     1
  1
\A1;40.0000
  7
BIGFONT
 73
     1
 44
1.0
  0
POINT
  5
95B
330
8D4
100
AcDbEntity
  8
DEFPOINTS
 62
     0
100
AcDbPoint
 10
488.4364077067679
 20
500.9320966149113
 30
0.0
  0
POINT
  5
95C
330
8D4
100
AcDbEntity
  8
DEFPOINTS
 62
     0
100
AcDbPoint
 10
528.4364077067677
 20
501.9320966149113
 30
0.0
  0
POINT
  5
95D
330
8D4
100
AcDbEntity
  8
DEFPOINTS
 62
     0
100
AcDbPoint
 10
528.4364077067677
 20
455.5849070177712
 30
0.0
  0
ENDBLK
  5
8DF
330
8D4
100
AcDbEntity
  8
0
100
AcDbBlockEnd
  0
ENDSEC
  0
SECTION
  2
ENTITIES
  0
ARC
  5
805
330
126
100
AcDbEntity
  8
3
100
AcDbCircle
 10
275.2074066169651
 20
518.0169520589845
 30
0.0
 40
1.916091692851348
100
AcDbArc
 50
347.1971123004834
 51
51.36531586828031
  0
ARC
  5
806
330
126
100
AcDbEntity
  8
3
100
AcDbCircle
 10
299.3963688722479
 20
518.9320966149113
 30
0.0
 40
18.0
100
AcDbArc
 50
90.0
 51
270.0
  0
ARC
  5
807
330
126
100
AcDbEntity
  8
3
100
AcDbCircle
 10
299.3963688722479
 20
518.9320966149113
 30
0.0
 40
88.49999999999999
100
AcDbArc
 50
100.4158343948439
 51
270.0
  0
ARC
  5
808
330
126
100
AcDbEntity
  8
3
100
AcDbCircle
 10
299.3963688722479
 20
518.9320966149113
 30
0.0
 40
79.0
100
AcDbArc
 50
97.63786312307509
 51
202.362136876924
  0
LINE
  5
809
330
126
100
AcDbEntity
  8
1
100
AcDbLine
 10
299.3963688722479
 20
518.9320966149113
 30
0.0
 11
299.3963688722479
 21
411.9320966149112
 31
0.0
  0
ARC
  5
80A
330
126
100
AcDbEntity
  8
3
100
AcDbCircle
 10
299.3963688722479
 20
518.9320966149113
 30
0.0
 40
21.0
100
AcDbArc
 50
90.0
 51
270.0
  0
LINE
  5
80B
330
126
100
AcDbEntity
  8
3
100
AcDbLine
 10
276.4037234042814
 20
519.5136930251504
 30
0.0
 11
226.3373539848452
 21
488.8758103559227
 31
0.0
  0
LINE
  5
80D
330
126
100
AcDbEntity
  8
1
100
AcDbLine
 10
206.7316506673129
 20
465.4320966149112
 30
0.0
 11
299.3963688722478
 21
518.9320966149113
 31
0.0
  0
LINE
  5
810
330
126
100
AcDbEntity
  8
3
100
AcDbLine
 10
288.4037234042814
 20
498.7290833343237
 30
0.0
 11
236.8373539848452
 21
470.6892768764494
 31
0.0
  0
ARC
  5
811
330
126
100
AcDbEntity
  8
3
100
AcDbCircle
 10
299.3963688722479
 20
518.9320966149113
 30
0.0
 40
79.0
100
AcDbArc
 50
217.6378631230765
 51
270.0
  0
ARC
  5
812
330
126
100
AcDbEntity
  8
3
100
AcDbCircle
 10
278.2165088870659
 20
506.7038987510679
 30
0.0
 40
56.061976181929
100
AcDbArc
 50
200.5029997875502
 51
219.4970002124491
  0
ARC
  5
813
330
126
100
AcDbEntity
  8
3
100
AcDbCircle
 10
236.1663523926596
 20
472.2891765581263
 30
0.0
 40
1.734912714849095
100
AcDbArc
 50
225.7544290966182
 51
292.753288509992
  0
ARC
  5
814
330
126
100
AcDbEntity
  8
3
100
AcDbCircle
 10
227.3874069565912
 20
487.4947560902718
 30
0.0
 40
1.734912714849095
100
AcDbArc
 50
127.2467114900072
 51
194.2455709033838
  0
ARC
  5
817
330
126
100
AcDbEntity
  8
3
100
AcDbCircle
 10
299.3963688722479
 20
518.9320966149113
 30
0.0
 40
23.0
100
AcDbArc
 50
241.44898138938
 51
270.0
  0
ARC
  5
818
330
126
100
AcDbEntity
  8
3
100
AcDbCircle
 10
300.8442134219944
 20
519.7680100554522
 30
0.0
 40
23.86772046852351
100
AcDbArc
 50
185.2300504637828
 51
234.7699495362155
  0
ARC
  5
819
330
126
100
AcDbEntity
  8
3
100
AcDbCircle
 10
286.5093493110388
 20
498.4414130886169
 30
0.0
 40
1.916091692851348
100
AcDbArc
 50
8.634684131720609
 51
72.80288769951451
  0
LINE
  5
820
330
126
100
AcDbEntity
  8
1
100
AcDbLine
 10
299.3963688722479
 20
518.9320966149113
 30
0.0
 11
193.3963688722479
 21
518.9320966149113
 31
0.0
  0
ARC
  5
821
330
126
100
AcDbEntity
  8
3
100
AcDbCircle
 10
299.3963688722479
 20
602.9320966149112
 30
0.0
 40
4.099999999999999
100
AcDbArc
 50
90.0
 51
270.0
  0
ARC
  5
822
330
126
100
AcDbEntity
  8
3
100
AcDbCircle
 10
299.3963688722479
 20
602.9320966149112
 30
0.0
 40
8.05
100
AcDbArc
 50
90.0
 51
270.0
  0
ARC
  5
823
330
126
100
AcDbEntity
  8
0
100
AcDbCircle
 10
299.3963688722479
 20
602.9320966149112
 30
0.0
 40
5.0
100
AcDbArc
 50
90.00000000000063
 51
269.9999999999993
  0
ARC
  5
825
330
126
100
AcDbEntity
  8
3
100
AcDbCircle
 10
282.4277529027378
 20
599.594321021904
 30
0.0
 40
6.452547806738841
100
AcDbArc
 50
21.24168118716403
 51
81.36648301319359
  0
LINE
  5
827
330
126
100
AcDbEntity
  8
3
100
AcDbLine
 10
287.3963688722479
 20
538.5535134852598
 30
0.0
 11
288.8963688722479
 21
597.2312026123618
 31
0.0
  0
ARC
  5
829
330
126
100
AcDbEntity
  8
3
100
AcDbCircle
 10
288.0944261781742
 20
540.3379246971326
 30
0.0
 40
1.916091692851348
100
AcDbArc
 50
248.6346841317208
 51
312.8028876995145
  0
ARC
  5
82A
330
126
100
AcDbEntity
  8
3
100
AcDbCircle
 10
299.3963688722479
 20
518.9320966149113
 30
0.0
 40
23.0
100
AcDbArc
 50
121.44898138938
 51
178.5510186106187
  0
ARC
  5
82B
330
126
100
AcDbEntity
  8
3
100
AcDbCircle
 10
299.3963688722479
 20
517.2602697338295
 30
0.0
 40
23.86772046852351
100
AcDbArc
 50
90.0
 51
114.7699495362171
  0
ARC
  5
82D
330
126
100
AcDbEntity
  8
3
100
AcDbCircle
 10
299.3963688722479
 20
602.9320966149112
 30
0.0
 40
11.0
100
AcDbArc
 50
185.2159085704526
 51
270.0
  0
ARC
  5
830
330
126
100
AcDbEntity
  8
3
100
AcDbCircle
 10
290.6174234361794
 20
597.0123571963358
 30
0.0
 40
1.734912714849095
100
AcDbArc
 50
133.1967834307032
 51
172.7532885099928
  0
LINE
  5
835
330
126
100
AcDbEntity
  8
3
100
AcDbLine
 10
528.4364077067677
 20
518.9320966149113
 30
0.0
 11
528.4364077067677
 21
501.9320966149113
 31
0.0
  0
LINE
  5
836
330
126
100
AcDbEntity
  8
2
100
AcDbLine
 10
488.4364077067679
 20
518.9320966149113
 30
0.0
 11
488.4364077067679
 21
500.9320966149113
 31
0.0
  0
ARC
  5
837
330
126
100
AcDbEntity
  8
2
100
AcDbCircle
 10
497.9330293283894
 20
514.090880398695
 30
0.0
 40
4.841217394994293
100
AcDbArc
 50
43.64280206427021
 51
132.1150051424076
  0
LINE
  5
838
330
126
100
AcDbEntity
  8
3
100
AcDbLine
 10
474.4364077067678
 20
518.9320966149113
 30
0.0
 11
474.4364077067678
 21
430.4320966149113
 31
0.0
  0
LINE
  5
839
330
126
100
AcDbEntity
  8
3
100
AcDbLine
 10
511.4364077067678
 20
518.9320966149113
 30
0.0
 11
511.4364077067678
 21
496.9320966149113
 31
0.0
  0
LINE
  5
83A
330
126
100
AcDbEntity
  8
3
100
AcDbLine
 10
497.4364077067679
 20
495.6520733342905
 30
0.0
 11
497.4364077067679
 21
518.9320966149113
 31
0.0
  0
ARC
  5
83C
330
126
100
AcDbEntity
  8
3
100
AcDbCircle
 10
502.2223434771294
 20
524.4367477925043
 30
0.0
 40
29.0069787470011
100
AcDbArc
 50
260.5031975574969
 51
288.5208608745809
  0
MTEXT
  5
83E
102
{ACAD_REACTORS
330
83D
102
}
330
126
100
AcDbEntity
  8
0
100
AcDbMText
 10
471.0294268841705
 20
414.5828914468014
 30
0.0
 40
4.0
 41
0.0
 71
     1
 72
     1
  1
 
 73
     1
 44
1.0
  0
ARC
  5
83F
330
126
100
AcDbEntity
  8
2
100
AcDbCircle
 10
485.9364077067678
 20
431.4320966149112
 30
0.0
 40
8.499999999999989
100
AcDbArc
 50
13.60896063078682
 51
166.3910393692128
  0
LINE
  5
840
330
126
100
AcDbEntity
  8
3
100
AcDbLine
 10
497.4364077067679
 20
495.6520733342905
 30
0.0
 11
497.4364077067678
 21
430.4320966149113
 31
0.0
  0
ARC
  5
841
330
126
100
AcDbEntity
  8
3
100
AcDbCircle
 10
485.9364077067678
 20
430.4320966149113
 30
0.0
 40
11.5
100
AcDbArc
 50
180.0
 51
0.0
  0
ARC
  5
842
330
126
100
AcDbEntity
  8
2
100
AcDbCircle
 10
472.9117184233786
 20
435.3262079921962
 30
0.0
 40
5.126109985569142
100
AcDbArc
 50
287.3036639524988
 51
338.3150504582121
  0
MTEXT
  5
844
102
{ACAD_REACTORS
330
843
102
}
330
126
100
AcDbEntity
  8
0
100
AcDbMText
 10
496.8317256926185
 20
412.8553296847996
 30
0.0
 40
4.0
 41
0.0
 71
     9
 72
     1
  1
 
 73
     1
 44
1.0
  0
ARC
  5
845
330
126
100
AcDbEntity
  8
2
100
AcDbCircle
 10
498.9610969901571
 20
435.3262079921962
 30
0.0
 40
5.126109985569142
100
AcDbArc
 50
201.6849495417878
 51
252.6963360475011
  0
ARC
  5
846
330
126
100
AcDbEntity
  8
2
100
AcDbCircle
 10
472.250749064035
 20
478.6613812009561
 30
0.0
 40
18.95222201786838
100
AcDbArc
 50
346.3517344918761
 51
1.083564110987298
  0
LINE
  5
847
330
126
100
AcDbEntity
  8
2
100
AcDbLine
 10
497.4364077067679
 20
489.0282504610653
 30
0.0
 11
490.6678091131655
 21
474.1893996981677
 31
0.0
  0
ARC
  5
848
330
126
100
AcDbEntity
  8
2
100
AcDbCircle
 10
502.2630269643375
 20
479.7387933811103
 30
0.0
 40
21.60464679263002
100
AcDbArc
 50
162.3345508897587
 51
194.5416889578803
  0
ARC
  5
849
330
126
100
AcDbEntity
  8
2
100
AcDbCircle
 10
486.026079078829
 20
475.5160327140093
 30
0.0
 40
4.82758872216612
100
AcDbArc
 50
194.415390679907
 51
344.0497605550159
  0
ARC
  5
84A
330
126
100
AcDbEntity
  8
2
100
AcDbCircle
 10
502.4460156938105
 20
525.1806281238862
 30
0.0
 40
29.77772915112971
100
AcDbArc
 50
246.2148345202293
 51
260.3148801748752
  0
LINE
  5
84B
330
126
100
AcDbEntity
  8
1
100
AcDbLine
 10
497.9364077067678
 20
501.9320966149113
 30
0.0
 11
497.9364077067678
 21
494.6820966149113
 31
0.0
  0
LINE
  5
84C
330
126
100
AcDbEntity
  8
2
100
AcDbLine
 10
503.4364077067678
 20
502.1820966149113
 30
0.0
 11
500.3627836661983
 21
495.4437669875087
 31
0.0
  0
LINE
  5
84D
330
126
100
AcDbEntity
  8
2
100
AcDbLine
 10
487.0600032123858
 20
499.9967033564843
 30
0.0
 11
481.6771548937068
 21
486.2949076362103
 31
0.0
  0
ARC
  5
84E
330
126
100
AcDbEntity
  8
2
100
AcDbCircle
 10
486.033167474577
 20
484.1671727103555
 30
0.0
 40
4.709631719138753
100
AcDbArc
 50
31.71331474491294
 51
91.17722929146768
  0
ARC
  5
84F
330
126
100
AcDbEntity
  8
2
100
AcDbCircle
 10
486.8082525087116
 20
482.9868367010997
 30
0.0
 40
6.105038578619348
100
AcDbArc
 50
122.964227698015
 51
147.1897117491219
  0
ARC
  5
850
330
126
100
AcDbEntity
  8
2
100
AcDbCircle
 10
486.0858993965107
 20
484.1006848078492
 30
0.0
 40
4.777464993609656
100
AcDbArc
 50
91.79313532716816
 51
122.9642276980181
  0
ARC
  5
851
330
126
100
AcDbEntity
  8
2
100
AcDbCircle
 10
455.8108777994737
 20
479.7986575734515
 30
0.0
 40
35.39727441737233
100
AcDbArc
 50
358.7391680447927
 51
7.01455393023981
  0
ARC
  5
852
330
126
100
AcDbEntity
  8
2
100
AcDbCircle
 10
485.3429656698209
 20
483.5371163893108
 30
0.0
 40
5.630643444557506
100
AcDbArc
 50
5.9564708501279
 51
33.47565909319764
  0
LINE
  5
853
330
126
100
AcDbEntity
  8
3
100
AcDbLine
 10
500.3627836661983
 20
495.4437669875087
 30
0.0
 11
497.4364077067679
 21
489.0282504610653
 31
0.0
  0
LINE
  5
854
330
126
100
AcDbEntity
  8
2
100
AcDbLine
 10
492.4364077067678
 20
513.6820966149112
 30
0.0
 11
487.0600032123858
 21
499.9967033564843
 31
0.0
  0
LINE
  5
855
330
126
100
AcDbEntity
  8
2
100
AcDbLine
 10
488.4364077067679
 20
500.9320966149113
 30
0.0
 11
490.4364077067677
 21
497.9320966149114
 31
0.0
  0
ARC
  5
856
330
126
100
AcDbEntity
  8
2
100
AcDbCircle
 10
468.2616468674033
 20
507.1961268383414
 30
0.0
 40
35.6804657238734
100
AcDbArc
 50
353.1364059098036
 51
9.657956144790697
  0
ARC
  5
857
330
126
100
AcDbEntity
  8
2
100
AcDbCircle
 10
514.0298939417863
 20
508.6820966149113
 30
0.0
 40
22.1097523229441
100
AcDbArc
 50
167.5940164221545
 51
192.4059835778454
  0
ARC
  5
858
330
126
100
AcDbEntity
  8
2
100
AcDbCircle
 10
498.1864077067678
 20
503.6946315730906
 30
0.0
 40
4.971837619182855
100
AcDbArc
 50
229.180223944062
 51
310.8197760559379
  0
ARC
  5
859
330
126
100
AcDbEntity
  8
2
100
AcDbCircle
 10
500.3787153990755
 20
506.1147889226035
 30
0.0
 40
8.236771041454845
100
AcDbArc
 50
195.3665775376563
 51
228.6441888785104
  0
ARC
  5
85A
330
126
100
AcDbEntity
  8
2
100
AcDbCircle
 10
498.0614077067678
 20
504.8070966149112
 30
0.0
 40
5.92927061281571
100
AcDbArc
 50
304.6951535312351
 51
341.565051177079
  0
ARC
  5
85B
330
126
100
AcDbEntity
  8
2
100
AcDbCircle
 10
500.9527120545938
 20
511.6440531366504
 30
0.0
 40
8.701984786527296
100
AcDbArc
 50
136.0627856630029
 51
168.1426722751033
  0
ARC
  5
85C
330
126
100
AcDbEntity
  8
2
100
AcDbCircle
 10
496.4864077067678
 20
512.5070966149112
 30
0.0
 40
6.982701840978175
100
AcDbArc
 50
5.547299587421324
 51
44.85494770352814
  0
LINE
  5
85E
330
126
100
AcDbEntity
  8
3
100
AcDbLine
 10
525.4364077067678
 20
498.9320966149112
 30
0.0
 11
511.4364077067678
 21
498.9320966149112
 31
0.0
  0
ARC
  5
85F
330
126
100
AcDbEntity
  8
3
100
AcDbCircle
 10
525.4364077067678
 20
501.9320966149113
 30
0.0
 40
3.0
100
AcDbArc
 50
270.0
 51
0.0
  0
LINE
  5
861
330
126
100
AcDbEntity
  8
1
100
AcDbLine
 10
462.3585044771395
 20
602.9320966149112
 30
-0.0000000000000018
 11
502.5566557647756
 21
602.9320966149112
 31
0.0
  0
LINE
  5
862
330
126
100
AcDbEntity
  8
3
100
AcDbLine
 10
476.4364077067678
 20
594.8820966149112
 30
-0.0000000000000012
 11
476.4364077067678
 21
610.9820966149112
 31
-0.0000000000000012
  0
LINE
  5
863
330
126
100
AcDbEntity
  8
3
100
AcDbLine
 10
476.4364077067678
 20
598.8320966149112
 30
-0.0000000000000018
 11
494.1977635276971
 21
598.8320966149112
 31
-0.0000000000000018
  0
LINE
  5
864
330
126
100
AcDbEntity
  8
0
100
AcDbLine
 10
476.4364077067678
 20
597.9320966149113
 30
-0.0000000000000018
 11
494.1977635276971
 21
597.9320966149113
 31
-0.0000000000000018
  0
LINE
  5
865
330
126
100
AcDbEntity
  8
3
100
AcDbLine
 10
474.4364077067678
 20
602.9320966149112
 30
-0.0000000000000012
 11
474.4364077067678
 21
594.8820966149112
 31
-0.0000000000000012
  0
LINE
  5
866
330
126
100
AcDbEntity
  8
3
100
AcDbLine
 10
474.4364077067678
 20
594.8820966149112
 30
-0.0000000000000012
 11
476.4364077067678
 21
594.8820966149112
 31
-0.0000000000000012
  0
LINE
  5
867
330
126
100
AcDbEntity
  8
3
100
AcDbLine
 10
496.2995592267374
 20
607.0320966149113
 30
-0.0000000000000018
 11
476.4364077067678
 21
607.0320966149113
 31
-0.0000000000000018
  0
LINE
  5
868
330
126
100
AcDbEntity
  8
0
100
AcDbLine
 10
497.4255329998438
 20
607.9320966149112
 30
-0.0000000000000018
 11
476.4364077067678
 21
607.9320966149112
 31
-0.0000000000000018
  0
LINE
  5
869
330
126
100
AcDbEntity
  8
3
100
AcDbLine
 10
476.4364077067678
 20
610.9820966149112
 30
-0.0000000000000012
 11
474.9980577397939
 21
610.9820966149112
 31
-0.0000000000000012
  0
ARC
  5
86A
330
126
100
AcDbEntity
  8
3
100
AcDbCircle
 10
501.3530743734345
 20
507.8487632815779
 30
0.0
 40
34.58584328241188
100
AcDbArc
 50
73.04951809382368
 51
85.71639547820682
  0
LINE
  5
86B
330
126
100
AcDbEntity
  8
1
100
AcDbLine
 10
467.9364077067678
 20
518.9320966149113
 30
0.0
 11
532.4364077067677
 21
518.9320966149113
 31
0.0
  0
LINE
  5
86C
330
126
100
AcDbEntity
  8
3
100
AcDbLine
 10
494.197763527697
 20
604.4320966149113
 30
0.0
 11
494.1977635276971
 21
594.3524943059308
 31
0.0
  0
LINE
  5
86D
330
126
100
AcDbEntity
  8
3
100
AcDbLine
 10
474.4364077067678
 20
518.9320966149113
 30
0.0
 11
474.4364077067678
 21
607.4320966149112
 31
0.0
  0
LINE
  5
86E
330
126
100
AcDbEntity
  8
3
100
AcDbLine
 10
497.436407706768
 20
607.4320966149112
 30
0.0
 11
497.436407706768
 21
570.9713123011847
 31
0.0
  0
LINE
  5
870
330
126
100
AcDbEntity
  8
3
100
AcDbLine
 10
481.964816797677
 20
591.6820966149112
 30
0.0
 11
491.6321316910063
 21
544.4196682475229
 31
0.0
  0
LINE
  5
871
330
126
100
AcDbEntity
  8
3
100
AcDbLine
 10
492.2875440704042
 20
593.1820966149112
 30
0.0
 11
503.9364077067678
 21
542.9320966149113
 31
0.0
  0
ARC
  5
872
330
126
100
AcDbEntity
  8
3
100
AcDbCircle
 10
496.9669053380605
 20
533.2796103115813
 30
0.0
 40
9.322176426581419
100
AcDbArc
 50
122.6582473191643
 51
134.4698289396504
  0
LINE
  5
873
330
126
100
AcDbEntity
  8
3
100
AcDbLine
 10
488.4364077067679
 20
536.9320966149112
 30
0.0
 11
490.4364077067678
 21
539.9320966149113
 31
0.0
  0
LINE
  5
874
330
126
100
AcDbEntity
  8
3
100
AcDbLine
 10
488.4364077067679
 20
518.9320966149113
 30
0.0
 11
488.4364077067679
 21
536.9320966149112
 31
0.0
  0
LINE
  5
875
330
126
100
AcDbEntity
  8
3
100
AcDbLine
 10
491.9364077067678
 20
541.127990202353
 30
0.0
 11
491.9364077067678
 21
541.4137247052924
 31
0.0
  0
ARC
  5
876
330
126
100
AcDbEntity
  8
3
100
AcDbCircle
 10
476.9364077067678
 20
541.4137247052924
 30
0.0
 40
15.0
100
AcDbArc
 50
0.0
 51
11.56013079421838
  0
LINE
  5
877
330
126
100
AcDbEntity
  8
3
100
AcDbLine
 10
503.9364077067678
 20
542.3379926792383
 30
0.0
 11
503.9364077067678
 21
542.9320966149113
 31
0.0
  0
LINE
  5
878
330
126
100
AcDbEntity
  8
3
100
AcDbLine
 10
474.4364077067678
 20
591.9320966149113
 30
0.0
 11
481.964816797677
 21
591.6820966149113
 31
0.0
  0
LINE
  5
879
330
126
100
AcDbEntity
  8
3
100
AcDbLine
 10
492.2875440704042
 20
593.1820966149112
 30
0.0
 11
494.1977635276971
 21
594.3524943059308
 31
0.0
  0
ARC
  5
87D
330
126
100
AcDbEntity
  8
3
100
AcDbCircle
 10
485.9364077067678
 20
607.4320966149112
 30
0.0
 40
11.5
100
AcDbArc
 50
0.0
 51
180.0
  0
ARC
  5
87E
330
126
100
AcDbEntity
  8
3
100
AcDbCircle
 10
498.2491997570729
 20
603.3065125143012
 30
0.0
 40
4.204887048214946
100
AcDbArc
 50
101.1452561957081
 51
164.4734582149964
  0
LINE
  5
881
330
126
100
AcDbEntity
  8
3
100
AcDbLine
 10
511.4364077067678
 20
538.9320966149113
 30
0.0
 11
511.4364077067678
 21
540.9320966149112
 31
0.0
  0
LINE
  5
882
330
126
100
AcDbEntity
  8
3
100
AcDbLine
 10
525.4364077067678
 20
538.9320966149113
 30
0.0
 11
511.4364077067678
 21
538.9320966149113
 31
0.0
  0
LINE
  5
883
330
126
100
AcDbEntity
  8
3
100
AcDbLine
 10
528.4364077067677
 20
518.9320966149113
 30
0.0
 11
528.4364077067677
 21
535.9320966149113
 31
0.0
  0
ARC
  5
884
330
126
100
AcDbEntity
  8
3
100
AcDbCircle
 10
525.4364077067678
 20
535.9320966149113
 30
0.0
 40
3.0
100
AcDbArc
 50
0.0
 51
90.0
  0
LINE
  5
88B
330
126
100
AcDbEntity
  8
1
100
AcDbLine
 10
299.3963688722479
 20
625.9320966149113
 30
0.0
 11
299.3963688722479
 21
518.9320966149113
 31
0.0
  0
ARC
  5
95F
330
126
100
AcDbEntity
  8
3
100
AcDbCircle
 10
299.3963688722479
 20
518.9320966149113
 30
0.0
 40
100.0
100
AcDbArc
 50
90.0
 51
270.0
  0
ARC
  5
960
330
126
100
AcDbEntity
  8
3
100
AcDbCircle
 10
299.3963688722479
 20
518.9320966149113
 30
0.0
 40
100.0
100
AcDbArc
 50
270.0
 51
90.0
  0
LINE
  5
961
330
126
100
AcDbEntity
  8
1
100
AcDbLine
 10
299.3963688722479
 20
518.9320966149113
 30
0.0
 11
405.3963688722479
 21
518.9320966149113
 31
0.0
  0
LINE
  5
962
330
126
100
AcDbEntity
  8
1
100
AcDbLine
 10
392.0610870771828
 20
465.4320966149112
 30
0.0
 11
299.3963688722479
 21
518.9320966149113
 31
0.0
  0
ARC
  5
963
330
126
100
AcDbEntity
  8
3
100
AcDbCircle
 10
299.3963688722479
 20
518.9320966149113
 30
0.0
 40
79.0
100
AcDbArc
 50
337.6378631230759
 51
82.36213687692494
  0
ARC
  5
964
330
126
100
AcDbEntity
  8
3
100
AcDbCircle
 10
299.3963688722479
 20
518.9320966149113
 30
0.0
 40
88.49999999999999
100
AcDbArc
 50
270.0
 51
79.58416560515606
  0
ARC
  5
965
330
126
100
AcDbEntity
  8
3
100
AcDbCircle
 10
299.3963688722479
 20
518.9320966149113
 30
0.0
 40
23.0
100
AcDbArc
 50
1.448981389381223
 51
58.55101861061991
  0
ARC
  5
966
330
126
100
AcDbEntity
  8
3
100
AcDbCircle
 10
299.3963688722479
 20
518.9320966149113
 30
0.0
 40
21.0
100
AcDbArc
 50
270.0
 51
90.0
  0
ARC
  5
967
330
126
100
AcDbEntity
  8
3
100
AcDbCircle
 10
299.3963688722479
 20
518.9320966149113
 30
0.0
 40
18.0
100
AcDbArc
 50
270.0
 51
90.0
  0
ARC
  5
968
330
126
100
AcDbEntity
  8
3
100
AcDbCircle
 10
299.3963688722479
 20
518.9320966149113
 30
0.0
 40
23.0
100
AcDbArc
 50
270.0
 51
298.5510186106198
  0
ARC
  5
969
330
126
100
AcDbEntity
  8
3
100
AcDbCircle
 10
299.3963688722479
 20
518.9320966149113
 30
0.0
 40
79.0
100
AcDbArc
 50
270.0
 51
322.3621368769234
  0
LINE
  5
96A
330
126
100
AcDbEntity
  8
3
100
AcDbLine
 10
310.3890143402144
 20
498.7290833343237
 30
0.0
 11
361.9553837596506
 21
470.6892768764494
 31
0.0
  0
LINE
  5
96B
330
126
100
AcDbEntity
  8
3
100
AcDbLine
 10
322.3890143402144
 20
519.5136930251504
 30
0.0
 11
372.4553837596506
 21
488.8758103559227
 31
0.0
  0
ARC
  5
96C
330
126
100
AcDbEntity
  8
3
100
AcDbCircle
 10
320.5762288574299
 20
506.7038987510679
 30
0.0
 40
56.061976181929
100
AcDbArc
 50
320.5029997875509
 51
339.4970002124497
  0
ARC
  5
96D
330
126
100
AcDbEntity
  8
3
100
AcDbCircle
 10
371.4053307879046
 20
487.4947560902718
 30
0.0
 40
1.734912714849095
100
AcDbArc
 50
345.7544290966161
 51
52.75328850999271
  0
ARC
  5
96E
330
126
100
AcDbEntity
  8
3
100
AcDbCircle
 10
362.6263853518362
 20
472.2891765581263
 30
0.0
 40
1.734912714849095
100
AcDbArc
 50
247.2467114900079
 51
314.2455709033818
  0
ARC
  5
96F
330
126
100
AcDbEntity
  8
3
100
AcDbCircle
 10
312.283388433457
 20
498.4414130886169
 30
0.0
 40
1.916091692851348
100
AcDbArc
 50
107.1971123004854
 51
171.3653158682793
  0
ARC
  5
970
330
126
100
AcDbEntity
  8
3
100
AcDbCircle
 10
297.9485243225014
 20
519.7680100554522
 30
0.0
 40
23.86772046852351
100
AcDbArc
 50
305.2300504637844
 51
354.7699495362171
  0
ARC
  5
971
330
126
100
AcDbEntity
  8
3
100
AcDbCircle
 10
323.5853311275307
 20
518.0169520589845
 30
0.0
 40
1.916091692851348
100
AcDbArc
 50
128.6346841317197
 51
192.8028876995165
  0
ARC
  5
972
330
126
100
AcDbEntity
  8
3
100
AcDbCircle
 10
299.3963688722479
 20
517.2602697338295
 30
0.0
 40
23.86772046852351
100
AcDbArc
 50
65.2300504637829
 51
90.0
  0
ARC
  5
973
330
126
100
AcDbEntity
  8
0
100
AcDbCircle
 10
299.3963688722478
 20
602.9320966149112
 30
0.0
 40
5.0
100
AcDbArc
 50
270.0000000000006
 51
89.99999999999937
  0
ARC
  5
974
330
126
100
AcDbEntity
  8
3
100
AcDbCircle
 10
299.3963688722479
 20
602.9320966149112
 30
0.0
 40
4.099999999999999
100
AcDbArc
 50
270.0
 51
90.0
  0
ARC
  5
975
330
126
100
AcDbEntity
  8
3
100
AcDbCircle
 10
299.3963688722479
 20
602.9320966149112
 30
0.0
 40
11.0
100
AcDbArc
 50
270.0
 51
354.7840914295473
  0
ARC
  5
976
330
126
100
AcDbEntity
  8
3
100
AcDbCircle
 10
299.3963688722478
 20
602.9320966149112
 30
0.0
 40
8.05
100
AcDbArc
 50
270.0
 51
90.0
  0
LINE
  5
977
330
126
100
AcDbEntity
  8
3
100
AcDbLine
 10
311.3963688722479
 20
538.5535134852598
 30
0.0
 11
309.8963688722479
 21
597.2312026123618
 31
0.0
  0
ARC
  5
978
330
126
100
AcDbEntity
  8
3
100
AcDbCircle
 10
310.6983115663216
 20
540.3379246971326
 30
0.0
 40
1.916091692851348
100
AcDbArc
 50
227.1971123004854
 51
291.3653158682791
  0
ARC
  5
979
330
126
100
AcDbEntity
  8
3
100
AcDbCircle
 10
316.364984841758
 20
599.594321021904
 30
0.0
 40
6.452547806738841
100
AcDbArc
 50
98.63351698680641
 51
158.7583188128359
  0
ARC
  5
97A
330
126
100
AcDbEntity
  8
3
100
AcDbCircle
 10
308.1753143083163
 20
597.0123571963358
 30
0.0
 40
1.734912714849095
100
AcDbArc
 50
7.24671149000718
 51
46.80321656929676
  0
ENDSEC
  0
SECTION
  2
OBJECTS
  0
DICTIONARY
  5
11B
330
0
100
AcDbDictionary
281
     1
  3
ACAD_GROUP
350
11C
  3
ACAD_LAYOUT
350
607
  3
ACAD_MLINESTYLE
350
129
  3
ACAD_PLOTSETTINGS
350
608
  3
ACAD_PLOTSTYLENAME
350
605
  3
ACDBVARIABLEDICTIONARY
350
13E
  3
AcmDictionary
350
6C5
  3
AMG
350
60C
  3
AMGSNAPSETTINGS
350
6E2
  3
DWGPROPS
350
6EA
  3
MAPISURF_MODULE
350
698
  0
DICTIONARY
  5
97B
330
126
100
AcDbDictionary
280
     1
281
     1
  3
ACAD_INDEX
360
97C
  0
DICTIONARY
  5
11C
102
{ACAD_REACTORS
330
11B
102
}
330
11B
100
AcDbDictionary
281
     1
  0
DICTIONARY
  5
607
102
{ACAD_REACTORS
330
11B
102
}
330
11B
100
AcDbDictionary
281
     1
  3
Model
350
609
  3
ﾚｲｱｳﾄ1
350
60A
  0
DICTIONARY
  5
129
102
{ACAD_REACTORS
330
11B
102
}
330
11B
100
AcDbDictionary
281
     1
  3
STANDARD
350
12A
  0
DICTIONARY
  5
608
102
{ACAD_REACTORS
330
11B
102
}
330
11B
100
AcDbDictionary
281
     1
  0
ACDBDICTIONARYWDFLT
  5
605
102
{ACAD_REACTORS
330
11B
102
}
330
11B
100
AcDbDictionary
281
     1
  3
Normal
350
606
100
AcDbDictionaryWithDefault
340
606
  0
DICTIONARY
  5
13E
102
{ACAD_REACTORS
330
11B
102
}
330
11B
100
AcDbDictionary
281
     1
  3
DIMADEC
350
13F
  3
DIMASSOC
350
987
  3
INDEXCTL
350
986
  0
DICTIONARY
  5
6C5
102
{ACAD_REACTORS
330
11B
102
}
330
11B
100
AcDbDictionary
281
     1
  3
AcmBOMDATA
350
6C6
  3
AcmStdDictionary
350
7E5
  0
DICTIONARY
  5
60C
102
{ACAD_REACTORS
330
11B
102
}
330
11B
100
AcDbDictionary
281
     1
  3
AcMgSettings
350
60D
  3
AMGLAYCFG
350
6D2
  0
DICTIONARY
  5
6E2
102
{ACAD_REACTORS
330
11B
102
}
330
11B
100
AcDbDictionary
281
     1
  3
DIMENSION
350
6E7
  3
FEA
350
6E6
  3
HATCH (1)
350
6E3
  3
HATCH (2)
350
6E4
  3
SIMPLE WELD
350
6E8
  3
SYMBOLS
350
6E5
  0
XRECORD
  5
6EA
102
{ACAD_REACTORS
330
11B
102
}
330
11B
100
AcDbXrecord
280
     1
  1
DWGPROPS COOKIE
  2

  3

  4

  6

  7

  8

  9

300
AmdtFileType=84
301
=
302
=
303
=
304
=
305
=
306
=
307
=
308
=
309
=
 40
0.0280688657407408
 41
2450683.391562499
 42
2453551.648688322
  1

 90
        1
  0
DICTIONARY
  5
97C
102
{ACAD_REACTORS
330
97B
102
}
330
97B
100
AcDbDictionary
281
     1
  3
*A1
350
97D
  0
LAYOUT
  5
609
102
{ACAD_REACTORS
330
607
102
}
330
607
100
AcDbPlotSettings
  1

  2
\\KONISHIDENXP\SHARP MX-2700FG
  4

  6

 40
0.0
 41
0.0
 42
0.0
 43
0.0
 44
0.0
 45
0.0
 46
0.0
 47
0.0
 48
0.0
 49
0.0
140
0.0
141
0.0
142
1.0
143
1.0
 70
  1712
 72
     0
 73
     0
 74
     0
  7

 75
     0
147
1.0
148
0.0
149
0.0
100
AcDbLayout
  1
Model
 70
     1
 71
     0
 10
0.0
 20
0.0
 11
12.0
 21
9.0
 12
0.0
 22
0.0
 32
0.0
 14
0.0
 24
0.0
 34
0.0
 15
0.0
 25
0.0
 35
0.0
146
0.0
 13
0.0
 23
0.0
 33
0.0
 16
1.0
 26
0.0
 36
0.0
 17
0.0
 27
1.0
 37
0.0
 76
     0
330
126
  0
LAYOUT
  5
60A
102
{ACAD_REACTORS
330
607
102
}
330
607
100
AcDbPlotSettings
  1

  2
\\KONISHIDENXP\SHARP MX-2700FG
  4

  6

 40
0.0
 41
0.0
 42
0.0
 43
0.0
 44
0.0
 45
0.0
 46
0.0
 47
0.0
 48
0.0
 49
0.0
140
0.0
141
0.0
142
1.0
143
1.0
 70
   688
 72
     0
 73
     0
 74
     5
  7

 75
    16
147
1.0
148
0.0
149
0.0
100
AcDbLayout
  1
ﾚｲｱｳﾄ1
 70
     0
 71
     1
 10
0.0
 20
0.0
 11
12.0
 21
9.0
 12
0.0
 22
0.0
 32
0.0
 14
1.000000000000000E+20
 24
1.000000000000000E+20
 34
1.000000000000000E+20
 15
-1.000000000000000E+20
 25
-1.000000000000000E+20
 35
-1.000000000000000E+20
146
0.0
 13
0.0
 23
0.0
 33
0.0
 16
1.0
 26
0.0
 36
0.0
 17
0.0
 27
1.0
 37
0.0
 76
     0
330
123
  0
MLINESTYLE
  5
12A
102
{ACAD_REACTORS
330
129
102
}
330
129
100
AcDbMlineStyle
  2
STANDARD
 70
     0
  3

 62
   256
 51
90.0
 52
90.0
 71
     2
 49
0.5
 62
   256
  6
BYLAYER
 49
-0.5
 62
   256
  6
BYLAYER
  0
ACDBPLACEHOLDER
  5
606
102
{ACAD_REACTORS
330
605
102
}
330
605
  0
DICTIONARYVAR
  5
13F
102
{ACAD_REACTORS
330
13E
102
}
330
13E
100
DictionaryVariables
280
     0
  1
0
  0
DICTIONARYVAR
  5
987
102
{ACAD_REACTORS
330
13E
102
}
330
13E
100
DictionaryVariables
280
     0
  1
0
  0
DICTIONARYVAR
  5
986
102
{ACAD_REACTORS
330
13E
102
}
330
13E
100
DictionaryVariables
280
     0
  1
1
  0
ACMDATADICTIONARY
  5
6C6
102
{ACAD_REACTORS
330
6C5
102
}
330
6C5
100
AcDbDictionary
281
     1
  3
*A1
350
6C7
100
AcmDataDictionary
  0
DICTIONARY
  5
7E5
102
{ACAD_REACTORS
330
6C5
102
}
330
6C5
100
AcDbDictionary
281
     1
  3
ISO
350
7E6
  0
DICTIONARY
  5
60D
102
{ACAD_REACTORS
330
60C
102
}
330
60C
100
AcDbDictionary
281
     1
  3
DWGSETTINGS
350
60E
  0
ACAMGFILTERDAT
  5
6E7
102
{ACAD_REACTORS
330
6E2
102
}
330
6E2
100
AcAmgFilterDat
 70
    15
  1
DIMENSION,AMDT_*_DIM
  2
*
  3
*
  4
*
  5
*
290
     1
  0
ACAMGFILTERDAT
  5
6E6
102
{ACAD_REACTORS
330
6E2
102
}
330
6E2
100
AcAmgFilterDat
 70
    15
  1
*
  2
AM_FEA-AM_*
  3
*
  4
*
  5
*
290
     1
  0
ACAMGFILTERDAT
  5
6E3
102
{ACAD_REACTORS
330
6E2
102
}
330
6E2
100
AcAmgFilterDat
 70
    15
  1
HATCH
  2
*
  3
*
  4
*
  5
*
290
     1
  0
ACAMGFILTERDAT
  5
6E4
102
{ACAD_REACTORS
330
6E2
102
}
330
6E2
100
AcAmgFilterDat
 70
    15
  1
LINE
  2
8,8N,*-8,*-8N,AM_8,AM_8N,*-AM_8,*-AM_8N
  3
*
  4
*
  5
INSERT,STDPART2D
290
     1
  0
ACAMGFILTERDAT
  5
6E8
102
{ACAD_REACTORS
330
6E2
102
}
330
6E2
100
AcAmgFilterDat
 70
    15
  1
ARC
  2
AM_5
  3
*
  4
2
  5
INSERT
290
     0
  0
ACAMGFILTERDAT
  5
6E5
102
{ACAD_REACTORS
330
6E2
102
}
330
6E2
100
AcAmgFilterDat
 70
    15
  1
ACMFCFRAME,ACMDATUMTARGET,ACMDATUMID,ACMWELDSYM,ACMSURFSYM,ACMFEATID,ACMPARTREF,ACMBALLOON,AMDTEDGESYM,AMGSCREWCALCTABLE
  2
*
  3
*
  4
*
  5
*
290
     1
  0
LAYER_INDEX
  5
97D
102
{ACAD_REACTORS
330
97C
102
}
330
97C
100
AcDbIndex
 40
2456448.426538437
100
AcDbLayerIndex
  8
0
360
97E
 90
        6
  8
1
360
97F
 90
        9
  8
10
360
980
 90
        0
  8
11
360
981
 90
        0
  8
2
360
982
 90
       26
  8
3
360
983
 90
       84
  8
5
360
984
 90
        0
  8
DEFPOINTS
360
985
 90
        0
  0
ACMDATAENTRYBLOCK
  5
6C7
102
{ACAD_REACTORS
330
6C6
102
}
330
6C6
100
AcmDataEntry
100
AcmDataEntryBlock
  0
IDBUFFER
  5
97E
330
0
100
AcDbIdBuffer
330
823
330
83E
330
844
330
864
330
868
330
973
  0
IDBUFFER
  5
97F
330
0
100
AcDbIdBuffer
330
809
330
80D
330
820
330
84B
330
861
330
86B
330
88B
330
961
330
962
  0
IDBUFFER
  5
980
330
0
100
AcDbIdBuffer
  0
IDBUFFER
  5
981
330
0
100
AcDbIdBuffer
  0
IDBUFFER
  5
982
330
0
100
AcDbIdBuffer
330
852
330
854
330
855
330
856
330
857
330
858
330
859
330
85A
330
85B
330
85C
330
836
330
837
330
83F
330
842
330
845
330
846
330
847
330
848
330
849
330
84A
330
84C
330
84D
330
84E
330
84F
330
850
330
851
  0
IDBUFFER
  5
983
330
0
100
AcDbIdBuffer
330
875
330
876
330
877
330
878
330
879
330
87D
330
87E
330
881
330
882
330
883
330
884
330
95F
330
960
330
963
330
964
330
965
330
966
330
967
330
968
330
969
330
96A
330
96B
330
96C
330
96D
330
96E
330
96F
330
970
330
971
330
972
330
974
330
975
330
976
330
977
330
978
330
979
330
97A
330
805
330
806
330
807
330
808
330
80A
330
80B
330
810
330
811
330
812
330
813
330
814
330
817
330
818
330
819
330
821
330
822
330
825
330
827
330
829
330
82A
330
82B
330
82D
330
830
330
835
330
838
330
839
330
83A
330
83C
330
840
330
841
330
853
330
85E
330
85F
330
862
330
863
330
865
330
866
330
867
330
869
330
86A
330
86C
330
86D
330
86E
330
870
330
871
330
872
330
873
330
874
  0
IDBUFFER
  5
984
330
0
100
AcDbIdBuffer
  0
IDBUFFER
  5
985
330
0
100
AcDbIdBuffer
  0
ENDSEC
  0
EOF
