  0
SECTION
  2
HEADER
  9
$ACADVER
  1
AC1014
  9
$ACADMAINTVER
 70
     0
  9
$DWGCODEPAGE
  3
ANSI_932
  9
$INSBASE
 10
0.0
 20
0.0
 30
0.0
  9
$EXTMIN
 10
3.343399
 20
17.034159
 30
0.0
  9
$EXTMAX
 10
310.071737
 20
188.465404
 30
11.224121
  9
$LIMMIN
 10
0.0
 20
0.0
  9
$LIMMAX
 10
300.0
 20
200.0
  9
$ORTHOMODE
 70
     0
  9
$REGENMODE
 70
     1
  9
$FILLMODE
 70
     1
  9
$QTEXTMODE
 70
     0
  9
$MIRRTEXT
 70
     1
  9
$DRAGMODE
 70
     2
  9
$LTSCALE
 40
1.0
  9
$OSMODE
 70
    32
  9
$ATTMODE
 70
     1
  9
$TEXTSIZE
 40
10.0
  9
$TRACEWID
 40
0.05
  9
$TEXTSTYLE
  7
BIGFONT
  9
$CLAYER
  8
3
  9
$CELTYPE
  6
BYLAYER
  9
$CECOLOR
 62
   256
  9
$CELTSCALE
 40
1.0
  9
$DELOBJ
 70
     1
  9
$DISPSILH
 70
     0
  9
$DIMSCALE
 40
1.0
  9
$DIMASZ
 40
0.18
  9
$DIMEXO
 40
0.0625
  9
$DIMDLI
 40
0.38
  9
$DIMRND
 40
0.0
  9
$DIMDLE
 40
0.0
  9
$DIMEXE
 40
0.18
  9
$DIMTP
 40
0.0
  9
$DIMTM
 40
0.0
  9
$DIMTXT
 40
0.18
  9
$DIMCEN
 40
0.09
  9
$DIMTSZ
 40
0.0
  9
$DIMTOL
 70
     0
  9
$DIMLIM
 70
     0
  9
$DIMTIH
 70
     1
  9
$DIMTOH
 70
     1
  9
$DIMSE1
 70
     0
  9
$DIMSE2
 70
     0
  9
$DIMTAD
 70
     0
  9
$DIMZIN
 70
     0
  9
$DIMBLK
  1

  9
$DIMASO
 70
     1
  9
$DIMSHO
 70
     1
  9
$DIMPOST
  1

  9
$DIMAPOST
  1

  9
$DIMALT
 70
     0
  9
$DIMALTD
 70
     2
  9
$DIMALTF
 40
25.4
  9
$DIMLFAC
 40
1.0
  9
$DIMTOFL
 70
     0
  9
$DIMTVP
 40
0.0
  9
$DIMTIX
 70
     0
  9
$DIMSOXD
 70
     0
  9
$DIMSAH
 70
     0
  9
$DIMBLK1
  1

  9
$DIMBLK2
  1

  9
$DIMSTYLE
  2
STANDARD
  9
$DIMCLRD
 70
     0
  9
$DIMCLRE
 70
     0
  9
$DIMCLRT
 70
     0
  9
$DIMTFAC
 40
1.0
  9
$DIMGAP
 40
0.09
  9
$DIMJUST
 70
     0
  9
$DIMSD1
 70
     0
  9
$DIMSD2
 70
     0
  9
$DIMTOLJ
 70
     1
  9
$DIMTZIN
 70
     0
  9
$DIMALTZ
 70
     0
  9
$DIMALTTZ
 70
     0
  9
$DIMFIT
 70
     5
  9
$DIMUPT
 70
     0
  9
$DIMUNIT
 70
     2
  9
$DIMDEC
 70
     4
  9
$DIMTDEC
 70
     4
  9
$DIMALTU
 70
     2
  9
$DIMALTTD
 70
     2
  9
$DIMTXSTY
  7
BIGFONT
  9
$DIMAUNIT
 70
     0
  9
$LUNITS
 70
     2
  9
$LUPREC
 70
     4
  9
$SKETCHINC
 40
0.1
  9
$FILLETRAD
 40
0.0
  9
$AUNITS
 70
     0
  9
$AUPREC
 70
     0
  9
$MENU
  1
acad
  9
$ELEVATION
 40
0.0
  9
$PELEVATION
 40
0.0
  9
$THICKNESS
 40
0.0
  9
$LIMCHECK
 70
     0
  9
$BLIPMODE
 70
     0
  9
$CHAMFERA
 40
0.0
  9
$CHAMFERB
 40
0.0
  9
$CHAMFERC
 40
0.0
  9
$CHAMFERD
 40
0.0
  9
$SKPOLY
 70
     0
  9
$TDCREATE
 40
2450870.978377083
  9
$TDUPDATE
 40
2453594.394043507
  9
$TDINDWG
 40
0.0149576852
  9
$TDUSRTIMER
 40
0.0149576852
  9
$USRTIMER
 70
     1
  9
$ANGBASE
 50
0.0
  9
$ANGDIR
 70
     0
  9
$PDMODE
 70
     0
  9
$PDSIZE
 40
0.0
  9
$PLINEWID
 40
0.0
  9
$COORDS
 70
     2
  9
$SPLFRAME
 70
     0
  9
$SPLINETYPE
 70
     6
  9
$SPLINESEGS
 70
     8
  9
$ATTDIA
 70
     0
  9
$ATTREQ
 70
     1
  9
$HANDLING
 70
     1
  9
$HANDSEED
  5
F20
  9
$SURFTAB1
 70
     6
  9
$SURFTAB2
 70
     6
  9
$SURFTYPE
 70
     6
  9
$SURFU
 70
     6
  9
$SURFV
 70
     6
  9
$UCSNAME
  2

  9
$UCSORG
 10
0.0
 20
0.0
 30
0.0
  9
$UCSXDIR
 10
1.0
 20
0.0
 30
0.0
  9
$UCSYDIR
 10
0.0
 20
1.0
 30
0.0
  9
$PUCSNAME
  2

  9
$PUCSORG
 10
0.0
 20
0.0
 30
0.0
  9
$PUCSXDIR
 10
1.0
 20
0.0
 30
0.0
  9
$PUCSYDIR
 10
0.0
 20
1.0
 30
0.0
  9
$USERI1
 70
     0
  9
$USERI2
 70
     0
  9
$USERI3
 70
     0
  9
$USERI4
 70
     0
  9
$USERI5
 70
     0
  9
$USERR1
 40
0.0
  9
$USERR2
 40
0.0
  9
$USERR3
 40
0.0
  9
$USERR4
 40
0.0
  9
$USERR5
 40
0.0
  9
$WORLDVIEW
 70
     1
  9
$SHADEDGE
 70
     3
  9
$SHADEDIF
 70
    70
  9
$TILEMODE
 70
     1
  9
$MAXACTVP
 70
    16
  9
$PINSBASE
 10
0.0
 20
0.0
 30
0.0
  9
$PLIMCHECK
 70
     0
  9
$PEXTMIN
 10
1.000000E+20
 20
1.000000E+20
 30
1.000000E+20
  9
$PEXTMAX
 10
-1.000000E+20
 20
-1.000000E+20
 30
-1.000000E+20
  9
$PLIMMIN
 10
0.0
 20
0.0
  9
$PLIMMAX
 10
12.0
 20
9.0
  9
$UNITMODE
 70
     0
  9
$VISRETAIN
 70
     0
  9
$PLINEGEN
 70
     0
  9
$PSLTSCALE
 70
     1
  9
$TREEDEPTH
 70
  3020
  9
$PICKSTYLE
 70
     1
  9
$CMLSTYLE
  2
STANDARD
  9
$CMLJUST
 70
     0
  9
$CMLSCALE
 40
1.0
  9
$PROXYGRAPHICS
 70
     1
  9
$MEASUREMENT
 70
     0
  0
ENDSEC
  0
SECTION
  2
CLASSES
  0
CLASS
  1
DICTIONARYVAR
  2
AcDbDictionaryVar
  3
"AutoCAD"
 90
        0
280
     0
281
     0
  0
CLASS
  1
XRECORD
  2
AcDbXrecord
  3
"<Built In>"
 90
        0
280
     0
281
     0
  0
CLASS
  1
HATCH
  2
AcDbHatch
  3
"ACAD_SEDONA"
 90
        0
280
     0
281
     1
  0
CLASS
  1
LWPOLYLINE
  2
AcDbPolyline
  3
"AutoCAD"
 90
        0
280
     0
281
     1
  0
ENDSEC
  0
SECTION
  2
TABLES
  0
TABLE
  2
VPORT
  5
207
100
AcDbSymbolTable
 70
     6
  0
VPORT
  5
F1F
100
AcDbSymbolTableRecord
100
AcDbViewportTableRecord
  2
*ACTIVE
 70
     0
 10
0.0
 20
0.0
 11
1.0
 21
1.0
 12
125.0
 22
87.111399
 13
0.0
 23
0.0
 14
10.0
 24
10.0
 15
20.0
 25
20.0
 16
0.0
 26
0.0
 36
1.0
 17
0.0
 27
0.0
 37
0.0
 40
348.445596
 41
1.434944
 42
50.0
 43
0.0
 44
0.0
 50
0.0
 51
0.0
 71
     0
 72
 20000
 73
     1
 74
     1
 75
     0
 76
     1
 77
     0
 78
     0
  0
ENDTAB
  0
TABLE
  2
LTYPE
  5
204
100
AcDbSymbolTable
 70
     6
  0
LTYPE
  5
210
100
AcDbSymbolTableRecord
100
AcDbLinetypeTableRecord
  2
BYBLOCK
 70
     0
  3

 72
    65
 73
     0
 40
0.0
  0
LTYPE
  5
211
100
AcDbSymbolTableRecord
100
AcDbLinetypeTableRecord
  2
BYLAYER
 70
     0
  3

 72
    65
 73
     0
 40
0.0
  0
LTYPE
  5
212
100
AcDbSymbolTableRecord
100
AcDbLinetypeTableRecord
  2
CONTINUOUS
 70
     0
  3
Solid line
 72
    65
 73
     0
 40
0.0
  0
LTYPE
  5
21C
100
AcDbSymbolTableRecord
100
AcDbLinetypeTableRecord
  2
TENSEN1
 70
     0
  3

 72
    65
 73
     2
 40
0.4
 49
0.3
 74
     0
 49
-0.1
 74
     0
  0
LTYPE
  5
21D
100
AcDbSymbolTableRecord
100
AcDbLinetypeTableRecord
  2
ITTEN1
 70
     0
  3

 72
    65
 73
     4
 40
8.2
 49
5.0
 74
     0
 49
-1.0
 74
     0
 49
1.2
 74
     0
 49
-1.0
 74
     0
  0
LTYPE
  5
21E
100
AcDbSymbolTableRecord
100
AcDbLinetypeTableRecord
  2
TENSEN2
 70
     0
  3

 72
    65
 73
     2
 40
2.1
 49
1.5
 74
     0
 49
-0.6
 74
     0
  0
LTYPE
  5
2C5
100
AcDbSymbolTableRecord
100
AcDbLinetypeTableRecord
  2
ITTEN
 70
     0
  3

 72
    65
 73
     4
 40
5.5
 49
2.5
 74
     0
 49
-1.0
 74
     0
 49
1.0
 74
     0
 49
-1.0
 74
     0
  0
LTYPE
  5
525
100
AcDbSymbolTableRecord
100
AcDbLinetypeTableRecord
  2
TENSEN
 70
     0
  3

 72
    65
 73
     2
 40
4.0
 49
3.0
 74
     0
 49
-1.0
 74
     0
  0
ENDTAB
  0
TABLE
  2
LAYER
  5
201
100
AcDbSymbolTable
 70
     5
  0
LAYER
  5
20D
100
AcDbSymbolTableRecord
100
AcDbLayerTableRecord
  2
0
 70
     0
 62
     7
  6
CONTINUOUS
  0
LAYER
  5
221
100
AcDbSymbolTableRecord
100
AcDbLayerTableRecord
  2
1
 70
     0
 62
     1
  6
ITTEN1
  0
LAYER
  5
222
100
AcDbSymbolTableRecord
100
AcDbLayerTableRecord
  2
2
 70
     0
 62
     2
  6
TENSEN2
  0
LAYER
  5
223
100
AcDbSymbolTableRecord
100
AcDbLayerTableRecord
  2
3
 70
     0
 62
     3
  6
CONTINUOUS
  0
LAYER
  5
2C6
102
{ACAD_XDICTIONARY
360
2C7
102
}
100
AcDbSymbolTableRecord
100
AcDbLayerTableRecord
  2
DEFPOINTS
 70
     0
 62
     7
  6
CONTINUOUS
  0
ENDTAB
  0
TABLE
  2
STYLE
  5
202
100
AcDbSymbolTable
 70
     2
  0
STYLE
  5
20E
100
AcDbSymbolTableRecord
100
AcDbTextStyleTableRecord
  2
STANDARD
 70
     0
 40
0.0
 41
1.0
 50
0.0
 71
     0
 42
0.2
  3
txt
  4

  0
STYLE
  5
21B
100
AcDbSymbolTableRecord
100
AcDbTextStyleTableRecord
  2
BIGFONT
 70
     0
 40
10.0
 41
1.0
 50
0.0
 71
     0
 42
10.0
  3
txt.shx
  4
bigfont
  0
ENDTAB
  0
TABLE
  2
VIEW
  5
205
100
AcDbSymbolTable
 70
     0
  0
ENDTAB
  0
TABLE
  2
UCS
  5
206
100
AcDbSymbolTable
 70
     0
  0
ENDTAB
  0
TABLE
  2
APPID
  5
208
100
AcDbSymbolTable
 70
     1
  0
APPID
  5
20F
100
AcDbSymbolTableRecord
100
AcDbRegAppTableRecord
  2
ACAD
 70
     0
  0
ENDTAB
  0
TABLE
  2
DIMSTYLE
  5
209
100
AcDbSymbolTable
 70
     1
  0
DIMSTYLE
105
220
100
AcDbSymbolTableRecord
100
AcDbDimStyleTableRecord
  2
STANDARD
 70
     0
  3

  4

  5

  6

  7

 40
1.0
 41
0.18
 42
0.0625
 43
0.38
 44
0.18
 45
0.0
 46
0.0
 47
0.0
 48
0.0
140
0.18
141
0.09
142
0.0
143
25.4
144
1.0
145
0.0
146
1.0
147
0.09
 71
     0
 72
     0
 73
     1
 74
     1
 75
     0
 76
     0
 77
     0
 78
     0
170
     0
171
     2
172
     0
173
     0
174
     0
175
     0
176
     0
177
     0
178
     0
270
     2
271
     4
272
     4
273
     2
274
     2
340
21B
275
     0
280
     0
281
     0
282
     0
283
     1
284
     0
285
     0
286
     0
287
     5
288
     0
  0
ENDTAB
  0
TABLE
  2
BLOCK_RECORD
  5
200
100
AcDbSymbolTable
 70
   108
  0
BLOCK_RECORD
  5
216
100
AcDbSymbolTableRecord
100
AcDbBlockTableRecord
  2
*MODEL_SPACE
  0
BLOCK_RECORD
  5
213
100
AcDbSymbolTableRecord
100
AcDbBlockTableRecord
  2
*PAPER_SPACE
  0
BLOCK_RECORD
  5
238
100
AcDbSymbolTableRecord
100
AcDbBlockTableRecord
  2
*D0
  0
BLOCK_RECORD
  5
243
100
AcDbSymbolTableRecord
100
AcDbBlockTableRecord
  2
*D1
  0
BLOCK_RECORD
  5
24E
100
AcDbSymbolTableRecord
100
AcDbBlockTableRecord
  2
*D2
  0
BLOCK_RECORD
  5
259
100
AcDbSymbolTableRecord
100
AcDbBlockTableRecord
  2
*D3
  0
BLOCK_RECORD
  5
266
100
AcDbSymbolTableRecord
100
AcDbBlockTableRecord
  2
*D4
  0
BLOCK_RECORD
  5
273
100
AcDbSymbolTableRecord
100
AcDbBlockTableRecord
  2
*D5
  0
BLOCK_RECORD
  5
280
100
AcDbSymbolTableRecord
100
AcDbBlockTableRecord
  2
*D6
  0
BLOCK_RECORD
  5
28B
100
AcDbSymbolTableRecord
100
AcDbBlockTableRecord
  2
*D7
  0
BLOCK_RECORD
  5
296
100
AcDbSymbolTableRecord
100
AcDbBlockTableRecord
  2
*D8
  0
BLOCK_RECORD
  5
2A1
100
AcDbSymbolTableRecord
100
AcDbBlockTableRecord
  2
*D9
  0
BLOCK_RECORD
  5
2AC
100
AcDbSymbolTableRecord
100
AcDbBlockTableRecord
  2
*D10
  0
BLOCK_RECORD
  5
2BA
100
AcDbSymbolTableRecord
100
AcDbBlockTableRecord
  2
*D11
  0
BLOCK_RECORD
  5
2C9
100
AcDbSymbolTableRecord
100
AcDbBlockTableRecord
  2
A$C502C4094
  0
BLOCK_RECORD
  5
474
100
AcDbSymbolTableRecord
100
AcDbBlockTableRecord
  2
*D13
  0
BLOCK_RECORD
  5
481
100
AcDbSymbolTableRecord
100
AcDbBlockTableRecord
  2
*D14
  0
BLOCK_RECORD
  5
48F
100
AcDbSymbolTableRecord
100
AcDbBlockTableRecord
  2
*D15
  0
BLOCK_RECORD
  5
49D
100
AcDbSymbolTableRecord
100
AcDbBlockTableRecord
  2
*D16
  0
BLOCK_RECORD
  5
4AA
100
AcDbSymbolTableRecord
100
AcDbBlockTableRecord
  2
*D17
  0
BLOCK_RECORD
  5
4B7
100
AcDbSymbolTableRecord
100
AcDbBlockTableRecord
  2
*D18
  0
BLOCK_RECORD
  5
4C4
100
AcDbSymbolTableRecord
100
AcDbBlockTableRecord
  2
*D19
  0
BLOCK_RECORD
  5
4D2
100
AcDbSymbolTableRecord
100
AcDbBlockTableRecord
  2
*D20
  0
BLOCK_RECORD
  5
4DF
100
AcDbSymbolTableRecord
100
AcDbBlockTableRecord
  2
*D21
  0
BLOCK_RECORD
  5
4E8
100
AcDbSymbolTableRecord
100
AcDbBlockTableRecord
  2
*D22
  0
BLOCK_RECORD
  5
4F5
100
AcDbSymbolTableRecord
100
AcDbBlockTableRecord
  2
*D23
  0
BLOCK_RECORD
  5
502
100
AcDbSymbolTableRecord
100
AcDbBlockTableRecord
  2
*D24
  0
BLOCK_RECORD
  5
50F
100
AcDbSymbolTableRecord
100
AcDbBlockTableRecord
  2
*D25
  0
BLOCK_RECORD
  5
518
100
AcDbSymbolTableRecord
100
AcDbBlockTableRecord
  2
*D26
  0
BLOCK_RECORD
  5
526
100
AcDbSymbolTableRecord
100
AcDbBlockTableRecord
  2
A$C7921082D
  0
BLOCK_RECORD
  5
7D1
100
AcDbSymbolTableRecord
100
AcDbBlockTableRecord
  2
*D42
  0
BLOCK_RECORD
  5
7DC
100
AcDbSymbolTableRecord
100
AcDbBlockTableRecord
  2
*D43
  0
BLOCK_RECORD
  5
7E7
100
AcDbSymbolTableRecord
100
AcDbBlockTableRecord
  2
*D44
  0
BLOCK_RECORD
  5
7F0
100
AcDbSymbolTableRecord
100
AcDbBlockTableRecord
  2
*D45
  0
BLOCK_RECORD
  5
7FE
100
AcDbSymbolTableRecord
100
AcDbBlockTableRecord
  2
*D46
  0
BLOCK_RECORD
  5
80C
100
AcDbSymbolTableRecord
100
AcDbBlockTableRecord
  2
*D47
  0
BLOCK_RECORD
  5
819
100
AcDbSymbolTableRecord
100
AcDbBlockTableRecord
  2
*D48
  0
BLOCK_RECORD
  5
826
100
AcDbSymbolTableRecord
100
AcDbBlockTableRecord
  2
*D49
  0
BLOCK_RECORD
  5
833
100
AcDbSymbolTableRecord
100
AcDbBlockTableRecord
  2
*D50
  0
BLOCK_RECORD
  5
840
100
AcDbSymbolTableRecord
100
AcDbBlockTableRecord
  2
*D51
  0
BLOCK_RECORD
  5
84D
100
AcDbSymbolTableRecord
100
AcDbBlockTableRecord
  2
*D52
  0
BLOCK_RECORD
  5
85B
100
AcDbSymbolTableRecord
100
AcDbBlockTableRecord
  2
*D53
  0
BLOCK_RECORD
  5
868
100
AcDbSymbolTableRecord
100
AcDbBlockTableRecord
  2
*D54
  0
BLOCK_RECORD
  5
875
100
AcDbSymbolTableRecord
100
AcDbBlockTableRecord
  2
*D55
  0
BLOCK_RECORD
  5
882
100
AcDbSymbolTableRecord
100
AcDbBlockTableRecord
  2
*D56
  0
BLOCK_RECORD
  5
88F
100
AcDbSymbolTableRecord
100
AcDbBlockTableRecord
  2
*D57
  0
BLOCK_RECORD
  5
89C
100
AcDbSymbolTableRecord
100
AcDbBlockTableRecord
  2
*D58
  0
BLOCK_RECORD
  5
8A7
100
AcDbSymbolTableRecord
100
AcDbBlockTableRecord
  2
*D59
  0
BLOCK_RECORD
  5
8B4
100
AcDbSymbolTableRecord
100
AcDbBlockTableRecord
  2
A$C78FF3F0D
  0
BLOCK_RECORD
  5
A2C
100
AcDbSymbolTableRecord
100
AcDbBlockTableRecord
  2
*D61
  0
BLOCK_RECORD
  5
A35
100
AcDbSymbolTableRecord
100
AcDbBlockTableRecord
  2
*D62
  0
BLOCK_RECORD
  5
A42
100
AcDbSymbolTableRecord
100
AcDbBlockTableRecord
  2
*D63
  0
BLOCK_RECORD
  5
A4F
100
AcDbSymbolTableRecord
100
AcDbBlockTableRecord
  2
*D64
  0
BLOCK_RECORD
  5
A58
100
AcDbSymbolTableRecord
100
AcDbBlockTableRecord
  2
*D65
  0
BLOCK_RECORD
  5
A60
100
AcDbSymbolTableRecord
100
AcDbBlockTableRecord
  2
*D66
  0
BLOCK_RECORD
  5
A6C
100
AcDbSymbolTableRecord
100
AcDbBlockTableRecord
  2
*D67
  0
BLOCK_RECORD
  5
A78
100
AcDbSymbolTableRecord
100
AcDbBlockTableRecord
  2
*D68
  0
BLOCK_RECORD
  5
A80
100
AcDbSymbolTableRecord
100
AcDbBlockTableRecord
  2
*D69
  0
BLOCK_RECORD
  5
A8D
100
AcDbSymbolTableRecord
100
AcDbBlockTableRecord
  2
*D70
  0
BLOCK_RECORD
  5
A99
100
AcDbSymbolTableRecord
100
AcDbBlockTableRecord
  2
*D71
  0
BLOCK_RECORD
  5
AA6
100
AcDbSymbolTableRecord
100
AcDbBlockTableRecord
  2
*D72
  0
BLOCK_RECORD
  5
AB3
100
AcDbSymbolTableRecord
100
AcDbBlockTableRecord
  2
*D73
  0
BLOCK_RECORD
  5
AC0
100
AcDbSymbolTableRecord
100
AcDbBlockTableRecord
  2
*D74
  0
BLOCK_RECORD
  5
ACD
100
AcDbSymbolTableRecord
100
AcDbBlockTableRecord
  2
*D75
  0
BLOCK_RECORD
  5
AD9
100
AcDbSymbolTableRecord
100
AcDbBlockTableRecord
  2
*D76
  0
BLOCK_RECORD
  5
AE5
100
AcDbSymbolTableRecord
100
AcDbBlockTableRecord
  2
*D77
  0
BLOCK_RECORD
  5
AF1
100
AcDbSymbolTableRecord
100
AcDbBlockTableRecord
  2
*D78
  0
BLOCK_RECORD
  5
BC0
100
AcDbSymbolTableRecord
100
AcDbBlockTableRecord
  2
*D79
  0
BLOCK_RECORD
  5
BC9
100
AcDbSymbolTableRecord
100
AcDbBlockTableRecord
  2
*D80
  0
BLOCK_RECORD
  5
BD7
100
AcDbSymbolTableRecord
100
AcDbBlockTableRecord
  2
*D81
  0
BLOCK_RECORD
  5
BE5
100
AcDbSymbolTableRecord
100
AcDbBlockTableRecord
  2
*D82
  0
BLOCK_RECORD
  5
BF2
100
AcDbSymbolTableRecord
100
AcDbBlockTableRecord
  2
*D83
  0
BLOCK_RECORD
  5
BFF
100
AcDbSymbolTableRecord
100
AcDbBlockTableRecord
  2
*D84
  0
BLOCK_RECORD
  5
C0C
100
AcDbSymbolTableRecord
100
AcDbBlockTableRecord
  2
*D85
  0
BLOCK_RECORD
  5
C1A
100
AcDbSymbolTableRecord
100
AcDbBlockTableRecord
  2
*D86
  0
BLOCK_RECORD
  5
C27
100
AcDbSymbolTableRecord
100
AcDbBlockTableRecord
  2
*D87
  0
BLOCK_RECORD
  5
C34
100
AcDbSymbolTableRecord
100
AcDbBlockTableRecord
  2
*D88
  0
BLOCK_RECORD
  5
C41
100
AcDbSymbolTableRecord
100
AcDbBlockTableRecord
  2
*D89
  0
BLOCK_RECORD
  5
C4E
100
AcDbSymbolTableRecord
100
AcDbBlockTableRecord
  2
*D90
  0
BLOCK_RECORD
  5
C5B
100
AcDbSymbolTableRecord
100
AcDbBlockTableRecord
  2
*D91
  0
BLOCK_RECORD
  5
C66
100
AcDbSymbolTableRecord
100
AcDbBlockTableRecord
  2
*D92
  0
BLOCK_RECORD
  5
C73
100
AcDbSymbolTableRecord
100
AcDbBlockTableRecord
  2
A$C0B555716
  0
BLOCK_RECORD
  5
DD9
100
AcDbSymbolTableRecord
100
AcDbBlockTableRecord
  2
*D94
  0
BLOCK_RECORD
  5
DE6
100
AcDbSymbolTableRecord
100
AcDbBlockTableRecord
  2
*D95
  0
BLOCK_RECORD
  5
DF3
100
AcDbSymbolTableRecord
100
AcDbBlockTableRecord
  2
*D96
  0
BLOCK_RECORD
  5
DFF
100
AcDbSymbolTableRecord
100
AcDbBlockTableRecord
  2
*D97
  0
BLOCK_RECORD
  5
E0C
100
AcDbSymbolTableRecord
100
AcDbBlockTableRecord
  2
*D98
  0
BLOCK_RECORD
  5
E15
100
AcDbSymbolTableRecord
100
AcDbBlockTableRecord
  2
*D99
  0
BLOCK_RECORD
  5
E1E
100
AcDbSymbolTableRecord
100
AcDbBlockTableRecord
  2
*D100
  0
BLOCK_RECORD
  5
E2A
100
AcDbSymbolTableRecord
100
AcDbBlockTableRecord
  2
*D101
  0
BLOCK_RECORD
  5
E36
100
AcDbSymbolTableRecord
100
AcDbBlockTableRecord
  2
*D102
  0
BLOCK_RECORD
  5
E42
100
AcDbSymbolTableRecord
100
AcDbBlockTableRecord
  2
*D103
  0
BLOCK_RECORD
  5
E4F
100
AcDbSymbolTableRecord
100
AcDbBlockTableRecord
  2
*D104
  0
BLOCK_RECORD
  5
E5C
100
AcDbSymbolTableRecord
100
AcDbBlockTableRecord
  2
*D105
  0
BLOCK_RECORD
  5
E69
100
AcDbSymbolTableRecord
100
AcDbBlockTableRecord
  2
*D106
  0
BLOCK_RECORD
  5
E76
100
AcDbSymbolTableRecord
100
AcDbBlockTableRecord
  2
*D107
  0
ENDTAB
  0
ENDSEC
  0
SECTION
  2
BLOCKS
  0
BLOCK
  5
226
100
AcDbEntity
  8
0
100
AcDbBlockBegin
  2
*MODEL_SPACE
 70
     0
 10
0.0
 20
0.0
 30
0.0
  3
*MODEL_SPACE
  1

  0
ENDBLK
  5
227
100
AcDbEntity
  8
0
100
AcDbBlockEnd
  0
BLOCK
  5
224
100
AcDbEntity
 67
     1
  8
0
100
AcDbBlockBegin
  2
*PAPER_SPACE
 70
     0
 10
0.0
 20
0.0
 30
0.0
  3
*PAPER_SPACE
  1

  0
ENDBLK
  5
225
100
AcDbEntity
 67
     1
  8
0
100
AcDbBlockEnd
  0
BLOCK
  5
241
100
AcDbEntity
  8
0
100
AcDbBlockBegin
  2
*D0
 70
     1
 10
0.0
 20
0.0
 30
0.0
  3
*D0
  1

  0
LINE
  5
239
100
AcDbEntity
  8
0
  6
BYBLOCK
 62
     0
100
AcDbLine
 10
79.0
 20
129.0
 30
0.0
 11
81.0
 21
129.0
 31
0.0
  0
LINE
  5
23A
100
AcDbEntity
  8
0
  6
BYBLOCK
 62
     0
100
AcDbLine
 10
81.0
 20
129.0
 30
0.0
 11
86.588475
 21
121.814818
 31
0.0
  0
MTEXT
  5
23B
100
AcDbEntity
  8
0
  6
BYBLOCK
 62
     0
100
AcDbMText
 10
76.25
 20
129.0
 30
0.0
 40
3.5
 41
0.0
 71
     5
 72
     1
  1
\A1;\U+220512
  0
SOLID
  5
23C
100
AcDbEntity
  8
0
  6
BYBLOCK
 62
     0
100
AcDbTrace
 10
86.851593
 20
122.019465
 30
0.0
 11
86.325358
 21
121.610171
 31
0.0
 12
87.816356
 22
120.236113
 32
0.0
 13
87.816356
 23
120.236113
 33
0.0
  0
LINE
  5
23D
100
AcDbEntity
  8
0
  6
BYBLOCK
 62
     0
100
AcDbLine
 10
91.4
 20
115.5
 30
0.0
 11
91.6
 21
115.5
 31
0.0
  0
LINE
  5
23E
100
AcDbEntity
  8
0
  6
BYBLOCK
 62
     0
100
AcDbLine
 10
91.5
 20
115.4
 30
0.0
 11
91.5
 21
115.6
 31
0.0
  0
POINT
  5
23F
100
AcDbEntity
  8
DEFPOINTS
  6
BYBLOCK
 62
     0
100
AcDbPoint
 10
87.816356
 20
120.236113
 30
0.0
  0
POINT
  5
240
100
AcDbEntity
  8
DEFPOINTS
  6
BYBLOCK
 62
     0
100
AcDbPoint
 10
95.183644
 20
110.763887
 30
0.0
  0
ENDBLK
  5
242
100
AcDbEntity
  8
0
100
AcDbBlockEnd
  0
BLOCK
  5
24C
100
AcDbEntity
  8
0
100
AcDbBlockBegin
  2
*D1
 70
     1
 10
0.0
 20
0.0
 30
0.0
  3
*D1
  1

  0
LINE
  5
244
100
AcDbEntity
  8
0
  6
BYBLOCK
 62
     0
100
AcDbLine
 10
79.25
 20
124.0
 30
0.0
 11
81.25
 21
124.0
 31
0.0
  0
LINE
  5
245
100
AcDbEntity
  8
0
  6
BYBLOCK
 62
     0
100
AcDbLine
 10
81.25
 20
124.0
 30
0.0
 11
86.727501
 21
119.457683
 31
0.0
  0
MTEXT
  5
246
100
AcDbEntity
  8
0
  6
BYBLOCK
 62
     0
100
AcDbMText
 10
75.95
 20
124.0
 30
0.0
 40
3.5
 41
0.0
 71
     5
 72
     1
  1
\A1;\U+22058.4
  0
SOLID
  5
247
100
AcDbEntity
  8
0
  6
BYBLOCK
 62
     0
100
AcDbTrace
 10
86.940279
 20
119.714269
 30
0.0
 11
86.514722
 21
119.201097
 31
0.0
 12
88.267017
 22
118.181011
 32
0.0
 13
88.267017
 23
118.181011
 33
0.0
  0
LINE
  5
248
100
AcDbEntity
  8
0
  6
BYBLOCK
 62
     0
100
AcDbLine
 10
91.4
 20
115.5
 30
0.0
 11
91.6
 21
115.5
 31
0.0
  0
LINE
  5
249
100
AcDbEntity
  8
0
  6
BYBLOCK
 62
     0
100
AcDbLine
 10
91.5
 20
115.4
 30
0.0
 11
91.5
 21
115.6
 31
0.0
  0
POINT
  5
24A
100
AcDbEntity
  8
DEFPOINTS
  6
BYBLOCK
 62
     0
100
AcDbPoint
 10
88.267017
 20
118.181011
 30
0.0
  0
POINT
  5
24B
100
AcDbEntity
  8
DEFPOINTS
  6
BYBLOCK
 62
     0
100
AcDbPoint
 10
94.732983
 20
112.81899
 30
0.0
  0
ENDBLK
  5
24D
100
AcDbEntity
  8
0
100
AcDbBlockEnd
  0
BLOCK
  5
257
100
AcDbEntity
  8
0
100
AcDbBlockBegin
  2
*D2
 70
     1
 10
0.0
 20
0.0
 30
0.0
  3
*D2
  1

  0
LINE
  5
24F
100
AcDbEntity
  8
0
  6
BYBLOCK
 62
     0
100
AcDbLine
 10
79.75
 20
110.0
 30
0.0
 11
81.75
 21
110.0
 31
0.0
  0
LINE
  5
250
100
AcDbEntity
  8
0
  6
BYBLOCK
 62
     0
100
AcDbLine
 10
81.75
 20
110.0
 30
0.0
 11
87.05801
 21
112.994262
 31
0.0
  0
MTEXT
  5
251
100
AcDbEntity
  8
0
  6
BYBLOCK
 62
     0
100
AcDbMText
 10
76.5
 20
110.0
 30
0.0
 40
3.5
 41
0.0
 71
     5
 72
     1
  1
\A1;\U+22056.2
  0
SOLID
  5
252
100
AcDbEntity
  8
0
  6
BYBLOCK
 62
     0
100
AcDbTrace
 10
86.894236
 20
113.284588
 30
0.0
 11
87.221784
 21
112.703936
 31
0.0
 12
88.799967
 22
113.976905
 32
0.0
 13
88.799967
 23
113.976905
 33
0.0
  0
LINE
  5
253
100
AcDbEntity
  8
0
  6
BYBLOCK
 62
     0
100
AcDbLine
 10
91.4
 20
115.5
 30
0.0
 11
91.6
 21
115.5
 31
0.0
  0
LINE
  5
254
100
AcDbEntity
  8
0
  6
BYBLOCK
 62
     0
100
AcDbLine
 10
91.5
 20
115.4
 30
0.0
 11
91.5
 21
115.6
 31
0.0
  0
POINT
  5
255
100
AcDbEntity
  8
DEFPOINTS
  6
BYBLOCK
 62
     0
100
AcDbPoint
 10
88.799967
 20
113.976905
 30
0.0
  0
POINT
  5
256
100
AcDbEntity
  8
DEFPOINTS
  6
BYBLOCK
 62
     0
100
AcDbPoint
 10
94.200033
 20
117.023096
 30
0.0
  0
ENDBLK
  5
258
100
AcDbEntity
  8
0
100
AcDbBlockEnd
  0
BLOCK
  5
264
100
AcDbEntity
  8
0
100
AcDbBlockBegin
  2
*D3
 70
     1
 10
0.0
 20
0.0
 30
0.0
  3
*D3
  1

  0
LINE
  5
25A
100
AcDbEntity
  8
0
  6
BYBLOCK
 62
     0
100
AcDbLine
 10
128.25
 20
120.6
 30
0.0
 11
128.25
 21
143.95
 31
0.0
  0
LINE
  5
25B
100
AcDbEntity
  8
0
  6
BYBLOCK
 62
     0
100
AcDbLine
 10
146.25
 20
120.6
 30
0.0
 11
146.25
 21
143.95
 31
0.0
  0
LINE
  5
25C
100
AcDbEntity
  8
0
  6
BYBLOCK
 62
     0
100
AcDbLine
 10
130.25
 20
143.75
 30
0.0
 11
135.35
 21
143.75
 31
0.0
  0
LINE
  5
25D
100
AcDbEntity
  8
0
  6
BYBLOCK
 62
     0
100
AcDbLine
 10
144.25
 20
143.75
 30
0.0
 11
138.65
 21
143.75
 31
0.0
  0
SOLID
  5
25E
100
AcDbEntity
  8
0
  6
BYBLOCK
 62
     0
100
AcDbTrace
 10
130.25
 20
144.083333
 30
0.0
 11
130.25
 21
143.416667
 31
0.0
 12
128.25
 22
143.75
 32
0.0
 13
128.25
 23
143.75
 33
0.0
  0
SOLID
  5
25F
100
AcDbEntity
  8
0
  6
BYBLOCK
 62
     0
100
AcDbTrace
 10
144.25
 20
144.083333
 30
0.0
 11
144.25
 21
143.416667
 31
0.0
 12
146.25
 22
143.75
 32
0.0
 13
146.25
 23
143.75
 33
0.0
  0
MTEXT
  5
260
100
AcDbEntity
  8
0
  6
BYBLOCK
 62
     0
100
AcDbMText
 10
137.0
 20
143.75
 30
0.0
 40
3.5
 41
0.0
 71
     5
 72
     1
  1
\A1;18
  0
POINT
  5
261
100
AcDbEntity
  8
DEFPOINTS
  6
BYBLOCK
 62
     0
100
AcDbPoint
 10
128.25
 20
120.5
 30
0.0
  0
POINT
  5
262
100
AcDbEntity
  8
DEFPOINTS
  6
BYBLOCK
 62
     0
100
AcDbPoint
 10
146.25
 20
120.5
 30
0.0
  0
POINT
  5
263
100
AcDbEntity
  8
DEFPOINTS
  6
BYBLOCK
 62
     0
100
AcDbPoint
 10
146.25
 20
143.75
 30
0.0
  0
ENDBLK
  5
265
100
AcDbEntity
  8
0
100
AcDbBlockEnd
  0
BLOCK
  5
271
100
AcDbEntity
  8
0
100
AcDbBlockBegin
  2
*D4
 70
     1
 10
0.0
 20
0.0
 30
0.0
  3
*D4
  1

  0
LINE
  5
267
100
AcDbEntity
  8
0
  6
BYBLOCK
 62
     0
100
AcDbLine
 10
128.25
 20
120.6
 30
0.0
 11
128.25
 21
137.7
 31
0.0
  0
LINE
  5
268
100
AcDbEntity
  8
0
  6
BYBLOCK
 62
     0
100
AcDbLine
 10
131.25
 20
119.8
 30
0.0
 11
131.25
 21
137.7
 31
0.0
  0
LINE
  5
269
100
AcDbEntity
  8
0
  6
BYBLOCK
 62
     0
100
AcDbLine
 10
126.25
 20
137.5
 30
0.0
 11
124.25
 21
137.5
 31
0.0
  0
LINE
  5
26A
100
AcDbEntity
  8
0
  6
BYBLOCK
 62
     0
100
AcDbLine
 10
133.25
 20
137.5
 30
0.0
 11
135.25
 21
137.5
 31
0.0
  0
SOLID
  5
26B
100
AcDbEntity
  8
0
  6
BYBLOCK
 62
     0
100
AcDbTrace
 10
126.25
 20
137.833333
 30
0.0
 11
126.25
 21
137.166667
 31
0.0
 12
128.25
 22
137.5
 32
0.0
 13
128.25
 23
137.5
 33
0.0
  0
SOLID
  5
26C
100
AcDbEntity
  8
0
  6
BYBLOCK
 62
     0
100
AcDbTrace
 10
133.25
 20
137.833333
 30
0.0
 11
133.25
 21
137.166667
 31
0.0
 12
131.25
 22
137.5
 32
0.0
 13
131.25
 23
137.5
 33
0.0
  0
MTEXT
  5
26D
100
AcDbEntity
  8
0
  6
BYBLOCK
 62
     0
100
AcDbMText
 10
129.75
 20
137.5
 30
0.0
 40
3.5
 41
0.0
 71
     5
 72
     1
  1
\A1;3
  0
POINT
  5
26E
100
AcDbEntity
  8
DEFPOINTS
  6
BYBLOCK
 62
     0
100
AcDbPoint
 10
128.25
 20
120.5
 30
0.0
  0
POINT
  5
26F
100
AcDbEntity
  8
DEFPOINTS
  6
BYBLOCK
 62
     0
100
AcDbPoint
 10
131.25
 20
119.7
 30
0.0
  0
POINT
  5
270
100
AcDbEntity
  8
DEFPOINTS
  6
BYBLOCK
 62
     0
100
AcDbPoint
 10
131.25
 20
137.5
 30
0.0
  0
ENDBLK
  5
272
100
AcDbEntity
  8
0
100
AcDbBlockEnd
  0
BLOCK
  5
27E
100
AcDbEntity
  8
0
100
AcDbBlockBegin
  2
*D5
 70
     1
 10
0.0
 20
0.0
 30
0.0
  3
*D5
  1

  0
LINE
  5
274
100
AcDbEntity
  8
0
  6
BYBLOCK
 62
     0
100
AcDbLine
 10
131.25
 20
119.8
 30
0.0
 11
131.25
 21
134.7
 31
0.0
  0
LINE
  5
275
100
AcDbEntity
  8
0
  6
BYBLOCK
 62
     0
100
AcDbLine
 10
146.25
 20
120.6
 30
0.0
 11
146.25
 21
134.7
 31
0.0
  0
LINE
  5
276
100
AcDbEntity
  8
0
  6
BYBLOCK
 62
     0
100
AcDbLine
 10
133.25
 20
134.5
 30
0.0
 11
137.1
 21
134.5
 31
0.0
  0
LINE
  5
277
100
AcDbEntity
  8
0
  6
BYBLOCK
 62
     0
100
AcDbLine
 10
144.25
 20
134.5
 30
0.0
 11
140.4
 21
134.5
 31
0.0
  0
SOLID
  5
278
100
AcDbEntity
  8
0
  6
BYBLOCK
 62
     0
100
AcDbTrace
 10
133.25
 20
134.833333
 30
0.0
 11
133.25
 21
134.166667
 31
0.0
 12
131.25
 22
134.5
 32
0.0
 13
131.25
 23
134.5
 33
0.0
  0
SOLID
  5
279
100
AcDbEntity
  8
0
  6
BYBLOCK
 62
     0
100
AcDbTrace
 10
144.25
 20
134.833333
 30
0.0
 11
144.25
 21
134.166667
 31
0.0
 12
146.25
 22
134.5
 32
0.0
 13
146.25
 23
134.5
 33
0.0
  0
MTEXT
  5
27A
100
AcDbEntity
  8
0
  6
BYBLOCK
 62
     0
100
AcDbMText
 10
138.75
 20
134.5
 30
0.0
 40
3.5
 41
0.0
 71
     5
 72
     1
  1
\A1;15
  0
POINT
  5
27B
100
AcDbEntity
  8
DEFPOINTS
  6
BYBLOCK
 62
     0
100
AcDbPoint
 10
131.25
 20
119.7
 30
0.0
  0
POINT
  5
27C
100
AcDbEntity
  8
DEFPOINTS
  6
BYBLOCK
 62
     0
100
AcDbPoint
 10
146.25
 20
120.5
 30
0.0
  0
POINT
  5
27D
100
AcDbEntity
  8
DEFPOINTS
  6
BYBLOCK
 62
     0
100
AcDbPoint
 10
146.25
 20
134.5
 30
0.0
  0
ENDBLK
  5
27F
100
AcDbEntity
  8
0
100
AcDbBlockEnd
  0
BLOCK
  5
289
100
AcDbEntity
  8
0
100
AcDbBlockBegin
  2
*D6
 70
     1
 10
0.0
 20
0.0
 30
0.0
  3
*D6
  1

  0
LINE
  5
281
100
AcDbEntity
  8
0
  6
BYBLOCK
 62
     0
100
AcDbLine
 10
119.75
 20
104.0
 30
0.0
 11
121.75
 21
104.0
 31
0.0
  0
LINE
  5
282
100
AcDbEntity
  8
0
  6
BYBLOCK
 62
     0
100
AcDbLine
 10
121.75
 20
104.0
 30
0.0
 11
128.494311
 21
109.845069
 31
0.0
  0
MTEXT
  5
283
100
AcDbEntity
  8
0
  6
BYBLOCK
 62
     0
100
AcDbMText
 10
118.25
 20
104.0
 30
0.0
 40
3.5
 41
0.0
 71
     5
 72
     1
  1
\A1;R1
  0
SOLID
  5
284
100
AcDbEntity
  8
0
  6
BYBLOCK
 62
     0
100
AcDbTrace
 10
126.764623
 20
108.787105
 30
0.0
 11
127.201243
 21
108.283312
 31
0.0
 12
128.494311
 22
109.845069
 32
0.0
 13
128.494311
 23
109.845069
 33
0.0
  0
LINE
  5
285
100
AcDbEntity
  8
0
  6
BYBLOCK
 62
     0
100
AcDbLine
 10
129.15
 20
110.5
 30
0.0
 11
129.35
 21
110.5
 31
0.0
  0
LINE
  5
286
100
AcDbEntity
  8
0
  6
BYBLOCK
 62
     0
100
AcDbLine
 10
129.25
 20
110.4
 30
0.0
 11
129.25
 21
110.6
 31
0.0
  0
POINT
  5
287
100
AcDbEntity
  8
DEFPOINTS
  6
BYBLOCK
 62
     0
100
AcDbPoint
 10
128.494311
 20
109.845069
 30
0.0
  0
POINT
  5
288
100
AcDbEntity
  8
DEFPOINTS
  6
BYBLOCK
 62
     0
100
AcDbPoint
 10
129.25
 20
110.5
 30
0.0
  0
ENDBLK
  5
28A
100
AcDbEntity
  8
0
100
AcDbBlockEnd
  0
BLOCK
  5
294
100
AcDbEntity
  8
0
100
AcDbBlockBegin
  2
*D7
 70
     1
 10
0.0
 20
0.0
 30
0.0
  3
*D7
  1

  0
LINE
  5
28C
100
AcDbEntity
  8
0
  6
BYBLOCK
 62
     0
100
AcDbLine
 10
154.5
 20
96.75
 30
0.0
 11
152.5
 21
96.75
 31
0.0
  0
LINE
  5
28D
100
AcDbEntity
  8
0
  6
BYBLOCK
 62
     0
100
AcDbLine
 10
152.5
 20
96.75
 30
0.0
 11
145.716409
 21
109.615431
 31
0.0
  0
MTEXT
  5
28E
100
AcDbEntity
  8
0
  6
BYBLOCK
 62
     0
100
AcDbMText
 10
156.0
 20
96.75
 30
0.0
 40
3.5
 41
0.0
 71
     5
 72
     1
  1
\A1;R1
  0
SOLID
  5
28F
100
AcDbEntity
  8
0
  6
BYBLOCK
 62
     0
100
AcDbTrace
 10
146.944084
 20
108.001762
 30
0.0
 11
146.354371
 21
107.690823
 31
0.0
 12
145.716409
 22
109.615431
 32
0.0
 13
145.716409
 23
109.615431
 33
0.0
  0
LINE
  5
290
100
AcDbEntity
  8
0
  6
BYBLOCK
 62
     0
100
AcDbLine
 10
145.15
 20
110.5
 30
0.0
 11
145.35
 21
110.5
 31
0.0
  0
LINE
  5
291
100
AcDbEntity
  8
0
  6
BYBLOCK
 62
     0
100
AcDbLine
 10
145.25
 20
110.4
 30
0.0
 11
145.25
 21
110.6
 31
0.0
  0
POINT
  5
292
100
AcDbEntity
  8
DEFPOINTS
  6
BYBLOCK
 62
     0
100
AcDbPoint
 10
145.716409
 20
109.615431
 30
0.0
  0
POINT
  5
293
100
AcDbEntity
  8
DEFPOINTS
  6
BYBLOCK
 62
     0
100
AcDbPoint
 10
145.25
 20
110.5
 30
0.0
  0
ENDBLK
  5
295
100
AcDbEntity
  8
0
100
AcDbBlockEnd
  0
BLOCK
  5
29F
100
AcDbEntity
  8
0
100
AcDbBlockBegin
  2
*D8
 70
     1
 10
0.0
 20
0.0
 30
0.0
  3
*D8
  1

  0
LINE
  5
297
100
AcDbEntity
  8
0
  6
BYBLOCK
 62
     0
100
AcDbLine
 10
169.75
 20
129.75
 30
0.0
 11
171.75
 21
129.75
 31
0.0
  0
LINE
  5
298
100
AcDbEntity
  8
0
  6
BYBLOCK
 62
     0
100
AcDbLine
 10
171.75
 20
129.75
 30
0.0
 11
176.982529
 21
122.102458
 31
0.0
  0
MTEXT
  5
299
100
AcDbEntity
  8
0
  6
BYBLOCK
 62
     0
100
AcDbMText
 10
167.0
 20
129.75
 30
0.0
 40
3.5
 41
0.0
 71
     5
 72
     1
  1
\A1;\U+220512
  0
SOLID
  5
29A
100
AcDbEntity
  8
0
  6
BYBLOCK
 62
     0
100
AcDbTrace
 10
177.257631
 20
122.290686
 30
0.0
 11
176.707426
 21
121.91423
 31
0.0
 12
178.111897
 22
120.451844
 32
0.0
 13
178.111897
 23
120.451844
 33
0.0
  0
LINE
  5
29B
100
AcDbEntity
  8
0
  6
BYBLOCK
 62
     0
100
AcDbLine
 10
181.4
 20
115.5
 30
0.0
 11
181.6
 21
115.5
 31
0.0
  0
LINE
  5
29C
100
AcDbEntity
  8
0
  6
BYBLOCK
 62
     0
100
AcDbLine
 10
181.5
 20
115.4
 30
0.0
 11
181.5
 21
115.6
 31
0.0
  0
POINT
  5
29D
100
AcDbEntity
  8
DEFPOINTS
  6
BYBLOCK
 62
     0
100
AcDbPoint
 10
178.111897
 20
120.451844
 30
0.0
  0
POINT
  5
29E
100
AcDbEntity
  8
DEFPOINTS
  6
BYBLOCK
 62
     0
100
AcDbPoint
 10
184.888103
 20
110.548157
 30
0.0
  0
ENDBLK
  5
2A0
100
AcDbEntity
  8
0
100
AcDbBlockEnd
  0
BLOCK
  5
2AA
100
AcDbEntity
  8
0
100
AcDbBlockBegin
  2
*D9
 70
     1
 10
0.0
 20
0.0
 30
0.0
  3
*D9
  1

  0
LINE
  5
2A2
100
AcDbEntity
  8
0
  6
BYBLOCK
 62
     0
100
AcDbLine
 10
169.0
 20
121.25
 30
0.0
 11
171.0
 21
121.25
 31
0.0
  0
LINE
  5
2A3
100
AcDbEntity
  8
0
  6
BYBLOCK
 62
     0
100
AcDbLine
 10
171.0
 20
121.25
 30
0.0
 11
177.026809
 21
117.949605
 31
0.0
  0
MTEXT
  5
2A4
100
AcDbEntity
  8
0
  6
BYBLOCK
 62
     0
100
AcDbMText
 10
165.75
 20
121.25
 30
0.0
 40
3.5
 41
0.0
 71
     5
 72
     1
  1
\A1;\U+22056.2
  0
SOLID
  5
2A5
100
AcDbEntity
  8
0
  6
BYBLOCK
 62
     0
100
AcDbTrace
 10
177.186914
 20
118.24197
 30
0.0
 11
176.866704
 21
117.657239
 31
0.0
 12
178.781002
 22
116.988976
 32
0.0
 13
178.781002
 23
116.988976
 33
0.0
  0
LINE
  5
2A6
100
AcDbEntity
  8
0
  6
BYBLOCK
 62
     0
100
AcDbLine
 10
181.4
 20
115.5
 30
0.0
 11
181.6
 21
115.5
 31
0.0
  0
LINE
  5
2A7
100
AcDbEntity
  8
0
  6
BYBLOCK
 62
     0
100
AcDbLine
 10
181.5
 20
115.4
 30
0.0
 11
181.5
 21
115.6
 31
0.0
  0
POINT
  5
2A8
100
AcDbEntity
  8
DEFPOINTS
  6
BYBLOCK
 62
     0
100
AcDbPoint
 10
178.781002
 20
116.988976
 30
0.0
  0
POINT
  5
2A9
100
AcDbEntity
  8
DEFPOINTS
  6
BYBLOCK
 62
     0
100
AcDbPoint
 10
184.218998
 20
114.011025
 30
0.0
  0
ENDBLK
  5
2AB
100
AcDbEntity
  8
0
100
AcDbBlockEnd
  0
BLOCK
  5
2B8
100
AcDbEntity
  8
0
100
AcDbBlockBegin
  2
*D10
 70
     1
 10
0.0
 20
0.0
 30
0.0
  3
*D10
  1

  0
LINE
  5
2AD
100
AcDbEntity
  8
0
  6
BYBLOCK
 62
     0
100
AcDbLine
 10
129.15
 20
79.25
 30
0.0
 11
109.9
 21
79.25
 31
0.0
  0
LINE
  5
2AE
100
AcDbEntity
  8
0
  6
BYBLOCK
 62
     0
100
AcDbLine
 10
129.15
 20
77.75
 30
0.0
 11
109.9
 21
77.75
 31
0.0
  0
LINE
  5
2AF
100
AcDbEntity
  8
0
  6
BYBLOCK
 62
     0
100
AcDbLine
 10
110.1
 20
75.75
 30
0.0
 11
110.1
 21
73.75
 31
0.0
  0
LINE
  5
2B0
100
AcDbEntity
  8
0
  6
BYBLOCK
 62
     0
100
AcDbLine
 10
110.1
 20
81.25
 30
0.0
 11
110.1
 21
84.0
 31
0.0
  0
LINE
  5
2B1
100
AcDbEntity
  8
0
  6
BYBLOCK
 62
     0
100
AcDbLine
 10
110.1
 20
84.0
 30
0.0
 11
112.1
 21
84.0
 31
0.0
  0
SOLID
  5
2B2
100
AcDbEntity
  8
0
  6
BYBLOCK
 62
     0
100
AcDbTrace
 10
109.766667
 20
75.75
 30
0.0
 11
110.433333
 21
75.75
 31
0.0
 12
110.1
 22
77.75
 32
0.0
 13
110.1
 23
77.75
 33
0.0
  0
SOLID
  5
2B3
100
AcDbEntity
  8
0
  6
BYBLOCK
 62
     0
100
AcDbTrace
 10
109.766667
 20
81.25
 30
0.0
 11
110.433333
 21
81.25
 31
0.0
 12
110.1
 22
79.25
 32
0.0
 13
110.1
 23
79.25
 33
0.0
  0
MTEXT
  5
2B4
100
AcDbEntity
  8
0
  6
BYBLOCK
 62
     0
100
AcDbMText
 10
114.25
 20
84.0
 30
0.0
 40
3.5
 41
0.0
 71
     5
 72
     1
  1
\A1;1.5
  0
POINT
  5
2B5
100
AcDbEntity
  8
DEFPOINTS
  6
BYBLOCK
 62
     0
100
AcDbPoint
 10
129.25
 20
79.25
 30
0.0
  0
POINT
  5
2B6
100
AcDbEntity
  8
DEFPOINTS
  6
BYBLOCK
 62
     0
100
AcDbPoint
 10
129.25
 20
77.75
 30
0.0
  0
POINT
  5
2B7
100
AcDbEntity
  8
DEFPOINTS
  6
BYBLOCK
 62
     0
100
AcDbPoint
 10
110.1
 20
77.75
 30
0.0
  0
ENDBLK
  5
2B9
100
AcDbEntity
  8
0
100
AcDbBlockEnd
  0
BLOCK
  5
2C3
100
AcDbEntity
  8
0
100
AcDbBlockBegin
  2
*D11
 70
     1
 10
0.0
 20
0.0
 30
0.0
  3
*D11
  1

  0
LINE
  5
2BB
100
AcDbEntity
  8
0
  6
BYBLOCK
 62
     0
100
AcDbLine
 10
183.5
 20
86.25
 30
0.0
 11
185.5
 21
86.25
 31
0.0
  0
LINE
  5
2BC
100
AcDbEntity
  8
0
  6
BYBLOCK
 62
     0
100
AcDbLine
 10
185.5
 20
86.25
 30
0.0
 11
190.917398
 21
81.711099
 31
0.0
  0
MTEXT
  5
2BD
100
AcDbEntity
  8
0
  6
BYBLOCK
 62
     0
100
AcDbMText
 10
181.75
 20
86.25
 30
0.0
 40
3.5
 41
0.0
 71
     5
 72
     1
  1
\A1;\U+22056
  0
SOLID
  5
2BE
100
AcDbEntity
  8
0
  6
BYBLOCK
 62
     0
100
AcDbTrace
 10
191.131471
 20
81.966606
 30
0.0
 11
190.703324
 21
81.455592
 31
0.0
 12
192.450439
 22
80.426659
 32
0.0
 13
192.450439
 23
80.426659
 33
0.0
  0
LINE
  5
2BF
100
AcDbEntity
  8
0
  6
BYBLOCK
 62
     0
100
AcDbLine
 10
194.65
 20
78.5
 30
0.0
 11
194.85
 21
78.5
 31
0.0
  0
LINE
  5
2C0
100
AcDbEntity
  8
0
  6
BYBLOCK
 62
     0
100
AcDbLine
 10
194.75
 20
78.4
 30
0.0
 11
194.75
 21
78.6
 31
0.0
  0
POINT
  5
2C1
100
AcDbEntity
  8
DEFPOINTS
  6
BYBLOCK
 62
     0
100
AcDbPoint
 10
192.450439
 20
80.426659
 30
0.0
  0
POINT
  5
2C2
100
AcDbEntity
  8
DEFPOINTS
  6
BYBLOCK
 62
     0
100
AcDbPoint
 10
197.049562
 20
76.57334
 30
0.0
  0
ENDBLK
  5
2C4
100
AcDbEntity
  8
0
100
AcDbBlockEnd
  0
BLOCK
  5
31C
100
AcDbEntity
  8
0
100
AcDbBlockBegin
  2
A$C502C4094
 70
     0
 10
0.0
 20
0.0
 30
0.0
  3
A$C502C4094
  1

  0
LINE
  5
2CA
100
AcDbEntity
  8
1
100
AcDbLine
 10
53.15
 20
5.25
 30
0.0
 11
77.4
 21
5.25
 31
0.0
  0
LINE
  5
2CB
100
AcDbEntity
  8
3
100
AcDbLine
 10
75.4
 20
2.25
 30
0.0
 11
59.4
 21
2.25
 31
0.0
  0
LINE
  5
2CC
100
AcDbEntity
  8
3
100
AcDbLine
 10
75.4
 20
8.25
 30
0.0
 11
59.4
 21
8.25
 31
0.0
  0
HATCH
  5
2CD
100
AcDbEntity
  8
0
100
AcDbHatch
 10
0.0
 20
0.0
 30
0.0
210
0.0
220
0.0
230
1.0
  2
ANSI31
 70
     0
 71
     1
 91
        1
 92
        7
 72
     1
 73
     1
 93
        8
 10
73.40000004562319
 20
37.25000032117286
 42
0.0
 10
73.40000004562319
 20
39.15000032117287
 42
0.0
 10
58.40000004562321
 20
39.15000032117285
 42
0.0
 10
58.40000004562319
 20
38.05000032117286
 42
0.0
 10
55.40000004562319
 20
38.05000032117287
 42
0.0
 10
55.40000004562319
 20
37.25000032117286
 42
0.4142135623730951
 10
56.40000004562319
 20
36.25000032117286
 42
0.0
 10
72.40000004562318
 20
36.25000032117286
 42
0.4142135623730951
 97
        8
330
317
330
2D0
330
2F3
330
2F1
330
2F0
330
2F2
330
2D1
330
316
 75
     0
 76
     1
 52
0.0
 41
3.0
 77
     0
 78
     1
 53
45.0
 43
-72.85
 44
-73.25
 45
-0.2651650429449553
 46
0.2651650429449553
 79
     0
 47
0.136474
 98
        1
 10
65.4
 20
37.25
  0
DIMENSION
  5
2CE
100
AcDbEntity
  8
0
100
AcDbDimension
  2
*D5
 10
73.4
 20
61.25
 30
0.0
 11
65.9
 21
61.25
 31
0.0
 12
-72.85
 22
-73.25
 32
0.0
 70
   128
  3
STANDARD
100
AcDbAlignedDimension
 13
58.4
 23
46.45
 33
0.0
 14
73.4
 24
47.25
 34
0.0
100
AcDbRotatedDimension
1001
ACAD
1000
DSTYLE
1002
{
1070
    78
1070
     8
1070
   288
1070
     1
1070
   284
1070
     8
1070
   140
1040
2.0
1070
    73
1070
     0
1070
   272
1070
     2
1070
   147
1040
0.1
1070
    42
1040
0.1
1070
    44
1040
0.2
1070
    43
1040
0.4
1070
   271
1070
     2
1070
   141
1040
0.1
1070
    41
1040
2.0
1002
}
  0
DIMENSION
  5
2CF
100
AcDbEntity
  8
0
100
AcDbDimension
  2
*D3
 10
73.4
 20
70.5
 30
0.0
 11
64.15
 21
70.5
 31
0.0
 12
-72.85
 22
-73.25
 32
0.0
 70
   128
  3
STANDARD
100
AcDbAlignedDimension
 13
55.4
 23
47.25
 33
0.0
 14
73.4
 24
47.25
 34
0.0
100
AcDbRotatedDimension
1001
ACAD
1000
DSTYLE
1002
{
1070
    78
1070
     8
1070
   288
1070
     1
1070
   284
1070
     8
1070
   140
1040
2.0
1070
    73
1070
     0
1070
   272
1070
     2
1070
   147
1040
0.1
1070
    42
1040
0.1
1070
    44
1040
0.2
1070
    43
1040
0.4
1070
   271
1070
     2
1070
   141
1040
0.1
1070
    41
1040
2.0
1002
}
  0
LINE
  5
2D0
102
{ACAD_REACTORS
330
2CD
102
}
100
AcDbEntity
  8
3
100
AcDbLine
 10
73.4
 20
39.15
 30
0.0
 11
58.4
 21
39.15
 31
0.0
  0
LINE
  5
2D1
102
{ACAD_REACTORS
330
2CD
102
}
100
AcDbEntity
  8
3
100
AcDbLine
 10
56.4
 20
36.25
 30
0.0
 11
72.4
 21
36.25
 31
0.0
  0
LINE
  5
2D2
100
AcDbEntity
  8
3
100
AcDbLine
 10
73.4
 20
45.35
 30
0.0
 11
58.4
 21
45.35
 31
0.0
  0
LINE
  5
2D3
100
AcDbEntity
  8
3
100
AcDbLine
 10
56.4
 20
48.25
 30
0.0
 11
72.4
 21
48.25
 31
0.0
  0
LINE
  5
2D4
100
AcDbEntity
  8
1
100
AcDbLine
 10
52.15
 20
42.250001
 30
0.0
 11
76.4
 21
42.250001
 31
0.0
  0
CIRCLE
  5
2D5
100
AcDbEntity
  8
3
100
AcDbCircle
 10
16.9
 20
5.25
 30
0.0
 40
4.0
  0
LINE
  5
2D6
100
AcDbEntity
  8
1
100
AcDbLine
 10
16.9
 20
10.25
 30
0.0
 11
16.9
 21
0.0
 31
0.0
  0
LINE
  5
2D7
100
AcDbEntity
  8
1
100
AcDbLine
 10
11.4
 20
5.25
 30
0.0
 11
22.65
 21
5.25
 31
0.0
  0
LINE
  5
2D8
100
AcDbEntity
  8
3
100
AcDbLine
 10
20.829059
 20
6.0
 30
0.0
 11
12.970942
 21
6.0
 31
0.0
  0
LINE
  5
2D9
100
AcDbEntity
  8
3
100
AcDbLine
 10
20.829059
 20
4.5
 30
0.0
 11
12.970942
 21
4.5
 31
0.0
  0
DIMENSION
  5
2DA
100
AcDbEntity
  8
0
100
AcDbDimension
  2
*D10
 10
37.25
 20
4.5
 30
0.0
 11
41.4
 21
10.75
 31
0.0
 12
-72.85
 22
-73.25
 32
0.0
 70
   128
  3
STANDARD
100
AcDbAlignedDimension
 13
56.4
 23
6.0
 33
0.0
 14
56.4
 24
4.5
 34
0.0
 50
90.0
100
AcDbRotatedDimension
1001
ACAD
1000
DSTYLE
1002
{
1070
    78
1070
     8
1070
   288
1070
     1
1070
   284
1070
     8
1070
   140
1040
2.0
1070
    73
1070
     0
1070
   272
1070
     2
1070
   147
1040
0.1
1070
    42
1040
0.1
1070
    44
1040
0.2
1070
    43
1040
0.4
1070
   271
1070
     2
1070
   141
1040
0.1
1070
    41
1040
2.0
1002
}
  0
LINE
  5
2DB
100
AcDbEntity
  8
3
100
AcDbLine
 10
59.4
 20
5.25
 30
0.0
 11
59.4
 21
9.25
 31
0.0
  0
LINE
  5
2DC
100
AcDbEntity
  8
3
100
AcDbLine
 10
56.4
 20
9.25
 30
0.0
 11
56.4
 21
6.0
 31
0.0
  0
LINE
  5
2DD
100
AcDbEntity
  8
3
100
AcDbLine
 10
59.4
 20
5.25
 30
0.0
 11
59.4
 21
1.25
 31
0.0
  0
LINE
  5
2DE
100
AcDbEntity
  8
3
100
AcDbLine
 10
56.4
 20
1.25
 30
0.0
 11
56.4
 21
4.5
 31
0.0
  0
LINE
  5
2DF
100
AcDbEntity
  8
3
100
AcDbLine
 10
59.4
 20
1.25
 30
0.0
 11
56.4
 21
1.25
 31
0.0
  0
LINE
  5
2E0
100
AcDbEntity
  8
3
100
AcDbLine
 10
57.4
 20
4.5
 30
0.0
 11
57.4
 21
5.25
 31
0.0
  0
LINE
  5
2E1
100
AcDbEntity
  8
3
100
AcDbLine
 10
56.4
 20
4.5
 30
0.0
 11
57.4
 21
4.5
 31
0.0
  0
LINE
  5
2E2
100
AcDbEntity
  8
3
100
AcDbLine
 10
57.4
 20
6.0
 30
0.0
 11
57.4
 21
5.25
 31
0.0
  0
LINE
  5
2E3
100
AcDbEntity
  8
3
100
AcDbLine
 10
56.4
 20
6.0
 30
0.0
 11
57.4
 21
6.0
 31
0.0
  0
LINE
  5
2E4
100
AcDbEntity
  8
3
100
AcDbLine
 10
59.4
 20
9.25
 30
0.0
 11
56.4
 21
9.25
 31
0.0
  0
CIRCLE
  5
2E5
100
AcDbEntity
  8
3
100
AcDbCircle
 10
18.65
 20
42.250001
 30
0.0
 40
6.0
  0
LINE
  5
2E6
100
AcDbEntity
  8
1
100
AcDbLine
 10
27.65
 20
42.250001
 30
0.0
 11
8.65
 21
42.250001
 31
0.0
  0
DIMENSION
  5
2E7
100
AcDbEntity
  8
0
100
AcDbDimension
  2
*D0
 10
22.333644
 20
37.513888
 30
0.0
 11
3.4
 21
55.75
 31
0.0
 12
-72.85
 22
-73.25
 32
0.0
 70
   131
  3
STANDARD
100
AcDbDiametricDimension
 15
14.966356
 25
46.986114
 35
0.0
 40
0.0
1001
ACAD
1000
DSTYLE
1002
{
1070
    78
1070
     8
1070
   288
1070
     1
1070
   284
1070
     8
1070
   140
1040
2.0
1070
    73
1070
     0
1070
   272
1070
     2
1070
   147
1040
0.1
1070
    42
1040
0.1
1070
    44
1040
0.2
1070
    43
1040
0.4
1070
   271
1070
     2
1070
   141
1040
0.1
1070
    41
1040
2.0
1002
}
  0
DIMENSION
  5
2E8
100
AcDbEntity
  8
0
100
AcDbDimension
  2
*D2
 10
21.350033
 20
43.773096
 30
0.0
 11
3.65
 21
36.75
 31
0.0
 12
-72.85
 22
-73.25
 32
0.0
 70
   131
  3
STANDARD
100
AcDbDiametricDimension
 15
15.949967
 25
40.726905
 35
0.0
 40
0.0
1001
ACAD
1000
DSTYLE
1002
{
1070
    78
1070
     8
1070
   288
1070
     1
1070
   284
1070
     8
1070
   140
1040
2.0
1070
    73
1070
     0
1070
   272
1070
     2
1070
   147
1040
0.1
1070
    42
1040
0.1
1070
    44
1040
0.2
1070
    43
1040
0.4
1070
   271
1070
     2
1070
   141
1040
0.1
1070
    41
1040
2.0
1002
}
  0
DIMENSION
  5
2E9
100
AcDbEntity
  8
0
100
AcDbDimension
  2
*D1
 10
21.882984
 20
39.56899
 30
0.0
 11
3.1
 21
50.75
 31
0.0
 12
-72.85
 22
-73.25
 32
0.0
 70
   131
  3
STANDARD
100
AcDbDiametricDimension
 15
15.417017
 25
44.931011
 35
0.0
 40
0.0
1001
ACAD
1000
DSTYLE
1002
{
1070
    78
1070
     8
1070
   288
1070
     1
1070
   284
1070
     8
1070
   140
1040
2.0
1070
    73
1070
     0
1070
   272
1070
     2
1070
   147
1040
0.1
1070
    42
1040
0.1
1070
    44
1040
0.2
1070
    43
1040
0.4
1070
   271
1070
     2
1070
   141
1040
0.1
1070
    41
1040
2.0
1002
}
  0
CIRCLE
  5
2EA
100
AcDbEntity
  8
3
100
AcDbCircle
 10
18.65
 20
42.250001
 30
0.0
 40
3.1
  0
CIRCLE
  5
2EB
100
AcDbEntity
  8
3
100
AcDbCircle
 10
18.65
 20
42.250001
 30
0.0
 40
4.2
  0
LINE
  5
2EC
100
AcDbEntity
  8
1
100
AcDbLine
 10
18.65
 20
51.5
 30
0.0
 11
18.65
 21
33.0
 31
0.0
  0
DIMENSION
  5
2ED
100
AcDbEntity
  8
0
100
AcDbDimension
  2
*D4
 10
58.4
 20
64.25
 30
0.0
 11
56.9
 21
64.25
 31
0.0
 12
-72.85
 22
-73.25
 32
0.0
 70
   128
  3
STANDARD
100
AcDbAlignedDimension
 13
55.4
 23
47.25
 33
0.0
 14
58.4
 24
46.45
 34
0.0
100
AcDbRotatedDimension
1001
ACAD
1000
DSTYLE
1002
{
1070
    78
1070
     8
1070
   288
1070
     1
1070
   284
1070
     8
1070
   140
1040
2.0
1070
    73
1070
     0
1070
   272
1070
     2
1070
   147
1040
0.1
1070
    42
1040
0.1
1070
    44
1040
0.2
1070
    43
1040
0.4
1070
   271
1070
     2
1070
   141
1040
0.1
1070
    41
1040
2.0
1002
}
  0
DIMENSION
  5
2EE
100
AcDbEntity
  8
0
100
AcDbDimension
  2
*D6
 10
56.4
 20
37.25
 30
0.0
 11
45.4
 21
30.75
 31
0.0
 12
-72.85
 22
-73.25
 32
0.0
 70
   132
  3
STANDARD
100
AcDbRadialDimension
 15
55.644311
 25
36.59507
 35
0.0
 40
0.0
1001
ACAD
1000
DSTYLE
1002
{
1070
    78
1070
     8
1070
   288
1070
     1
1070
   284
1070
     8
1070
   140
1040
2.0
1070
    73
1070
     0
1070
   272
1070
     2
1070
   147
1040
0.1
1070
    42
1040
0.1
1070
    44
1040
0.2
1070
    43
1040
0.4
1070
   271
1070
     2
1070
   141
1040
0.1
1070
    41
1040
2.0
1002
}
  0
LINE
  5
2EF
100
AcDbEntity
  8
3
100
AcDbLine
 10
58.4
 20
39.15
 30
0.0
 11
58.4
 21
42.25
 31
0.0
  0
LINE
  5
2F0
102
{ACAD_REACTORS
330
2CD
102
}
100
AcDbEntity
  8
3
100
AcDbLine
 10
55.4
 20
37.25
 30
0.0
 11
55.4
 21
42.25
 31
0.0
  0
LINE
  5
2F1
102
{ACAD_REACTORS
330
2CD
102
}
100
AcDbEntity
  8
3
100
AcDbLine
 10
58.4
 20
38.05
 30
0.0
 11
55.4
 21
38.05
 31
0.0
  0
ARC
  5
2F2
102
{ACAD_REACTORS
330
2CD
102
}
100
AcDbEntity
  8
3
100
AcDbCircle
 10
56.4
 20
37.25
 30
0.0
 40
1.0
100
AcDbArc
 50
180.0
 51
270.0
  0
LINE
  5
2F3
102
{ACAD_REACTORS
330
2CD
102
}
100
AcDbEntity
  8
3
100
AcDbLine
 10
58.4
 20
39.15
 30
0.0
 11
58.4
 21
38.05
 31
0.0
  0
ARC
  5
2F4
100
AcDbEntity
  8
3
100
AcDbCircle
 10
56.4
 20
47.25
 30
0.0
 40
1.0
100
AcDbArc
 50
90.0
 51
180.0
  0
LINE
  5
2F5
100
AcDbEntity
  8
3
100
AcDbLine
 10
58.4
 20
46.45
 30
0.0
 11
55.4
 21
46.45
 31
0.0
  0
LINE
  5
2F6
100
AcDbEntity
  8
3
100
AcDbLine
 10
55.4
 20
47.25
 30
0.0
 11
55.4
 21
42.25
 31
0.0
  0
LINE
  5
2F7
100
AcDbEntity
  8
3
100
AcDbLine
 10
58.4
 20
45.35
 30
0.0
 11
58.4
 21
42.25
 31
0.0
  0
LINE
  5
2F8
100
AcDbEntity
  8
3
100
AcDbLine
 10
58.4
 20
45.35
 30
0.0
 11
58.4
 21
46.45
 31
0.0
  0
DIMENSION
  5
2F9
100
AcDbEntity
  8
0
100
AcDbDimension
  2
*D7
 10
72.4
 20
37.25
 30
0.0
 11
83.15
 21
23.5
 31
0.0
 12
-72.85
 22
-73.25
 32
0.0
 70
   132
  3
STANDARD
100
AcDbRadialDimension
 15
72.866409
 25
36.365431
 35
0.0
 40
0.0
1001
ACAD
1000
DSTYLE
1002
{
1070
    78
1070
     8
1070
   288
1070
     1
1070
   284
1070
     8
1070
   140
1040
2.0
1070
    73
1070
     0
1070
   272
1070
     2
1070
   147
1040
0.1
1070
    42
1040
0.1
1070
    44
1040
0.2
1070
    43
1040
0.4
1070
   271
1070
     2
1070
   141
1040
0.1
1070
    41
1040
2.0
1002
}
  0
DIMENSION
  5
2FA
100
AcDbEntity
  8
0
100
AcDbDimension
  2
*D11
 10
124.199562
 20
3.32334
 30
0.0
 11
108.9
 21
13.0
 31
0.0
 12
-72.85
 22
-73.25
 32
0.0
 70
   131
  3
STANDARD
100
AcDbDiametricDimension
 15
119.600439
 25
7.17666
 35
0.0
 40
0.0
1001
ACAD
1000
DSTYLE
1002
{
1070
    78
1070
     8
1070
   288
1070
     1
1070
   284
1070
     8
1070
   140
1040
2.0
1070
    73
1070
     0
1070
   272
1070
     2
1070
   147
1040
0.1
1070
    42
1040
0.1
1070
    44
1040
0.2
1070
    43
1040
0.4
1070
   271
1070
     2
1070
   141
1040
0.1
1070
    41
1040
2.0
1002
}
  0
LINE
  5
2FB
100
AcDbEntity
  8
1
100
AcDbLine
 10
77.65
 20
5.25
 30
0.0
 11
85.9
 21
5.25
 31
0.0
  0
LINE
  5
2FC
100
AcDbEntity
  8
3
100
AcDbLine
 10
83.4
 20
2.75
 30
0.0
 11
75.4
 21
2.75
 31
0.0
  0
LINE
  5
2FD
100
AcDbEntity
  8
3
100
AcDbLine
 10
84.15
 20
3.5
 30
0.0
 11
76.15
 21
3.5
 31
0.0
  0
LINE
  5
2FE
100
AcDbEntity
  8
3
100
AcDbLine
 10
84.15
 20
7.0
 30
0.0
 11
76.15
 21
7.0
 31
0.0
  0
LINE
  5
2FF
100
AcDbEntity
  8
3
100
AcDbLine
 10
83.4
 20
7.75
 30
0.0
 11
75.4
 21
7.75
 31
0.0
  0
LINE
  5
300
100
AcDbEntity
  8
3
100
AcDbLine
 10
76.15
 20
5.25
 30
0.0
 11
76.15
 21
2.75
 31
0.0
  0
LINE
  5
301
100
AcDbEntity
  8
3
100
AcDbLine
 10
75.4
 20
5.25
 30
0.0
 11
75.4
 21
2.25
 31
0.0
  0
LINE
  5
302
100
AcDbEntity
  8
3
100
AcDbLine
 10
75.4
 20
5.25
 30
0.0
 11
75.4
 21
8.25
 31
0.0
  0
LINE
  5
303
100
AcDbEntity
  8
3
100
AcDbLine
 10
76.15
 20
5.25
 30
0.0
 11
76.15
 21
7.75
 31
0.0
  0
LINE
  5
304
100
AcDbEntity
  8
3
100
AcDbLine
 10
84.4
 20
6.75
 30
0.0
 11
83.4
 21
7.75
 31
0.0
  0
LINE
  5
305
100
AcDbEntity
  8
3
100
AcDbLine
 10
84.4
 20
3.75
 30
0.0
 11
83.4
 21
2.75
 31
0.0
  0
LINE
  5
306
100
AcDbEntity
  8
3
100
AcDbLine
 10
83.4
 20
5.25
 30
0.0
 11
83.4
 21
2.75
 31
0.0
  0
LINE
  5
307
100
AcDbEntity
  8
3
100
AcDbLine
 10
83.4
 20
5.25
 30
0.0
 11
83.4
 21
7.75
 31
0.0
  0
LINE
  5
308
100
AcDbEntity
  8
3
100
AcDbLine
 10
84.4
 20
5.25
 30
0.0
 11
84.4
 21
3.75
 31
0.0
  0
LINE
  5
309
100
AcDbEntity
  8
3
100
AcDbLine
 10
84.4
 20
5.25
 30
0.0
 11
84.4
 21
6.75
 31
0.0
  0
LINE
  5
30A
100
AcDbEntity
  8
1
100
AcDbLine
 10
121.9
 20
10.25
 30
0.0
 11
121.9
 21
0.0
 31
0.0
  0
CIRCLE
  5
30B
100
AcDbEntity
  8
3
100
AcDbCircle
 10
121.9
 20
5.25
 30
0.0
 40
4.0
  0
LINE
  5
30C
100
AcDbEntity
  8
1
100
AcDbLine
 10
116.4
 20
5.25
 30
0.0
 11
127.65
 21
5.25
 31
0.0
  0
CIRCLE
  5
30D
100
AcDbEntity
  8
3
100
AcDbCircle
 10
121.9
 20
5.25
 30
0.0
 40
2.5
  0
CIRCLE
  5
30E
100
AcDbEntity
  8
3
100
AcDbCircle
 10
121.9
 20
5.25
 30
0.0
 40
1.75
  0
CIRCLE
  5
30F
100
AcDbEntity
  8
3
100
AcDbCircle
 10
121.9
 20
5.25
 30
0.0
 40
3.0
  0
DIMENSION
  5
310
100
AcDbEntity
  8
0
100
AcDbDimension
  2
*D9
 10
111.368999
 20
40.761025
 30
0.0
 11
92.9
 21
48.0
 31
0.0
 12
-72.85
 22
-73.25
 32
0.0
 70
   131
  3
STANDARD
100
AcDbDiametricDimension
 15
105.931002
 25
43.738976
 35
0.0
 40
0.0
1001
ACAD
1000
DSTYLE
1002
{
1070
    78
1070
     8
1070
   288
1070
     1
1070
   284
1070
     8
1070
   140
1040
2.0
1070
    73
1070
     0
1070
   272
1070
     2
1070
   147
1040
0.1
1070
    42
1040
0.1
1070
    44
1040
0.2
1070
    43
1040
0.4
1070
   271
1070
     2
1070
   141
1040
0.1
1070
    41
1040
2.0
1002
}
  0
DIMENSION
  5
311
100
AcDbEntity
  8
0
100
AcDbDimension
  2
*D8
 10
112.038103
 20
37.298157
 30
0.0
 11
94.15
 21
56.5
 31
0.0
 12
-72.85
 22
-73.25
 32
0.0
 70
   131
  3
STANDARD
100
AcDbDiametricDimension
 15
105.261897
 25
47.201844
 35
0.0
 40
0.0
1001
ACAD
1000
DSTYLE
1002
{
1070
    78
1070
     8
1070
   288
1070
     1
1070
   284
1070
     8
1070
   140
1040
2.0
1070
    73
1070
     0
1070
   272
1070
     2
1070
   147
1040
0.1
1070
    42
1040
0.1
1070
    44
1040
0.2
1070
    43
1040
0.4
1070
   271
1070
     2
1070
   141
1040
0.1
1070
    41
1040
2.0
1002
}
  0
LINE
  5
312
100
AcDbEntity
  8
1
100
AcDbLine
 10
117.65
 20
42.250001
 30
0.0
 11
98.65
 21
42.250001
 31
0.0
  0
CIRCLE
  5
313
100
AcDbEntity
  8
3
100
AcDbCircle
 10
108.65
 20
42.250001
 30
0.0
 40
6.0
  0
CIRCLE
  5
314
100
AcDbEntity
  8
3
100
AcDbCircle
 10
108.65
 20
42.250001
 30
0.0
 40
3.1
  0
LINE
  5
315
100
AcDbEntity
  8
3
100
AcDbLine
 10
73.4
 20
39.15
 30
0.0
 11
73.4
 21
42.25
 31
0.0
  0
ARC
  5
316
102
{ACAD_REACTORS
330
2CD
102
}
100
AcDbEntity
  8
3
100
AcDbCircle
 10
72.4
 20
37.25
 30
0.0
 40
1.0
100
AcDbArc
 50
270.0
 51
0.0
  0
LINE
  5
317
102
{ACAD_REACTORS
330
2CD
102
}
100
AcDbEntity
  8
3
100
AcDbLine
 10
73.4
 20
37.25
 30
0.0
 11
73.4
 21
39.15
 31
0.0
  0
LINE
  5
318
100
AcDbEntity
  8
3
100
AcDbLine
 10
73.4
 20
47.25
 30
0.0
 11
73.4
 21
45.35
 31
0.0
  0
LINE
  5
319
100
AcDbEntity
  8
3
100
AcDbLine
 10
73.4
 20
45.35
 30
0.0
 11
73.4
 21
42.25
 31
0.0
  0
ARC
  5
31A
100
AcDbEntity
  8
3
100
AcDbCircle
 10
72.4
 20
47.25
 30
0.0
 40
1.0
100
AcDbArc
 50
0.0
 51
90.0
  0
LINE
  5
31B
100
AcDbEntity
  8
1
100
AcDbLine
 10
108.65
 20
51.5
 30
0.0
 11
108.65
 21
33.0
 31
0.0
  0
ENDBLK
  5
31D
100
AcDbEntity
  8
0
100
AcDbBlockEnd
  0
BLOCK
  5
47F
100
AcDbEntity
  8
0
100
AcDbBlockBegin
  2
*D13
 70
     1
 10
0.0
 20
0.0
 30
0.0
  3
*D13
  1

  0
LINE
  5
475
100
AcDbEntity
  8
0
  6
BYBLOCK
 62
     0
100
AcDbLine
 10
61.159213
 20
199.0
 30
0.0
 11
104.75
 21
199.0
 31
0.0
  0
LINE
  5
476
100
AcDbEntity
  8
0
  6
BYBLOCK
 62
     0
100
AcDbLine
 10
96.710801
 20
170.5
 30
0.0
 11
104.75
 21
170.5
 31
0.0
  0
LINE
  5
477
100
AcDbEntity
  8
0
  6
BYBLOCK
 62
     0
100
AcDbLine
 10
103.75
 20
196.5
 30
0.0
 11
103.75
 21
191.125
 31
0.0
  0
LINE
  5
478
100
AcDbEntity
  8
0
  6
BYBLOCK
 62
     0
100
AcDbLine
 10
103.75
 20
173.0
 30
0.0
 11
103.75
 21
177.875
 31
0.0
  0
SOLID
  5
479
100
AcDbEntity
  8
0
  6
BYBLOCK
 62
     0
100
AcDbTrace
 10
103.333333
 20
196.5
 30
0.0
 11
104.166667
 21
196.5
 31
0.0
 12
103.75
 22
199.0
 32
0.0
 13
103.75
 23
199.0
 33
0.0
  0
SOLID
  5
47A
100
AcDbEntity
  8
0
  6
BYBLOCK
 62
     0
100
AcDbTrace
 10
103.333333
 20
173.0
 30
0.0
 11
104.166667
 21
173.0
 31
0.0
 12
103.75
 22
170.5
 32
0.0
 13
103.75
 23
170.5
 33
0.0
  0
MTEXT
  5
47B
100
AcDbEntity
  8
0
  6
BYBLOCK
 62
     0
100
AcDbMText
 10
103.75
 20
184.5
 30
0.0
 40
4.0
 41
0.0
 71
     5
 72
     1
  1
\A1;28.5
 11
0.0
 21
1.0
 31
0.0
  0
POINT
  5
47C
100
AcDbEntity
  8
DEFPOINTS
  6
BYBLOCK
 62
     0
100
AcDbPoint
 10
60.159213
 20
199.0
 30
0.0
  0
POINT
  5
47D
100
AcDbEntity
  8
DEFPOINTS
  6
BYBLOCK
 62
     0
100
AcDbPoint
 10
95.710801
 20
170.5
 30
0.0
  0
POINT
  5
47E
100
AcDbEntity
  8
DEFPOINTS
  6
BYBLOCK
 62
     0
100
AcDbPoint
 10
103.75
 20
170.5
 30
0.0
  0
ENDBLK
  5
480
100
AcDbEntity
  8
0
100
AcDbBlockEnd
  0
BLOCK
  5
48D
100
AcDbEntity
  8
0
100
AcDbBlockBegin
  2
*D14
 70
     1
 10
0.0
 20
0.0
 30
0.0
  3
*D14
  1

  0
LINE
  5
482
100
AcDbEntity
  8
0
  6
BYBLOCK
 62
     0
100
AcDbLine
 10
37.693003
 20
171.188781
 30
0.0
 11
36.618269
 21
170.568283
 31
0.0
  0
LINE
  5
483
100
AcDbEntity
  8
0
  6
BYBLOCK
 62
     0
100
AcDbLine
 10
44.693003
 20
159.064425
 30
0.0
 11
43.618269
 21
158.443927
 31
0.0
  0
LINE
  5
484
100
AcDbEntity
  8
0
  6
BYBLOCK
 62
     0
100
AcDbLine
 10
43.234294
 20
161.108991
 30
0.0
 11
38.734294
 21
168.903219
 31
0.0
  0
LINE
  5
485
100
AcDbEntity
  8
0
  6
BYBLOCK
 62
     0
100
AcDbLine
 10
37.484294
 20
171.068283
 30
0.0
 11
35.791667
 21
174.0
 31
0.0
  0
LINE
  5
486
100
AcDbEntity
  8
0
  6
BYBLOCK
 62
     0
100
AcDbLine
 10
35.791667
 20
174.0
 30
0.0
 11
33.291667
 21
174.0
 31
0.0
  0
SOLID
  5
487
100
AcDbEntity
  8
0
  6
BYBLOCK
 62
     0
100
AcDbTrace
 10
43.595138
 20
161.317324
 30
0.0
 11
42.873451
 21
160.900657
 31
0.0
 12
44.484294
 22
158.943927
 32
0.0
 13
44.484294
 23
158.943927
 33
0.0
  0
SOLID
  5
488
100
AcDbEntity
  8
0
  6
BYBLOCK
 62
     0
100
AcDbTrace
 10
39.095138
 20
169.111552
 30
0.0
 11
38.373451
 21
168.694886
 31
0.0
 12
37.484294
 22
171.068283
 32
0.0
 13
37.484294
 23
171.068283
 33
0.0
  0
MTEXT
  5
489
100
AcDbEntity
  8
0
  6
BYBLOCK
 62
     0
100
AcDbMText
 10
30.0
 20
174.0
 30
0.0
 40
4.0
 41
0.0
 71
     5
 72
     1
  1
\A1;14
  0
POINT
  5
48A
100
AcDbEntity
  8
DEFPOINTS
  6
BYBLOCK
 62
     0
100
AcDbPoint
 10
38.559028
 20
171.688781
 30
0.0
  0
POINT
  5
48B
100
AcDbEntity
  8
DEFPOINTS
  6
BYBLOCK
 62
     0
100
AcDbPoint
 10
45.559028
 20
159.564425
 30
0.0
  0
POINT
  5
48C
100
AcDbEntity
  8
DEFPOINTS
  6
BYBLOCK
 62
     0
100
AcDbPoint
 10
44.484294
 20
158.943927
 30
0.0
  0
ENDBLK
  5
48E
100
AcDbEntity
  8
0
100
AcDbBlockEnd
  0
BLOCK
  5
49B
100
AcDbEntity
  8
0
100
AcDbBlockBegin
  2
*D15
 70
     1
 10
0.0
 20
0.0
 30
0.0
  3
*D15
  1

  0
LINE
  5
490
100
AcDbEntity
  8
0
  6
BYBLOCK
 62
     0
100
AcDbLine
 10
28.108214
 20
165.07765
 30
0.0
 11
30.749281
 21
166.602471
 31
0.0
  0
LINE
  5
491
100
AcDbEntity
  8
0
  6
BYBLOCK
 62
     0
100
AcDbLine
 10
34.608214
 20
153.81932
 30
0.0
 11
37.249281
 21
155.34414
 31
0.0
  0
LINE
  5
492
100
AcDbEntity
  8
0
  6
BYBLOCK
 62
     0
100
AcDbLine
 10
31.133255
 20
163.937407
 30
0.0
 11
35.133255
 21
157.009204
 31
0.0
  0
LINE
  5
493
100
AcDbEntity
  8
0
  6
BYBLOCK
 62
     0
100
AcDbLine
 10
36.383255
 20
154.84414
 30
0.0
 11
38.458333
 21
151.25
 31
0.0
  0
LINE
  5
494
100
AcDbEntity
  8
0
  6
BYBLOCK
 62
     0
100
AcDbLine
 10
38.458333
 20
151.25
 30
0.0
 11
40.958333
 21
151.25
 31
0.0
  0
SOLID
  5
495
100
AcDbEntity
  8
0
  6
BYBLOCK
 62
     0
100
AcDbTrace
 10
31.494099
 20
164.14574
 30
0.0
 11
30.772412
 21
163.729074
 31
0.0
 12
29.883255
 22
166.102471
 32
0.0
 13
29.883255
 23
166.102471
 33
0.0
  0
SOLID
  5
496
100
AcDbEntity
  8
0
  6
BYBLOCK
 62
     0
100
AcDbTrace
 10
35.494099
 20
157.217537
 30
0.0
 11
34.772412
 21
156.80087
 31
0.0
 12
36.383255
 22
154.84414
 32
0.0
 13
36.383255
 23
154.84414
 33
0.0
  0
MTEXT
  5
497
100
AcDbEntity
  8
0
  6
BYBLOCK
 62
     0
100
AcDbMText
 10
44.25
 20
151.25
 30
0.0
 40
4.0
 41
0.0
 71
     5
 72
     1
  1
\A1;13
  0
POINT
  5
498
100
AcDbEntity
  8
DEFPOINTS
  6
BYBLOCK
 62
     0
100
AcDbPoint
 10
27.242189
 20
164.57765
 30
0.0
  0
POINT
  5
499
100
AcDbEntity
  8
DEFPOINTS
  6
BYBLOCK
 62
     0
100
AcDbPoint
 10
33.742189
 20
153.31932
 30
0.0
  0
POINT
  5
49A
100
AcDbEntity
  8
DEFPOINTS
  6
BYBLOCK
 62
     0
100
AcDbPoint
 10
36.383255
 20
154.84414
 30
0.0
  0
ENDBLK
  5
49C
100
AcDbEntity
  8
0
100
AcDbBlockEnd
  0
BLOCK
  5
4A8
100
AcDbEntity
  8
0
100
AcDbBlockBegin
  2
*D16
 70
     1
 10
0.0
 20
0.0
 30
0.0
  3
*D16
  1

  0
LINE
  5
49E
100
AcDbEntity
  8
0
  6
BYBLOCK
 62
     0
100
AcDbLine
 10
51.5
 20
210.5
 30
0.0
 11
118.75
 21
210.5
 31
0.0
  0
LINE
  5
49F
100
AcDbEntity
  8
0
  6
BYBLOCK
 62
     0
100
AcDbLine
 10
51.5
 20
130.5
 30
0.0
 11
118.75
 21
130.5
 31
0.0
  0
LINE
  5
4A0
100
AcDbEntity
  8
0
  6
BYBLOCK
 62
     0
100
AcDbLine
 10
117.75
 20
208.0
 30
0.0
 11
117.75
 21
175.375
 31
0.0
  0
LINE
  5
4A1
100
AcDbEntity
  8
0
  6
BYBLOCK
 62
     0
100
AcDbLine
 10
117.75
 20
133.0
 30
0.0
 11
117.75
 21
164.125
 31
0.0
  0
SOLID
  5
4A2
100
AcDbEntity
  8
0
  6
BYBLOCK
 62
     0
100
AcDbTrace
 10
117.333333
 20
208.0
 30
0.0
 11
118.166667
 21
208.0
 31
0.0
 12
117.75
 22
210.5
 32
0.0
 13
117.75
 23
210.5
 33
0.0
  0
SOLID
  5
4A3
100
AcDbEntity
  8
0
  6
BYBLOCK
 62
     0
100
AcDbTrace
 10
117.333333
 20
133.0
 30
0.0
 11
118.166667
 21
133.0
 31
0.0
 12
117.75
 22
130.5
 32
0.0
 13
117.75
 23
130.5
 33
0.0
  0
MTEXT
  5
4A4
100
AcDbEntity
  8
0
  6
BYBLOCK
 62
     0
100
AcDbMText
 10
117.75
 20
169.75
 30
0.0
 40
4.0
 41
0.0
 71
     5
 72
     1
  1
\A1;\U+220580
 11
0.0
 21
1.0
 31
0.0
  0
POINT
  5
4A5
100
AcDbEntity
  8
DEFPOINTS
  6
BYBLOCK
 62
     0
100
AcDbPoint
 10
50.5
 20
210.5
 30
0.0
  0
POINT
  5
4A6
100
AcDbEntity
  8
DEFPOINTS
  6
BYBLOCK
 62
     0
100
AcDbPoint
 10
50.5
 20
130.5
 30
0.0
  0
POINT
  5
4A7
100
AcDbEntity
  8
DEFPOINTS
  6
BYBLOCK
 62
     0
100
AcDbPoint
 10
117.75
 20
130.5
 30
0.0
  0
ENDBLK
  5
4A9
100
AcDbEntity
  8
0
100
AcDbBlockEnd
  0
BLOCK
  5
4B5
100
AcDbEntity
  8
0
100
AcDbBlockBegin
  2
*D17
 70
     1
 10
0.0
 20
0.0
 30
0.0
  3
*D17
  1

  0
LINE
  5
4AB
100
AcDbEntity
  8
0
  6
BYBLOCK
 62
     0
100
AcDbLine
 10
168.0
 20
180.5
 30
0.0
 11
168.0
 21
191.5
 31
0.0
  0
LINE
  5
4AC
100
AcDbEntity
  8
0
  6
BYBLOCK
 62
     0
100
AcDbLine
 10
192.0
 20
180.5
 30
0.0
 11
192.0
 21
191.5
 31
0.0
  0
LINE
  5
4AD
100
AcDbEntity
  8
0
  6
BYBLOCK
 62
     0
100
AcDbLine
 10
170.5
 20
190.5
 30
0.0
 11
176.291667
 21
190.5
 31
0.0
  0
LINE
  5
4AE
100
AcDbEntity
  8
0
  6
BYBLOCK
 62
     0
100
AcDbLine
 10
189.5
 20
190.5
 30
0.0
 11
184.208333
 21
190.5
 31
0.0
  0
SOLID
  5
4AF
100
AcDbEntity
  8
0
  6
BYBLOCK
 62
     0
100
AcDbTrace
 10
170.5
 20
190.916667
 30
0.0
 11
170.5
 21
190.083333
 31
0.0
 12
168.0
 22
190.5
 32
0.0
 13
168.0
 23
190.5
 33
0.0
  0
SOLID
  5
4B0
100
AcDbEntity
  8
0
  6
BYBLOCK
 62
     0
100
AcDbTrace
 10
189.5
 20
190.916667
 30
0.0
 11
189.5
 21
190.083333
 31
0.0
 12
192.0
 22
190.5
 32
0.0
 13
192.0
 23
190.5
 33
0.0
  0
MTEXT
  5
4B1
100
AcDbEntity
  8
0
  6
BYBLOCK
 62
     0
100
AcDbMText
 10
180.25
 20
190.5
 30
0.0
 40
4.0
 41
0.0
 71
     5
 72
     1
  1
\A1;24
  0
POINT
  5
4B2
100
AcDbEntity
  8
DEFPOINTS
  6
BYBLOCK
 62
     0
100
AcDbPoint
 10
168.0
 20
179.5
 30
0.0
  0
POINT
  5
4B3
100
AcDbEntity
  8
DEFPOINTS
  6
BYBLOCK
 62
     0
100
AcDbPoint
 10
192.0
 20
179.5
 30
0.0
  0
POINT
  5
4B4
100
AcDbEntity
  8
DEFPOINTS
  6
BYBLOCK
 62
     0
100
AcDbPoint
 10
192.0
 20
190.5
 30
0.0
  0
ENDBLK
  5
4B6
100
AcDbEntity
  8
0
100
AcDbBlockEnd
  0
BLOCK
  5
4C2
100
AcDbEntity
  8
0
100
AcDbBlockBegin
  2
*D18
 70
     1
 10
0.0
 20
0.0
 30
0.0
  3
*D18
  1

  0
LINE
  5
4B8
100
AcDbEntity
  8
0
  6
BYBLOCK
 62
     0
100
AcDbLine
 10
161.5
 20
210.5
 30
0.0
 11
127.25
 21
210.5
 31
0.0
  0
LINE
  5
4B9
100
AcDbEntity
  8
0
  6
BYBLOCK
 62
     0
100
AcDbLine
 10
155.001928
 20
190.75
 30
0.0
 11
127.25
 21
190.75
 31
0.0
  0
LINE
  5
4BA
100
AcDbEntity
  8
0
  6
BYBLOCK
 62
     0
100
AcDbLine
 10
128.25
 20
208.0
 30
0.0
 11
128.25
 21
207.375
 31
0.0
  0
LINE
  5
4BB
100
AcDbEntity
  8
0
  6
BYBLOCK
 62
     0
100
AcDbLine
 10
128.25
 20
193.25
 30
0.0
 11
128.25
 21
193.875
 31
0.0
  0
SOLID
  5
4BC
100
AcDbEntity
  8
0
  6
BYBLOCK
 62
     0
100
AcDbTrace
 10
127.833333
 20
208.0
 30
0.0
 11
128.666667
 21
208.0
 31
0.0
 12
128.25
 22
210.5
 32
0.0
 13
128.25
 23
210.5
 33
0.0
  0
SOLID
  5
4BD
100
AcDbEntity
  8
0
  6
BYBLOCK
 62
     0
100
AcDbTrace
 10
127.833333
 20
193.25
 30
0.0
 11
128.666667
 21
193.25
 31
0.0
 12
128.25
 22
190.75
 32
0.0
 13
128.25
 23
190.75
 33
0.0
  0
MTEXT
  5
4BE
100
AcDbEntity
  8
0
  6
BYBLOCK
 62
     0
100
AcDbMText
 10
128.25
 20
200.5
 30
0.0
 40
4.0
 41
0.0
 71
     5
 72
     1
  1
\A1;19.75
 11
0.0
 21
1.0
 31
0.0
  0
POINT
  5
4BF
100
AcDbEntity
  8
DEFPOINTS
  6
BYBLOCK
 62
     0
100
AcDbPoint
 10
162.5
 20
210.5
 30
0.0
  0
POINT
  5
4C0
100
AcDbEntity
  8
DEFPOINTS
  6
BYBLOCK
 62
     0
100
AcDbPoint
 10
156.001928
 20
190.75
 30
0.0
  0
POINT
  5
4C1
100
AcDbEntity
  8
DEFPOINTS
  6
BYBLOCK
 62
     0
100
AcDbPoint
 10
128.25
 20
190.75
 30
0.0
  0
ENDBLK
  5
4C3
100
AcDbEntity
  8
0
100
AcDbBlockEnd
  0
BLOCK
  5
4D0
100
AcDbEntity
  8
0
100
AcDbBlockBegin
  2
*D19
 70
     1
 10
0.0
 20
0.0
 30
0.0
  3
*D19
  1

  0
LINE
  5
4C5
100
AcDbEntity
  8
0
  6
BYBLOCK
 62
     0
100
AcDbLine
 10
155.001928
 20
203.0
 30
0.0
 11
141.958333
 21
203.0
 31
0.0
  0
LINE
  5
4C6
100
AcDbEntity
  8
0
  6
BYBLOCK
 62
     0
100
AcDbLine
 10
155.001928
 20
195.0
 30
0.0
 11
141.958333
 21
195.0
 31
0.0
  0
LINE
  5
4C7
100
AcDbEntity
  8
0
  6
BYBLOCK
 62
     0
100
AcDbLine
 10
142.958333
 20
200.5
 30
0.0
 11
142.958333
 21
197.5
 31
0.0
  0
LINE
  5
4C8
100
AcDbEntity
  8
0
  6
BYBLOCK
 62
     0
100
AcDbLine
 10
142.958333
 20
195.0
 30
0.0
 11
142.958333
 21
192.5
 31
0.0
  0
LINE
  5
4C9
100
AcDbEntity
  8
0
  6
BYBLOCK
 62
     0
100
AcDbLine
 10
142.958333
 20
192.5
 30
0.0
 11
140.458333
 21
192.5
 31
0.0
  0
SOLID
  5
4CA
100
AcDbEntity
  8
0
  6
BYBLOCK
 62
     0
100
AcDbTrace
 10
142.541667
 20
200.5
 30
0.0
 11
143.375
 21
200.5
 31
0.0
 12
142.958333
 22
203.0
 32
0.0
 13
142.958333
 23
203.0
 33
0.0
  0
SOLID
  5
4CB
100
AcDbEntity
  8
0
  6
BYBLOCK
 62
     0
100
AcDbTrace
 10
142.541667
 20
197.5
 30
0.0
 11
143.375
 21
197.5
 31
0.0
 12
142.958333
 22
195.0
 32
0.0
 13
142.958333
 23
195.0
 33
0.0
  0
MTEXT
  5
4CC
100
AcDbEntity
  8
0
  6
BYBLOCK
 62
     0
100
AcDbMText
 10
136.5
 20
192.5
 30
0.0
 40
4.0
 41
0.0
 71
     5
 72
     1
  1
\A1;\U+22058
  0
POINT
  5
4CD
100
AcDbEntity
  8
DEFPOINTS
  6
BYBLOCK
 62
     0
100
AcDbPoint
 10
156.001928
 20
203.0
 30
0.0
  0
POINT
  5
4CE
100
AcDbEntity
  8
DEFPOINTS
  6
BYBLOCK
 62
     0
100
AcDbPoint
 10
156.001928
 20
195.0
 30
0.0
  0
POINT
  5
4CF
100
AcDbEntity
  8
DEFPOINTS
  6
BYBLOCK
 62
     0
100
AcDbPoint
 10
142.958333
 20
195.0
 30
0.0
  0
ENDBLK
  5
4D1
100
AcDbEntity
  8
0
100
AcDbBlockEnd
  0
BLOCK
  5
4DD
100
AcDbEntity
  8
0
100
AcDbBlockBegin
  2
*D20
 70
     1
 10
0.0
 20
0.0
 30
0.0
  3
*D20
  1

  0
LINE
  5
4D3
100
AcDbEntity
  8
0
  6
BYBLOCK
 62
     0
100
AcDbLine
 10
193.0
 20
179.5
 30
0.0
 11
207.5
 21
179.5
 31
0.0
  0
LINE
  5
4D4
100
AcDbEntity
  8
0
  6
BYBLOCK
 62
     0
100
AcDbLine
 10
193.0
 20
161.5
 30
0.0
 11
207.5
 21
161.5
 31
0.0
  0
LINE
  5
4D5
100
AcDbEntity
  8
0
  6
BYBLOCK
 62
     0
100
AcDbLine
 10
206.5
 20
177.0
 30
0.0
 11
206.5
 21
175.791667
 31
0.0
  0
LINE
  5
4D6
100
AcDbEntity
  8
0
  6
BYBLOCK
 62
     0
100
AcDbLine
 10
206.5
 20
164.0
 30
0.0
 11
206.5
 21
165.208333
 31
0.0
  0
SOLID
  5
4D7
100
AcDbEntity
  8
0
  6
BYBLOCK
 62
     0
100
AcDbTrace
 10
206.083333
 20
177.0
 30
0.0
 11
206.916667
 21
177.0
 31
0.0
 12
206.5
 22
179.5
 32
0.0
 13
206.5
 23
179.5
 33
0.0
  0
SOLID
  5
4D8
100
AcDbEntity
  8
0
  6
BYBLOCK
 62
     0
100
AcDbTrace
 10
206.083333
 20
164.0
 30
0.0
 11
206.916667
 21
164.0
 31
0.0
 12
206.5
 22
161.5
 32
0.0
 13
206.5
 23
161.5
 33
0.0
  0
MTEXT
  5
4D9
100
AcDbEntity
  8
0
  6
BYBLOCK
 62
     0
100
AcDbMText
 10
206.5
 20
170.5
 30
0.0
 40
4.0
 41
0.0
 71
     5
 72
     1
  1
\A1;\U+220518
 11
0.0
 21
1.0
 31
0.0
  0
POINT
  5
4DA
100
AcDbEntity
  8
DEFPOINTS
  6
BYBLOCK
 62
     0
100
AcDbPoint
 10
192.0
 20
179.5
 30
0.0
  0
POINT
  5
4DB
100
AcDbEntity
  8
DEFPOINTS
  6
BYBLOCK
 62
     0
100
AcDbPoint
 10
192.0
 20
161.5
 30
0.0
  0
POINT
  5
4DC
100
AcDbEntity
  8
DEFPOINTS
  6
BYBLOCK
 62
     0
100
AcDbPoint
 10
206.5
 20
161.5
 30
0.0
  0
ENDBLK
  5
4DE
100
AcDbEntity
  8
0
100
AcDbBlockEnd
  0
BLOCK
  5
4E6
100
AcDbEntity
  8
0
100
AcDbBlockBegin
  2
*D21
 70
     1
 10
0.0
 20
0.0
 30
0.0
  3
*D21
  1

  0
LINE
  5
4E0
100
AcDbEntity
  8
0
  6
BYBLOCK
 62
     0
100
AcDbLine
 10
175.118583
 20
149.493834
 30
0.0
 11
172.618583
 21
149.493834
 31
0.0
  0
LINE
  5
4E1
100
AcDbEntity
  8
0
  6
BYBLOCK
 62
     0
100
AcDbLine
 10
172.618583
 20
149.493834
 30
0.0
 11
165.882366
 21
144.460176
 31
0.0
  0
MTEXT
  5
4E2
100
AcDbEntity
  8
0
  6
BYBLOCK
 62
     0
100
AcDbMText
 10
181.41025
 20
149.493834
 30
0.0
 40
4.0
 41
0.0
 71
     5
 72
     1
  1
\A1;R0.5
  0
SOLID
  5
4E3
100
AcDbEntity
  8
0
  6
BYBLOCK
 62
     0
100
AcDbTrace
 10
167.635591
 20
146.290426
 30
0.0
 11
168.134417
 21
145.62288
 31
0.0
 12
165.882366
 22
144.460176
 32
0.0
 13
165.882366
 23
144.460176
 33
0.0
  0
POINT
  5
4E4
100
AcDbEntity
  8
DEFPOINTS
  6
BYBLOCK
 62
     0
100
AcDbPoint
 10
165.882366
 20
144.460176
 30
0.0
  0
POINT
  5
4E5
100
AcDbEntity
  8
DEFPOINTS
  6
BYBLOCK
 62
     0
100
AcDbPoint
 10
165.481839
 20
144.160881
 30
0.0
  0
ENDBLK
  5
4E7
100
AcDbEntity
  8
0
100
AcDbBlockEnd
  0
BLOCK
  5
4F3
100
AcDbEntity
  8
0
100
AcDbBlockBegin
  2
*D22
 70
     1
 10
0.0
 20
0.0
 30
0.0
  3
*D22
  1

  0
LINE
  5
4E9
100
AcDbEntity
  8
0
  6
BYBLOCK
 62
     0
100
AcDbLine
 10
166.507169
 20
180.4855
 30
0.0
 11
134.681435
 21
180.4855
 31
0.0
  0
LINE
  5
4EA
100
AcDbEntity
  8
0
  6
BYBLOCK
 62
     0
100
AcDbLine
 10
166.507169
 20
160.307915
 30
0.0
 11
134.681435
 21
160.307915
 31
0.0
  0
LINE
  5
4EB
100
AcDbEntity
  8
0
  6
BYBLOCK
 62
     0
100
AcDbLine
 10
135.681435
 20
177.9855
 30
0.0
 11
135.681435
 21
175.921819
 31
0.0
  0
LINE
  5
4EC
100
AcDbEntity
  8
0
  6
BYBLOCK
 62
     0
100
AcDbLine
 10
135.681435
 20
162.807915
 30
0.0
 11
135.681435
 21
164.671819
 31
0.0
  0
SOLID
  5
4ED
100
AcDbEntity
  8
0
  6
BYBLOCK
 62
     0
100
AcDbTrace
 10
135.264768
 20
177.9855
 30
0.0
 11
136.098101
 21
177.9855
 31
0.0
 12
135.681435
 22
180.4855
 32
0.0
 13
135.681435
 23
180.4855
 33
0.0
  0
SOLID
  5
4EE
100
AcDbEntity
  8
0
  6
BYBLOCK
 62
     0
100
AcDbTrace
 10
135.264768
 20
162.807915
 30
0.0
 11
136.098101
 21
162.807915
 31
0.0
 12
135.681435
 22
160.307915
 32
0.0
 13
135.681435
 23
160.307915
 33
0.0
  0
MTEXT
  5
4EF
100
AcDbEntity
  8
0
  6
BYBLOCK
 62
     0
100
AcDbMText
 10
135.681435
 20
170.296819
 30
0.0
 40
4.0
 41
0.0
 71
     5
 72
     1
  1
\A1;\U+220520
 11
0.0
 21
1.0
 31
0.0
  0
POINT
  5
4F0
100
AcDbEntity
  8
DEFPOINTS
  6
BYBLOCK
 62
     0
100
AcDbPoint
 10
167.507169
 20
180.4855
 30
0.0
  0
POINT
  5
4F1
100
AcDbEntity
  8
DEFPOINTS
  6
BYBLOCK
 62
     0
100
AcDbPoint
 10
167.507169
 20
160.307915
 30
0.0
  0
POINT
  5
4F2
100
AcDbEntity
  8
DEFPOINTS
  6
BYBLOCK
 62
     0
100
AcDbPoint
 10
135.681435
 20
160.307915
 30
0.0
  0
ENDBLK
  5
4F4
100
AcDbEntity
  8
0
100
AcDbBlockEnd
  0
BLOCK
  5
500
100
AcDbEntity
  8
0
100
AcDbBlockBegin
  2
*D23
 70
     1
 10
0.0
 20
0.0
 30
0.0
  3
*D23
  1

  0
LINE
  5
4F6
100
AcDbEntity
  8
0
  6
BYBLOCK
 62
     0
100
AcDbLine
 10
167.0
 20
177.5
 30
0.0
 11
144.089041
 21
177.5
 31
0.0
  0
LINE
  5
4F7
100
AcDbEntity
  8
0
  6
BYBLOCK
 62
     0
100
AcDbLine
 10
167.0
 20
163.5
 30
0.0
 11
144.089041
 21
163.5
 31
0.0
  0
LINE
  5
4F8
100
AcDbEntity
  8
0
  6
BYBLOCK
 62
     0
100
AcDbLine
 10
145.089041
 20
175.0
 30
0.0
 11
145.089041
 21
174.375
 31
0.0
  0
LINE
  5
4F9
100
AcDbEntity
  8
0
  6
BYBLOCK
 62
     0
100
AcDbLine
 10
145.089041
 20
166.0
 30
0.0
 11
145.089041
 21
166.625
 31
0.0
  0
SOLID
  5
4FA
100
AcDbEntity
  8
0
  6
BYBLOCK
 62
     0
100
AcDbTrace
 10
144.672375
 20
175.0
 30
0.0
 11
145.505708
 21
175.0
 31
0.0
 12
145.089041
 22
177.5
 32
0.0
 13
145.089041
 23
177.5
 33
0.0
  0
SOLID
  5
4FB
100
AcDbEntity
  8
0
  6
BYBLOCK
 62
     0
100
AcDbTrace
 10
144.672375
 20
166.0
 30
0.0
 11
145.505708
 21
166.0
 31
0.0
 12
145.089041
 22
163.5
 32
0.0
 13
145.089041
 23
163.5
 33
0.0
  0
MTEXT
  5
4FC
100
AcDbEntity
  8
0
  6
BYBLOCK
 62
     0
100
AcDbMText
 10
145.089041
 20
170.696375
 30
0.0
 40
4.0
 41
0.0
 71
     5
 72
     1
  1
\A1;\U+220514
 11
0.0
 21
1.0
 31
0.0
  0
POINT
  5
4FD
100
AcDbEntity
  8
DEFPOINTS
  6
BYBLOCK
 62
     0
100
AcDbPoint
 10
168.0
 20
177.5
 30
0.0
  0
POINT
  5
4FE
100
AcDbEntity
  8
DEFPOINTS
  6
BYBLOCK
 62
     0
100
AcDbPoint
 10
168.0
 20
163.5
 30
0.0
  0
POINT
  5
4FF
100
AcDbEntity
  8
DEFPOINTS
  6
BYBLOCK
 62
     0
100
AcDbPoint
 10
145.089041
 20
163.5
 30
0.0
  0
ENDBLK
  5
501
100
AcDbEntity
  8
0
100
AcDbBlockEnd
  0
BLOCK
  5
50D
100
AcDbEntity
  8
0
100
AcDbBlockBegin
  2
*D24
 70
     1
 10
0.0
 20
0.0
 30
0.0
  3
*D24
  1

  0
LINE
  5
503
100
AcDbEntity
  8
0
  6
BYBLOCK
 62
     0
100
AcDbLine
 10
192.0
 20
180.5
 30
0.0
 11
192.0
 21
187.286
 31
0.0
  0
LINE
  5
504
100
AcDbEntity
  8
0
  6
BYBLOCK
 62
     0
100
AcDbLine
 10
182.0
 20
181.5
 30
0.0
 11
182.0
 21
187.286
 31
0.0
  0
LINE
  5
505
100
AcDbEntity
  8
0
  6
BYBLOCK
 62
     0
100
AcDbLine
 10
189.5
 20
186.286
 30
0.0
 11
188.875
 21
186.286
 31
0.0
  0
LINE
  5
506
100
AcDbEntity
  8
0
  6
BYBLOCK
 62
     0
100
AcDbLine
 10
184.5
 20
186.286
 30
0.0
 11
185.125
 21
186.286
 31
0.0
  0
SOLID
  5
507
100
AcDbEntity
  8
0
  6
BYBLOCK
 62
     0
100
AcDbTrace
 10
189.5
 20
186.702667
 30
0.0
 11
189.5
 21
185.869333
 31
0.0
 12
192.0
 22
186.286
 32
0.0
 13
192.0
 23
186.286
 33
0.0
  0
SOLID
  5
508
100
AcDbEntity
  8
0
  6
BYBLOCK
 62
     0
100
AcDbTrace
 10
184.5
 20
186.702667
 30
0.0
 11
184.5
 21
185.869333
 31
0.0
 12
182.0
 22
186.286
 32
0.0
 13
182.0
 23
186.286
 33
0.0
  0
MTEXT
  5
509
100
AcDbEntity
  8
0
  6
BYBLOCK
 62
     0
100
AcDbMText
 10
186.579464
 20
186.286
 30
0.0
 40
4.0
 41
0.0
 71
     5
 72
     1
  1
\A1;10
  0
POINT
  5
50A
100
AcDbEntity
  8
DEFPOINTS
  6
BYBLOCK
 62
     0
100
AcDbPoint
 10
192.0
 20
179.5
 30
0.0
  0
POINT
  5
50B
100
AcDbEntity
  8
DEFPOINTS
  6
BYBLOCK
 62
     0
100
AcDbPoint
 10
182.0
 20
180.5
 30
0.0
  0
POINT
  5
50C
100
AcDbEntity
  8
DEFPOINTS
  6
BYBLOCK
 62
     0
100
AcDbPoint
 10
182.0
 20
186.286
 30
0.0
  0
ENDBLK
  5
50E
100
AcDbEntity
  8
0
100
AcDbBlockEnd
  0
BLOCK
  5
516
100
AcDbEntity
  8
0
100
AcDbBlockBegin
  2
*D25
 70
     1
 10
0.0
 20
0.0
 30
0.0
  3
*D25
  1

  0
LINE
  5
510
100
AcDbEntity
  8
0
  6
BYBLOCK
 62
     0
100
AcDbLine
 10
66.580329
 20
180.726175
 30
0.0
 11
64.080329
 21
180.726175
 31
0.0
  0
LINE
  5
511
100
AcDbEntity
  8
0
  6
BYBLOCK
 62
     0
100
AcDbLine
 10
64.080329
 20
180.726175
 30
0.0
 11
62.083222
 21
179.222326
 31
0.0
  0
MTEXT
  5
512
100
AcDbEntity
  8
0
  6
BYBLOCK
 62
     0
100
AcDbMText
 10
72.538663
 20
180.726175
 30
0.0
 40
4.0
 41
0.0
 71
     5
 72
     1
  1
\A1;\U+220527
  0
SOLID
  5
513
100
AcDbEntity
  8
0
  6
BYBLOCK
 62
     0
100
AcDbTrace
 10
61.832581
 20
179.555177
 30
0.0
 11
62.333864
 21
178.889475
 31
0.0
 12
60.086115
 22
177.718476
 32
0.0
 13
60.086115
 23
177.718476
 33
0.0
  0
POINT
  5
514
100
AcDbEntity
  8
DEFPOINTS
  6
BYBLOCK
 62
     0
100
AcDbPoint
 10
60.086115
 20
177.718476
 30
0.0
  0
POINT
  5
515
100
AcDbEntity
  8
DEFPOINTS
  6
BYBLOCK
 62
     0
100
AcDbPoint
 10
40.913885
 20
163.281524
 30
0.0
  0
ENDBLK
  5
517
100
AcDbEntity
  8
0
100
AcDbBlockEnd
  0
BLOCK
  5
523
100
AcDbEntity
  8
0
100
AcDbBlockBegin
  2
*D26
 70
     1
 10
0.0
 20
0.0
 30
0.0
  3
*D26
  1

  0
LINE
  5
519
100
AcDbEntity
  8
0
  6
BYBLOCK
 62
     0
100
AcDbLine
 10
168.0
 20
162.5
 30
0.0
 11
168.0
 21
140.882636
 31
0.0
  0
LINE
  5
51A
100
AcDbEntity
  8
0
  6
BYBLOCK
 62
     0
100
AcDbLine
 10
187.0
 20
160.5
 30
0.0
 11
187.0
 21
140.882636
 31
0.0
  0
LINE
  5
51B
100
AcDbEntity
  8
0
  6
BYBLOCK
 62
     0
100
AcDbLine
 10
170.5
 20
141.882636
 30
0.0
 11
173.548827
 21
141.882636
 31
0.0
  0
LINE
  5
51C
100
AcDbEntity
  8
0
  6
BYBLOCK
 62
     0
100
AcDbLine
 10
184.5
 20
141.882636
 30
0.0
 11
180.132161
 21
141.882636
 31
0.0
  0
SOLID
  5
51D
100
AcDbEntity
  8
0
  6
BYBLOCK
 62
     0
100
AcDbTrace
 10
170.5
 20
142.299303
 30
0.0
 11
170.5
 21
141.465969
 31
0.0
 12
168.0
 22
141.882636
 32
0.0
 13
168.0
 23
141.882636
 33
0.0
  0
SOLID
  5
51E
100
AcDbEntity
  8
0
  6
BYBLOCK
 62
     0
100
AcDbTrace
 10
184.5
 20
142.299303
 30
0.0
 11
184.5
 21
141.465969
 31
0.0
 12
187.0
 22
141.882636
 32
0.0
 13
187.0
 23
141.882636
 33
0.0
  0
MTEXT
  5
51F
100
AcDbEntity
  8
0
  6
BYBLOCK
 62
     0
100
AcDbMText
 10
176.840494
 20
141.882636
 30
0.0
 40
4.0
 41
0.0
 71
     5
 72
     1
  1
\A1;19
  0
POINT
  5
520
100
AcDbEntity
  8
DEFPOINTS
  6
BYBLOCK
 62
     0
100
AcDbPoint
 10
168.0
 20
163.5
 30
0.0
  0
POINT
  5
521
100
AcDbEntity
  8
DEFPOINTS
  6
BYBLOCK
 62
     0
100
AcDbPoint
 10
187.0
 20
161.5
 30
0.0
  0
POINT
  5
522
100
AcDbEntity
  8
DEFPOINTS
  6
BYBLOCK
 62
     0
100
AcDbPoint
 10
187.0
 20
141.882636
 30
0.0
  0
ENDBLK
  5
524
100
AcDbEntity
  8
0
100
AcDbBlockEnd
  0
BLOCK
  5
5D7
100
AcDbEntity
  8
0
100
AcDbBlockBegin
  2
A$C7921082D
 70
     0
 10
0.0
 20
0.0
 30
0.0
  3
A$C7921082D
  1

  0
DIMENSION
  5
527
100
AcDbEntity
  8
0
100
AcDbDimension
  2
*D20
 10
200.399807
 20
33.5
 30
11.197397
 11
200.399807
 21
42.5
 31
11.197397
 12
-6.100193
 22
-128.0
 32
11.197397
 70
   128
  1
%%C18
  3
STANDARD
100
AcDbAlignedDimension
 13
185.899807
 23
51.5
 33
11.197397
 14
185.899807
 24
33.5
 34
11.197397
 50
90.0
100
AcDbRotatedDimension
1001
ACAD
1000
DSTYLE
1002
{
1070
   140
1040
4.0
1070
    77
1070
     0
1070
    40
1040
1.0
1070
   141
1040
0.0
1002
}
  0
MTEXT
  5
528
102
{ACAD_REACTORS
330
529
102
}
100
AcDbEntity
  8
0
100
AcDbMText
 10
198.774807
 20
66.25
 30
11.197397
 40
4.0
 41
0.0
 71
     4
 72
     1
  1
\A1;C1
  0
LEADER
  5
529
100
AcDbEntity
  8
0
100
AcDbLeader
  3
STANDARD
 73
     0
 74
     0
 75
     1
 40
4.0
 41
5.333333
 76
     3
 10
186.149807
 20
51.25
 30
11.197397
 10
198.504807
 20
66.25
 30
11.197397
 10
198.684807
 20
66.25
 30
11.197397
 77
   256
340
528
1001
ACAD
1000
DSTYLE
1002
{
1070
   140
1040
4.0
1070
    77
1070
     0
1070
    40
1040
1.0
1070
   141
1040
0.0
1002
}
  0
DIMENSION
  5
52A
100
AcDbEntity
  8
0
100
AcDbDimension
  2
*D16
 10
111.649807
 20
2.5
 30
11.197397
 11
111.649807
 21
41.75
 31
11.197397
 12
-6.100193
 22
-128.0
 32
11.197397
 70
   128
  1
%%C80
  3
STANDARD
100
AcDbAlignedDimension
 13
44.399807
 23
82.5
 33
11.197397
 14
44.399807
 24
2.5
 34
11.197397
 50
90.0
100
AcDbRotatedDimension
1001
ACAD
1000
DSTYLE
1002
{
1070
   140
1040
4.0
1070
    77
1070
     0
1070
    40
1040
1.0
1070
   141
1040
0.0
1002
}
  0
ARC
  5
52B
100
AcDbEntity
  8
3
100
AcDbCircle
 10
156.399807
 20
9.0
 30
11.197397
 40
6.5
100
AcDbArc
 50
270.0
 51
357.78824
  0
LINE
  5
52C
100
AcDbEntity
  8
1
100
AcDbLine
 10
156.399807
 20
0.283921
 30
11.197397
 11
156.399807
 21
21.297069
 31
11.197397
  0
ARC
  5
52D
100
AcDbEntity
  8
3
100
AcDbCircle
 10
156.399807
 20
9.0
 30
11.197397
 40
6.5
100
AcDbArc
 50
181.395721
 51
270.0
  0
CIRCLE
  5
52E
100
AcDbEntity
  8
3
100
AcDbCircle
 10
44.399807
 20
42.5
 30
11.197397
 40
40.0
  0
LINE
  5
52F
100
AcDbEntity
  8
1
100
AcDbLine
 10
44.399807
 20
0.0
 30
11.197397
 11
44.399807
 21
84.5
 31
11.197397
  0
DIMENSION
  5
530
100
AcDbEntity
  8
0
100
AcDbDimension
  2
*D13
 10
97.649807
 20
42.5
 30
11.197397
 11
97.649807
 21
56.5
 31
11.197397
 12
-6.100193
 22
-128.0
 32
11.197397
 70
   128
  3
STANDARD
100
AcDbAlignedDimension
 13
54.059019
 23
71.0
 33
11.197397
 14
89.610608
 24
42.5
 34
11.197397
 50
90.0
100
AcDbRotatedDimension
1001
ACAD
1000
DSTYLE
1002
{
1070
   140
1040
4.0
1070
    77
1070
     0
1070
    40
1040
1.0
1070
   141
1040
0.0
1002
}
  0
LINE
  5
531
100
AcDbEntity
  8
1
100
AcDbLine
 10
44.399807
 20
42.5
 30
11.197397
 11
81.675492
 21
20.978873
 31
11.197397
  0
ARC
  5
532
100
AcDbEntity
  8
3
100
AcDbCircle
 10
44.399807
 20
42.5
 30
11.197397
 40
24.0
100
AcDbArc
 50
345.713861
 51
74.286139
  0
ARC
  5
533
100
AcDbEntity
  8
3
100
AcDbCircle
 10
44.399807
 20
42.5
 30
11.197397
 40
33.5
100
AcDbArc
 50
110.990243
 51
69.009757
  0
LINE
  5
534
100
AcDbEntity
  8
1
100
AcDbLine
 10
89.610608
 20
42.5
 30
11.197397
 11
-0.600193
 21
42.5
 31
11.197397
  0
LINE
  5
535
100
AcDbEntity
  8
1
100
AcDbLine
 10
44.399807
 20
42.5
 30
11.197397
 11
6.589624
 21
20.670281
 31
11.197397
  0
TEXT
  5
536
100
AcDbEntity
  8
0
100
AcDbText
 10
5.549807
 20
21.54
 30
11.197397
 40
2.8
  1
A
 41
0.7
  7
BIGFONT
100
AcDbText
  0
CIRCLE
  5
537
100
AcDbEntity
  8
0
100
AcDbCircle
 10
44.399807
 20
42.5
 30
11.197397
 40
7.0
  0
DIMENSION
  5
538
100
AcDbEntity
  8
0
100
AcDbDimension
  2
*D25
 10
34.813692
 20
35.281524
 30
11.197397
 11
66.438469
 21
52.726175
 31
11.197397
 12
-6.100193
 22
-128.0
 32
11.197397
 70
   131
  1
%%C27
  3
STANDARD
100
AcDbDiametricDimension
 15
53.985921
 25
49.718477
 35
11.197397
 40
0.0
1001
ACAD
1000
DSTYLE
1002
{
1070
   140
1040
4.0
1070
    77
1070
     0
1070
    40
1040
1.0
1070
   141
1040
0.0
1002
}
  0
ARC
  5
539
100
AcDbEntity
  8
3
100
AcDbCircle
 10
44.399807
 20
42.5
 30
11.197397
 40
12.0
100
AcDbArc
 50
5.685335
 51
54.314665
  0
ARC
  5
53A
100
AcDbEntity
  8
3
100
AcDbCircle
 10
44.399807
 20
42.5
 30
11.197397
 40
12.0
100
AcDbArc
 50
125.685335
 51
174.314665
  0
CIRCLE
  5
53B
100
AcDbEntity
  8
3
100
AcDbCircle
 10
44.399807
 20
42.5
 30
11.197397
 40
10.5
  0
ARC
  5
53C
100
AcDbEntity
  8
3
100
AcDbCircle
 10
44.399807
 20
42.5
 30
11.197397
 40
24.0
100
AcDbArc
 50
105.713861
 51
194.286139
  0
ARC
  5
53D
100
AcDbEntity
  8
3
100
AcDbCircle
 10
44.399807
 20
42.5
 30
11.197397
 40
24.0
100
AcDbArc
 50
225.713861
 51
314.286139
  0
ARC
  5
53E
100
AcDbEntity
  8
3
100
AcDbCircle
 10
44.399807
 20
42.5
 30
11.197397
 40
12.0
100
AcDbArc
 50
245.685335
 51
294.314665
  0
DIMENSION
  5
53F
100
AcDbEntity
  8
0
100
AcDbDimension
  2
*D15
 10
30.283062
 20
26.84414
 30
11.197397
 11
38.149807
 21
23.25
 31
11.197397
 12
-6.100193
 22
-128.0
 32
11.197397
 70
   129
  3
STANDARD
100
AcDbAlignedDimension
 13
21.141996
 23
36.57765
 33
11.197397
 14
27.641996
 24
25.31932
 34
11.197397
1001
ACAD
1000
DSTYLE
1002
{
1070
   140
1040
4.0
1070
    77
1070
     0
1070
    40
1040
1.0
1070
   141
1040
0.0
1002
}
  0
ARC
  5
540
100
AcDbEntity
  8
3
100
AcDbCircle
 10
30.124937
 20
34.2584
 30
11.197397
 40
10.384921
100
AcDbArc
 50
176.547903
 51
243.452097
  0
LINE
  5
541
100
AcDbEntity
  8
3
100
AcDbLine
 10
39.458835
 20
31.564425
 30
11.197397
 11
27.641996
 21
25.31932
 31
11.197397
  0
ARC
  5
542
100
AcDbEntity
  8
3
100
AcDbCircle
 10
25.974953
 20
28.75987
 30
11.197397
 40
3.823142
100
AcDbArc
 50
262.61345
 51
295.851488
  0
DIMENSION
  5
543
100
AcDbEntity
  8
0
100
AcDbDimension
  2
*D14
 10
38.384101
 20
30.943927
 30
11.197397
 11
23.899807
 21
46.0
 31
11.197397
 12
-6.100193
 22
-128.0
 32
11.197397
 70
   129
  3
STANDARD
100
AcDbAlignedDimension
 13
32.458835
 23
43.688781
 33
11.197397
 14
39.458835
 24
31.564425
 34
11.197397
1001
ACAD
1000
DSTYLE
1002
{
1070
   140
1040
4.0
1070
    77
1070
     0
1070
    40
1040
1.0
1070
   141
1040
0.0
1002
}
  0
LINE
  5
544
100
AcDbEntity
  8
3
100
AcDbLine
 10
32.458835
 20
43.688781
 30
11.197397
 11
21.141996
 21
36.57765
 31
11.197397
  0
ARC
  5
545
100
AcDbEntity
  8
3
100
AcDbCircle
 10
23.288078
 20
33.413674
 30
11.197397
 40
3.823142
100
AcDbArc
 50
124.148512
 51
157.38655
  0
ARC
  5
546
100
AcDbEntity
  8
3
100
AcDbCircle
 10
47.04465
 20
44.027001
 30
11.197397
 40
14.024269
100
AcDbArc
 50
182.159972
 51
237.840028
  0
ARC
  5
547
100
AcDbEntity
  8
3
100
AcDbCircle
 10
38.975585
 20
31.970882
 30
11.197397
 40
0.631456
100
AcDbArc
 50
319.933123
 51
16.909042
  0
ARC
  5
548
100
AcDbEntity
  8
3
100
AcDbCircle
 10
32.569212
 20
43.067046
 30
11.197397
 40
0.631456
100
AcDbArc
 50
43.090958
 51
100.066877
  0
ARC
  5
549
100
AcDbEntity
  8
3
100
AcDbCircle
 10
58.674676
 20
34.2584
 30
11.197397
 40
10.384921
100
AcDbArc
 50
296.547903
 51
3.452097
  0
LINE
  5
54A
100
AcDbEntity
  8
3
100
AcDbLine
 10
49.340778
 20
31.564425
 30
11.197397
 11
61.157617
 21
25.31932
 31
11.197397
  0
ARC
  5
54B
100
AcDbEntity
  8
3
100
AcDbCircle
 10
62.82466
 20
28.75987
 30
11.197397
 40
3.823142
100
AcDbArc
 50
244.148512
 51
277.38655
  0
LINE
  5
54C
100
AcDbEntity
  8
3
100
AcDbLine
 10
56.340778
 20
43.688781
 30
11.197397
 11
67.657617
 21
36.57765
 31
11.197397
  0
ARC
  5
54D
100
AcDbEntity
  8
3
100
AcDbCircle
 10
41.754963
 20
44.027001
 30
11.197397
 40
14.024269
100
AcDbArc
 50
302.159972
 51
357.840028
  0
ARC
  5
54E
100
AcDbEntity
  8
3
100
AcDbCircle
 10
49.824028
 20
31.970882
 30
11.197397
 40
0.631456
100
AcDbArc
 50
163.090958
 51
220.066877
  0
TEXT
  5
54F
100
AcDbEntity
  8
0
100
AcDbText
 10
44.880843
 20
42.939886
 30
11.197397
 40
2.8
  1
A
 41
0.7
  7
BIGFONT
100
AcDbText
  0
ARC
  5
550
100
AcDbEntity
  8
3
100
AcDbCircle
 10
56.230401
 20
43.067046
 30
11.197397
 40
0.631456
100
AcDbArc
 50
79.933123
 51
136.909042
  0
ARC
  5
551
100
AcDbEntity
  8
3
100
AcDbCircle
 10
65.511535
 20
33.413674
 30
11.197397
 40
3.823142
100
AcDbArc
 50
22.61345
 51
55.851488
  0
LINE
  5
552
100
AcDbEntity
  8
1
100
AcDbLine
 10
54.059019
 20
71.0
 30
11.197397
 11
34.649807
 21
71.0
 31
11.197397
  0
CIRCLE
  5
553
100
AcDbEntity
  8
3
100
AcDbCircle
 10
44.399807
 20
71.0
 30
11.197397
 40
3.0
  0
CIRCLE
  5
554
100
AcDbEntity
  8
3
100
AcDbCircle
 10
44.399807
 20
71.0
 30
11.197397
 40
4.0
  0
ARC
  5
555
100
AcDbEntity
  8
3
100
AcDbCircle
 10
44.399807
 20
71.0
 30
11.197397
 40
8.25
100
AcDbArc
 50
180.0
 51
0.0
  0
ARC
  5
556
100
AcDbEntity
  8
3
100
AcDbCircle
 10
44.399807
 20
39.445998
 30
11.197397
 40
14.024269
100
AcDbArc
 50
62.159972
 51
117.840028
  0
LINE
  5
557
100
AcDbEntity
  8
3
100
AcDbLine
 10
37.399807
 20
52.246795
 30
11.197397
 11
37.899807
 21
65.60303
 31
11.197397
  0
ARC
  5
558
100
AcDbEntity
  8
3
100
AcDbCircle
 10
37.993433
 20
52.462073
 30
11.197397
 40
0.631456
100
AcDbArc
 50
199.933123
 51
256.909042
  0
ARC
  5
559
100
AcDbEntity
  8
3
100
AcDbCircle
 10
41.712931
 20
65.326457
 30
11.197397
 40
3.823142
100
AcDbArc
 50
171.663378
 51
175.851488
  0
ARC
  5
55A
100
AcDbEntity
  8
3
100
AcDbCircle
 10
33.069592
 20
70.760992
 30
11.197397
 40
3.089474
100
AcDbArc
 50
4.436955
 51
102.520913
  0
CIRCLE
  5
55B
100
AcDbEntity
  8
3
100
AcDbCircle
 10
44.399807
 20
71.0
 30
11.197397
 40
2.25
  0
LINE
  5
55C
100
AcDbEntity
  8
3
100
AcDbLine
 10
51.399807
 20
52.246795
 30
11.197397
 11
50.899807
 21
65.60303
 31
11.197397
  0
ARC
  5
55D
100
AcDbEntity
  8
3
100
AcDbCircle
 10
50.80618
 20
52.462073
 30
11.197397
 40
0.631456
100
AcDbArc
 50
283.090958
 51
340.066877
  0
ARC
  5
55E
100
AcDbEntity
  8
3
100
AcDbCircle
 10
47.086682
 20
65.326457
 30
11.197397
 40
3.823142
100
AcDbArc
 50
4.148512
 51
8.336622
  0
ARC
  5
55F
100
AcDbEntity
  8
3
100
AcDbCircle
 10
55.730021
 20
70.760992
 30
11.197397
 40
3.089474
100
AcDbArc
 50
77.479087
 51
175.563045
  0
DIMENSION
  5
560
100
AcDbEntity
  8
0
100
AcDbDimension
  2
*D22
 10
129.581241
 20
32.307916
 30
11.197397
 11
129.581241
 21
42.296819
 31
11.197397
 12
-6.100193
 22
-128.0
 32
11.197397
 70
   128
  1
%%c20
  3
STANDARD
100
AcDbAlignedDimension
 13
161.406976
 23
52.4855
 33
11.197397
 14
161.406976
 24
32.307916
 34
11.197397
 50
90.0
100
AcDbRotatedDimension
1001
ACAD
1000
DSTYLE
1002
{
1070
   140
1040
4.0
1070
    77
1070
     0
1070
    40
1040
1.0
1070
   141
1040
0.0
1002
}
  0
DIMENSION
  5
561
100
AcDbEntity
  8
0
100
AcDbDimension
  2
*D19
 10
136.85814
 20
67.0
 30
11.197397
 11
130.399807
 21
64.5
 31
11.197397
 12
-6.100193
 22
-128.0
 32
11.197397
 70
   128
  1
%%C8
  3
STANDARD
100
AcDbAlignedDimension
 13
149.901735
 23
75.0
 33
11.197397
 14
149.901735
 24
67.0
 34
11.197397
 50
90.0
100
AcDbRotatedDimension
1001
ACAD
1000
DSTYLE
1002
{
1070
   140
1040
4.0
1070
    77
1070
     0
1070
    40
1040
1.0
1070
   141
1040
0.0
1002
}
  0
DIMENSION
  5
562
100
AcDbEntity
  8
0
100
AcDbDimension
  2
*D18
 10
122.149807
 20
62.75
 30
11.197397
 11
122.149807
 21
72.5
 31
11.197397
 12
-6.100193
 22
-128.0
 32
11.197397
 70
   128
  3
STANDARD
100
AcDbAlignedDimension
 13
156.399807
 23
82.5
 33
11.197397
 14
149.901735
 24
62.75
 34
11.197397
 50
90.0
100
AcDbRotatedDimension
1001
ACAD
1000
DSTYLE
1002
{
1070
   140
1040
4.0
1070
    77
1070
     0
1070
    40
1040
1.0
1070
   141
1040
0.0
1002
}
  0
DIMENSION
  5
563
100
AcDbEntity
  8
0
100
AcDbDimension
  2
*D23
 10
140.988848
 20
35.5
 30
11.197397
 11
140.988848
 21
42.696375
 31
11.197397
 12
-4.100193
 22
-128.0
 32
11.197397
 70
   128
  1
%%c14
  3
STANDARD
100
AcDbAlignedDimension
 13
163.899807
 23
49.5
 33
11.197397
 14
163.899807
 24
35.5
 34
11.197397
 50
90.0
100
AcDbRotatedDimension
1001
ACAD
1000
DSTYLE
1002
{
1070
   140
1040
4.0
1070
    77
1070
     0
1070
    40
1040
1.0
1070
   141
1040
0.0
1002
}
  0
LINE
  5
564
100
AcDbEntity
  8
3
100
AcDbLine
 10
168.399807
 20
48.5
 30
11.197397
 11
168.399807
 21
49.5
 31
11.197397
  0
LINE
  5
565
100
AcDbEntity
  8
3
100
AcDbLine
 10
172.399807
 20
49.5
 30
11.197397
 11
172.399807
 21
48.5
 31
11.197397
  0
LINE
  5
566
100
AcDbEntity
  8
3
100
AcDbLine
 10
159.899807
 20
39.458434
 30
11.197397
 11
159.899807
 21
57.268877
 31
11.197397
  0
LINE
  5
567
100
AcDbEntity
  8
3
100
AcDbLine
 10
150.403635
 20
62.75
 30
11.197397
 11
150.403635
 21
9.282279
 31
11.197397
  0
LINE
  5
568
100
AcDbEntity
  8
1
100
AcDbLine
 10
167.395588
 20
27.5
 30
11.197397
 11
167.395588
 21
58.225421
 31
11.197397
  0
LINE
  5
569
100
AcDbEntity
  8
3
100
AcDbLine
 10
149.901735
 20
76.158324
 30
11.197397
 11
149.901735
 21
42.5
 31
11.197397
  0
LINE
  5
56A
100
AcDbEntity
  8
3
100
AcDbLine
 10
161.899807
 20
51.5
 30
11.197397
 11
161.899807
 21
42.5
 31
11.197397
  0
LINE
  5
56B
100
AcDbEntity
  8
3
100
AcDbLine
 10
185.899807
 20
42.5
 30
11.197397
 11
185.899807
 21
51.5
 31
11.197397
  0
LINE
  5
56C
100
AcDbEntity
  8
1
100
AcDbLine
 10
156.399807
 20
63.702932
 30
11.197397
 11
156.399807
 21
42.5
 31
11.197397
  0
DIMENSION
  5
56D
100
AcDbEntity
  8
0
100
AcDbDimension
  2
*D26
 10
185.899807
 20
13.882636
 30
11.197397
 11
175.7403
 21
13.882636
 31
11.197397
 12
-1.100193
 22
-128.0
 32
11.197397
 70
   128
  3
STANDARD
100
AcDbAlignedDimension
 13
166.899807
 23
35.5
 33
11.197397
 14
185.899807
 24
33.5
 34
11.197397
100
AcDbRotatedDimension
1001
ACAD
1000
DSTYLE
1002
{
1070
   140
1040
4.0
1070
    77
1070
     0
1070
    40
1040
1.0
1070
   141
1040
0.0
1002
}
  0
DIMENSION
  5
56E
100
AcDbEntity
  8
0
100
AcDbDimension
  2
*D21
 10
159.381645
 20
16.160881
 30
11.197397
 11
175.310056
 21
21.493834
 31
11.197397
 12
-6.100193
 22
-128.0
 32
11.197397
 70
   132
  3
STANDARD
100
AcDbRadialDimension
 15
159.782173
 25
16.460176
 35
11.197397
 40
0.0
1001
ACAD
1000
DSTYLE
1002
{
1070
   140
1040
4.0
1070
    77
1070
     0
1070
    40
1040
1.0
1070
   141
1040
0.0
1002
}
  0
LINE
  5
56F
100
AcDbEntity
  8
3
100
AcDbLine
 10
162.897878
 20
8.841676
 30
11.197397
 11
162.898997
 21
28.369515
 31
11.197397
  0
LINE
  5
570
100
AcDbEntity
  8
3
100
AcDbLine
 10
166.899807
 20
35.5
 30
11.197397
 11
161.899807
 21
35.5
 31
11.197397
  0
LINE
  5
571
100
AcDbEntity
  8
2
100
AcDbLine
 10
161.899807
 20
40.760931
 30
11.197397
 11
165.649807
 21
43.25
 31
11.197397
  0
LINE
  5
572
100
AcDbEntity
  8
3
100
AcDbLine
 10
158.399807
 20
25.75
 30
11.197397
 11
166.582178
 21
30.513934
 31
11.197397
  0
ARC
  5
573
100
AcDbEntity
  8
2
100
AcDbCircle
 10
169.712307
 20
37.929688
 30
11.197397
 40
6.694
100
AcDbArc
 50
127.364737
 51
168.624497
  0
ARC
  5
574
100
AcDbEntity
  8
2
100
AcDbCircle
 10
168.124807
 20
36.458334
 30
11.197397
 40
5.105784
100
AcDbArc
 50
208.782115
 51
247.24346
  0
ARC
  5
575
100
AcDbEntity
  8
3
100
AcDbCircle
 10
167.569913
 20
41.159422
 30
11.197397
 40
10.691213
100
AcDbArc
 50
241.911816
 51
288.147283
  0
ARC
  5
576
100
AcDbEntity
  8
3
100
AcDbCircle
 10
167.16725
 20
30.523161
 30
11.197397
 40
14.339743
100
AcDbArc
 50
170.476761
 51
192.170638
  0
LINE
  5
577
100
AcDbEntity
  8
1
100
AcDbLine
 10
156.399807
 20
21.297069
 30
11.197397
 11
156.399807
 21
42.5
 31
11.197397
  0
LINE
  5
578
100
AcDbEntity
  8
3
100
AcDbLine
 10
159.899807
 20
16.310637
 30
11.197397
 11
159.899807
 21
26.623329
 31
11.197397
  0
ARC
  5
579
100
AcDbEntity
  8
3
100
AcDbCircle
 10
168.016941
 20
15.370732
 30
11.197397
 40
8.17137
100
AcDbArc
 50
174.77187
 51
229.586839
  0
ARC
  5
57A
100
AcDbEntity
  8
3
100
AcDbCircle
 10
162.395337
 20
8.768443
 30
11.197397
 40
0.5
100
AcDbArc
 50
357.78824
 51
49.586839
  0
ARC
  5
57B
100
AcDbEntity
  8
3
100
AcDbCircle
 10
156.798275
 20
28.328064
 30
11.197397
 40
3.035015
100
AcDbArc
 50
262.455836
 51
301.849171
  0
ARC
  5
57C
100
AcDbEntity
  8
3
100
AcDbCircle
 10
156.399807
 20
28.5
 30
11.197397
 40
3.400368
100
AcDbArc
 50
197.102729
 51
233.972627
  0
ARC
  5
57D
100
AcDbEntity
  8
3
100
AcDbCircle
 10
156.001338
 20
28.328064
 30
11.197397
 40
3.035015
100
AcDbArc
 50
238.150829
 51
277.544164
  0
LINE
  5
57E
100
AcDbEntity
  8
3
100
AcDbLine
 10
154.885471
 20
36.192854
 30
11.197397
 11
161.899807
 21
40.760931
 31
11.197397
  0
ARC
  5
57F
100
AcDbEntity
  8
2
100
AcDbCircle
 10
170.919869
 20
37.341197
 30
11.197397
 40
8.001087
100
AcDbArc
 50
166.19796
 51
204.682704
  0
ARC
  5
580
100
AcDbEntity
  8
3
100
AcDbCircle
 10
158.909553
 20
31.996751
 30
11.197397
 40
5.952683
100
AcDbArc
 50
157.757554
 51
171.314821
  0
ARC
  5
581
100
AcDbEntity
  8
3
100
AcDbCircle
 10
158.774807
 20
31.875
 30
11.197397
 40
5.87633
100
AcDbArc
 50
141.911227
 51
156.16126
  0
ARC
  5
582
100
AcDbEntity
  8
3
100
AcDbCircle
 10
156.399807
 20
33.75
 30
11.197397
 40
2.850439
100
AcDbArc
 50
122.749199
 51
142.125016
  0
LINE
  5
583
100
AcDbEntity
  8
3
100
AcDbLine
 10
161.899807
 20
33.5
 30
11.197397
 11
161.899807
 21
32.658918
 31
11.197397
  0
ARC
  5
584
100
AcDbEntity
  8
3
100
AcDbCircle
 10
162.899807
 20
32.658918
 30
11.197397
 40
1.0
100
AcDbArc
 50
180.0
 51
248.676314
  0
CIRCLE
  5
585
100
AcDbEntity
  8
3
100
AcDbCircle
 10
175.321696
 20
13.743469
 30
11.197397
 40
4.052866
  0
ARC
  5
586
100
AcDbEntity
  8
2
100
AcDbCircle
 10
163.871307
 20
37.341197
 30
11.197397
 40
8.001087
100
AcDbArc
 50
335.317296
 51
13.80204
  0
LINE
  5
587
100
AcDbEntity
  8
3
100
AcDbLine
 10
173.899807
 20
35.5
 30
11.197397
 11
172.914321
 21
35.5
 31
11.197397
  0
LINE
  5
588
100
AcDbEntity
  8
3
100
AcDbLine
 10
173.399807
 20
32.5
 30
11.197397
 11
170.899807
 21
31.0
 31
11.197397
  0
ARC
  5
589
100
AcDbEntity
  8
2
100
AcDbCircle
 10
166.666369
 20
36.458334
 30
11.197397
 40
5.105784
100
AcDbArc
 50
292.75654
 51
331.217885
  0
LINE
  5
58A
100
AcDbEntity
  8
2
100
AcDbLine
 10
166.582178
 20
30.513934
 30
11.197397
 11
169.310548
 21
32.102443
 31
11.197397
  0
ARC
  5
58B
100
AcDbEntity
  8
2
100
AcDbCircle
 10
167.391369
 20
35.867053
 30
11.197397
 40
4.30263
100
AcDbArc
 50
270.056178
 51
286.88909
  0
ARC
  5
58C
100
AcDbEntity
  8
2
100
AcDbCircle
 10
167.399807
 20
35.867053
 30
11.197397
 40
4.30263
100
AcDbArc
 50
253.11091
 51
269.943822
  0
ARC
  5
58D
100
AcDbEntity
  8
3
100
AcDbCircle
 10
170.399807
 20
27.625
 30
11.197397
 40
8.125
100
AcDbArc
 50
75.749967
 51
104.250033
  0
LINE
  5
58E
100
AcDbEntity
  8
3
100
AcDbLine
 10
168.399807
 20
36.5
 30
11.197397
 11
172.399807
 21
36.5
 31
11.197397
  0
LINE
  5
58F
100
AcDbEntity
  8
3
100
AcDbLine
 10
168.399807
 20
35.5
 30
11.197397
 11
168.399807
 21
36.5
 31
11.197397
  0
LINE
  5
590
100
AcDbEntity
  8
3
100
AcDbLine
 10
166.899807
 20
35.5
 30
11.197397
 11
168.399807
 21
35.5
 31
11.197397
  0
LINE
  5
591
100
AcDbEntity
  8
3
100
AcDbLine
 10
172.399807
 20
35.5
 30
11.197397
 11
172.899807
 21
35.5
 31
11.197397
  0
LINE
  5
592
100
AcDbEntity
  8
3
100
AcDbLine
 10
172.399807
 20
36.5
 30
11.197397
 11
172.399807
 21
35.5
 31
11.197397
  0
LINE
  5
593
100
AcDbEntity
  8
3
100
AcDbLine
 10
170.399807
 20
35.5
 30
11.197397
 11
170.395588
 21
35.5
 31
11.197397
  0
LINE
  5
594
100
AcDbEntity
  8
3
100
AcDbLine
 10
175.899807
 20
35.5
 30
11.197397
 11
175.899807
 21
32.5
 31
11.197397
  0
LINE
  5
595
100
AcDbEntity
  8
3
100
AcDbLine
 10
175.899807
 20
32.5
 30
11.197397
 11
173.399807
 21
32.5
 31
11.197397
  0
LINE
  5
596
100
AcDbEntity
  8
3
100
AcDbLine
 10
173.899807
 20
35.5
 30
11.197397
 11
175.899807
 21
35.5
 31
11.197397
  0
ARC
  5
597
100
AcDbEntity
  8
2
100
AcDbCircle
 10
167.078869
 20
37.929688
 30
11.197397
 40
6.694
100
AcDbArc
 50
11.375503
 51
52.635263
  0
CIRCLE
  5
598
100
AcDbEntity
  8
2
100
AcDbCircle
 10
170.399807
 20
42.5
 30
11.197397
 40
2.0
  0
ARC
  5
599
100
AcDbEntity
  8
2
100
AcDbCircle
 10
170.399807
 20
39.979626
 30
11.197397
 40
3.709157
100
AcDbArc
 50
90.065167
 51
118.151547
  0
ARC
  5
59A
100
AcDbEntity
  8
2
100
AcDbCircle
 10
170.391369
 20
39.979626
 30
11.197397
 40
3.709157
100
AcDbArc
 50
61.848453
 51
89.934833
  0
LINE
  5
59B
100
AcDbEntity
  8
3
100
AcDbLine
 10
172.399807
 20
48.5
 30
11.197397
 11
168.399807
 21
48.5
 31
11.197397
  0
LINE
  5
59C
100
AcDbEntity
  8
1
100
AcDbLine
 10
145.610608
 20
42.5
 30
11.197397
 11
192.110608
 21
42.5
 31
11.197397
  0
LINE
  5
59D
100
AcDbEntity
  8
3
100
AcDbLine
 10
149.901735
 20
8.841676
 30
11.197397
 11
149.901735
 21
42.5
 31
11.197397
  0
LINE
  5
59E
100
AcDbEntity
  8
3
100
AcDbLine
 10
150.050497
 20
9.039889
 30
11.197397
 11
150.254877
 21
9.093989
 31
11.197397
  0
ARC
  5
59F
100
AcDbEntity
  8
3
100
AcDbCircle
 10
162.399807
 20
8.979198
 30
11.197397
 40
12.0
100
AcDbArc
 50
134.872625
 51
178.55274
  0
ARC
  5
5A0
100
AcDbEntity
  8
3
100
AcDbCircle
 10
150.101676
 20
8.846548
 30
11.197397
 40
0.2
100
AcDbArc
 50
104.82648
 51
181.395721
  0
ARC
  5
5A1
100
AcDbEntity
  8
3
100
AcDbCircle
 10
156.399807
 20
15.0
 30
11.197397
 40
3.5
100
AcDbArc
 50
45.002386
 51
90.0
  0
ARC
  5
5A2
100
AcDbEntity
  8
3
100
AcDbCircle
 10
156.399807
 20
15.0
 30
11.197397
 40
3.5
100
AcDbArc
 50
90.0
 51
134.997614
  0
ARC
  5
5A3
100
AcDbEntity
  8
3
100
AcDbCircle
 10
150.203698
 20
9.28733
 30
11.197397
 40
0.2
100
AcDbArc
 50
284.82648
 51
358.55274
  0
ARC
  5
5A4
100
AcDbEntity
  8
3
100
AcDbCircle
 10
159.381645
 20
16.160881
 30
11.197397
 40
0.5
100
AcDbArc
 50
354.77187
 51
38.64507
  0
ARC
  5
5A5
100
AcDbEntity
  8
3
100
AcDbCircle
 10
150.399807
 20
8.979198
 30
11.197397
 40
12.0
100
AcDbArc
 50
38.64507
 51
45.127375
  0
LINE
  5
5A6
100
AcDbEntity
  8
3
100
AcDbLine
 10
161.899807
 20
33.5
 30
11.197397
 11
161.899807
 21
42.5
 31
11.197397
  0
LINE
  5
5A7
100
AcDbEntity
  8
3
100
AcDbLine
 10
185.899807
 20
33.5
 30
11.197397
 11
175.899807
 21
33.5
 31
11.197397
  0
LINE
  5
5A8
100
AcDbEntity
  8
3
100
AcDbLine
 10
185.899807
 20
42.5
 30
11.197397
 11
185.899807
 21
33.5
 31
11.197397
  0
DIMENSION
  5
5A9
100
AcDbEntity
  8
0
100
AcDbDimension
  2
*D24
 10
175.899807
 20
58.286
 30
11.197397
 11
180.479271
 21
58.286
 31
11.197397
 12
-6.100193
 22
-128.0
 32
11.197397
 70
   128
  3
STANDARD
100
AcDbAlignedDimension
 13
185.899807
 23
51.5
 33
11.197397
 14
175.899807
 24
52.5
 34
11.197397
100
AcDbRotatedDimension
1001
ACAD
1000
DSTYLE
1002
{
1070
   140
1040
4.0
1070
    77
1070
     0
1070
    40
1040
1.0
1070
   141
1040
0.0
1002
}
  0
DIMENSION
  5
5AA
100
AcDbEntity
  8
0
100
AcDbDimension
  2
*D17
 10
185.899807
 20
62.5
 30
11.197397
 11
174.149807
 21
62.5
 31
11.197397
 12
-6.100193
 22
-128.0
 32
11.197397
 70
   128
  3
STANDARD
100
AcDbAlignedDimension
 13
161.899807
 23
51.5
 33
11.197397
 14
185.899807
 24
51.5
 34
11.197397
100
AcDbRotatedDimension
1001
ACAD
1000
DSTYLE
1002
{
1070
   140
1040
4.0
1070
    77
1070
     0
1070
    40
1040
1.0
1070
   141
1040
0.0
1002
}
  0
LINE
  5
5AB
100
AcDbEntity
  8
1
100
AcDbLine
 10
167.395588
 20
53.476175
 30
11.197397
 11
156.399807
 21
66.5
 31
11.197397
  0
LINE
  5
5AC
100
AcDbEntity
  8
1
100
AcDbLine
 10
156.399807
 20
84.71608
 30
11.197397
 11
156.399807
 21
63.702932
 31
11.197397
  0
LINE
  5
5AD
100
AcDbEntity
  8
3
100
AcDbLine
 10
166.899807
 20
49.5
 30
11.197397
 11
161.899807
 21
49.5
 31
11.197397
  0
MTEXT
  5
5AE
102
{ACAD_REACTORS
330
5AF
102
}
100
AcDbEntity
  8
0
100
AcDbMText
 10
191.774807
 20
84.75
 30
11.197397
 40
4.0
 41
0.0
 71
     4
 72
     1
  1
\A1;M6-P1.0
  0
LEADER
  5
5AF
100
AcDbEntity
  8
0
100
AcDbLeader
  3
STANDARD
 73
     0
 40
4.0
 41
22.0
 76
     3
 10
161.899807
 20
71.0
 30
11.197397
 10
189.149807
 20
85.0
 30
11.197397
 10
191.684807
 20
84.75
 30
11.197397
 77
   256
340
5AE
1001
ACAD
1000
DSTYLE
1002
{
1070
   140
1040
4.0
1070
    77
1070
     0
1070
    40
1040
1.0
1070
   141
1040
0.0
1002
}
  0
LINE
  5
5B0
100
AcDbEntity
  8
3
100
AcDbLine
 10
171.895588
 20
53.402531
 30
11.197397
 11
161.899807
 21
64.503971
 31
11.197397
  0
LINE
  5
5B1
100
AcDbEntity
  8
3
100
AcDbLine
 10
151.149807
 20
68.75
 30
11.197397
 11
151.149807
 21
73.25
 31
11.197397
  0
LINE
  5
5B2
100
AcDbEntity
  8
3
100
AcDbLine
 10
150.399807
 20
68.0
 30
11.197397
 11
150.399807
 21
74.0
 31
11.197397
  0
LINE
  5
5B3
100
AcDbEntity
  8
3
100
AcDbLine
 10
161.899807
 20
75.047013
 30
11.197397
 11
161.899807
 21
64.503971
 31
11.197397
  0
LWPOLYLINE
  5
5B4
100
AcDbEntity
  8
3
100
AcDbPolyline
 90
        2
 70
     0
 43
0.0
 38
11.197397
 10
149.901735
 20
67.501929
 10
151.149807
 20
68.75
  0
LINE
  5
5B5
100
AcDbEntity
  8
3
100
AcDbLine
 10
149.901735
 20
62.75
 30
11.197397
 11
155.539925
 21
62.75
 31
11.197397
  0
LINE
  5
5B6
100
AcDbEntity
  8
3
100
AcDbLine
 10
162.899176
 20
53.498153
 30
11.197397
 11
155.539925
 21
62.75
 31
11.197397
  0
ARC
  5
5B7
100
AcDbEntity
  8
3
100
AcDbCircle
 10
167.569913
 20
43.840578
 30
11.197397
 40
10.691213
100
AcDbArc
 50
115.74601
 51
118.088184
  0
ARC
  5
5B8
100
AcDbEntity
  8
3
100
AcDbCircle
 10
162.899807
 20
52.341082
 30
11.197397
 40
1.0
100
AcDbArc
 50
111.323686
 51
180.0
  0
LINE
  5
5B9
100
AcDbEntity
  8
3
100
AcDbLine
 10
161.899807
 20
51.5
 30
11.197397
 11
161.899807
 21
52.341082
 31
11.197397
  0
LINE
  5
5BA
100
AcDbEntity
  8
3
100
AcDbLine
 10
161.899807
 20
68.0
 30
11.197397
 11
150.399807
 21
68.0
 31
11.197397
  0
LINE
  5
5BB
100
AcDbEntity
  8
3
100
AcDbLine
 10
161.899807
 20
68.75
 30
11.197397
 11
151.149807
 21
68.75
 31
11.197397
  0
LWPOLYLINE
  5
5BC
100
AcDbEntity
  8
3
100
AcDbPolyline
 90
        2
 70
     0
 43
0.0
 38
11.197397
 10
151.149807
 20
73.25
 10
149.901735
 20
74.498072
  0
LINE
  5
5BD
100
AcDbEntity
  8
3
100
AcDbLine
 10
161.899807
 20
73.25
 30
11.197397
 11
151.149807
 21
73.25
 31
11.197397
  0
LINE
  5
5BE
100
AcDbEntity
  8
3
100
AcDbLine
 10
161.899807
 20
74.0
 30
11.197397
 11
150.399807
 21
74.0
 31
11.197397
  0
ARC
  5
5BF
100
AcDbEntity
  8
3
100
AcDbCircle
 10
168.016941
 20
69.629268
 30
11.197397
 40
8.17137
100
AcDbArc
 50
128.772319
 51
138.469744
  0
LINE
  5
5C0
100
AcDbEntity
  8
3
100
AcDbLine
 10
173.899807
 20
49.5
 30
11.197397
 11
172.878878
 21
49.5
 31
11.197397
  0
LINE
  5
5C1
100
AcDbEntity
  8
3
100
AcDbLine
 10
173.399807
 20
52.5
 30
11.197397
 11
171.895588
 21
53.402531
 31
11.197397
  0
ARC
  5
5C2
100
AcDbEntity
  8
3
100
AcDbCircle
 10
170.399807
 20
57.375
 30
11.197397
 40
8.125
100
AcDbArc
 50
255.749967
 51
284.250033
  0
LINE
  5
5C3
100
AcDbEntity
  8
3
100
AcDbLine
 10
166.899807
 20
49.5
 30
11.197397
 11
168.399807
 21
49.5
 31
11.197397
  0
LINE
  5
5C4
100
AcDbEntity
  8
3
100
AcDbLine
 10
172.399807
 20
49.5
 30
11.197397
 11
172.899807
 21
49.5
 31
11.197397
  0
LINE
  5
5C5
100
AcDbEntity
  8
3
100
AcDbLine
 10
173.899807
 20
49.5
 30
11.197397
 11
175.899807
 21
49.5
 31
11.197397
  0
LINE
  5
5C6
100
AcDbEntity
  8
3
100
AcDbLine
 10
175.899807
 20
52.5
 30
11.197397
 11
173.399807
 21
52.5
 31
11.197397
  0
LINE
  5
5C7
100
AcDbEntity
  8
3
100
AcDbLine
 10
175.899807
 20
49.5
 30
11.197397
 11
175.899807
 21
52.5
 31
11.197397
  0
LINE
  5
5C8
100
AcDbEntity
  8
1
100
AcDbLine
 10
146.399807
 20
71.0
 30
11.197397
 11
165.899807
 21
71.0
 31
11.197397
  0
LINE
  5
5C9
100
AcDbEntity
  8
3
100
AcDbLine
 10
162.897878
 20
76.158324
 30
11.197397
 11
162.898609
 21
63.394688
 31
11.197397
  0
LINE
  5
5CA
100
AcDbEntity
  8
3
100
AcDbLine
 10
149.901735
 20
67.0
 30
11.197397
 11
154.899807
 21
67.0
 31
11.197397
  0
LINE
  5
5CB
100
AcDbEntity
  8
3
100
AcDbLine
 10
154.899807
 20
67.5
 30
11.197397
 11
157.899807
 21
67.5
 31
11.197397
  0
LINE
  5
5CC
100
AcDbEntity
  8
3
100
AcDbLine
 10
154.899807
 20
67.0
 30
11.197397
 11
154.899807
 21
67.5
 31
11.197397
  0
LINE
  5
5CD
100
AcDbEntity
  8
3
100
AcDbLine
 10
157.899807
 20
67.0
 30
11.197397
 11
161.899807
 21
67.0
 31
11.197397
  0
LINE
  5
5CE
100
AcDbEntity
  8
3
100
AcDbLine
 10
157.899807
 20
67.5
 30
11.197397
 11
157.899807
 21
67.0
 31
11.197397
  0
LINE
  5
5CF
100
AcDbEntity
  8
3
100
AcDbLine
 10
149.901735
 20
75.0
 30
11.197397
 11
154.899807
 21
75.0
 31
11.197397
  0
ARC
  5
5D0
100
AcDbEntity
  8
3
100
AcDbCircle
 10
156.399807
 20
76.0
 30
11.197397
 40
6.5
100
AcDbArc
 50
0.0
 51
180.0
  0
LINE
  5
5D1
100
AcDbEntity
  8
3
100
AcDbLine
 10
149.901735
 20
71.0
 30
11.197397
 11
149.901735
 21
75.0
 31
11.197397
  0
LINE
  5
5D2
100
AcDbEntity
  8
3
100
AcDbLine
 10
154.899807
 20
74.5
 30
11.197397
 11
157.899807
 21
74.5
 31
11.197397
  0
LINE
  5
5D3
100
AcDbEntity
  8
3
100
AcDbLine
 10
154.899807
 20
75.0
 30
11.197397
 11
154.899807
 21
74.5
 31
11.197397
  0
LINE
  5
5D4
100
AcDbEntity
  8
3
100
AcDbLine
 10
157.899807
 20
75.0
 30
11.197397
 11
161.899807
 21
75.0
 31
11.197397
  0
LINE
  5
5D5
100
AcDbEntity
  8
3
100
AcDbLine
 10
157.899807
 20
74.5
 30
11.197397
 11
157.899807
 21
75.0
 31
11.197397
  0
LINE
  5
5D6
100
AcDbEntity
  8
3
100
AcDbLine
 10
185.899807
 20
51.5
 30
11.197397
 11
175.899807
 21
51.5
 31
11.197397
  0
ENDBLK
  5
5D8
100
AcDbEntity
  8
0
100
AcDbBlockEnd
  0
BLOCK
  5
7DA
100
AcDbEntity
  8
0
100
AcDbBlockBegin
  2
*D42
 70
     1
 10
0.0
 20
0.0
 30
0.0
  3
*D42
  1

  0
LINE
  5
7D2
100
AcDbEntity
  8
0
  6
BYBLOCK
 62
     0
100
AcDbLine
 10
105.5
 20
269.5
 30
0.0
 11
103.5
 21
269.5
 31
0.0
  0
LINE
  5
7D3
100
AcDbEntity
  8
0
  6
BYBLOCK
 62
     0
100
AcDbLine
 10
103.5
 20
269.5
 30
0.0
 11
66.792637
 21
239.222199
 31
0.0
  0
MTEXT
  5
7D4
100
AcDbEntity
  8
0
  6
BYBLOCK
 62
     0
100
AcDbMText
 10
113.09
 20
269.5
 30
0.0
 40
5.0
 41
0.0
 71
     5
 72
     1
  1
\A1;R5.5
  0
SOLID
  5
7D5
100
AcDbEntity
  8
0
  6
BYBLOCK
 62
     0
100
AcDbTrace
 10
68.123399
 20
240.751965
 30
0.0
 11
68.547606
 21
240.237676
 31
0.0
 12
66.792637
 22
239.222199
 32
0.0
 13
66.792637
 23
239.222199
 33
0.0
  0
LINE
  5
7D6
100
AcDbEntity
  8
0
  6
BYBLOCK
 62
     0
100
AcDbLine
 10
62.62103
 20
235.855515
 30
0.0
 11
62.80103
 21
235.855515
 31
0.0
  0
LINE
  5
7D7
100
AcDbEntity
  8
0
  6
BYBLOCK
 62
     0
100
AcDbLine
 10
62.71103
 20
235.765515
 30
0.0
 11
62.71103
 21
235.945515
 31
0.0
  0
POINT
  5
7D8
100
AcDbEntity
  8
DEFPOINTS
  6
BYBLOCK
 62
     0
100
AcDbPoint
 10
66.792637
 20
239.222199
 30
0.0
  0
POINT
  5
7D9
100
AcDbEntity
  8
DEFPOINTS
  6
BYBLOCK
 62
     0
100
AcDbPoint
 10
62.71103
 20
235.855515
 30
0.0
  0
ENDBLK
  5
7DB
100
AcDbEntity
  8
0
100
AcDbBlockEnd
  0
BLOCK
  5
7E5
100
AcDbEntity
  8
0
100
AcDbBlockBegin
  2
*D43
 70
     1
 10
0.0
 20
0.0
 30
0.0
  3
*D43
  1

  0
LINE
  5
7DD
100
AcDbEntity
  8
0
  6
BYBLOCK
 62
     0
100
AcDbLine
 10
52.0
 20
269.5
 30
0.0
 11
54.0
 21
269.5
 31
0.0
  0
LINE
  5
7DE
100
AcDbEntity
  8
0
  6
BYBLOCK
 62
     0
100
AcDbLine
 10
54.0
 20
269.5
 30
0.0
 11
89.270181
 21
239.296941
 31
0.0
  0
MTEXT
  5
7DF
100
AcDbEntity
  8
0
  6
BYBLOCK
 62
     0
100
AcDbMText
 10
44.41
 20
269.5
 30
0.0
 40
5.0
 41
0.0
 71
     5
 72
     1
  1
\A1;R5.5
  0
SOLID
  5
7E0
100
AcDbEntity
  8
0
  6
BYBLOCK
 62
     0
100
AcDbTrace
 10
87.967873
 20
240.851002
 30
0.0
 11
87.534249
 21
240.344629
 31
0.0
 12
89.270181
 22
239.296941
 32
0.0
 13
89.270181
 23
239.296941
 33
0.0
  0
LINE
  5
7E1
100
AcDbEntity
  8
0
  6
BYBLOCK
 62
     0
100
AcDbLine
 10
93.19897
 20
235.855515
 30
0.0
 11
93.37897
 21
235.855515
 31
0.0
  0
LINE
  5
7E2
100
AcDbEntity
  8
0
  6
BYBLOCK
 62
     0
100
AcDbLine
 10
93.28897
 20
235.765515
 30
0.0
 11
93.28897
 21
235.945515
 31
0.0
  0
POINT
  5
7E3
100
AcDbEntity
  8
DEFPOINTS
  6
BYBLOCK
 62
     0
100
AcDbPoint
 10
89.270181
 20
239.296941
 30
0.0
  0
POINT
  5
7E4
100
AcDbEntity
  8
DEFPOINTS
  6
BYBLOCK
 62
     0
100
AcDbPoint
 10
93.28897
 20
235.855515
 30
0.0
  0
ENDBLK
  5
7E6
100
AcDbEntity
  8
0
100
AcDbBlockEnd
  0
BLOCK
  5
7EE
100
AcDbEntity
  8
0
100
AcDbBlockBegin
  2
*D44
 70
     1
 10
0.0
 20
0.0
 30
0.0
  3
*D44
  1

  0
LINE
  5
7E8
100
AcDbEntity
  8
0
  6
BYBLOCK
 62
     0
100
AcDbLine
 10
105.5
 20
261.0
 30
0.0
 11
103.5
 21
261.0
 31
0.0
  0
LINE
  5
7E9
100
AcDbEntity
  8
0
  6
BYBLOCK
 62
     0
100
AcDbLine
 10
103.5
 20
261.0
 30
0.0
 11
70.859272
 21
228.999286
 31
0.0
  0
MTEXT
  5
7EA
100
AcDbEntity
  8
0
  6
BYBLOCK
 62
     0
100
AcDbMText
 10
111.006667
 20
261.0
 30
0.0
 40
5.0
 41
0.0
 71
     5
 72
     1
  1
\A1;R10
  0
SOLID
  5
7EB
100
AcDbEntity
  8
0
  6
BYBLOCK
 62
     0
100
AcDbTrace
 10
72.05406
 20
230.637453
 30
0.0
 11
72.520774
 21
230.161404
 31
0.0
 12
70.859272
 22
228.999286
 32
0.0
 13
70.859272
 23
228.999286
 33
0.0
  0
POINT
  5
7EC
100
AcDbEntity
  8
DEFPOINTS
  6
BYBLOCK
 62
     0
100
AcDbPoint
 10
70.859272
 20
228.999286
 30
0.0
  0
POINT
  5
7ED
100
AcDbEntity
  8
DEFPOINTS
  6
BYBLOCK
 62
     0
100
AcDbPoint
 10
78.0
 20
236.0
 30
0.0
  0
ENDBLK
  5
7EF
100
AcDbEntity
  8
0
100
AcDbBlockEnd
  0
BLOCK
  5
7FC
100
AcDbEntity
  8
0
100
AcDbBlockBegin
  2
*D45
 70
     1
 10
0.0
 20
0.0
 30
0.0
  3
*D45
  1

  0
LINE
  5
7F1
100
AcDbEntity
  8
0
  6
BYBLOCK
 62
     0
100
AcDbLine
 10
58.142906
 20
189.082507
 30
0.0
 11
56.453557
 21
188.107161
 31
0.0
  0
LINE
  5
7F2
100
AcDbEntity
  8
0
  6
BYBLOCK
 62
     0
100
AcDbLine
 10
68.142906
 20
171.761999
 30
0.0
 11
66.453557
 21
170.786653
 31
0.0
  0
LINE
  5
7F3
100
AcDbEntity
  8
0
  6
BYBLOCK
 62
     0
100
AcDbLine
 10
66.319583
 20
173.018704
 30
0.0
 11
58.319583
 21
186.87511
 31
0.0
  0
LINE
  5
7F4
100
AcDbEntity
  8
0
  6
BYBLOCK
 62
     0
100
AcDbLine
 10
57.319583
 20
188.607161
 30
0.0
 11
53.34
 21
195.5
 31
0.0
  0
LINE
  5
7F5
100
AcDbEntity
  8
0
  6
BYBLOCK
 62
     0
100
AcDbLine
 10
53.34
 20
195.5
 30
0.0
 11
51.34
 21
195.5
 31
0.0
  0
SOLID
  5
7F6
100
AcDbEntity
  8
0
  6
BYBLOCK
 62
     0
100
AcDbTrace
 10
66.608258
 20
173.18537
 30
0.0
 11
66.030907
 21
172.852037
 31
0.0
 12
67.319583
 22
171.286653
 32
0.0
 13
67.319583
 23
171.286653
 33
0.0
  0
SOLID
  5
7F7
100
AcDbEntity
  8
0
  6
BYBLOCK
 62
     0
100
AcDbTrace
 10
58.608258
 20
187.041777
 30
0.0
 11
58.030907
 21
186.708443
 31
0.0
 12
57.319583
 22
188.607161
 32
0.0
 13
57.319583
 23
188.607161
 33
0.0
  0
MTEXT
  5
7F8
100
AcDbEntity
  8
0
  6
BYBLOCK
 62
     0
100
AcDbMText
 10
47.5
 20
195.5
 30
0.0
 40
5.0
 41
0.0
 71
     5
 72
     1
  1
\A1;20
  0
POINT
  5
7F9
100
AcDbEntity
  8
DEFPOINTS
  6
BYBLOCK
 62
     0
100
AcDbPoint
 10
59.008931
 20
189.582507
 30
0.0
  0
POINT
  5
7FA
100
AcDbEntity
  8
DEFPOINTS
  6
BYBLOCK
 62
     0
100
AcDbPoint
 10
69.008931
 20
172.261999
 30
0.0
  0
POINT
  5
7FB
100
AcDbEntity
  8
DEFPOINTS
  6
BYBLOCK
 62
     0
100
AcDbPoint
 10
67.319583
 20
171.286653
 30
0.0
  0
ENDBLK
  5
7FD
100
AcDbEntity
  8
0
100
AcDbBlockEnd
  0
BLOCK
  5
80A
100
AcDbEntity
  8
0
100
AcDbBlockBegin
  2
*D46
 70
     1
 10
0.0
 20
0.0
 30
0.0
  3
*D46
  1

  0
LINE
  5
7FF
100
AcDbEntity
  8
0
  6
BYBLOCK
 62
     0
100
AcDbLine
 10
38.56992
 20
175.991711
 30
0.0
 11
41.833379
 21
177.875869
 31
0.0
  0
LINE
  5
800
100
AcDbEntity
  8
0
  6
BYBLOCK
 62
     0
100
AcDbLine
 10
47.019451
 20
161.356694
 30
0.0
 11
50.28291
 21
163.240853
 31
0.0
  0
LINE
  5
801
100
AcDbEntity
  8
0
  6
BYBLOCK
 62
     0
100
AcDbLine
 10
41.967354
 20
175.643819
 30
0.0
 11
48.416884
 21
164.472903
 31
0.0
  0
LINE
  5
802
100
AcDbEntity
  8
0
  6
BYBLOCK
 62
     0
100
AcDbLine
 10
49.416884
 20
162.740853
 30
0.0
 11
51.576667
 21
159.0
 31
0.0
  0
LINE
  5
803
100
AcDbEntity
  8
0
  6
BYBLOCK
 62
     0
100
AcDbLine
 10
51.576667
 20
159.0
 30
0.0
 11
53.576667
 21
159.0
 31
0.0
  0
SOLID
  5
804
100
AcDbEntity
  8
0
  6
BYBLOCK
 62
     0
100
AcDbTrace
 10
42.256029
 20
175.810485
 30
0.0
 11
41.678678
 21
175.477152
 31
0.0
 12
40.967354
 22
177.375869
 32
0.0
 13
40.967354
 23
177.375869
 33
0.0
  0
SOLID
  5
805
100
AcDbEntity
  8
0
  6
BYBLOCK
 62
     0
100
AcDbTrace
 10
48.70556
 20
164.63957
 30
0.0
 11
48.128209
 21
164.306237
 31
0.0
 12
49.416884
 22
162.740853
 32
0.0
 13
49.416884
 23
162.740853
 33
0.0
  0
MTEXT
  5
806
100
AcDbEntity
  8
0
  6
BYBLOCK
 62
     0
100
AcDbMText
 10
57.0
 20
159.0
 30
0.0
 40
5.0
 41
0.0
 71
     5
 72
     1
  1
\A1;17
  0
POINT
  5
807
100
AcDbEntity
  8
DEFPOINTS
  6
BYBLOCK
 62
     0
100
AcDbPoint
 10
37.703895
 20
175.491711
 30
0.0
  0
POINT
  5
808
100
AcDbEntity
  8
DEFPOINTS
  6
BYBLOCK
 62
     0
100
AcDbPoint
 10
46.153425
 20
160.856694
 30
0.0
  0
POINT
  5
809
100
AcDbEntity
  8
DEFPOINTS
  6
BYBLOCK
 62
     0
100
AcDbPoint
 10
49.416884
 20
162.740853
 30
0.0
  0
ENDBLK
  5
80B
100
AcDbEntity
  8
0
100
AcDbBlockEnd
  0
BLOCK
  5
817
100
AcDbEntity
  8
0
100
AcDbBlockBegin
  2
*D47
 70
     1
 10
0.0
 20
0.0
 30
0.0
  3
*D47
  1

  0
LINE
  5
80D
100
AcDbEntity
  8
0
  6
BYBLOCK
 62
     0
100
AcDbLine
 10
96.657795
 20
236.0
 30
0.0
 11
151.5
 21
236.0
 31
0.0
  0
LINE
  5
80E
100
AcDbEntity
  8
0
  6
BYBLOCK
 62
     0
100
AcDbLine
 10
147.5
 20
189.0
 30
0.0
 11
151.5
 21
189.0
 31
0.0
  0
LINE
  5
80F
100
AcDbEntity
  8
0
  6
BYBLOCK
 62
     0
100
AcDbLine
 10
150.5
 20
234.0
 30
0.0
 11
150.5
 21
218.256667
 31
0.0
  0
LINE
  5
810
100
AcDbEntity
  8
0
  6
BYBLOCK
 62
     0
100
AcDbLine
 10
150.5
 20
191.0
 30
0.0
 11
150.5
 21
209.743333
 31
0.0
  0
SOLID
  5
811
100
AcDbEntity
  8
0
  6
BYBLOCK
 62
     0
100
AcDbTrace
 10
150.166667
 20
234.0
 30
0.0
 11
150.833333
 21
234.0
 31
0.0
 12
150.5
 22
236.0
 32
0.0
 13
150.5
 23
236.0
 33
0.0
  0
SOLID
  5
812
100
AcDbEntity
  8
0
  6
BYBLOCK
 62
     0
100
AcDbTrace
 10
150.166667
 20
191.0
 30
0.0
 11
150.833333
 21
191.0
 31
0.0
 12
150.5
 22
189.0
 32
0.0
 13
150.5
 23
189.0
 33
0.0
  0
MTEXT
  5
813
100
AcDbEntity
  8
0
  6
BYBLOCK
 62
     0
100
AcDbMText
 10
150.5
 20
214.0
 30
0.0
 40
5.0
 41
0.0
 71
     5
 72
     1
  1
\A1;47
 11
0.0
 21
1.0
 31
0.0
  0
POINT
  5
814
100
AcDbEntity
  8
DEFPOINTS
  6
BYBLOCK
 62
     0
100
AcDbPoint
 10
95.657795
 20
236.0
 30
0.0
  0
POINT
  5
815
100
AcDbEntity
  8
DEFPOINTS
  6
BYBLOCK
 62
     0
100
AcDbPoint
 10
146.5
 20
189.0
 30
0.0
  0
POINT
  5
816
100
AcDbEntity
  8
DEFPOINTS
  6
BYBLOCK
 62
     0
100
AcDbPoint
 10
150.5
 20
189.0
 30
0.0
  0
ENDBLK
  5
818
100
AcDbEntity
  8
0
100
AcDbBlockEnd
  0
BLOCK
  5
824
100
AcDbEntity
  8
0
100
AcDbBlockBegin
  2
*D48
 70
     1
 10
0.0
 20
0.0
 30
0.0
  3
*D48
  1

  0
LINE
  5
81A
100
AcDbEntity
  8
0
  6
BYBLOCK
 62
     0
100
AcDbLine
 10
79.0
 20
251.5
 30
0.0
 11
164.5
 21
251.5
 31
0.0
  0
LINE
  5
81B
100
AcDbEntity
  8
0
  6
BYBLOCK
 62
     0
100
AcDbLine
 10
79.0
 20
126.5
 30
0.0
 11
164.5
 21
126.5
 31
0.0
  0
LINE
  5
81C
100
AcDbEntity
  8
0
  6
BYBLOCK
 62
     0
100
AcDbLine
 10
163.5
 20
249.5
 30
0.0
 11
163.5
 21
194.923333
 31
0.0
  0
LINE
  5
81D
100
AcDbEntity
  8
0
  6
BYBLOCK
 62
     0
100
AcDbLine
 10
163.5
 20
128.5
 30
0.0
 11
163.5
 21
183.076667
 31
0.0
  0
SOLID
  5
81E
100
AcDbEntity
  8
0
  6
BYBLOCK
 62
     0
100
AcDbTrace
 10
163.166667
 20
249.5
 30
0.0
 11
163.833333
 21
249.5
 31
0.0
 12
163.5
 22
251.5
 32
0.0
 13
163.5
 23
251.5
 33
0.0
  0
SOLID
  5
81F
100
AcDbEntity
  8
0
  6
BYBLOCK
 62
     0
100
AcDbTrace
 10
163.166667
 20
128.5
 30
0.0
 11
163.833333
 21
128.5
 31
0.0
 12
163.5
 22
126.5
 32
0.0
 13
163.5
 23
126.5
 33
0.0
  0
MTEXT
  5
820
100
AcDbEntity
  8
0
  6
BYBLOCK
 62
     0
100
AcDbMText
 10
163.5
 20
189.0
 30
0.0
 40
5.0
 41
0.0
 71
     5
 72
     1
  1
\A1;125
 11
0.0
 21
1.0
 31
0.0
  0
POINT
  5
821
100
AcDbEntity
  8
DEFPOINTS
  6
BYBLOCK
 62
     0
100
AcDbPoint
 10
78.0
 20
251.5
 30
0.0
  0
POINT
  5
822
100
AcDbEntity
  8
DEFPOINTS
  6
BYBLOCK
 62
     0
100
AcDbPoint
 10
78.0
 20
126.5
 30
0.0
  0
POINT
  5
823
100
AcDbEntity
  8
DEFPOINTS
  6
BYBLOCK
 62
     0
100
AcDbPoint
 10
163.5
 20
126.5
 30
0.0
  0
ENDBLK
  5
825
100
AcDbEntity
  8
0
100
AcDbBlockEnd
  0
BLOCK
  5
831
100
AcDbEntity
  8
0
100
AcDbBlockBegin
  2
*D49
 70
     1
 10
0.0
 20
0.0
 30
0.0
  3
*D49
  1

  0
LINE
  5
827
100
AcDbEntity
  8
0
  6
BYBLOCK
 62
     0
100
AcDbLine
 10
209.001388
 20
244.5
 30
0.0
 11
209.001388
 21
287.5
 31
0.0
  0
LINE
  5
828
100
AcDbEntity
  8
0
  6
BYBLOCK
 62
     0
100
AcDbLine
 10
224.998612
 20
244.5
 30
0.0
 11
224.998612
 21
287.5
 31
0.0
  0
LINE
  5
829
100
AcDbEntity
  8
0
  6
BYBLOCK
 62
     0
100
AcDbLine
 10
211.001388
 20
286.5
 30
0.0
 11
215.076667
 21
286.5
 31
0.0
  0
LINE
  5
82A
100
AcDbEntity
  8
0
  6
BYBLOCK
 62
     0
100
AcDbLine
 10
222.998612
 20
286.5
 30
0.0
 11
221.923333
 21
286.5
 31
0.0
  0
SOLID
  5
82B
100
AcDbEntity
  8
0
  6
BYBLOCK
 62
     0
100
AcDbTrace
 10
211.001388
 20
286.833333
 30
0.0
 11
211.001388
 21
286.166667
 31
0.0
 12
209.001388
 22
286.5
 32
0.0
 13
209.001388
 23
286.5
 33
0.0
  0
SOLID
  5
82C
100
AcDbEntity
  8
0
  6
BYBLOCK
 62
     0
100
AcDbTrace
 10
222.998612
 20
286.833333
 30
0.0
 11
222.998612
 21
286.166667
 31
0.0
 12
224.998612
 22
286.5
 32
0.0
 13
224.998612
 23
286.5
 33
0.0
  0
MTEXT
  5
82D
100
AcDbEntity
  8
0
  6
BYBLOCK
 62
     0
100
AcDbMText
 10
218.5
 20
286.5
 30
0.0
 40
5.0
 41
0.0
 71
     5
 72
     1
  1
\A1;16
  0
POINT
  5
82E
100
AcDbEntity
  8
DEFPOINTS
  6
BYBLOCK
 62
     0
100
AcDbPoint
 10
209.001388
 20
243.5
 30
0.0
  0
POINT
  5
82F
100
AcDbEntity
  8
DEFPOINTS
  6
BYBLOCK
 62
     0
100
AcDbPoint
 10
224.998612
 20
243.5
 30
0.0
  0
POINT
  5
830
100
AcDbEntity
  8
DEFPOINTS
  6
BYBLOCK
 62
     0
100
AcDbPoint
 10
224.998612
 20
286.5
 30
0.0
  0
ENDBLK
  5
832
100
AcDbEntity
  8
0
100
AcDbBlockEnd
  0
BLOCK
  5
83E
100
AcDbEntity
  8
0
100
AcDbBlockBegin
  2
*D50
 70
     1
 10
0.0
 20
0.0
 30
0.0
  3
*D50
  1

  0
LINE
  5
834
100
AcDbEntity
  8
0
  6
BYBLOCK
 62
     0
100
AcDbLine
 10
209.001388
 20
244.5
 30
0.0
 11
209.001388
 21
279.0
 31
0.0
  0
LINE
  5
835
100
AcDbEntity
  8
0
  6
BYBLOCK
 62
     0
100
AcDbLine
 10
223.995712
 20
244.035359
 30
0.0
 11
223.995712
 21
279.0
 31
0.0
  0
LINE
  5
836
100
AcDbEntity
  8
0
  6
BYBLOCK
 62
     0
100
AcDbLine
 10
211.001388
 20
278.0
 30
0.0
 11
213.076667
 21
278.0
 31
0.0
  0
LINE
  5
837
100
AcDbEntity
  8
0
  6
BYBLOCK
 62
     0
100
AcDbLine
 10
221.995712
 20
278.0
 30
0.0
 11
219.923333
 21
278.0
 31
0.0
  0
SOLID
  5
838
100
AcDbEntity
  8
0
  6
BYBLOCK
 62
     0
100
AcDbTrace
 10
211.001388
 20
278.333333
 30
0.0
 11
211.001388
 21
277.666667
 31
0.0
 12
209.001388
 22
278.0
 32
0.0
 13
209.001388
 23
278.0
 33
0.0
  0
SOLID
  5
839
100
AcDbEntity
  8
0
  6
BYBLOCK
 62
     0
100
AcDbTrace
 10
221.995712
 20
278.333333
 30
0.0
 11
221.995712
 21
277.666667
 31
0.0
 12
223.995712
 22
278.0
 32
0.0
 13
223.995712
 23
278.0
 33
0.0
  0
MTEXT
  5
83A
100
AcDbEntity
  8
0
  6
BYBLOCK
 62
     0
100
AcDbMText
 10
216.5
 20
278.0
 30
0.0
 40
5.0
 41
0.0
 71
     5
 72
     1
  1
\A1;15
  0
POINT
  5
83B
100
AcDbEntity
  8
DEFPOINTS
  6
BYBLOCK
 62
     0
100
AcDbPoint
 10
209.001388
 20
243.5
 30
0.0
  0
POINT
  5
83C
100
AcDbEntity
  8
DEFPOINTS
  6
BYBLOCK
 62
     0
100
AcDbPoint
 10
223.995712
 20
243.035359
 30
0.0
  0
POINT
  5
83D
100
AcDbEntity
  8
DEFPOINTS
  6
BYBLOCK
 62
     0
100
AcDbPoint
 10
223.995712
 20
278.0
 30
0.0
  0
ENDBLK
  5
83F
100
AcDbEntity
  8
0
100
AcDbBlockEnd
  0
BLOCK
  5
84B
100
AcDbEntity
  8
0
100
AcDbBlockBegin
  2
*D51
 70
     1
 10
0.0
 20
0.0
 30
0.0
  3
*D51
  1

  0
LINE
  5
841
100
AcDbEntity
  8
0
  6
BYBLOCK
 62
     0
100
AcDbLine
 10
216.0
 20
251.5
 30
0.0
 11
177.5
 21
251.5
 31
0.0
  0
LINE
  5
842
100
AcDbEntity
  8
0
  6
BYBLOCK
 62
     0
100
AcDbLine
 10
208.001388
 20
226.0
 30
0.0
 11
177.5
 21
226.0
 31
0.0
  0
LINE
  5
843
100
AcDbEntity
  8
0
  6
BYBLOCK
 62
     0
100
AcDbLine
 10
178.5
 20
249.5
 30
0.0
 11
178.5
 21
246.09
 31
0.0
  0
LINE
  5
844
100
AcDbEntity
  8
0
  6
BYBLOCK
 62
     0
100
AcDbLine
 10
178.5
 20
228.0
 30
0.0
 11
178.5
 21
230.91
 31
0.0
  0
SOLID
  5
845
100
AcDbEntity
  8
0
  6
BYBLOCK
 62
     0
100
AcDbTrace
 10
178.166667
 20
249.5
 30
0.0
 11
178.833333
 21
249.5
 31
0.0
 12
178.5
 22
251.5
 32
0.0
 13
178.5
 23
251.5
 33
0.0
  0
SOLID
  5
846
100
AcDbEntity
  8
0
  6
BYBLOCK
 62
     0
100
AcDbTrace
 10
178.166667
 20
228.0
 30
0.0
 11
178.833333
 21
228.0
 31
0.0
 12
178.5
 22
226.0
 32
0.0
 13
178.5
 23
226.0
 33
0.0
  0
MTEXT
  5
847
100
AcDbEntity
  8
0
  6
BYBLOCK
 62
     0
100
AcDbMText
 10
178.5
 20
238.5
 30
0.0
 40
5.0
 41
0.0
 71
     5
 72
     1
  1
\A1;25.5
 11
0.0
 21
1.0
 31
0.0
  0
POINT
  5
848
100
AcDbEntity
  8
DEFPOINTS
  6
BYBLOCK
 62
     0
100
AcDbPoint
 10
217.0
 20
251.5
 30
0.0
  0
POINT
  5
849
100
AcDbEntity
  8
DEFPOINTS
  6
BYBLOCK
 62
     0
100
AcDbPoint
 10
209.001388
 20
226.0
 30
0.0
  0
POINT
  5
84A
100
AcDbEntity
  8
DEFPOINTS
  6
BYBLOCK
 62
     0
100
AcDbPoint
 10
178.5
 20
226.0
 30
0.0
  0
ENDBLK
  5
84C
100
AcDbEntity
  8
0
100
AcDbBlockEnd
  0
BLOCK
  5
859
100
AcDbEntity
  8
0
100
AcDbBlockBegin
  2
*D52
 70
     1
 10
0.0
 20
0.0
 30
0.0
  3
*D52
  1

  0
LINE
  5
84E
100
AcDbEntity
  8
0
  6
BYBLOCK
 62
     0
100
AcDbLine
 10
208.0
 20
241.0
 30
0.0
 11
185.993333
 21
241.0
 31
0.0
  0
LINE
  5
84F
100
AcDbEntity
  8
0
  6
BYBLOCK
 62
     0
100
AcDbLine
 10
208.0
 20
231.0
 30
0.0
 11
185.993333
 21
231.0
 31
0.0
  0
LINE
  5
850
100
AcDbEntity
  8
0
  6
BYBLOCK
 62
     0
100
AcDbLine
 10
186.993333
 20
233.0
 30
0.0
 11
186.993333
 21
239.0
 31
0.0
  0
LINE
  5
851
100
AcDbEntity
  8
0
  6
BYBLOCK
 62
     0
100
AcDbLine
 10
186.993333
 20
241.0
 30
0.0
 11
186.993333
 21
245.5
 31
0.0
  0
LINE
  5
852
100
AcDbEntity
  8
0
  6
BYBLOCK
 62
     0
100
AcDbLine
 10
186.993333
 20
245.5
 30
0.0
 11
188.993333
 21
245.5
 31
0.0
  0
SOLID
  5
853
100
AcDbEntity
  8
0
  6
BYBLOCK
 62
     0
100
AcDbTrace
 10
186.66
 20
233.0
 30
0.0
 11
187.326667
 21
233.0
 31
0.0
 12
186.993333
 22
231.0
 32
0.0
 13
186.993333
 23
231.0
 33
0.0
  0
SOLID
  5
854
100
AcDbEntity
  8
0
  6
BYBLOCK
 62
     0
100
AcDbTrace
 10
186.66
 20
239.0
 30
0.0
 11
187.326667
 21
239.0
 31
0.0
 12
186.993333
 22
241.0
 32
0.0
 13
186.993333
 23
241.0
 33
0.0
  0
MTEXT
  5
855
100
AcDbEntity
  8
0
  6
BYBLOCK
 62
     0
100
AcDbMText
 10
194.5
 20
245.5
 30
0.0
 40
5.0
 41
0.0
 71
     5
 72
     1
  1
\A1;\U+220510
  0
POINT
  5
856
100
AcDbEntity
  8
DEFPOINTS
  6
BYBLOCK
 62
     0
100
AcDbPoint
 10
209.0
 20
241.0
 30
0.0
  0
POINT
  5
857
100
AcDbEntity
  8
DEFPOINTS
  6
BYBLOCK
 62
     0
100
AcDbPoint
 10
209.0
 20
231.0
 30
0.0
  0
POINT
  5
858
100
AcDbEntity
  8
DEFPOINTS
  6
BYBLOCK
 62
     0
100
AcDbPoint
 10
186.993333
 20
231.0
 30
0.0
  0
ENDBLK
  5
85A
100
AcDbEntity
  8
0
100
AcDbBlockEnd
  0
BLOCK
  5
866
100
AcDbEntity
  8
0
100
AcDbBlockBegin
  2
*D53
 70
     1
 10
0.0
 20
0.0
 30
0.0
  3
*D53
  1

  0
LINE
  5
85C
100
AcDbEntity
  8
0
  6
BYBLOCK
 62
     0
100
AcDbLine
 10
216.0
 20
146.5
 30
0.0
 11
178.0
 21
146.5
 31
0.0
  0
LINE
  5
85D
100
AcDbEntity
  8
0
  6
BYBLOCK
 62
     0
100
AcDbLine
 10
216.0
 20
126.5
 30
0.0
 11
178.0
 21
126.5
 31
0.0
  0
LINE
  5
85E
100
AcDbEntity
  8
0
  6
BYBLOCK
 62
     0
100
AcDbLine
 10
179.0
 20
144.5
 30
0.0
 11
179.0
 21
138.84
 31
0.0
  0
LINE
  5
85F
100
AcDbEntity
  8
0
  6
BYBLOCK
 62
     0
100
AcDbLine
 10
179.0
 20
128.5
 30
0.0
 11
179.0
 21
131.16
 31
0.0
  0
SOLID
  5
860
100
AcDbEntity
  8
0
  6
BYBLOCK
 62
     0
100
AcDbTrace
 10
178.666667
 20
144.5
 30
0.0
 11
179.333333
 21
144.5
 31
0.0
 12
179.0
 22
146.5
 32
0.0
 13
179.0
 23
146.5
 33
0.0
  0
SOLID
  5
861
100
AcDbEntity
  8
0
  6
BYBLOCK
 62
     0
100
AcDbTrace
 10
178.666667
 20
128.5
 30
0.0
 11
179.333333
 21
128.5
 31
0.0
 12
179.0
 22
126.5
 32
0.0
 13
179.0
 23
126.5
 33
0.0
  0
MTEXT
  5
862
100
AcDbEntity
  8
0
  6
BYBLOCK
 62
     0
100
AcDbMText
 10
179.0
 20
135.0
 30
0.0
 40
5.0
 41
0.0
 71
     5
 72
     1
  1
\A1;20
 11
0.0
 21
1.0
 31
0.0
  0
POINT
  5
863
100
AcDbEntity
  8
DEFPOINTS
  6
BYBLOCK
 62
     0
100
AcDbPoint
 10
217.0
 20
146.5
 30
0.0
  0
POINT
  5
864
100
AcDbEntity
  8
DEFPOINTS
  6
BYBLOCK
 62
     0
100
AcDbPoint
 10
217.0
 20
126.5
 30
0.0
  0
POINT
  5
865
100
AcDbEntity
  8
DEFPOINTS
  6
BYBLOCK
 62
     0
100
AcDbPoint
 10
179.0
 20
126.5
 30
0.0
  0
ENDBLK
  5
867
100
AcDbEntity
  8
0
100
AcDbBlockEnd
  0
BLOCK
  5
873
100
AcDbEntity
  8
0
100
AcDbBlockBegin
  2
*D54
 70
     1
 10
0.0
 20
0.0
 30
0.0
  3
*D54
  1

  0
LINE
  5
869
100
AcDbEntity
  8
0
  6
BYBLOCK
 62
     0
100
AcDbLine
 10
225.0
 20
205.5
 30
0.0
 11
183.0
 21
205.5
 31
0.0
  0
LINE
  5
86A
100
AcDbEntity
  8
0
  6
BYBLOCK
 62
     0
100
AcDbLine
 10
225.0
 20
172.5
 30
0.0
 11
183.0
 21
172.5
 31
0.0
  0
LINE
  5
86B
100
AcDbEntity
  8
0
  6
BYBLOCK
 62
     0
100
AcDbLine
 10
184.0
 20
203.5
 30
0.0
 11
184.0
 21
193.756667
 31
0.0
  0
LINE
  5
86C
100
AcDbEntity
  8
0
  6
BYBLOCK
 62
     0
100
AcDbLine
 10
184.0
 20
174.5
 30
0.0
 11
184.0
 21
185.243333
 31
0.0
  0
SOLID
  5
86D
100
AcDbEntity
  8
0
  6
BYBLOCK
 62
     0
100
AcDbTrace
 10
183.666667
 20
203.5
 30
0.0
 11
184.333333
 21
203.5
 31
0.0
 12
184.0
 22
205.5
 32
0.0
 13
184.0
 23
205.5
 33
0.0
  0
SOLID
  5
86E
100
AcDbEntity
  8
0
  6
BYBLOCK
 62
     0
100
AcDbTrace
 10
183.666667
 20
174.5
 30
0.0
 11
184.333333
 21
174.5
 31
0.0
 12
184.0
 22
172.5
 32
0.0
 13
184.0
 23
172.5
 33
0.0
  0
MTEXT
  5
86F
100
AcDbEntity
  8
0
  6
BYBLOCK
 62
     0
100
AcDbMText
 10
184.0
 20
189.5
 30
0.0
 40
5.0
 41
0.0
 71
     5
 72
     1
  1
\A1;33
 11
0.0
 21
1.0
 31
0.0
  0
POINT
  5
870
100
AcDbEntity
  8
DEFPOINTS
  6
BYBLOCK
 62
     0
100
AcDbPoint
 10
226.0
 20
205.5
 30
0.0
  0
POINT
  5
871
100
AcDbEntity
  8
DEFPOINTS
  6
BYBLOCK
 62
     0
100
AcDbPoint
 10
226.0
 20
172.5
 30
0.0
  0
POINT
  5
872
100
AcDbEntity
  8
DEFPOINTS
  6
BYBLOCK
 62
     0
100
AcDbPoint
 10
184.0
 20
172.5
 30
0.0
  0
ENDBLK
  5
874
100
AcDbEntity
  8
0
100
AcDbBlockEnd
  0
BLOCK
  5
880
100
AcDbEntity
  8
0
100
AcDbBlockBegin
  2
*D55
 70
     1
 10
0.0
 20
0.0
 30
0.0
  3
*D55
  1

  0
LINE
  5
876
100
AcDbEntity
  8
0
  6
BYBLOCK
 62
     0
100
AcDbLine
 10
226.0
 20
206.5
 30
0.0
 11
226.0
 21
230.5
 31
0.0
  0
LINE
  5
877
100
AcDbEntity
  8
0
  6
BYBLOCK
 62
     0
100
AcDbLine
 10
256.0
 20
205.0
 30
0.0
 11
256.0
 21
230.5
 31
0.0
  0
LINE
  5
878
100
AcDbEntity
  8
0
  6
BYBLOCK
 62
     0
100
AcDbLine
 10
228.0
 20
229.5
 30
0.0
 11
235.16
 21
229.5
 31
0.0
  0
LINE
  5
879
100
AcDbEntity
  8
0
  6
BYBLOCK
 62
     0
100
AcDbLine
 10
254.0
 20
229.5
 30
0.0
 11
242.84
 21
229.5
 31
0.0
  0
SOLID
  5
87A
100
AcDbEntity
  8
0
  6
BYBLOCK
 62
     0
100
AcDbTrace
 10
228.0
 20
229.833333
 30
0.0
 11
228.0
 21
229.166667
 31
0.0
 12
226.0
 22
229.5
 32
0.0
 13
226.0
 23
229.5
 33
0.0
  0
SOLID
  5
87B
100
AcDbEntity
  8
0
  6
BYBLOCK
 62
     0
100
AcDbTrace
 10
254.0
 20
229.833333
 30
0.0
 11
254.0
 21
229.166667
 31
0.0
 12
256.0
 22
229.5
 32
0.0
 13
256.0
 23
229.5
 33
0.0
  0
MTEXT
  5
87C
100
AcDbEntity
  8
0
  6
BYBLOCK
 62
     0
100
AcDbMText
 10
239.0
 20
229.5
 30
0.0
 40
5.0
 41
0.0
 71
     5
 72
     1
  1
\A1;30
  0
POINT
  5
87D
100
AcDbEntity
  8
DEFPOINTS
  6
BYBLOCK
 62
     0
100
AcDbPoint
 10
226.0
 20
205.5
 30
0.0
  0
POINT
  5
87E
100
AcDbEntity
  8
DEFPOINTS
  6
BYBLOCK
 62
     0
100
AcDbPoint
 10
256.0
 20
204.0
 30
0.0
  0
POINT
  5
87F
100
AcDbEntity
  8
DEFPOINTS
  6
BYBLOCK
 62
     0
100
AcDbPoint
 10
256.0
 20
229.5
 30
0.0
  0
ENDBLK
  5
881
100
AcDbEntity
  8
0
100
AcDbBlockEnd
  0
BLOCK
  5
88D
100
AcDbEntity
  8
0
100
AcDbBlockBegin
  2
*D56
 70
     1
 10
0.0
 20
0.0
 30
0.0
  3
*D56
  1

  0
LINE
  5
883
100
AcDbEntity
  8
0
  6
BYBLOCK
 62
     0
100
AcDbLine
 10
244.0
 20
206.5
 30
0.0
 11
244.0
 21
222.5
 31
0.0
  0
LINE
  5
884
100
AcDbEntity
  8
0
  6
BYBLOCK
 62
     0
100
AcDbLine
 10
256.0
 20
205.0
 30
0.0
 11
256.0
 21
222.5
 31
0.0
  0
LINE
  5
885
100
AcDbEntity
  8
0
  6
BYBLOCK
 62
     0
100
AcDbLine
 10
246.0
 20
221.5
 30
0.0
 11
246.576667
 21
221.5
 31
0.0
  0
LINE
  5
886
100
AcDbEntity
  8
0
  6
BYBLOCK
 62
     0
100
AcDbLine
 10
254.0
 20
221.5
 30
0.0
 11
253.423333
 21
221.5
 31
0.0
  0
SOLID
  5
887
100
AcDbEntity
  8
0
  6
BYBLOCK
 62
     0
100
AcDbTrace
 10
246.0
 20
221.833333
 30
0.0
 11
246.0
 21
221.166667
 31
0.0
 12
244.0
 22
221.5
 32
0.0
 13
244.0
 23
221.5
 33
0.0
  0
SOLID
  5
888
100
AcDbEntity
  8
0
  6
BYBLOCK
 62
     0
100
AcDbTrace
 10
254.0
 20
221.833333
 30
0.0
 11
254.0
 21
221.166667
 31
0.0
 12
256.0
 22
221.5
 32
0.0
 13
256.0
 23
221.5
 33
0.0
  0
MTEXT
  5
889
100
AcDbEntity
  8
0
  6
BYBLOCK
 62
     0
100
AcDbMText
 10
250.0
 20
221.5
 30
0.0
 40
5.0
 41
0.0
 71
     5
 72
     1
  1
\A1;12
  0
POINT
  5
88A
100
AcDbEntity
  8
DEFPOINTS
  6
BYBLOCK
 62
     0
100
AcDbPoint
 10
244.0
 20
205.5
 30
0.0
  0
POINT
  5
88B
100
AcDbEntity
  8
DEFPOINTS
  6
BYBLOCK
 62
     0
100
AcDbPoint
 10
256.0
 20
204.0
 30
0.0
  0
POINT
  5
88C
100
AcDbEntity
  8
DEFPOINTS
  6
BYBLOCK
 62
     0
100
AcDbPoint
 10
256.0
 20
221.5
 30
0.0
  0
ENDBLK
  5
88E
100
AcDbEntity
  8
0
100
AcDbBlockEnd
  0
BLOCK
  5
89A
100
AcDbEntity
  8
0
100
AcDbBlockBegin
  2
*D57
 70
     1
 10
0.0
 20
0.0
 30
0.0
  3
*D57
  1

  0
LINE
  5
890
100
AcDbEntity
  8
0
  6
BYBLOCK
 62
     0
100
AcDbLine
 10
225.0
 20
201.0
 30
0.0
 11
190.5
 21
201.0
 31
0.0
  0
LINE
  5
891
100
AcDbEntity
  8
0
  6
BYBLOCK
 62
     0
100
AcDbLine
 10
225.0
 20
177.0
 30
0.0
 11
190.5
 21
177.0
 31
0.0
  0
LINE
  5
892
100
AcDbEntity
  8
0
  6
BYBLOCK
 62
     0
100
AcDbLine
 10
191.5
 20
199.0
 30
0.0
 11
191.5
 21
193.256667
 31
0.0
  0
LINE
  5
893
100
AcDbEntity
  8
0
  6
BYBLOCK
 62
     0
100
AcDbLine
 10
191.5
 20
179.0
 30
0.0
 11
191.5
 21
184.743333
 31
0.0
  0
SOLID
  5
894
100
AcDbEntity
  8
0
  6
BYBLOCK
 62
     0
100
AcDbTrace
 10
191.166667
 20
199.0
 30
0.0
 11
191.833333
 21
199.0
 31
0.0
 12
191.5
 22
201.0
 32
0.0
 13
191.5
 23
201.0
 33
0.0
  0
SOLID
  5
895
100
AcDbEntity
  8
0
  6
BYBLOCK
 62
     0
100
AcDbTrace
 10
191.166667
 20
179.0
 30
0.0
 11
191.833333
 21
179.0
 31
0.0
 12
191.5
 22
177.0
 32
0.0
 13
191.5
 23
177.0
 33
0.0
  0
MTEXT
  5
896
100
AcDbEntity
  8
0
  6
BYBLOCK
 62
     0
100
AcDbMText
 10
191.5
 20
189.0
 30
0.0
 40
5.0
 41
0.0
 71
     5
 72
     1
  1
\A1;24
 11
0.0
 21
1.0
 31
0.0
  0
POINT
  5
897
100
AcDbEntity
  8
DEFPOINTS
  6
BYBLOCK
 62
     0
100
AcDbPoint
 10
226.0
 20
201.0
 30
0.0
  0
POINT
  5
898
100
AcDbEntity
  8
DEFPOINTS
  6
BYBLOCK
 62
     0
100
AcDbPoint
 10
226.0
 20
177.0
 30
0.0
  0
POINT
  5
899
100
AcDbEntity
  8
DEFPOINTS
  6
BYBLOCK
 62
     0
100
AcDbPoint
 10
191.5
 20
177.0
 30
0.0
  0
ENDBLK
  5
89B
100
AcDbEntity
  8
0
100
AcDbBlockEnd
  0
BLOCK
  5
8A5
100
AcDbEntity
  8
0
100
AcDbBlockBegin
  2
*D58
 70
     1
 10
0.0
 20
0.0
 30
0.0
  3
*D58
  1

  0
LINE
  5
89D
100
AcDbEntity
  8
0
  6
BYBLOCK
 62
     0
100
AcDbLine
 10
99.0
 20
290.5
 30
0.0
 11
97.0
 21
290.5
 31
0.0
  0
LINE
  5
89E
100
AcDbEntity
  8
0
  6
BYBLOCK
 62
     0
100
AcDbLine
 10
97.0
 20
290.5
 30
0.0
 11
92.760093
 21
285.813787
 31
0.0
  0
MTEXT
  5
89F
100
AcDbEntity
  8
0
  6
BYBLOCK
 62
     0
100
AcDbMText
 10
105.34
 20
290.5
 30
0.0
 40
5.0
 41
0.0
 71
     5
 72
     1
  1
\A1;\U+220540
  0
SOLID
  5
8A0
100
AcDbEntity
  8
0
  6
BYBLOCK
 62
     0
100
AcDbTrace
 10
92.512915
 20
286.037425
 30
0.0
 11
93.007272
 21
285.590149
 31
0.0
 12
91.418266
 22
284.330716
 32
0.0
 13
91.418266
 23
284.330716
 33
0.0
  0
LINE
  5
8A1
100
AcDbEntity
  8
0
  6
BYBLOCK
 62
     0
100
AcDbLine
 10
77.91
 20
269.5
 30
0.0
 11
78.09
 21
269.5
 31
0.0
  0
LINE
  5
8A2
100
AcDbEntity
  8
0
  6
BYBLOCK
 62
     0
100
AcDbLine
 10
78.0
 20
269.41
 30
0.0
 11
78.0
 21
269.59
 31
0.0
  0
POINT
  5
8A3
100
AcDbEntity
  8
DEFPOINTS
  6
BYBLOCK
 62
     0
100
AcDbPoint
 10
91.418266
 20
284.330716
 30
0.0
  0
POINT
  5
8A4
100
AcDbEntity
  8
DEFPOINTS
  6
BYBLOCK
 62
     0
100
AcDbPoint
 10
64.581734
 20
254.669284
 30
0.0
  0
ENDBLK
  5
8A6
100
AcDbEntity
  8
0
100
AcDbBlockEnd
  0
BLOCK
  5
8B2
100
AcDbEntity
  8
0
100
AcDbBlockBegin
  2
*D59
 70
     1
 10
0.0
 20
0.0
 30
0.0
  3
*D59
  1

  0
LINE
  5
8A8
100
AcDbEntity
  8
0
  6
BYBLOCK
 62
     0
100
AcDbLine
 10
231.0
 20
256.5
 30
0.0
 11
231.0
 21
240.113124
 31
0.0
  0
LINE
  5
8A9
100
AcDbEntity
  8
0
  6
BYBLOCK
 62
     0
100
AcDbLine
 10
256.0
 20
253.5
 30
0.0
 11
256.0
 21
240.113124
 31
0.0
  0
LINE
  5
8AA
100
AcDbEntity
  8
0
  6
BYBLOCK
 62
     0
100
AcDbLine
 10
233.0
 20
241.113124
 30
0.0
 11
238.85755
 21
241.113124
 31
0.0
  0
LINE
  5
8AB
100
AcDbEntity
  8
0
  6
BYBLOCK
 62
     0
100
AcDbLine
 10
254.0
 20
241.113124
 30
0.0
 11
247.370883
 21
241.113124
 31
0.0
  0
SOLID
  5
8AC
100
AcDbEntity
  8
0
  6
BYBLOCK
 62
     0
100
AcDbTrace
 10
233.0
 20
241.446457
 30
0.0
 11
233.0
 21
240.77979
 31
0.0
 12
231.0
 22
241.113124
 32
0.0
 13
231.0
 23
241.113124
 33
0.0
  0
SOLID
  5
8AD
100
AcDbEntity
  8
0
  6
BYBLOCK
 62
     0
100
AcDbTrace
 10
254.0
 20
241.446457
 30
0.0
 11
254.0
 21
240.77979
 31
0.0
 12
256.0
 22
241.113124
 32
0.0
 13
256.0
 23
241.113124
 33
0.0
  0
MTEXT
  5
8AE
100
AcDbEntity
  8
0
  6
BYBLOCK
 62
     0
100
AcDbMText
 10
243.114216
 20
241.113124
 30
0.0
 40
5.0
 41
0.0
 71
     5
 72
     1
  1
\A1;25
  0
POINT
  5
8AF
100
AcDbEntity
  8
DEFPOINTS
  6
BYBLOCK
 62
     0
100
AcDbPoint
 10
231.0
 20
257.5
 30
0.0
  0
POINT
  5
8B0
100
AcDbEntity
  8
DEFPOINTS
  6
BYBLOCK
 62
     0
100
AcDbPoint
 10
256.0
 20
254.5
 30
0.0
  0
POINT
  5
8B1
100
AcDbEntity
  8
DEFPOINTS
  6
BYBLOCK
 62
     0
100
AcDbPoint
 10
256.0
 20
241.113124
 30
0.0
  0
ENDBLK
  5
8B3
100
AcDbEntity
  8
0
100
AcDbBlockEnd
  0
BLOCK
  5
96F
100
AcDbEntity
  8
0
100
AcDbBlockBegin
  2
A$C78FF3F0D
 70
     0
 10
0.0
 20
0.0
 30
0.0
  3
A$C78FF3F0D
  1

  0
DIMENSION
  5
8B5
100
AcDbEntity
  8
0
100
AcDbDimension
  2
*D58
 10
55.081733
 20
53.669285
 30
0.0
 11
95.84
 21
89.5
 31
0.0
 12
-9.5
 22
-201.0
 32
0.0
 70
   131
  3
STANDARD
100
AcDbDiametricDimension
 15
81.918266
 25
83.330716
 35
0.0
 40
0.0
1001
ACAD
1000
DSTYLE
1002
{
1070
    78
1070
     8
1070
   288
1070
     1
1070
   284
1070
     8
1070
   140
1040
5.0
1070
    73
1070
     0
1070
   272
1070
     2
1070
    42
1040
1.0
1070
    44
1040
1.0
1070
   271
1070
     2
1070
    41
1040
2.0
1002
}
  0
DIMENSION
  5
8B6
100
AcDbEntity
  8
0
100
AcDbDimension
  2
*D48
 10
154.0
 20
6.0
 30
0.0
 11
154.0
 21
68.5
 31
0.0
 12
-9.5
 22
-120.5
 32
0.0
 70
   128
  3
STANDARD
100
AcDbAlignedDimension
 13
68.5
 23
131.0
 33
0.0
 14
68.5
 24
6.0
 34
0.0
 50
90.0
100
AcDbRotatedDimension
1001
ACAD
1000
DSTYLE
1002
{
1070
    78
1070
     8
1070
   288
1070
     1
1070
   284
1070
     8
1070
   140
1040
5.0
1070
    73
1070
     0
1070
   272
1070
     2
1070
    42
1040
1.0
1070
    44
1040
1.0
1070
   271
1070
     2
1070
    41
1040
2.0
1002
}
  0
DIMENSION
  5
8B7
100
AcDbEntity
  8
0
100
AcDbDimension
  2
*D47
 10
141.0
 20
68.5
 30
0.0
 11
141.0
 21
93.5
 31
0.0
 12
-9.5
 22
-120.5
 32
0.0
 70
   128
  3
STANDARD
100
AcDbAlignedDimension
 13
86.157794
 23
115.5
 33
0.0
 14
137.0
 24
68.5
 34
0.0
 50
90.0
100
AcDbRotatedDimension
1001
ACAD
1000
DSTYLE
1002
{
1070
    78
1070
     8
1070
   288
1070
     1
1070
   284
1070
     8
1070
   140
1040
5.0
1070
    73
1070
     0
1070
   272
1070
     2
1070
    42
1040
1.0
1070
    44
1040
1.0
1070
   271
1070
     2
1070
    41
1040
2.0
1002
}
  0
DIMENSION
  5
8B8
100
AcDbEntity
  8
0
100
AcDbDimension
  2
*D44
 10
68.5
 20
115.5
 30
0.0
 11
101.506666
 21
140.5
 31
0.0
 12
-9.5
 22
-120.5
 32
0.0
 70
   132
  3
STANDARD
100
AcDbRadialDimension
 15
61.359271
 25
108.499286
 35
0.0
 40
0.0
1001
ACAD
1000
DSTYLE
1002
{
1070
    78
1070
     8
1070
   288
1070
     1
1070
   284
1070
     8
1070
   140
1040
5.0
1070
    73
1070
     0
1070
   272
1070
     2
1070
   287
1070
     4
1070
    42
1040
1.0
1070
    44
1040
1.0
1070
   271
1070
     2
1070
    41
1040
2.0
1002
}
  0
DIMENSION
  5
8B9
100
AcDbEntity
  8
0
100
AcDbDimension
  2
*D42
 10
53.211029
 20
115.355515
 30
0.0
 11
103.59
 21
149.0
 31
0.0
 12
-9.5
 22
-120.5
 32
0.0
 70
   132
  1
R5.5
  3
STANDARD
100
AcDbRadialDimension
 15
57.292637
 25
118.722199
 35
0.0
 40
0.0
1001
ACAD
1000
DSTYLE
1002
{
1070
    78
1070
     8
1070
   288
1070
     1
1070
   284
1070
     8
1070
   140
1040
5.0
1070
    73
1070
     0
1070
   272
1070
     2
1070
    42
1040
1.0
1070
    44
1040
1.0
1070
   271
1070
     2
1070
    41
1040
2.0
1002
}
  0
LINE
  5
8BA
100
AcDbEntity
  8
1
100
AcDbLine
 10
68.5
 20
68.5
 30
0.0
 11
127.847432
 21
34.235744
 31
0.0
  0
ARC
  5
8BB
100
AcDbEntity
  8
3
100
AcDbCircle
 10
68.5
 20
68.5
 30
0.0
 40
42.5
100
AcDbArc
 50
341.467525
 51
78.532475
  0
LINE
  5
8BC
100
AcDbEntity
  8
3
100
AcDbLine
 10
100.346574
 20
40.356694
 30
0.0
 11
78.357094
 21
51.261999
 31
0.0
  0
LINE
  5
8BD
100
AcDbEntity
  8
3
100
AcDbLine
 10
108.796105
 20
54.991711
 30
0.0
 11
88.357094
 21
68.582507
 31
0.0
  0
ARC
  5
8BE
100
AcDbEntity
  8
3
100
AcDbCircle
 10
68.5
 20
68.5
 30
0.0
 40
54.5
100
AcDbArc
 50
107.072287
 51
72.927713
  0
ARC
  5
8BF
100
AcDbEntity
  8
3
100
AcDbCircle
 10
68.5
 20
68.5
 30
0.0
 40
42.5
100
AcDbArc
 50
221.467525
 51
318.532475
  0
CIRCLE
  5
8C0
100
AcDbEntity
  8
3
100
AcDbCircle
 10
68.5
 20
68.5
 30
0.0
 40
62.5
  0
LINE
  5
8C1
100
AcDbEntity
  8
1
100
AcDbLine
 10
137.0
 20
68.5
 30
0.0
 11
0.0
 21
68.5
 31
0.0
  0
ARC
  5
8C2
100
AcDbEntity
  8
3
100
AcDbCircle
 10
68.5
 20
68.5
 30
0.0
 40
42.5
100
AcDbArc
 50
101.467525
 51
198.532475
  0
LINE
  5
8C3
100
AcDbEntity
  8
3
100
AcDbLine
 10
60.050469
 20
110.151596
 30
0.0
 11
58.5
 21
85.655495
 31
0.0
  0
LINE
  5
8C4
100
AcDbEntity
  8
3
100
AcDbLine
 10
76.949531
 20
110.151596
 30
0.0
 11
78.5
 21
85.655495
 31
0.0
  0
ARC
  5
8C5
100
AcDbEntity
  8
3
100
AcDbCircle
 10
68.5
 20
115.5
 30
0.0
 40
10.0
100
AcDbArc
 50
180.0
 51
0.0
  0
LINE
  5
8C6
100
AcDbEntity
  8
1
100
AcDbLine
 10
68.5
 20
136.0
 30
0.0
 11
68.5
 21
0.0
 31
0.0
  0
DIMENSION
  5
8C7
100
AcDbEntity
  8
0
100
AcDbDimension
  2
*D46
 10
39.916884
 20
42.240853
 30
0.0
 11
47.5
 21
38.5
 31
0.0
 12
-9.5
 22
-120.5
 32
0.0
 70
   129
  1
17
  3
STANDARD
100
AcDbAlignedDimension
 13
28.203894
 23
54.991711
 33
0.0
 14
36.653425
 24
40.356694
 34
0.0
1001
ACAD
1000
DSTYLE
1002
{
1070
    78
1070
     8
1070
   288
1070
     1
1070
   284
1070
     8
1070
   140
1040
5.0
1070
    73
1070
     0
1070
   272
1070
     2
1070
    42
1040
1.0
1070
    44
1040
1.0
1070
   271
1070
     2
1070
    41
1040
2.0
1002
}
  0
LINE
  5
8C8
100
AcDbEntity
  8
1
100
AcDbLine
 10
68.5
 20
68.5
 30
0.0
 11
9.902568
 21
34.668757
 31
0.0
  0
ARC
  5
8C9
100
AcDbEntity
  8
3
100
AcDbCircle
 10
46.568545
 20
55.837869
 30
0.0
 40
19.504043
100
AcDbArc
 50
187.633426
 51
232.366574
  0
LINE
  5
8CA
100
AcDbEntity
  8
3
100
AcDbLine
 10
36.653425
 20
40.356694
 30
0.0
 11
58.642906
 21
51.261999
 31
0.0
  0
ARC
  5
8CB
100
AcDbEntity
  8
3
100
AcDbCircle
 10
35.697576
 20
42.706523
 30
0.0
 40
2.536798
100
AcDbArc
 50
245.838376
 51
292.135202
  0
ARC
  5
8CC
100
AcDbEntity
  8
3
100
AcDbCircle
 10
68.5
 20
68.5
 30
0.0
 40
20.0
100
AcDbArc
 50
119.964147
 51
180.035853
  0
DIMENSION
  5
8CD
100
AcDbEntity
  8
0
100
AcDbDimension
  2
*D45
 10
57.819582
 20
50.786653
 30
0.0
 11
38.0
 21
75.0
 31
0.0
 12
-9.5
 22
-120.5
 32
0.0
 70
   129
  3
STANDARD
100
AcDbAlignedDimension
 13
49.508931
 23
69.082507
 33
0.0
 14
59.508931
 24
51.761999
 34
0.0
1001
ACAD
1000
DSTYLE
1002
{
1070
    78
1070
     8
1070
   288
1070
     1
1070
   284
1070
     8
1070
   140
1040
5.0
1070
    73
1070
     0
1070
   272
1070
     2
1070
    42
1040
1.0
1070
    44
1040
1.0
1070
   271
1070
     2
1070
    41
1040
2.0
1002
}
  0
ARC
  5
8CE
100
AcDbEntity
  8
3
100
AcDbCircle
 10
72.847205
 20
71.00986
 30
0.0
 40
23.507973
100
AcDbArc
 50
186.720484
 51
233.279516
  0
LINE
  5
8CF
100
AcDbEntity
  8
3
100
AcDbLine
 10
28.203894
 20
54.991711
 30
0.0
 11
48.642906
 21
68.582507
 31
0.0
  0
ARC
  5
8D0
100
AcDbEntity
  8
3
100
AcDbCircle
 10
29.760982
 20
52.989007
 30
0.0
 40
2.536798
100
AcDbArc
 50
127.864798
 51
174.161624
  0
ARC
  5
8D1
100
AcDbEntity
  8
3
100
AcDbCircle
 10
48.944575
 20
68.083401
 30
0.0
 40
0.583191
100
AcDbArc
 50
17.505272
 51
121.149567
  0
ARC
  5
8D2
100
AcDbEntity
  8
3
100
AcDbCircle
 10
68.5
 20
68.5
 30
0.0
 40
20.0
100
AcDbArc
 50
359.964147
 51
60.035853
  0
CIRCLE
  5
8D3
100
AcDbEntity
  8
0
100
AcDbCircle
 10
68.5
 20
68.5
 30
0.0
 40
12.010412
  0
CIRCLE
  5
8D4
100
AcDbEntity
  8
3
100
AcDbCircle
 10
68.5
 20
68.5
 30
0.0
 40
16.5
  0
ARC
  5
8D5
100
AcDbEntity
  8
3
100
AcDbCircle
 10
68.5
 20
68.5
 30
0.0
 40
20.0
100
AcDbArc
 50
239.964147
 51
300.035853
  0
ARC
  5
8D6
100
AcDbEntity
  8
3
100
AcDbCircle
 10
58.361502
 20
51.772805
 30
0.0
 40
0.583191
100
AcDbArc
 50
298.850433
 51
42.494728
  0
ARC
  5
8D7
100
AcDbEntity
  8
3
100
AcDbCircle
 10
64.152795
 20
71.00986
 30
0.0
 40
23.507973
100
AcDbArc
 50
306.720484
 51
353.279516
  0
ARC
  5
8D8
100
AcDbEntity
  8
3
100
AcDbCircle
 10
78.638498
 20
51.772805
 30
0.0
 40
0.583191
100
AcDbArc
 50
137.505272
 51
241.149567
  0
ARC
  5
8D9
100
AcDbEntity
  8
3
100
AcDbCircle
 10
88.055424
 20
68.083401
 30
0.0
 40
0.583191
100
AcDbArc
 50
58.850433
 51
162.494728
  0
ARC
  5
8DA
100
AcDbEntity
  8
3
100
AcDbCircle
 10
68.5
 20
63.48028
 30
0.0
 40
23.507973
100
AcDbArc
 50
66.720484
 51
113.279516
  0
ARC
  5
8DB
100
AcDbEntity
  8
3
100
AcDbCircle
 10
59.083073
 20
85.643794
 30
0.0
 40
0.583191
100
AcDbArc
 50
178.850433
 51
282.494728
  0
ARC
  5
8DC
100
AcDbEntity
  8
3
100
AcDbCircle
 10
77.916926
 20
85.643794
 30
0.0
 40
0.583191
100
AcDbArc
 50
257.505272
 51
1.149567
  0
DIMENSION
  5
8DD
100
AcDbEntity
  8
0
100
AcDbDimension
  2
*D43
 10
83.78897
 20
115.355515
 30
0.0
 11
34.91
 21
149.0
 31
0.0
 12
-9.5
 22
-120.5
 32
0.0
 70
   132
  1
R5.5
  3
STANDARD
100
AcDbRadialDimension
 15
79.770181
 25
118.796941
 35
0.0
 40
0.0
1001
ACAD
1000
DSTYLE
1002
{
1070
    78
1070
     8
1070
   288
1070
     1
1070
   284
1070
     8
1070
   140
1040
5.0
1070
    73
1070
     0
1070
   272
1070
     2
1070
    42
1040
1.0
1070
    44
1040
1.0
1070
   271
1070
     2
1070
    41
1040
2.0
1002
}
  0
CIRCLE
  5
8DE
100
AcDbEntity
  8
3
100
AcDbCircle
 10
68.5
 20
115.5
 30
0.0
 40
5.0
  0
CIRCLE
  5
8DF
100
AcDbEntity
  8
3
100
AcDbCircle
 10
68.5
 20
115.5
 30
0.0
 40
4.0
  0
LINE
  5
8E0
100
AcDbEntity
  8
1
100
AcDbLine
 10
52.0
 20
115.5
 30
0.0
 11
86.157794
 21
115.5
 31
0.0
  0
ARC
  5
8E1
100
AcDbEntity
  8
3
100
AcDbCircle
 10
53.211029
 20
115.355515
 30
0.0
 40
5.290944
100
AcDbArc
 50
1.564829
 51
97.723125
  0
CIRCLE
  5
8E2
100
AcDbEntity
  8
3
100
AcDbCircle
 10
68.5
 20
115.5
 30
0.0
 40
3.5
  0
ARC
  5
8E3
100
AcDbEntity
  8
3
100
AcDbCircle
 10
83.78897
 20
115.355515
 30
0.0
 40
5.290944
100
AcDbArc
 50
82.276875
 51
178.435171
  0
DIMENSION
  5
8E4
100
AcDbEntity
  8
0
100
AcDbDimension
  2
*D55
 10
246.5
 20
109.0
 30
0.0
 11
229.5
 21
109.0
 31
0.0
 12
-9.5
 22
-120.5
 32
0.0
 70
   128
  3
STANDARD
100
AcDbAlignedDimension
 13
216.5
 23
85.0
 33
0.0
 14
246.5
 24
83.5
 34
0.0
100
AcDbRotatedDimension
1001
ACAD
1000
DSTYLE
1002
{
1070
    78
1070
     8
1070
   288
1070
     1
1070
   284
1070
     8
1070
   140
1040
5.0
1070
    73
1070
     0
1070
   272
1070
     2
1070
    42
1040
1.0
1070
    44
1040
1.0
1070
   271
1070
     2
1070
    41
1040
2.0
1002
}
  0
DIMENSION
  5
8E5
100
AcDbEntity
  8
0
100
AcDbDimension
  2
*D51
 10
169.0
 20
105.5
 30
0.0
 11
169.0
 21
118.0
 31
0.0
 12
-9.5
 22
-120.5
 32
0.0
 70
   128
  3
STANDARD
100
AcDbAlignedDimension
 13
207.5
 23
131.0
 33
0.0
 14
199.501388
 24
105.5
 34
0.0
 50
90.0
100
AcDbRotatedDimension
1001
ACAD
1000
DSTYLE
1002
{
1070
    78
1070
     8
1070
   288
1070
     1
1070
   284
1070
     8
1070
   140
1040
5.0
1070
    73
1070
     0
1070
   272
1070
     2
1070
    42
1040
1.0
1070
    44
1040
1.0
1070
   271
1070
     2
1070
    41
1040
2.0
1002
}
  0
LINE
  5
8E6
100
AcDbEntity
  8
3
100
AcDbLine
 10
214.495712
 20
122.535359
 30
0.0
 11
214.495712
 21
107.648615
 31
0.0
  0
LINE
  5
8E7
100
AcDbEntity
  8
3
100
AcDbLine
 10
215.498612
 20
123.149019
 30
0.0
 11
215.498612
 21
106.301864
 31
0.0
  0
LINE
  5
8E8
100
AcDbEntity
  8
3
100
AcDbLine
 10
199.501388
 20
123.149019
 30
0.0
 11
199.501388
 21
68.5
 31
0.0
  0
LINE
  5
8E9
100
AcDbEntity
  8
1
100
AcDbLine
 10
207.5
 20
107.745321
 30
0.0
 11
207.5
 21
134.070262
 31
0.0
  0
DIMENSION
  5
8EA
100
AcDbEntity
  8
0
100
AcDbDimension
  2
*D54
 10
174.5
 20
52.0
 30
0.0
 11
174.5
 21
69.0
 31
0.0
 12
-9.5
 22
-120.5
 32
0.0
 70
   128
  3
STANDARD
100
AcDbAlignedDimension
 13
216.5
 23
85.0
 33
0.0
 14
216.5
 24
52.0
 34
0.0
 50
90.0
100
AcDbRotatedDimension
1001
ACAD
1000
DSTYLE
1002
{
1070
    78
1070
     8
1070
   288
1070
     1
1070
   284
1070
     8
1070
   140
1040
5.0
1070
    73
1070
     0
1070
   272
1070
     2
1070
    42
1040
1.0
1070
    44
1040
1.0
1070
   271
1070
     2
1070
    41
1040
2.0
1002
}
  0
DIMENSION
  5
8EB
100
AcDbEntity
  8
0
100
AcDbDimension
  2
*D53
 10
169.5
 20
6.0
 30
0.0
 11
169.5
 21
14.5
 31
0.0
 12
-9.5
 22
-120.5
 32
0.0
 70
   128
  3
STANDARD
100
AcDbAlignedDimension
 13
207.5
 23
26.0
 33
0.0
 14
207.5
 24
6.0
 34
0.0
 50
90.0
100
AcDbRotatedDimension
1001
ACAD
1000
DSTYLE
1002
{
1070
    78
1070
     8
1070
   288
1070
     1
1070
   284
1070
     8
1070
   140
1040
5.0
1070
    73
1070
     0
1070
   272
1070
     2
1070
    42
1040
1.0
1070
    44
1040
1.0
1070
   271
1070
     2
1070
    41
1040
2.0
1002
}
  0
ARC
  5
8EC
100
AcDbEntity
  8
3
100
AcDbCircle
 10
90.431455
 20
55.837869
 30
0.0
 40
19.504043
100
AcDbArc
 50
307.633426
 51
352.366574
  0
ARC
  5
8ED
100
AcDbEntity
  8
3
100
AcDbCircle
 10
101.302423
 20
42.706523
 30
0.0
 40
2.536798
100
AcDbArc
 50
247.864798
 51
294.161624
  0
ARC
  5
8EE
100
AcDbEntity
  8
3
100
AcDbCircle
 10
107.239018
 20
52.989007
 30
0.0
 40
2.536798
100
AcDbArc
 50
5.838376
 51
52.135202
  0
DIMENSION
  5
8EF
100
AcDbEntity
  8
0
100
AcDbDimension
  2
*D59
 10
246.5
 20
40.113124
 30
0.0
 11
233.614216
 21
40.113124
 31
0.0
 12
-9.5
 22
-201.0
 32
0.0
 70
   128
  3
STANDARD
100
AcDbAlignedDimension
 13
221.5
 23
56.5
 33
0.0
 14
246.5
 24
53.5
 34
0.0
100
AcDbRotatedDimension
1001
ACAD
1000
DSTYLE
1002
{
1070
    78
1070
     8
1070
   288
1070
     1
1070
   284
1070
     8
1070
   140
1040
5.0
1070
    73
1070
     0
1070
   272
1070
     2
1070
    42
1040
1.0
1070
    44
1040
1.0
1070
   271
1070
     2
1070
    41
1040
2.0
1002
}
  0
LINE
  5
8F0
100
AcDbEntity
  8
3
100
AcDbLine
 10
208.694597
 20
40.651319
 30
0.0
 11
222.277758
 21
49.840029
 31
0.0
  0
ARC
  5
8F1
100
AcDbEntity
  8
3
100
AcDbCircle
 10
212.928039
 20
47.747916
 30
0.0
 40
9.65722
100
AcDbArc
 50
135.326082
 51
223.795418
  0
ARC
  5
8F2
100
AcDbEntity
  8
3
100
AcDbCircle
 10
202.988816
 20
47.531065
 30
0.0
 40
9.011429
100
AcDbArc
 50
313.668471
 51
51.558945
  0
LINE
  5
8F3
100
AcDbEntity
  8
1
100
AcDbLine
 10
207.5
 20
29.25468
 30
0.0
 11
207.5
 21
68.5
 31
0.0
  0
LINE
  5
8F4
100
AcDbEntity
  8
3
100
AcDbLine
 10
199.501388
 20
13.850981
 30
0.0
 11
199.501388
 21
68.5
 31
0.0
  0
LINE
  5
8F5
100
AcDbEntity
  8
1
100
AcDbLine
 10
224.0
 20
68.5
 30
0.0
 11
224.0
 21
45.5
 31
0.0
  0
MTEXT
  5
8F6
102
{ACAD_REACTORS
330
8F7
102
}
100
AcDbEntity
  8
0
100
AcDbMText
 10
229.59
 20
21.0
 30
0.0
 40
5.0
 41
0.0
 71
     4
 72
     1
  1
\A1;R0.5
  0
LEADER
  5
8F7
100
AcDbEntity
  8
0
100
AcDbLeader
  3
STANDARD
 73
     0
 74
     0
 75
     1
 40
5.0
 41
14.166667
 76
     3
 10
215.5
 20
14.0
 30
0.0
 10
227.5
 20
21.0
 30
0.0
 10
229.5
 20
21.0
 30
0.0
 77
   256
340
8F6
1001
ACAD
1000
DSTYLE
1002
{
1070
    78
1070
     8
1070
   288
1070
     1
1070
   284
1070
     8
1070
   140
1040
5.0
1070
    73
1070
     0
1070
   272
1070
     2
1070
    42
1040
1.0
1070
    44
1040
1.0
1070
   271
1070
     2
1070
    41
1040
2.0
1002
}
  0
MTEXT
  5
8F8
102
{ACAD_REACTORS
330
8F9
102
}
100
AcDbEntity
  8
0
100
AcDbMText
 10
229.59
 20
31.0
 30
0.0
 40
5.0
 41
0.0
 71
     4
 72
     1
  1
\A1;R0.5
  0
LEADER
  5
8F9
100
AcDbEntity
  8
0
100
AcDbLeader
  3
STANDARD
 73
     0
 74
     0
 75
     1
 40
5.0
 41
14.166667
 76
     3
 10
212.0
 20
23.5
 30
0.0
 10
227.5
 20
31.0
 30
0.0
 10
229.5
 20
31.0
 30
0.0
 77
   256
340
8F8
1001
ACAD
1000
DSTYLE
1002
{
1070
    78
1070
     8
1070
   288
1070
     1
1070
   284
1070
     8
1070
   140
1040
5.0
1070
    73
1070
     0
1070
   272
1070
     2
1070
    42
1040
1.0
1070
    44
1040
1.0
1070
   271
1070
     2
1070
    41
1040
2.0
1002
}
  0
ARC
  5
8FA
100
AcDbEntity
  8
3
100
AcDbCircle
 10
218.5
 20
14.071788
 30
0.0
 40
18.0
100
AcDbArc
 50
147.769398
 51
178.749408
  0
ARC
  5
8FB
100
AcDbEntity
  8
3
100
AcDbCircle
 10
222.888994
 20
22.173717
 30
0.0
 40
11.01941
100
AcDbArc
 50
173.931744
 51
227.881241
  0
LINE
  5
8FC
100
AcDbEntity
  8
3
100
AcDbLine
 10
215.498612
 20
13.850981
 30
0.0
 11
215.498612
 21
45.254085
 31
0.0
  0
LINE
  5
8FD
100
AcDbEntity
  8
1
100
AcDbLine
 10
207.5
 20
29.25468
 30
0.0
 11
207.5
 21
2.929738
 31
0.0
  0
LINE
  5
8FE
100
AcDbEntity
  8
1
100
AcDbLine
 10
207.5
 20
28.781778
 30
0.0
 11
207.5
 21
2.772103
 31
0.0
  0
ARC
  5
8FF
100
AcDbEntity
  8
3
100
AcDbCircle
 10
207.5
 20
14.0
 30
0.0
 40
8.0
100
AcDbArc
 50
181.067332
 51
270.0
  0
LINE
  5
900
100
AcDbEntity
  8
1
100
AcDbLine
 10
196.0
 20
14.0
 30
0.0
 11
218.259055
 21
14.0
 31
0.0
  0
ARC
  5
901
100
AcDbEntity
  8
3
100
AcDbCircle
 10
199.701353
 20
13.854707
 30
0.0
 40
0.2
100
AcDbArc
 50
107.842417
 51
181.067332
  0
ARC
  5
902
100
AcDbEntity
  8
3
100
AcDbCircle
 10
200.304335
 20
14.469006
 30
0.0
 40
0.2
100
AcDbArc
 50
287.842417
 51
358.749408
  0
LINE
  5
903
100
AcDbEntity
  8
3
100
AcDbLine
 10
199.640073
 20
14.045087
 30
0.0
 11
200.365615
 21
14.278626
 31
0.0
  0
ARC
  5
904
100
AcDbEntity
  8
3
100
AcDbCircle
 10
207.5
 20
14.0
 30
0.0
 40
8.0
100
AcDbArc
 50
270.0
 51
358.932668
  0
LINE
  5
905
100
AcDbEntity
  8
3
100
AcDbLine
 10
211.931329
 20
23.338614
 30
0.0
 11
211.931329
 21
42.840897
 31
0.0
  0
ARC
  5
906
100
AcDbEntity
  8
3
100
AcDbCircle
 10
196.5
 20
14.071788
 30
0.0
 40
18.0
100
AcDbArc
 50
30.985669
 51
32.230602
  0
ARC
  5
907
100
AcDbEntity
  8
3
100
AcDbCircle
 10
207.5
 20
21.0
 30
0.0
 40
5.0
100
AcDbArc
 50
32.109439
 51
90.0
  0
ARC
  5
908
100
AcDbEntity
  8
3
100
AcDbCircle
 10
207.5
 20
21.0
 30
0.0
 40
5.0
100
AcDbArc
 50
90.0
 51
147.890561
  0
ARC
  5
909
100
AcDbEntity
  8
3
100
AcDbCircle
 10
207.60945
 20
42.630782
 30
0.0
 40
2.276721
100
AcDbArc
 50
223.475576
 51
314.706522
  0
CIRCLE
  5
90A
100
AcDbEntity
  8
0
100
AcDbCircle
 10
233.911768
 20
40.113124
 30
0.0
 40
6.099819
  0
ARC
  5
90B
100
AcDbEntity
  8
3
100
AcDbCircle
 10
225.5
 20
75.5
 30
0.0
 40
13.086252
100
AcDbArc
 50
46.548158
 51
133.451842
  0
ARC
  5
90C
100
AcDbEntity
  8
3
100
AcDbCircle
 10
225.5
 20
61.5
 30
0.0
 40
13.086252
100
AcDbArc
 50
226.548158
 51
313.451842
  0
LINE
  5
90D
100
AcDbEntity
  8
0
100
AcDbLine
 10
238.0
 20
48.5
 30
0.0
 11
191.0
 21
48.5
 31
0.0
  0
LINE
  5
90E
100
AcDbEntity
  8
3
100
AcDbLine
 10
226.5
 20
56.5
 30
0.0
 11
221.5
 21
56.5
 31
0.0
  0
LINE
  5
90F
100
AcDbEntity
  8
3
100
AcDbLine
 10
226.5
 20
80.5
 30
0.0
 11
221.5
 21
80.5
 31
0.0
  0
LINE
  5
910
100
AcDbEntity
  8
2
100
AcDbLine
 10
222.277758
 20
49.840029
 30
0.0
 11
225.996341
 21
52.369506
 31
0.0
  0
ARC
  5
911
100
AcDbEntity
  8
2
100
AcDbCircle
 10
224.026752
 20
65.456756
 30
0.0
 40
3.62585
100
AcDbArc
 50
54.770977
 51
125.229023
  0
ARC
  5
912
100
AcDbEntity
  8
2
100
AcDbCircle
 10
224.014849
 20
55.260723
 30
0.0
 40
3.498756
100
AcDbArc
 50
228.818364
 51
309.288661
  0
LINE
  5
913
100
AcDbEntity
  8
3
100
AcDbLine
 10
227.520431
 20
91.112215
 30
0.0
 11
214.495712
 21
107.648615
 31
0.0
  0
LINE
  5
914
100
AcDbEntity
  8
1
100
AcDbLine
 10
193.259055
 20
68.5
 30
0.0
 11
253.5
 21
68.5
 31
0.0
  0
LINE
  5
915
100
AcDbEntity
  8
3
100
AcDbLine
 10
221.5
 20
80.5
 30
0.0
 11
221.5
 21
56.5
 31
0.0
  0
DIMENSION
  5
916
100
AcDbEntity
  8
0
100
AcDbDimension
  2
*D57
 10
187.0
 20
56.5
 30
0.0
 11
187.0
 21
68.5
 31
0.0
 12
-4.5
 22
-120.5
 32
0.0
 70
   128
  3
STANDARD
100
AcDbAlignedDimension
 13
221.5
 23
80.5
 33
0.0
 14
221.5
 24
56.5
 34
0.0
 50
90.0
100
AcDbRotatedDimension
1001
ACAD
1000
DSTYLE
1002
{
1070
    78
1070
     8
1070
   288
1070
     1
1070
   284
1070
     8
1070
   140
1040
5.0
1070
    73
1070
     0
1070
   272
1070
     2
1070
    42
1040
1.0
1070
    44
1040
1.0
1070
   271
1070
     2
1070
    41
1040
2.0
1002
}
  0
LINE
  5
917
100
AcDbEntity
  8
3
100
AcDbLine
 10
215.498612
 20
92.050492
 30
0.0
 11
215.498612
 21
68.5
 31
0.0
  0
LINE
  5
918
100
AcDbEntity
  8
3
100
AcDbLine
 10
211.931329
 20
59.733552
 30
0.0
 11
211.931329
 21
97.458952
 31
0.0
  0
LINE
  5
919
100
AcDbEntity
  8
3
100
AcDbLine
 10
216.5
 20
68.5
 30
0.0
 11
216.5
 21
85.0
 31
0.0
  0
LINE
  5
91A
100
AcDbEntity
  8
1
100
AcDbLine
 10
207.5
 20
107.745321
 30
0.0
 11
207.5
 21
68.5
 31
0.0
  0
LINE
  5
91B
100
AcDbEntity
  8
3
100
AcDbLine
 10
215.498612
 20
62.901295
 30
0.0
 11
215.498612
 21
68.5
 31
0.0
  0
LINE
  5
91C
100
AcDbEntity
  8
3
100
AcDbLine
 10
205.905661
 20
54.382763
 30
0.0
 11
218.404234
 21
65.481486
 31
0.0
  0
ARC
  5
91D
100
AcDbEntity
  8
2
100
AcDbCircle
 10
229.297751
 20
60.416931
 30
0.0
 40
10.8735
100
AcDbArc
 50
132.618221
 51
225.755684
  0
LINE
  5
91E
100
AcDbEntity
  8
3
100
AcDbLine
 10
216.5
 20
68.5
 30
0.0
 11
216.5
 21
52.0
 31
0.0
  0
ARC
  5
91F
100
AcDbEntity
  8
3
100
AcDbCircle
 10
207.359285
 20
52.929343
 30
0.0
 40
2.067163
100
AcDbArc
 50
53.416393
 51
128.920733
  0
LINE
  5
920
100
AcDbEntity
  8
2
100
AcDbLine
 10
218.404234
 20
65.481486
 30
0.0
 11
221.967876
 21
68.475559
 31
0.0
  0
LINE
  5
921
100
AcDbEntity
  8
3
100
AcDbLine
 10
199.501388
 20
105.5
 30
0.0
 11
206.627659
 21
105.5
 31
0.0
  0
LINE
  5
922
100
AcDbEntity
  8
3
100
AcDbLine
 10
216.847726
 20
90.502096
 30
0.0
 11
206.627659
 21
105.5
 31
0.0
  0
ARC
  5
923
100
AcDbEntity
  8
3
100
AcDbCircle
 10
208.5
 20
84.996149
 30
0.0
 40
10.0
100
AcDbArc
 50
8.564003
 51
33.407825
  0
LINE
  5
924
100
AcDbEntity
  8
3
100
AcDbLine
 10
229.0
 20
77.5
 30
0.0
 11
231.5
 21
79.0
 31
0.0
  0
LINE
  5
925
100
AcDbEntity
  8
3
100
AcDbLine
 10
226.5
 20
79.0
 30
0.0
 11
229.0
 21
77.5
 31
0.0
  0
LINE
  5
926
100
AcDbEntity
  8
1
100
AcDbLine
 10
224.0
 20
68.5
 30
0.0
 11
224.0
 21
99.5
 31
0.0
  0
LINE
  5
927
100
AcDbEntity
  8
3
100
AcDbLine
 10
246.5
 20
68.5
 30
0.0
 11
246.5
 21
83.5
 31
0.0
  0
LINE
  5
928
100
AcDbEntity
  8
3
100
AcDbLine
 10
246.5
 20
53.5
 30
0.0
 11
234.5
 21
53.5
 31
0.0
  0
LINE
  5
929
100
AcDbEntity
  8
0
100
AcDbLine
 10
238.0
 20
68.5
 30
0.0
 11
238.0
 21
48.5
 31
0.0
  0
ARC
  5
92A
100
AcDbEntity
  8
2
100
AcDbCircle
 10
216.589085
 20
60.417981
 30
0.0
 40
12.442472
100
AcDbArc
 50
320.793066
 51
40.016197
  0
LINE
  5
92B
100
AcDbEntity
  8
3
100
AcDbLine
 10
234.0
 20
56.5
 30
0.0
 11
231.5
 21
56.5
 31
0.0
  0
LINE
  5
92C
100
AcDbEntity
  8
3
100
AcDbLine
 10
234.5
 20
56.5
 30
0.0
 11
232.0
 21
56.5
 31
0.0
  0
LINE
  5
92D
100
AcDbEntity
  8
3
100
AcDbLine
 10
231.5
 20
58.0
 30
0.0
 11
226.5
 21
58.0
 31
0.0
  0
ARC
  5
92E
100
AcDbEntity
  8
3
100
AcDbCircle
 10
229.0
 20
50.5
 30
0.0
 40
6.5
100
AcDbArc
 50
67.380135
 51
112.619865
  0
LINE
  5
92F
100
AcDbEntity
  8
3
100
AcDbLine
 10
226.5
 20
58.0
 30
0.0
 11
229.0
 21
59.5
 31
0.0
  0
LINE
  5
930
100
AcDbEntity
  8
3
100
AcDbLine
 10
226.5
 20
58.0
 30
0.0
 11
226.5
 21
56.5
 31
0.0
  0
LINE
  5
931
100
AcDbEntity
  8
3
100
AcDbLine
 10
231.5
 20
56.5
 30
0.0
 11
231.5
 21
58.0
 31
0.0
  0
LINE
  5
932
100
AcDbEntity
  8
3
100
AcDbLine
 10
229.0
 20
59.5
 30
0.0
 11
231.5
 21
58.0
 31
0.0
  0
LINE
  5
933
100
AcDbEntity
  8
3
100
AcDbLine
 10
234.5
 20
54.5
 30
0.0
 11
234.5
 21
56.5
 31
0.0
  0
LINE
  5
934
100
AcDbEntity
  8
3
100
AcDbLine
 10
234.5
 20
53.5
 30
0.0
 11
234.5
 21
56.5
 31
0.0
  0
LINE
  5
935
100
AcDbEntity
  8
3
100
AcDbLine
 10
234.5
 20
53.5
 30
0.0
 11
234.5
 21
52.0
 31
0.0
  0
CIRCLE
  5
936
100
AcDbEntity
  8
2
100
AcDbCircle
 10
229.0
 20
68.5
 30
0.0
 40
2.5
  0
LINE
  5
937
100
AcDbEntity
  8
3
100
AcDbLine
 10
246.5
 20
68.5
 30
0.0
 11
246.5
 21
53.5
 31
0.0
  0
DIMENSION
  5
938
100
AcDbEntity
  8
0
100
AcDbDimension
  2
*D56
 10
246.5
 20
101.0
 30
0.0
 11
240.5
 21
101.0
 31
0.0
 12
-9.5
 22
-120.5
 32
0.0
 70
   128
  3
STANDARD
100
AcDbAlignedDimension
 13
234.5
 23
85.0
 33
0.0
 14
246.5
 24
83.5
 34
0.0
100
AcDbRotatedDimension
1001
ACAD
1000
DSTYLE
1002
{
1070
    78
1070
     8
1070
   288
1070
     1
1070
   284
1070
     8
1070
   140
1040
5.0
1070
    73
1070
     0
1070
   272
1070
     2
1070
    42
1040
1.0
1070
    44
1040
1.0
1070
   271
1070
     2
1070
    41
1040
2.0
1002
}
  0
LINE
  5
939
100
AcDbEntity
  8
3
100
AcDbLine
 10
246.5
 20
83.5
 30
0.0
 11
234.5
 21
83.5
 31
0.0
  0
LINE
  5
93A
100
AcDbEntity
  8
3
100
AcDbLine
 10
234.0
 20
80.5
 30
0.0
 11
231.5
 21
80.5
 31
0.0
  0
LINE
  5
93B
100
AcDbEntity
  8
3
100
AcDbLine
 10
234.5
 20
80.5
 30
0.0
 11
232.0
 21
80.5
 31
0.0
  0
ARC
  5
93C
100
AcDbEntity
  8
3
100
AcDbCircle
 10
229.0
 20
86.5
 30
0.0
 40
6.5
100
AcDbArc
 50
247.380135
 51
292.619865
  0
LINE
  5
93D
100
AcDbEntity
  8
3
100
AcDbLine
 10
231.5
 20
79.0
 30
0.0
 11
226.5
 21
79.0
 31
0.0
  0
LINE
  5
93E
100
AcDbEntity
  8
3
100
AcDbLine
 10
226.5
 20
79.0
 30
0.0
 11
226.5
 21
80.5
 31
0.0
  0
LINE
  5
93F
100
AcDbEntity
  8
3
100
AcDbLine
 10
231.5
 20
80.5
 30
0.0
 11
231.5
 21
79.0
 31
0.0
  0
ARC
  5
940
100
AcDbEntity
  8
3
100
AcDbCircle
 10
219.5
 20
85.139553
 30
0.0
 40
10.0
100
AcDbArc
 50
17.187622
 51
36.67435
  0
LINE
  5
941
100
AcDbEntity
  8
3
100
AcDbLine
 10
234.5
 20
83.5
 30
0.0
 11
234.5
 21
81.5
 31
0.0
  0
LINE
  5
942
100
AcDbEntity
  8
3
100
AcDbLine
 10
234.5
 20
83.5
 30
0.0
 11
234.5
 21
85.0
 31
0.0
  0
LINE
  5
943
100
AcDbEntity
  8
3
100
AcDbLine
 10
234.5
 20
83.5
 30
0.0
 11
234.5
 21
80.5
 31
0.0
  0
MTEXT
  5
944
102
{ACAD_REACTORS
330
945
102
}
100
AcDbEntity
  8
0
100
AcDbMText
 10
256.59
 20
94.5
 30
0.0
 40
5.0
 41
0.0
 71
     4
 72
     1
  1
\A1;C1
  0
LEADER
  5
945
100
AcDbEntity
  8
0
100
AcDbLeader
  3
STANDARD
 73
     0
 74
     0
 75
     1
 40
5.0
 41
6.666667
 76
     3
 10
246.5
 20
83.0
 30
0.0
 10
254.5
 20
94.5
 30
0.0
 10
256.5
 20
94.5
 30
0.0
 77
   256
340
944
1001
ACAD
1000
DSTYLE
1002
{
1070
    78
1070
     8
1070
   288
1070
     1
1070
   284
1070
     8
1070
   140
1040
5.0
1070
    73
1070
     0
1070
   272
1070
     2
1070
    42
1040
1.0
1070
    44
1040
1.0
1070
   271
1070
     2
1070
    41
1040
2.0
1002
}
  0
DIMENSION
  5
946
100
AcDbEntity
  8
0
100
AcDbDimension
  2
*D52
 10
177.493333
 20
110.5
 30
0.0
 11
185.0
 21
125.0
 31
0.0
 12
-9.5
 22
-120.5
 32
0.0
 70
   128
  1
%%C10
  3
STANDARD
100
AcDbAlignedDimension
 13
199.5
 23
120.5
 33
0.0
 14
199.5
 24
110.5
 34
0.0
 50
90.0
100
AcDbRotatedDimension
1001
ACAD
1000
DSTYLE
1002
{
1070
    78
1070
     8
1070
   288
1070
     1
1070
   284
1070
     8
1070
   140
1040
5.0
1070
    73
1070
     0
1070
   272
1070
     2
1070
    42
1040
1.0
1070
    44
1040
1.0
1070
   271
1070
     2
1070
    41
1040
2.0
1002
}
  0
DIMENSION
  5
947
100
AcDbEntity
  8
0
100
AcDbDimension
  2
*D49
 10
215.498612
 20
166.0
 30
0.0
 11
209.0
 21
166.0
 31
0.0
 12
-9.5
 22
-120.5
 32
0.0
 70
   128
  3
STANDARD
100
AcDbAlignedDimension
 13
199.501388
 23
123.0
 33
0.0
 14
215.498612
 24
123.0
 34
0.0
100
AcDbRotatedDimension
1001
ACAD
1000
DSTYLE
1002
{
1070
    78
1070
     8
1070
   288
1070
     1
1070
   284
1070
     8
1070
   140
1040
5.0
1070
    73
1070
     0
1070
   272
1070
     2
1070
    42
1040
1.0
1070
    44
1040
1.0
1070
   271
1070
     2
1070
    41
1040
2.0
1002
}
  0
MTEXT
  5
948
102
{ACAD_REACTORS
330
949
102
}
100
AcDbEntity
  8
0
100
AcDbMText
 10
249.09
 20
124.0
 30
0.0
 40
5.0
 41
0.0
 71
     4
 72
     1
  1
\A1;M8-P1.25
  0
LEADER
  5
949
100
AcDbEntity
  8
0
100
AcDbLeader
  3
STANDARD
 73
     0
 40
5.0
 41
33.333333
 76
     2
 10
214.5
 20
115.0
 30
0.0
 10
249.0
 20
124.0
 30
0.0
 77
   256
340
948
1001
ACAD
1000
DSTYLE
1002
{
1070
    78
1070
     8
1070
   288
1070
     1
1070
   284
1070
     8
1070
   140
1040
5.0
1070
    73
1070
     0
1070
   272
1070
     2
1070
    42
1040
1.0
1070
    44
1040
1.0
1070
   271
1070
     2
1070
    41
1040
2.0
1002
}
  0
DIMENSION
  5
94A
100
AcDbEntity
  8
0
100
AcDbDimension
  2
*D50
 10
214.495712
 20
157.5
 30
0.0
 11
207.0
 21
157.5
 31
0.0
 12
-9.5
 22
-120.5
 32
0.0
 70
   128
  1
15
  3
STANDARD
100
AcDbAlignedDimension
 13
199.501388
 23
123.0
 33
0.0
 14
214.495712
 24
122.535359
 34
0.0
100
AcDbRotatedDimension
1001
ACAD
1000
DSTYLE
1002
{
1070
    78
1070
     8
1070
   288
1070
     1
1070
   284
1070
     8
1070
   140
1040
5.0
1070
    73
1070
     0
1070
   272
1070
     2
1070
    42
1040
1.0
1070
    44
1040
1.0
1070
   271
1070
     2
1070
    41
1040
2.0
1002
}
  0
LINE
  5
94B
100
AcDbEntity
  8
3
100
AcDbLine
 10
199.5
 20
110.5
 30
0.0
 11
205.5
 21
110.5
 31
0.0
  0
LINE
  5
94C
100
AcDbEntity
  8
3
100
AcDbLine
 10
200.5
 20
112.0
 30
0.0
 11
214.5
 21
112.0
 31
0.0
  0
LINE
  5
94D
100
AcDbEntity
  8
3
100
AcDbLine
 10
200.0
 20
111.5
 30
0.0
 11
214.5
 21
111.5
 31
0.0
  0
LINE
  5
94E
100
AcDbEntity
  8
3
100
AcDbLine
 10
200.0
 20
119.5
 30
0.0
 11
214.5
 21
119.5
 31
0.0
  0
LINE
  5
94F
100
AcDbEntity
  8
3
100
AcDbLine
 10
200.5
 20
119.0
 30
0.0
 11
214.5
 21
119.0
 31
0.0
  0
LINE
  5
950
100
AcDbEntity
  8
3
100
AcDbLine
 10
199.5
 20
120.5
 30
0.0
 11
205.5
 21
120.5
 31
0.0
  0
LINE
  5
951
100
AcDbEntity
  8
1
100
AcDbLine
 10
194.872066
 20
115.5
 30
0.0
 11
218.798035
 21
115.5
 31
0.0
  0
LINE
  5
952
100
AcDbEntity
  8
1
100
AcDbLine
 10
196.0
 20
123.0
 30
0.0
 11
218.259055
 21
123.0
 31
0.0
  0
ARC
  5
953
100
AcDbEntity
  8
3
100
AcDbCircle
 10
207.5
 20
123.0
 30
0.0
 40
8.0
100
AcDbArc
 50
90.0
 51
178.932668
  0
LINE
  5
954
100
AcDbEntity
  8
3
100
AcDbLine
 10
199.5
 20
115.5
 30
0.0
 11
199.5
 21
110.5
 31
0.0
  0
LINE
  5
955
100
AcDbEntity
  8
3
100
AcDbLine
 10
200.0
 20
111.5
 30
0.0
 11
200.0
 21
115.5
 31
0.0
  0
LINE
  5
956
100
AcDbEntity
  8
3
100
AcDbLine
 10
200.5
 20
112.0
 30
0.0
 11
200.5
 21
115.5
 31
0.0
  0
LWPOLYLINE
  5
957
100
AcDbEntity
  8
3
100
AcDbPolyline
 90
        2
 70
     0
 43
0.0
 10
200.5
 20
112.0
 10
199.501388
 20
111.001388
  0
LINE
  5
958
100
AcDbEntity
  8
3
100
AcDbLine
 10
199.5
 20
112.0
 30
0.0
 11
199.501388
 21
112.0
 31
0.0
  0
LINE
  5
959
100
AcDbEntity
  8
3
100
AcDbLine
 10
199.5
 20
111.5
 30
0.0
 11
199.501388
 21
111.5
 31
0.0
  0
LINE
  5
95A
100
AcDbEntity
  8
3
100
AcDbLine
 10
200.5
 20
119.0
 30
0.0
 11
200.5
 21
115.5
 31
0.0
  0
LINE
  5
95B
100
AcDbEntity
  8
3
100
AcDbLine
 10
200.0
 20
119.5
 30
0.0
 11
200.0
 21
115.5
 31
0.0
  0
LWPOLYLINE
  5
95C
100
AcDbEntity
  8
3
100
AcDbPolyline
 90
        2
 70
     0
 43
0.0
 10
200.5
 20
119.0
 10
199.501388
 20
119.998612
  0
LINE
  5
95D
100
AcDbEntity
  8
3
100
AcDbLine
 10
199.5
 20
119.0
 30
0.0
 11
199.501388
 21
119.0
 31
0.0
  0
LINE
  5
95E
100
AcDbEntity
  8
3
100
AcDbLine
 10
199.5
 20
119.5
 30
0.0
 11
199.501388
 21
119.5
 31
0.0
  0
LINE
  5
95F
100
AcDbEntity
  8
3
100
AcDbLine
 10
199.5
 20
115.5
 30
0.0
 11
199.5
 21
120.5
 31
0.0
  0
ARC
  5
960
100
AcDbEntity
  8
3
100
AcDbCircle
 10
214.695664
 20
122.530994
 30
0.0
 40
0.2
100
AcDbArc
 50
107.842417
 51
178.749408
  0
LINE
  5
961
100
AcDbEntity
  8
1
100
AcDbLine
 10
207.5
 20
108.218222
 30
0.0
 11
207.5
 21
134.227897
 31
0.0
  0
LINE
  5
962
100
AcDbEntity
  8
3
100
AcDbLine
 10
208.5
 20
110.5
 30
0.0
 11
214.5
 21
110.5
 31
0.0
  0
LINE
  5
963
100
AcDbEntity
  8
3
100
AcDbLine
 10
208.5
 20
120.5
 30
0.0
 11
214.5
 21
120.5
 31
0.0
  0
LINE
  5
964
100
AcDbEntity
  8
3
100
AcDbLine
 10
205.5
 20
111.0
 30
0.0
 11
208.5
 21
111.0
 31
0.0
  0
LINE
  5
965
100
AcDbEntity
  8
3
100
AcDbLine
 10
205.5
 20
110.5
 30
0.0
 11
205.5
 21
111.0
 31
0.0
  0
LINE
  5
966
100
AcDbEntity
  8
3
100
AcDbLine
 10
208.5
 20
111.0
 30
0.0
 11
208.5
 21
110.5
 31
0.0
  0
LINE
  5
967
100
AcDbEntity
  8
3
100
AcDbLine
 10
205.5
 20
120.0
 30
0.0
 11
208.5
 21
120.0
 31
0.0
  0
LINE
  5
968
100
AcDbEntity
  8
3
100
AcDbLine
 10
205.5
 20
120.5
 30
0.0
 11
205.5
 21
120.0
 31
0.0
  0
LINE
  5
969
100
AcDbEntity
  8
3
100
AcDbLine
 10
208.5
 20
120.0
 30
0.0
 11
208.5
 21
120.5
 31
0.0
  0
ARC
  5
96A
100
AcDbEntity
  8
3
100
AcDbCircle
 10
207.5
 20
123.0
 30
0.0
 40
8.0
100
AcDbArc
 50
1.067332
 51
90.0
  0
ARC
  5
96B
100
AcDbEntity
  8
3
100
AcDbCircle
 10
215.298646
 20
123.145294
 30
0.0
 40
0.2
100
AcDbArc
 50
287.842417
 51
1.067332
  0
LINE
  5
96C
100
AcDbEntity
  8
3
100
AcDbLine
 10
215.359926
 20
122.954913
 30
0.0
 11
214.634384
 21
122.721374
 31
0.0
  0
TEXT
  5
96D
100
AcDbEntity
  8
0
100
AcDbText
 10
6.297275
 20
32.456115
 30
11.224121
 40
2.8
  1
A
 41
0.7
  7
BIGFONT
100
AcDbText
  0
TEXT
  5
96E
100
AcDbEntity
  8
0
100
AcDbText
 10
70.297275
 20
69.956115
 30
11.224121
 40
2.8
  1
A
 41
0.7
  7
BIGFONT
100
AcDbText
  0
ENDBLK
  5
970
100
AcDbEntity
  8
0
100
AcDbBlockEnd
  0
BLOCK
  5
AFE
100
AcDbEntity
  8
0
100
AcDbBlockBegin
  2
*D61
 70
     1
 10
0.0
 20
0.0
 30
0.0
  3
*D61
  1

  0
LINE
  5
AFF
100
AcDbEntity
  8
0
  6
BYBLOCK
 62
     0
100
AcDbLine
 10
59.766959
 20
72.61776
 30
0.0
 11
83.919838
 21
99.313048
 31
0.0
  0
MTEXT
  5
B00
100
AcDbEntity
  8
0
  6
BYBLOCK
 62
     0
100
AcDbMText
 10
99.183399
 20
106.965404
 30
0.0
 40
10.0
 41
0.0
 71
     5
 72
     1
  1
\A1;\U+220540
  7
BIGFONT
  0
SOLID
  5
B01
100
AcDbEntity
  8
0
  6
BYBLOCK
 62
     0
100
AcDbTrace
 10
59.51978
 20
72.841398
 30
0.0
 11
60.014137
 21
72.394122
 31
0.0
 12
58.425132
 22
71.134689
 32
0.0
 13
58.425132
 23
71.134689
 33
0.0
  0
SOLID
  5
B02
100
AcDbEntity
  8
0
  6
BYBLOCK
 62
     0
100
AcDbTrace
 10
83.67266
 20
99.536686
 30
0.0
 11
84.167017
 21
99.08941
 31
0.0
 12
85.261665
 22
100.79612
 32
0.0
 13
85.261665
 23
100.79612
 33
0.0
  0
POINT
  5
B03
100
AcDbEntity
  8
DEFPOINTS
  6
BYBLOCK
 62
     0
100
AcDbPoint
 10
85.261665
 20
100.79612
 30
0.0
  0
POINT
  5
B04
100
AcDbEntity
  8
DEFPOINTS
  6
BYBLOCK
 62
     0
100
AcDbPoint
 10
58.425132
 20
71.134689
 30
0.0
  0
ENDBLK
  5
B05
100
AcDbEntity
  8
0
100
AcDbBlockEnd
  0
BLOCK
  5
B06
100
AcDbEntity
  8
0
100
AcDbBlockBegin
  2
*D62
 70
     1
 10
0.0
 20
0.0
 30
0.0
  3
*D62
  1

  0
LINE
  5
B07
100
AcDbEntity
  8
0
  6
BYBLOCK
 62
     0
100
AcDbLine
 10
72.843399
 20
148.465404
 30
0.0
 11
158.343399
 21
148.465404
 31
0.0
  0
LINE
  5
B08
100
AcDbEntity
  8
0
  6
BYBLOCK
 62
     0
100
AcDbLine
 10
72.843399
 20
23.465404
 30
0.0
 11
158.343399
 21
23.465404
 31
0.0
  0
LINE
  5
B09
100
AcDbEntity
  8
0
  6
BYBLOCK
 62
     0
100
AcDbLine
 10
157.343399
 20
146.465404
 30
0.0
 11
157.343399
 21
97.722071
 31
0.0
  0
LINE
  5
B0A
100
AcDbEntity
  8
0
  6
BYBLOCK
 62
     0
100
AcDbLine
 10
157.343399
 20
25.465404
 30
0.0
 11
157.343399
 21
74.208738
 31
0.0
  0
MTEXT
  5
B0B
100
AcDbEntity
  8
0
  6
BYBLOCK
 62
     0
100
AcDbMText
 10
157.343399
 20
85.965404
 30
0.0
 40
10.0
 41
0.0
 71
     5
 72
     1
  1
\A1;125
  7
BIGFONT
 11
0.0
 21
1.0
 31
0.0
  0
SOLID
  5
B0C
100
AcDbEntity
  8
0
  6
BYBLOCK
 62
     0
100
AcDbTrace
 10
157.010065
 20
146.465404
 30
0.0
 11
157.676732
 21
146.465404
 31
0.0
 12
157.343399
 22
148.465404
 32
0.0
 13
157.343399
 23
148.465404
 33
0.0
  0
SOLID
  5
B0D
100
AcDbEntity
  8
0
  6
BYBLOCK
 62
     0
100
AcDbTrace
 10
157.010065
 20
25.465404
 30
0.0
 11
157.676732
 21
25.465404
 31
0.0
 12
157.343399
 22
23.465404
 32
0.0
 13
157.343399
 23
23.465404
 33
0.0
  0
POINT
  5
B0E
100
AcDbEntity
  8
DEFPOINTS
  6
BYBLOCK
 62
     0
100
AcDbPoint
 10
71.843399
 20
148.465404
 30
0.0
  0
POINT
  5
B0F
100
AcDbEntity
  8
DEFPOINTS
  6
BYBLOCK
 62
     0
100
AcDbPoint
 10
71.843399
 20
23.465404
 30
0.0
  0
POINT
  5
B10
100
AcDbEntity
  8
DEFPOINTS
  6
BYBLOCK
 62
     0
100
AcDbPoint
 10
157.343399
 20
23.465404
 30
0.0
  0
ENDBLK
  5
B11
100
AcDbEntity
  8
0
100
AcDbBlockEnd
  0
BLOCK
  5
B12
100
AcDbEntity
  8
0
100
AcDbBlockBegin
  2
*D63
 70
     1
 10
0.0
 20
0.0
 30
0.0
  3
*D63
  1

  0
LINE
  5
B13
100
AcDbEntity
  8
0
  6
BYBLOCK
 62
     0
100
AcDbLine
 10
90.501193
 20
132.965404
 30
0.0
 11
145.343399
 21
132.965404
 31
0.0
  0
LINE
  5
B14
100
AcDbEntity
  8
0
  6
BYBLOCK
 62
     0
100
AcDbLine
 10
141.343399
 20
85.965404
 30
0.0
 11
145.343399
 21
85.965404
 31
0.0
  0
LINE
  5
B15
100
AcDbEntity
  8
0
  6
BYBLOCK
 62
     0
100
AcDbLine
 10
144.343399
 20
130.965404
 30
0.0
 11
144.343399
 21
119.388738
 31
0.0
  0
LINE
  5
B16
100
AcDbEntity
  8
0
  6
BYBLOCK
 62
     0
100
AcDbLine
 10
144.343399
 20
87.965404
 30
0.0
 11
144.343399
 21
102.542071
 31
0.0
  0
MTEXT
  5
B17
100
AcDbEntity
  8
0
  6
BYBLOCK
 62
     0
100
AcDbMText
 10
144.343399
 20
110.965404
 30
0.0
 40
10.0
 41
0.0
 71
     5
 72
     1
  1
\A1;47
  7
BIGFONT
 11
0.0
 21
1.0
 31
0.0
  0
SOLID
  5
B18
100
AcDbEntity
  8
0
  6
BYBLOCK
 62
     0
100
AcDbTrace
 10
144.010065
 20
130.965404
 30
0.0
 11
144.676732
 21
130.965404
 31
0.0
 12
144.343399
 22
132.965404
 32
0.0
 13
144.343399
 23
132.965404
 33
0.0
  0
SOLID
  5
B19
100
AcDbEntity
  8
0
  6
BYBLOCK
 62
     0
100
AcDbTrace
 10
144.010065
 20
87.965404
 30
0.0
 11
144.676732
 21
87.965404
 31
0.0
 12
144.343399
 22
85.965404
 32
0.0
 13
144.343399
 23
85.965404
 33
0.0
  0
POINT
  5
B1A
100
AcDbEntity
  8
DEFPOINTS
  6
BYBLOCK
 62
     0
100
AcDbPoint
 10
89.501193
 20
132.965404
 30
0.0
  0
POINT
  5
B1B
100
AcDbEntity
  8
DEFPOINTS
  6
BYBLOCK
 62
     0
100
AcDbPoint
 10
140.343399
 20
85.965404
 30
0.0
  0
POINT
  5
B1C
100
AcDbEntity
  8
DEFPOINTS
  6
BYBLOCK
 62
     0
100
AcDbPoint
 10
144.343399
 20
85.965404
 30
0.0
  0
ENDBLK
  5
B1D
100
AcDbEntity
  8
0
100
AcDbBlockEnd
  0
BLOCK
  5
B1E
100
AcDbEntity
  8
0
100
AcDbBlockBegin
  2
*D64
 70
     1
 10
0.0
 20
0.0
 30
0.0
  3
*D64
  1

  0
LINE
  5
B1F
100
AcDbEntity
  8
0
  6
BYBLOCK
 62
     0
100
AcDbLine
 10
99.343399
 20
157.965404
 30
0.0
 11
97.343399
 21
157.965404
 31
0.0
  0
LINE
  5
B20
100
AcDbEntity
  8
0
  6
BYBLOCK
 62
     0
100
AcDbLine
 10
97.343399
 20
157.965404
 30
0.0
 11
64.70267
 21
125.96469
 31
0.0
  0
MTEXT
  5
B21
100
AcDbEntity
  8
0
  6
BYBLOCK
 62
     0
100
AcDbMText
 10
110.266732
 20
157.965404
 30
0.0
 40
10.0
 41
0.0
 71
     5
 72
     1
  1
\A1;R10
  7
BIGFONT
  0
SOLID
  5
B22
100
AcDbEntity
  8
0
  6
BYBLOCK
 62
     0
100
AcDbTrace
 10
65.897459
 20
127.602857
 30
0.0
 11
66.364173
 21
127.126809
 31
0.0
 12
64.70267
 22
125.96469
 32
0.0
 13
64.70267
 23
125.96469
 33
0.0
  0
POINT
  5
B23
100
AcDbEntity
  8
DEFPOINTS
  6
BYBLOCK
 62
     0
100
AcDbPoint
 10
64.70267
 20
125.96469
 30
0.0
  0
POINT
  5
B24
100
AcDbEntity
  8
DEFPOINTS
  6
BYBLOCK
 62
     0
100
AcDbPoint
 10
71.843399
 20
132.965404
 30
0.0
  0
ENDBLK
  5
B25
100
AcDbEntity
  8
0
100
AcDbBlockEnd
  0
BLOCK
  5
B26
100
AcDbEntity
  8
0
100
AcDbBlockBegin
  2
*D65
 70
     1
 10
0.0
 20
0.0
 30
0.0
  3
*D65
  1

  0
LINE
  5
B27
100
AcDbEntity
  8
0
  6
BYBLOCK
 62
     0
100
AcDbLine
 10
56.554428
 20
132.820919
 30
0.0
 11
59.09317
 21
134.914982
 31
0.0
  0
MTEXT
  5
B28
100
AcDbEntity
  8
0
  6
BYBLOCK
 62
     0
100
AcDbMText
 10
106.933399
 20
166.465404
 30
0.0
 40
10.0
 41
0.0
 71
     5
 72
     1
  1
\A1;R5.5
  7
BIGFONT
  0
SOLID
  5
B29
100
AcDbEntity
  8
0
  6
BYBLOCK
 62
     0
100
AcDbTrace
 10
58.881067
 20
135.172126
 30
0.0
 11
59.305274
 21
134.657838
 31
0.0
 12
60.636036
 22
136.187603
 32
0.0
 13
60.636036
 23
136.187603
 33
0.0
  0
POINT
  5
B2A
100
AcDbEntity
  8
DEFPOINTS
  6
BYBLOCK
 62
     0
100
AcDbPoint
 10
60.636036
 20
136.187603
 30
0.0
  0
POINT
  5
B2B
100
AcDbEntity
  8
DEFPOINTS
  6
BYBLOCK
 62
     0
100
AcDbPoint
 10
56.554428
 20
132.820919
 30
0.0
  0
ENDBLK
  5
B2C
100
AcDbEntity
  8
0
100
AcDbBlockEnd
  0
BLOCK
  5
B2D
100
AcDbEntity
  8
0
100
AcDbBlockBegin
  2
*D66
 70
     1
 10
0.0
 20
0.0
 30
0.0
  3
*D66
  1

  0
LINE
  5
B2E
100
AcDbEntity
  8
0
  6
BYBLOCK
 62
     0
100
AcDbLine
 10
32.413319
 20
72.957115
 30
0.0
 11
35.676778
 21
74.841274
 31
0.0
  0
LINE
  5
B2F
100
AcDbEntity
  8
0
  6
BYBLOCK
 62
     0
100
AcDbLine
 10
40.862849
 20
58.322098
 30
0.0
 11
44.126308
 21
60.206257
 31
0.0
  0
LINE
  5
B30
100
AcDbEntity
  8
0
  6
BYBLOCK
 62
     0
100
AcDbLine
 10
35.810752
 20
72.609223
 30
0.0
 11
42.260283
 21
61.438308
 31
0.0
  0
MTEXT
  5
B31
100
AcDbEntity
  8
0
  6
BYBLOCK
 62
     0
100
AcDbMText
 10
50.843399
 20
55.965404
 30
0.0
 40
10.0
 41
0.0
 71
     5
 72
     1
  1
\A1;17
  7
BIGFONT
  0
SOLID
  5
B32
100
AcDbEntity
  8
0
  6
BYBLOCK
 62
     0
100
AcDbTrace
 10
36.099427
 20
72.77589
 30
0.0
 11
35.522077
 21
72.442556
 31
0.0
 12
34.810752
 22
74.341274
 32
0.0
 13
34.810752
 23
74.341274
 33
0.0
  0
SOLID
  5
B33
100
AcDbEntity
  8
0
  6
BYBLOCK
 62
     0
100
AcDbTrace
 10
42.548958
 20
61.604974
 30
0.0
 11
41.971608
 21
61.271641
 31
0.0
 12
43.260283
 22
59.706257
 32
0.0
 13
43.260283
 23
59.706257
 33
0.0
  0
POINT
  5
B34
100
AcDbEntity
  8
DEFPOINTS
  6
BYBLOCK
 62
     0
100
AcDbPoint
 10
31.547293
 20
72.457115
 30
0.0
  0
POINT
  5
B35
100
AcDbEntity
  8
DEFPOINTS
  6
BYBLOCK
 62
     0
100
AcDbPoint
 10
39.996824
 20
57.822098
 30
0.0
  0
POINT
  5
B36
100
AcDbEntity
  8
DEFPOINTS
  6
BYBLOCK
 62
     0
100
AcDbPoint
 10
43.260283
 20
59.706257
 30
0.0
  0
ENDBLK
  5
B37
100
AcDbEntity
  8
0
100
AcDbBlockEnd
  0
BLOCK
  5
B38
100
AcDbEntity
  8
0
100
AcDbBlockBegin
  2
*D67
 70
     1
 10
0.0
 20
0.0
 30
0.0
  3
*D67
  1

  0
LINE
  5
B39
100
AcDbEntity
  8
0
  6
BYBLOCK
 62
     0
100
AcDbLine
 10
51.986305
 20
86.047911
 30
0.0
 11
50.296956
 21
85.072565
 31
0.0
  0
LINE
  5
B3A
100
AcDbEntity
  8
0
  6
BYBLOCK
 62
     0
100
AcDbLine
 10
61.986305
 20
68.727403
 30
0.0
 11
60.296956
 21
67.752057
 31
0.0
  0
LINE
  5
B3B
100
AcDbEntity
  8
0
  6
BYBLOCK
 62
     0
100
AcDbLine
 10
52.162981
 20
83.840514
 30
0.0
 11
60.162981
 21
69.984108
 31
0.0
  0
MTEXT
  5
B3C
100
AcDbEntity
  8
0
  6
BYBLOCK
 62
     0
100
AcDbMText
 10
41.343399
 20
92.465404
 30
0.0
 40
10.0
 41
0.0
 71
     5
 72
     1
  1
\A1;20
  7
BIGFONT
  0
SOLID
  5
B3D
100
AcDbEntity
  8
0
  6
BYBLOCK
 62
     0
100
AcDbTrace
 10
52.451656
 20
84.007181
 30
0.0
 11
51.874306
 21
83.673848
 31
0.0
 12
51.162981
 22
85.572565
 32
0.0
 13
51.162981
 23
85.572565
 33
0.0
  0
SOLID
  5
B3E
100
AcDbEntity
  8
0
  6
BYBLOCK
 62
     0
100
AcDbTrace
 10
60.451656
 20
70.150774
 30
0.0
 11
59.874306
 21
69.817441
 31
0.0
 12
61.162981
 22
68.252057
 32
0.0
 13
61.162981
 23
68.252057
 33
0.0
  0
POINT
  5
B3F
100
AcDbEntity
  8
DEFPOINTS
  6
BYBLOCK
 62
     0
100
AcDbPoint
 10
52.85233
 20
86.547911
 30
0.0
  0
POINT
  5
B40
100
AcDbEntity
  8
DEFPOINTS
  6
BYBLOCK
 62
     0
100
AcDbPoint
 10
62.85233
 20
69.227403
 30
0.0
  0
POINT
  5
B41
100
AcDbEntity
  8
DEFPOINTS
  6
BYBLOCK
 62
     0
100
AcDbPoint
 10
61.162981
 20
68.252057
 30
0.0
  0
ENDBLK
  5
B42
100
AcDbEntity
  8
0
100
AcDbBlockEnd
  0
BLOCK
  5
B43
100
AcDbEntity
  8
0
100
AcDbBlockBegin
  2
*D68
 70
     1
 10
0.0
 20
0.0
 30
0.0
  3
*D68
  1

  0
LINE
  5
B44
100
AcDbEntity
  8
0
  6
BYBLOCK
 62
     0
100
AcDbLine
 10
87.132369
 20
132.820919
 30
0.0
 11
84.6327
 21
134.961471
 31
0.0
  0
MTEXT
  5
B45
100
AcDbEntity
  8
0
  6
BYBLOCK
 62
     0
100
AcDbMText
 10
38.253399
 20
166.465404
 30
0.0
 40
10.0
 41
0.0
 71
     5
 72
     1
  1
\A1;R5.5
  7
BIGFONT
  0
SOLID
  5
B46
100
AcDbEntity
  8
0
  6
BYBLOCK
 62
     0
100
AcDbTrace
 10
84.849512
 20
135.214658
 30
0.0
 11
84.415887
 21
134.708284
 31
0.0
 12
83.11358
 22
136.262345
 32
0.0
 13
83.11358
 23
136.262345
 33
0.0
  0
POINT
  5
B47
100
AcDbEntity
  8
DEFPOINTS
  6
BYBLOCK
 62
     0
100
AcDbPoint
 10
83.11358
 20
136.262345
 30
0.0
  0
POINT
  5
B48
100
AcDbEntity
  8
DEFPOINTS
  6
BYBLOCK
 62
     0
100
AcDbPoint
 10
87.132369
 20
132.820919
 30
0.0
  0
ENDBLK
  5
B49
100
AcDbEntity
  8
0
100
AcDbBlockEnd
  0
BLOCK
  5
B4A
100
AcDbEntity
  8
0
100
AcDbBlockBegin
  2
*D69
 70
     1
 10
0.0
 20
0.0
 30
0.0
  3
*D69
  1

  0
LINE
  5
B4B
100
AcDbEntity
  8
0
  6
BYBLOCK
 62
     0
100
AcDbLine
 10
219.843399
 20
103.465404
 30
0.0
 11
219.843399
 21
127.465404
 31
0.0
  0
LINE
  5
B4C
100
AcDbEntity
  8
0
  6
BYBLOCK
 62
     0
100
AcDbLine
 10
249.843399
 20
101.965404
 30
0.0
 11
249.843399
 21
127.465404
 31
0.0
  0
LINE
  5
B4D
100
AcDbEntity
  8
0
  6
BYBLOCK
 62
     0
100
AcDbLine
 10
221.843399
 20
126.465404
 30
0.0
 11
225.253399
 21
126.465404
 31
0.0
  0
LINE
  5
B4E
100
AcDbEntity
  8
0
  6
BYBLOCK
 62
     0
100
AcDbLine
 10
247.843399
 20
126.465404
 30
0.0
 11
240.433399
 21
126.465404
 31
0.0
  0
MTEXT
  5
B4F
100
AcDbEntity
  8
0
  6
BYBLOCK
 62
     0
100
AcDbMText
 10
232.843399
 20
126.465404
 30
0.0
 40
10.0
 41
0.0
 71
     5
 72
     1
  1
\A1;30
  7
BIGFONT
  0
SOLID
  5
B50
100
AcDbEntity
  8
0
  6
BYBLOCK
 62
     0
100
AcDbTrace
 10
221.843399
 20
126.798738
 30
0.0
 11
221.843399
 21
126.132071
 31
0.0
 12
219.843399
 22
126.465404
 32
0.0
 13
219.843399
 23
126.465404
 33
0.0
  0
SOLID
  5
B51
100
AcDbEntity
  8
0
  6
BYBLOCK
 62
     0
100
AcDbTrace
 10
247.843399
 20
126.798738
 30
0.0
 11
247.843399
 21
126.132071
 31
0.0
 12
249.843399
 22
126.465404
 32
0.0
 13
249.843399
 23
126.465404
 33
0.0
  0
POINT
  5
B52
100
AcDbEntity
  8
DEFPOINTS
  6
BYBLOCK
 62
     0
100
AcDbPoint
 10
219.843399
 20
102.465404
 30
0.0
  0
POINT
  5
B53
100
AcDbEntity
  8
DEFPOINTS
  6
BYBLOCK
 62
     0
100
AcDbPoint
 10
249.843399
 20
100.965404
 30
0.0
  0
POINT
  5
B54
100
AcDbEntity
  8
DEFPOINTS
  6
BYBLOCK
 62
     0
100
AcDbPoint
 10
249.843399
 20
126.465404
 30
0.0
  0
ENDBLK
  5
B55
100
AcDbEntity
  8
0
100
AcDbBlockEnd
  0
BLOCK
  5
B56
100
AcDbEntity
  8
0
100
AcDbBlockBegin
  2
*D70
 70
     1
 10
0.0
 20
0.0
 30
0.0
  3
*D70
  1

  0
LINE
  5
B57
100
AcDbEntity
  8
0
  6
BYBLOCK
 62
     0
100
AcDbLine
 10
209.843399
 20
148.465404
 30
0.0
 11
171.343399
 21
148.465404
 31
0.0
  0
LINE
  5
B58
100
AcDbEntity
  8
0
  6
BYBLOCK
 62
     0
100
AcDbLine
 10
201.844787
 20
122.965404
 30
0.0
 11
171.343399
 21
122.965404
 31
0.0
  0
LINE
  5
B59
100
AcDbEntity
  8
0
  6
BYBLOCK
 62
     0
100
AcDbLine
 10
172.343399
 20
146.465404
 30
0.0
 11
172.343399
 21
124.965404
 31
0.0
  0
MTEXT
  5
B5A
100
AcDbEntity
  8
0
  6
BYBLOCK
 62
     0
100
AcDbMText
 10
172.343399
 20
135.465404
 30
0.0
 40
10.0
 41
0.0
 71
     5
 72
     1
  1
\A1;25.5
  7
BIGFONT
 11
0.0
 21
1.0
 31
0.0
  0
SOLID
  5
B5B
100
AcDbEntity
  8
0
  6
BYBLOCK
 62
     0
100
AcDbTrace
 10
172.010065
 20
146.465404
 30
0.0
 11
172.676732
 21
146.465404
 31
0.0
 12
172.343399
 22
148.465404
 32
0.0
 13
172.343399
 23
148.465404
 33
0.0
  0
SOLID
  5
B5C
100
AcDbEntity
  8
0
  6
BYBLOCK
 62
     0
100
AcDbTrace
 10
172.010065
 20
124.965404
 30
0.0
 11
172.676732
 21
124.965404
 31
0.0
 12
172.343399
 22
122.965404
 32
0.0
 13
172.343399
 23
122.965404
 33
0.0
  0
POINT
  5
B5D
100
AcDbEntity
  8
DEFPOINTS
  6
BYBLOCK
 62
     0
100
AcDbPoint
 10
210.843399
 20
148.465404
 30
0.0
  0
POINT
  5
B5E
100
AcDbEntity
  8
DEFPOINTS
  6
BYBLOCK
 62
     0
100
AcDbPoint
 10
202.844787
 20
122.965404
 30
0.0
  0
POINT
  5
B5F
100
AcDbEntity
  8
DEFPOINTS
  6
BYBLOCK
 62
     0
100
AcDbPoint
 10
172.343399
 20
122.965404
 30
0.0
  0
ENDBLK
  5
B60
100
AcDbEntity
  8
0
100
AcDbBlockEnd
  0
BLOCK
  5
B61
100
AcDbEntity
  8
0
100
AcDbBlockBegin
  2
*D71
 70
     1
 10
0.0
 20
0.0
 30
0.0
  3
*D71
  1

  0
LINE
  5
B62
100
AcDbEntity
  8
0
  6
BYBLOCK
 62
     0
100
AcDbLine
 10
218.843399
 20
102.465404
 30
0.0
 11
176.843399
 21
102.465404
 31
0.0
  0
LINE
  5
B63
100
AcDbEntity
  8
0
  6
BYBLOCK
 62
     0
100
AcDbLine
 10
218.843399
 20
69.465404
 30
0.0
 11
176.843399
 21
69.465404
 31
0.0
  0
LINE
  5
B64
100
AcDbEntity
  8
0
  6
BYBLOCK
 62
     0
100
AcDbLine
 10
177.843399
 20
100.465404
 30
0.0
 11
177.843399
 21
94.888738
 31
0.0
  0
LINE
  5
B65
100
AcDbEntity
  8
0
  6
BYBLOCK
 62
     0
100
AcDbLine
 10
177.843399
 20
71.465404
 30
0.0
 11
177.843399
 21
78.042071
 31
0.0
  0
MTEXT
  5
B66
100
AcDbEntity
  8
0
  6
BYBLOCK
 62
     0
100
AcDbMText
 10
177.843399
 20
86.465404
 30
0.0
 40
10.0
 41
0.0
 71
     5
 72
     1
  1
\A1;33
  7
BIGFONT
 11
0.0
 21
1.0
 31
0.0
  0
SOLID
  5
B67
100
AcDbEntity
  8
0
  6
BYBLOCK
 62
     0
100
AcDbTrace
 10
177.510065
 20
100.465404
 30
0.0
 11
178.176732
 21
100.465404
 31
0.0
 12
177.843399
 22
102.465404
 32
0.0
 13
177.843399
 23
102.465404
 33
0.0
  0
SOLID
  5
B68
100
AcDbEntity
  8
0
  6
BYBLOCK
 62
     0
100
AcDbTrace
 10
177.510065
 20
71.465404
 30
0.0
 11
178.176732
 21
71.465404
 31
0.0
 12
177.843399
 22
69.465404
 32
0.0
 13
177.843399
 23
69.465404
 33
0.0
  0
POINT
  5
B69
100
AcDbEntity
  8
DEFPOINTS
  6
BYBLOCK
 62
     0
100
AcDbPoint
 10
219.843399
 20
102.465404
 30
0.0
  0
POINT
  5
B6A
100
AcDbEntity
  8
DEFPOINTS
  6
BYBLOCK
 62
     0
100
AcDbPoint
 10
219.843399
 20
69.465404
 30
0.0
  0
POINT
  5
B6B
100
AcDbEntity
  8
DEFPOINTS
  6
BYBLOCK
 62
     0
100
AcDbPoint
 10
177.843399
 20
69.465404
 30
0.0
  0
ENDBLK
  5
B6C
100
AcDbEntity
  8
0
100
AcDbBlockEnd
  0
BLOCK
  5
B6D
100
AcDbEntity
  8
0
100
AcDbBlockBegin
  2
*D72
 70
     1
 10
0.0
 20
0.0
 30
0.0
  3
*D72
  1

  0
LINE
  5
B6E
100
AcDbEntity
  8
0
  6
BYBLOCK
 62
     0
100
AcDbLine
 10
209.843399
 20
43.465404
 30
0.0
 11
171.843399
 21
43.465404
 31
0.0
  0
LINE
  5
B6F
100
AcDbEntity
  8
0
  6
BYBLOCK
 62
     0
100
AcDbLine
 10
209.843399
 20
23.465404
 30
0.0
 11
171.843399
 21
23.465404
 31
0.0
  0
LINE
  5
B70
100
AcDbEntity
  8
0
  6
BYBLOCK
 62
     0
100
AcDbLine
 10
172.843399
 20
41.465404
 30
0.0
 11
172.843399
 21
39.555404
 31
0.0
  0
LINE
  5
B71
100
AcDbEntity
  8
0
  6
BYBLOCK
 62
     0
100
AcDbLine
 10
172.843399
 20
25.465404
 30
0.0
 11
172.843399
 21
25.555404
 31
0.0
  0
MTEXT
  5
B72
100
AcDbEntity
  8
0
  6
BYBLOCK
 62
     0
100
AcDbMText
 10
172.843399
 20
31.965404
 30
0.0
 40
10.0
 41
0.0
 71
     5
 72
     1
  1
\A1;20
  7
BIGFONT
 11
0.0
 21
1.0
 31
0.0
  0
SOLID
  5
B73
100
AcDbEntity
  8
0
  6
BYBLOCK
 62
     0
100
AcDbTrace
 10
172.510065
 20
41.465404
 30
0.0
 11
173.176732
 21
41.465404
 31
0.0
 12
172.843399
 22
43.465404
 32
0.0
 13
172.843399
 23
43.465404
 33
0.0
  0
SOLID
  5
B74
100
AcDbEntity
  8
0
  6
BYBLOCK
 62
     0
100
AcDbTrace
 10
172.510065
 20
25.465404
 30
0.0
 11
173.176732
 21
25.465404
 31
0.0
 12
172.843399
 22
23.465404
 32
0.0
 13
172.843399
 23
23.465404
 33
0.0
  0
POINT
  5
B75
100
AcDbEntity
  8
DEFPOINTS
  6
BYBLOCK
 62
     0
100
AcDbPoint
 10
210.843399
 20
43.465404
 30
0.0
  0
POINT
  5
B76
100
AcDbEntity
  8
DEFPOINTS
  6
BYBLOCK
 62
     0
100
AcDbPoint
 10
210.843399
 20
23.465404
 30
0.0
  0
POINT
  5
B77
100
AcDbEntity
  8
DEFPOINTS
  6
BYBLOCK
 62
     0
100
AcDbPoint
 10
172.843399
 20
23.465404
 30
0.0
  0
ENDBLK
  5
B78
100
AcDbEntity
  8
0
100
AcDbBlockEnd
  0
BLOCK
  5
B79
100
AcDbEntity
  8
0
100
AcDbBlockBegin
  2
*D73
 70
     1
 10
0.0
 20
0.0
 30
0.0
  3
*D73
  1

  0
LINE
  5
B7A
100
AcDbEntity
  8
0
  6
BYBLOCK
 62
     0
100
AcDbLine
 10
224.843399
 20
72.965404
 30
0.0
 11
224.843399
 21
56.578528
 31
0.0
  0
LINE
  5
B7B
100
AcDbEntity
  8
0
  6
BYBLOCK
 62
     0
100
AcDbLine
 10
249.843399
 20
69.965404
 30
0.0
 11
249.843399
 21
56.578528
 31
0.0
  0
LINE
  5
B7C
100
AcDbEntity
  8
0
  6
BYBLOCK
 62
     0
100
AcDbLine
 10
226.843399
 20
57.578528
 30
0.0
 11
228.534282
 21
57.578528
 31
0.0
  0
LINE
  5
B7D
100
AcDbEntity
  8
0
  6
BYBLOCK
 62
     0
100
AcDbLine
 10
247.843399
 20
57.578528
 30
0.0
 11
245.380948
 21
57.578528
 31
0.0
  0
MTEXT
  5
B7E
100
AcDbEntity
  8
0
  6
BYBLOCK
 62
     0
100
AcDbMText
 10
236.957615
 20
57.578528
 30
0.0
 40
10.0
 41
0.0
 71
     5
 72
     1
  1
\A1;25
  7
BIGFONT
  0
SOLID
  5
B7F
100
AcDbEntity
  8
0
  6
BYBLOCK
 62
     0
100
AcDbTrace
 10
226.843399
 20
57.911861
 30
0.0
 11
226.843399
 21
57.245195
 31
0.0
 12
224.843399
 22
57.578528
 32
0.0
 13
224.843399
 23
57.578528
 33
0.0
  0
SOLID
  5
B80
100
AcDbEntity
  8
0
  6
BYBLOCK
 62
     0
100
AcDbTrace
 10
247.843399
 20
57.911861
 30
0.0
 11
247.843399
 21
57.245195
 31
0.0
 12
249.843399
 22
57.578528
 32
0.0
 13
249.843399
 23
57.578528
 33
0.0
  0
POINT
  5
B81
100
AcDbEntity
  8
DEFPOINTS
  6
BYBLOCK
 62
     0
100
AcDbPoint
 10
224.843399
 20
73.965404
 30
0.0
  0
POINT
  5
B82
100
AcDbEntity
  8
DEFPOINTS
  6
BYBLOCK
 62
     0
100
AcDbPoint
 10
249.843399
 20
70.965404
 30
0.0
  0
POINT
  5
B83
100
AcDbEntity
  8
DEFPOINTS
  6
BYBLOCK
 62
     0
100
AcDbPoint
 10
249.843399
 20
57.578528
 30
0.0
  0
ENDBLK
  5
B84
100
AcDbEntity
  8
0
100
AcDbBlockEnd
  0
BLOCK
  5
B85
100
AcDbEntity
  8
0
100
AcDbBlockBegin
  2
*D74
 70
     1
 10
0.0
 20
0.0
 30
0.0
  3
*D74
  1

  0
LINE
  5
B86
100
AcDbEntity
  8
0
  6
BYBLOCK
 62
     0
100
AcDbLine
 10
223.843399
 20
97.965404
 30
0.0
 11
189.343399
 21
97.965404
 31
0.0
  0
LINE
  5
B87
100
AcDbEntity
  8
0
  6
BYBLOCK
 62
     0
100
AcDbLine
 10
223.843399
 20
73.965404
 30
0.0
 11
189.343399
 21
73.965404
 31
0.0
  0
LINE
  5
B88
100
AcDbEntity
  8
0
  6
BYBLOCK
 62
     0
100
AcDbLine
 10
190.343399
 20
95.965404
 30
0.0
 11
190.343399
 21
94.388738
 31
0.0
  0
LINE
  5
B89
100
AcDbEntity
  8
0
  6
BYBLOCK
 62
     0
100
AcDbLine
 10
190.343399
 20
75.965404
 30
0.0
 11
190.343399
 21
77.542071
 31
0.0
  0
MTEXT
  5
B8A
100
AcDbEntity
  8
0
  6
BYBLOCK
 62
     0
100
AcDbMText
 10
190.343399
 20
85.965404
 30
0.0
 40
10.0
 41
0.0
 71
     5
 72
     1
  1
\A1;24
  7
BIGFONT
 11
0.0
 21
1.0
 31
0.0
  0
SOLID
  5
B8B
100
AcDbEntity
  8
0
  6
BYBLOCK
 62
     0
100
AcDbTrace
 10
190.010065
 20
95.965404
 30
0.0
 11
190.676732
 21
95.965404
 31
0.0
 12
190.343399
 22
97.965404
 32
0.0
 13
190.343399
 23
97.965404
 33
0.0
  0
SOLID
  5
B8C
100
AcDbEntity
  8
0
  6
BYBLOCK
 62
     0
100
AcDbTrace
 10
190.010065
 20
75.965404
 30
0.0
 11
190.676732
 21
75.965404
 31
0.0
 12
190.343399
 22
73.965404
 32
0.0
 13
190.343399
 23
73.965404
 33
0.0
  0
POINT
  5
B8D
100
AcDbEntity
  8
DEFPOINTS
  6
BYBLOCK
 62
     0
100
AcDbPoint
 10
224.843399
 20
97.965404
 30
0.0
  0
POINT
  5
B8E
100
AcDbEntity
  8
DEFPOINTS
  6
BYBLOCK
 62
     0
100
AcDbPoint
 10
224.843399
 20
73.965404
 30
0.0
  0
POINT
  5
B8F
100
AcDbEntity
  8
DEFPOINTS
  6
BYBLOCK
 62
     0
100
AcDbPoint
 10
190.343399
 20
73.965404
 30
0.0
  0
ENDBLK
  5
B90
100
AcDbEntity
  8
0
100
AcDbBlockEnd
  0
BLOCK
  5
B91
100
AcDbEntity
  8
0
100
AcDbBlockBegin
  2
*D75
 70
     1
 10
0.0
 20
0.0
 30
0.0
  3
*D75
  1

  0
LINE
  5
B92
100
AcDbEntity
  8
0
  6
BYBLOCK
 62
     0
100
AcDbLine
 10
237.843399
 20
103.465404
 30
0.0
 11
237.843399
 21
119.465404
 31
0.0
  0
LINE
  5
B93
100
AcDbEntity
  8
0
  6
BYBLOCK
 62
     0
100
AcDbLine
 10
249.843399
 20
101.965404
 30
0.0
 11
249.843399
 21
119.465404
 31
0.0
  0
LINE
  5
B94
100
AcDbEntity
  8
0
  6
BYBLOCK
 62
     0
100
AcDbLine
 10
239.843399
 20
118.465404
 30
0.0
 11
247.843399
 21
118.465404
 31
0.0
  0
MTEXT
  5
B95
100
AcDbEntity
  8
0
  6
BYBLOCK
 62
     0
100
AcDbMText
 10
243.843399
 20
118.465404
 30
0.0
 40
10.0
 41
0.0
 71
     5
 72
     1
  1
\A1;12
  7
BIGFONT
  0
SOLID
  5
B96
100
AcDbEntity
  8
0
  6
BYBLOCK
 62
     0
100
AcDbTrace
 10
239.843399
 20
118.798738
 30
0.0
 11
239.843399
 21
118.132071
 31
0.0
 12
237.843399
 22
118.465404
 32
0.0
 13
237.843399
 23
118.465404
 33
0.0
  0
SOLID
  5
B97
100
AcDbEntity
  8
0
  6
BYBLOCK
 62
     0
100
AcDbTrace
 10
247.843399
 20
118.798738
 30
0.0
 11
247.843399
 21
118.132071
 31
0.0
 12
249.843399
 22
118.465404
 32
0.0
 13
249.843399
 23
118.465404
 33
0.0
  0
POINT
  5
B98
100
AcDbEntity
  8
DEFPOINTS
  6
BYBLOCK
 62
     0
100
AcDbPoint
 10
237.843399
 20
102.465404
 30
0.0
  0
POINT
  5
B99
100
AcDbEntity
  8
DEFPOINTS
  6
BYBLOCK
 62
     0
100
AcDbPoint
 10
249.843399
 20
100.965404
 30
0.0
  0
POINT
  5
B9A
100
AcDbEntity
  8
DEFPOINTS
  6
BYBLOCK
 62
     0
100
AcDbPoint
 10
249.843399
 20
118.465404
 30
0.0
  0
ENDBLK
  5
B9B
100
AcDbEntity
  8
0
100
AcDbBlockEnd
  0
BLOCK
  5
B9C
100
AcDbEntity
  8
0
100
AcDbBlockBegin
  2
*D76
 70
     1
 10
0.0
 20
0.0
 30
0.0
  3
*D76
  1

  0
LINE
  5
B9D
100
AcDbEntity
  8
0
  6
BYBLOCK
 62
     0
100
AcDbLine
 10
201.843399
 20
137.965404
 30
0.0
 11
179.836732
 21
137.965404
 31
0.0
  0
LINE
  5
B9E
100
AcDbEntity
  8
0
  6
BYBLOCK
 62
     0
100
AcDbLine
 10
201.843399
 20
127.965404
 30
0.0
 11
179.836732
 21
127.965404
 31
0.0
  0
LINE
  5
B9F
100
AcDbEntity
  8
0
  6
BYBLOCK
 62
     0
100
AcDbLine
 10
180.836732
 20
135.965404
 30
0.0
 11
180.836732
 21
129.965404
 31
0.0
  0
MTEXT
  5
BA0
100
AcDbEntity
  8
0
  6
BYBLOCK
 62
     0
100
AcDbMText
 10
188.343399
 20
142.465404
 30
0.0
 40
10.0
 41
0.0
 71
     5
 72
     1
  1
\A1;\U+220510
  7
BIGFONT
  0
SOLID
  5
BA1
100
AcDbEntity
  8
0
  6
BYBLOCK
 62
     0
100
AcDbTrace
 10
180.503399
 20
135.965404
 30
0.0
 11
181.170065
 21
135.965404
 31
0.0
 12
180.836732
 22
137.965404
 32
0.0
 13
180.836732
 23
137.965404
 33
0.0
  0
SOLID
  5
BA2
100
AcDbEntity
  8
0
  6
BYBLOCK
 62
     0
100
AcDbTrace
 10
180.503399
 20
129.965404
 30
0.0
 11
181.170065
 21
129.965404
 31
0.0
 12
180.836732
 22
127.965404
 32
0.0
 13
180.836732
 23
127.965404
 33
0.0
  0
POINT
  5
BA3
100
AcDbEntity
  8
DEFPOINTS
  6
BYBLOCK
 62
     0
100
AcDbPoint
 10
202.843399
 20
137.965404
 30
0.0
  0
POINT
  5
BA4
100
AcDbEntity
  8
DEFPOINTS
  6
BYBLOCK
 62
     0
100
AcDbPoint
 10
202.843399
 20
127.965404
 30
0.0
  0
POINT
  5
BA5
100
AcDbEntity
  8
DEFPOINTS
  6
BYBLOCK
 62
     0
100
AcDbPoint
 10
180.836732
 20
127.965404
 30
0.0
  0
ENDBLK
  5
BA6
100
AcDbEntity
  8
0
100
AcDbBlockEnd
  0
BLOCK
  5
BA7
100
AcDbEntity
  8
0
100
AcDbBlockBegin
  2
*D77
 70
     1
 10
0.0
 20
0.0
 30
0.0
  3
*D77
  1

  0
LINE
  5
BA8
100
AcDbEntity
  8
0
  6
BYBLOCK
 62
     0
100
AcDbLine
 10
202.844787
 20
141.465404
 30
0.0
 11
202.844787
 21
184.465404
 31
0.0
  0
LINE
  5
BA9
100
AcDbEntity
  8
0
  6
BYBLOCK
 62
     0
100
AcDbLine
 10
218.842011
 20
141.465404
 30
0.0
 11
218.842011
 21
184.465404
 31
0.0
  0
LINE
  5
BAA
100
AcDbEntity
  8
0
  6
BYBLOCK
 62
     0
100
AcDbLine
 10
204.844787
 20
183.465404
 30
0.0
 11
216.842011
 21
183.465404
 31
0.0
  0
MTEXT
  5
BAB
100
AcDbEntity
  8
0
  6
BYBLOCK
 62
     0
100
AcDbMText
 10
212.343399
 20
183.465404
 30
0.0
 40
10.0
 41
0.0
 71
     5
 72
     1
  1
\A1;16
  7
BIGFONT
  0
SOLID
  5
BAC
100
AcDbEntity
  8
0
  6
BYBLOCK
 62
     0
100
AcDbTrace
 10
204.844787
 20
183.798738
 30
0.0
 11
204.844787
 21
183.132071
 31
0.0
 12
202.844787
 22
183.465404
 32
0.0
 13
202.844787
 23
183.465404
 33
0.0
  0
SOLID
  5
BAD
100
AcDbEntity
  8
0
  6
BYBLOCK
 62
     0
100
AcDbTrace
 10
216.842011
 20
183.798738
 30
0.0
 11
216.842011
 21
183.132071
 31
0.0
 12
218.842011
 22
183.465404
 32
0.0
 13
218.842011
 23
183.465404
 33
0.0
  0
POINT
  5
BAE
100
AcDbEntity
  8
DEFPOINTS
  6
BYBLOCK
 62
     0
100
AcDbPoint
 10
202.844787
 20
140.465404
 30
0.0
  0
POINT
  5
BAF
100
AcDbEntity
  8
DEFPOINTS
  6
BYBLOCK
 62
     0
100
AcDbPoint
 10
218.842011
 20
140.465404
 30
0.0
  0
POINT
  5
BB0
100
AcDbEntity
  8
DEFPOINTS
  6
BYBLOCK
 62
     0
100
AcDbPoint
 10
218.842011
 20
183.465404
 30
0.0
  0
ENDBLK
  5
BB1
100
AcDbEntity
  8
0
100
AcDbBlockEnd
  0
BLOCK
  5
BB2
100
AcDbEntity
  8
0
100
AcDbBlockBegin
  2
*D78
 70
     1
 10
0.0
 20
0.0
 30
0.0
  3
*D78
  1

  0
LINE
  5
BB3
100
AcDbEntity
  8
0
  6
BYBLOCK
 62
     0
100
AcDbLine
 10
202.844787
 20
141.465404
 30
0.0
 11
202.844787
 21
175.965404
 31
0.0
  0
LINE
  5
BB4
100
AcDbEntity
  8
0
  6
BYBLOCK
 62
     0
100
AcDbLine
 10
217.839111
 20
141.000763
 30
0.0
 11
217.839111
 21
175.965404
 31
0.0
  0
LINE
  5
BB5
100
AcDbEntity
  8
0
  6
BYBLOCK
 62
     0
100
AcDbLine
 10
204.844787
 20
174.965404
 30
0.0
 11
204.934787
 21
174.965404
 31
0.0
  0
LINE
  5
BB6
100
AcDbEntity
  8
0
  6
BYBLOCK
 62
     0
100
AcDbLine
 10
215.839111
 20
174.965404
 30
0.0
 11
215.749111
 21
174.965404
 31
0.0
  0
MTEXT
  5
BB7
100
AcDbEntity
  8
0
  6
BYBLOCK
 62
     0
100
AcDbMText
 10
210.343399
 20
174.965404
 30
0.0
 40
10.0
 41
0.0
 71
     5
 72
     1
  1
\A1;15
  7
BIGFONT
  0
SOLID
  5
BB8
100
AcDbEntity
  8
0
  6
BYBLOCK
 62
     0
100
AcDbTrace
 10
204.844787
 20
175.298738
 30
0.0
 11
204.844787
 21
174.632071
 31
0.0
 12
202.844787
 22
174.965404
 32
0.0
 13
202.844787
 23
174.965404
 33
0.0
  0
SOLID
  5
BB9
100
AcDbEntity
  8
0
  6
BYBLOCK
 62
     0
100
AcDbTrace
 10
215.839111
 20
175.298738
 30
0.0
 11
215.839111
 21
174.632071
 31
0.0
 12
217.839111
 22
174.965404
 32
0.0
 13
217.839111
 23
174.965404
 33
0.0
  0
POINT
  5
BBA
100
AcDbEntity
  8
DEFPOINTS
  6
BYBLOCK
 62
     0
100
AcDbPoint
 10
202.844787
 20
140.465404
 30
0.0
  0
POINT
  5
BBB
100
AcDbEntity
  8
DEFPOINTS
  6
BYBLOCK
 62
     0
100
AcDbPoint
 10
217.839111
 20
140.000763
 30
0.0
  0
POINT
  5
BBC
100
AcDbEntity
  8
DEFPOINTS
  6
BYBLOCK
 62
     0
100
AcDbPoint
 10
217.839111
 20
174.965404
 30
0.0
  0
ENDBLK
  5
BBD
100
AcDbEntity
  8
0
100
AcDbBlockEnd
  0
BLOCK
  5
BC7
100
AcDbEntity
  8
0
100
AcDbBlockBegin
  2
*D79
 70
     1
 10
0.0
 20
0.0
 30
0.0
  3
*D79
  1

  0
LINE
  5
BC1
100
AcDbEntity
  8
0
  6
BYBLOCK
 62
     0
100
AcDbLine
 10
130.0
 20
256.5
 30
0.0
 11
128.0
 21
256.5
 31
0.0
  0
LINE
  5
BC2
100
AcDbEntity
  8
0
  6
BYBLOCK
 62
     0
100
AcDbLine
 10
128.0
 20
256.5
 30
0.0
 11
89.638324
 21
221.232007
 31
0.0
  0
MTEXT
  5
BC3
100
AcDbEntity
  8
0
  6
BYBLOCK
 62
     0
100
AcDbMText
 10
135.506667
 20
256.5
 30
0.0
 40
5.0
 41
0.0
 71
     5
 72
     1
  1
\A1;R10
  0
SOLID
  5
BC4
100
AcDbEntity
  8
0
  6
BYBLOCK
 62
     0
100
AcDbTrace
 10
90.885059
 20
222.830995
 30
0.0
 11
91.336259
 21
222.340217
 31
0.0
 12
89.638324
 22
221.232007
 32
0.0
 13
89.638324
 23
221.232007
 33
0.0
  0
POINT
  5
BC5
100
AcDbEntity
  8
DEFPOINTS
  6
BYBLOCK
 62
     0
100
AcDbPoint
 10
89.638324
 20
221.232007
 30
0.0
  0
POINT
  5
BC6
100
AcDbEntity
  8
DEFPOINTS
  6
BYBLOCK
 62
     0
100
AcDbPoint
 10
97.0
 20
228.0
 30
0.0
  0
ENDBLK
  5
BC8
100
AcDbEntity
  8
0
100
AcDbBlockEnd
  0
BLOCK
  5
BD5
100
AcDbEntity
  8
0
100
AcDbBlockBegin
  2
*D80
 70
     1
 10
0.0
 20
0.0
 30
0.0
  3
*D80
  1

  0
LINE
  5
BCA
100
AcDbEntity
  8
0
  6
BYBLOCK
 62
     0
100
AcDbLine
 10
74.141439
 20
172.426959
 30
0.0
 11
71.833044
 21
171.094207
 31
0.0
  0
LINE
  5
BCB
100
AcDbEntity
  8
0
  6
BYBLOCK
 62
     0
100
AcDbLine
 10
84.641439
 20
154.240426
 30
0.0
 11
82.333044
 21
152.907674
 31
0.0
  0
LINE
  5
BCC
100
AcDbEntity
  8
0
  6
BYBLOCK
 62
     0
100
AcDbLine
 10
82.19907
 20
155.139724
 30
0.0
 11
73.69907
 21
169.862156
 31
0.0
  0
LINE
  5
BCD
100
AcDbEntity
  8
0
  6
BYBLOCK
 62
     0
100
AcDbLine
 10
72.69907
 20
171.594207
 30
0.0
 11
68.423333
 21
179.0
 31
0.0
  0
LINE
  5
BCE
100
AcDbEntity
  8
0
  6
BYBLOCK
 62
     0
100
AcDbLine
 10
68.423333
 20
179.0
 30
0.0
 11
66.423333
 21
179.0
 31
0.0
  0
SOLID
  5
BCF
100
AcDbEntity
  8
0
  6
BYBLOCK
 62
     0
100
AcDbTrace
 10
82.487745
 20
155.306391
 30
0.0
 11
81.910395
 21
154.973058
 31
0.0
 12
83.19907
 22
153.407674
 32
0.0
 13
83.19907
 23
153.407674
 33
0.0
  0
SOLID
  5
BD0
100
AcDbEntity
  8
0
  6
BYBLOCK
 62
     0
100
AcDbTrace
 10
73.987745
 20
170.028823
 30
0.0
 11
73.410395
 21
169.69549
 31
0.0
 12
72.69907
 22
171.594207
 32
0.0
 13
72.69907
 23
171.594207
 33
0.0
  0
MTEXT
  5
BD1
100
AcDbEntity
  8
0
  6
BYBLOCK
 62
     0
100
AcDbMText
 10
63.0
 20
179.0
 30
0.0
 40
5.0
 41
0.0
 71
     5
 72
     1
  1
\A1;21
  0
POINT
  5
BD2
100
AcDbEntity
  8
DEFPOINTS
  6
BYBLOCK
 62
     0
100
AcDbPoint
 10
75.007464
 20
172.926959
 30
0.0
  0
POINT
  5
BD3
100
AcDbEntity
  8
DEFPOINTS
  6
BYBLOCK
 62
     0
100
AcDbPoint
 10
85.507464
 20
154.740426
 30
0.0
  0
POINT
  5
BD4
100
AcDbEntity
  8
DEFPOINTS
  6
BYBLOCK
 62
     0
100
AcDbPoint
 10
83.19907
 20
153.407674
 30
0.0
  0
ENDBLK
  5
BD6
100
AcDbEntity
  8
0
100
AcDbBlockEnd
  0
BLOCK
  5
BE3
100
AcDbEntity
  8
0
100
AcDbBlockBegin
  2
*D81
 70
     1
 10
0.0
 20
0.0
 30
0.0
  3
*D81
  1

  0
LINE
  5
BD8
100
AcDbEntity
  8
0
  6
BYBLOCK
 62
     0
100
AcDbLine
 10
50.772012
 20
157.202563
 30
0.0
 11
53.0426
 21
158.513488
 31
0.0
  0
LINE
  5
BD9
100
AcDbEntity
  8
0
  6
BYBLOCK
 62
     0
100
AcDbLine
 10
59.772012
 20
141.614106
 30
0.0
 11
62.0426
 21
142.925031
 31
0.0
  0
LINE
  5
BDA
100
AcDbEntity
  8
0
  6
BYBLOCK
 62
     0
100
AcDbLine
 10
53.176574
 20
156.281437
 30
0.0
 11
60.176574
 21
144.157082
 31
0.0
  0
LINE
  5
BDB
100
AcDbEntity
  8
0
  6
BYBLOCK
 62
     0
100
AcDbLine
 10
61.176574
 20
142.425031
 30
0.0
 11
62.576667
 21
140.0
 31
0.0
  0
LINE
  5
BDC
100
AcDbEntity
  8
0
  6
BYBLOCK
 62
     0
100
AcDbLine
 10
62.576667
 20
140.0
 30
0.0
 11
64.576667
 21
140.0
 31
0.0
  0
SOLID
  5
BDD
100
AcDbEntity
  8
0
  6
BYBLOCK
 62
     0
100
AcDbTrace
 10
53.46525
 20
156.448104
 30
0.0
 11
52.887899
 21
156.114771
 31
0.0
 12
52.176574
 22
158.013488
 32
0.0
 13
52.176574
 23
158.013488
 33
0.0
  0
SOLID
  5
BDE
100
AcDbEntity
  8
0
  6
BYBLOCK
 62
     0
100
AcDbTrace
 10
60.46525
 20
144.323748
 30
0.0
 11
59.887899
 21
143.990415
 31
0.0
 12
61.176574
 22
142.425031
 32
0.0
 13
61.176574
 23
142.425031
 33
0.0
  0
MTEXT
  5
BDF
100
AcDbEntity
  8
0
  6
BYBLOCK
 62
     0
100
AcDbMText
 10
68.0
 20
140.0
 30
0.0
 40
5.0
 41
0.0
 71
     5
 72
     1
  1
\A1;18
  0
POINT
  5
BE0
100
AcDbEntity
  8
DEFPOINTS
  6
BYBLOCK
 62
     0
100
AcDbPoint
 10
49.905986
 20
156.702563
 30
0.0
  0
POINT
  5
BE1
100
AcDbEntity
  8
DEFPOINTS
  6
BYBLOCK
 62
     0
100
AcDbPoint
 10
58.905986
 20
141.114106
 30
0.0
  0
POINT
  5
BE2
100
AcDbEntity
  8
DEFPOINTS
  6
BYBLOCK
 62
     0
100
AcDbPoint
 10
61.176574
 20
142.425031
 30
0.0
  0
ENDBLK
  5
BE4
100
AcDbEntity
  8
0
100
AcDbBlockEnd
  0
BLOCK
  5
BF0
100
AcDbEntity
  8
0
100
AcDbBlockBegin
  2
*D82
 70
     1
 10
0.0
 20
0.0
 30
0.0
  3
*D82
  1

  0
LINE
  5
BE6
100
AcDbEntity
  8
0
  6
BYBLOCK
 62
     0
100
AcDbLine
 10
102.0
 20
228.0
 30
0.0
 11
157.5
 21
228.0
 31
0.0
  0
LINE
  5
BE7
100
AcDbEntity
  8
0
  6
BYBLOCK
 62
     0
100
AcDbLine
 10
156.5
 20
173.5
 30
0.0
 11
155.5
 21
173.5
 31
0.0
  0
LINE
  5
BE8
100
AcDbEntity
  8
0
  6
BYBLOCK
 62
     0
100
AcDbLine
 10
156.5
 20
226.0
 30
0.0
 11
156.5
 21
208.59
 31
0.0
  0
LINE
  5
BE9
100
AcDbEntity
  8
0
  6
BYBLOCK
 62
     0
100
AcDbLine
 10
156.5
 20
175.5
 30
0.0
 11
156.5
 21
193.41
 31
0.0
  0
SOLID
  5
BEA
100
AcDbEntity
  8
0
  6
BYBLOCK
 62
     0
100
AcDbTrace
 10
156.166667
 20
226.0
 30
0.0
 11
156.833333
 21
226.0
 31
0.0
 12
156.5
 22
228.0
 32
0.0
 13
156.5
 23
228.0
 33
0.0
  0
SOLID
  5
BEB
100
AcDbEntity
  8
0
  6
BYBLOCK
 62
     0
100
AcDbTrace
 10
156.166667
 20
175.5
 30
0.0
 11
156.833333
 21
175.5
 31
0.0
 12
156.5
 22
173.5
 32
0.0
 13
156.5
 23
173.5
 33
0.0
  0
MTEXT
  5
BEC
100
AcDbEntity
  8
0
  6
BYBLOCK
 62
     0
100
AcDbMText
 10
156.5
 20
201.0
 30
0.0
 40
5.0
 41
0.0
 71
     5
 72
     1
  1
\A1;54.5
 11
0.0
 21
1.0
 31
0.0
  0
POINT
  5
BED
100
AcDbEntity
  8
DEFPOINTS
  6
BYBLOCK
 62
     0
100
AcDbPoint
 10
101.0
 20
228.0
 30
0.0
  0
POINT
  5
BEE
100
AcDbEntity
  8
DEFPOINTS
  6
BYBLOCK
 62
     0
100
AcDbPoint
 10
157.5
 20
173.5
 30
5.786942
  0
POINT
  5
BEF
100
AcDbEntity
  8
DEFPOINTS
  6
BYBLOCK
 62
     0
100
AcDbPoint
 10
156.5
 20
173.5
 30
0.0
  0
ENDBLK
  5
BF1
100
AcDbEntity
  8
0
100
AcDbBlockEnd
  0
BLOCK
  5
BFD
100
AcDbEntity
  8
0
100
AcDbBlockBegin
  2
*D83
 70
     1
 10
0.0
 20
0.0
 30
0.0
  3
*D83
  1

  0
LINE
  5
BF3
100
AcDbEntity
  8
0
  6
BYBLOCK
 62
     0
100
AcDbLine
 10
84.012475
 20
243.492677
 30
0.0
 11
168.5
 21
243.492677
 31
0.0
  0
LINE
  5
BF4
100
AcDbEntity
  8
0
  6
BYBLOCK
 62
     0
100
AcDbLine
 10
83.0
 20
103.5
 30
0.0
 11
168.5
 21
103.5
 31
0.0
  0
LINE
  5
BF5
100
AcDbEntity
  8
0
  6
BYBLOCK
 62
     0
100
AcDbLine
 10
167.5
 20
241.492677
 30
0.0
 11
167.5
 21
178.006667
 31
0.0
  0
LINE
  5
BF6
100
AcDbEntity
  8
0
  6
BYBLOCK
 62
     0
100
AcDbLine
 10
167.5
 20
105.5
 30
0.0
 11
167.5
 21
161.993333
 31
0.0
  0
SOLID
  5
BF7
100
AcDbEntity
  8
0
  6
BYBLOCK
 62
     0
100
AcDbTrace
 10
167.166667
 20
241.492677
 30
0.0
 11
167.833333
 21
241.492677
 31
0.0
 12
167.5
 22
243.492677
 32
0.0
 13
167.5
 23
243.492677
 33
0.0
  0
SOLID
  5
BF8
100
AcDbEntity
  8
0
  6
BYBLOCK
 62
     0
100
AcDbTrace
 10
167.166667
 20
105.5
 30
0.0
 11
167.833333
 21
105.5
 31
0.0
 12
167.5
 22
103.5
 32
0.0
 13
167.5
 23
103.5
 33
0.0
  0
MTEXT
  5
BF9
100
AcDbEntity
  8
0
  6
BYBLOCK
 62
     0
100
AcDbMText
 10
167.5
 20
170.0
 30
0.0
 40
5.0
 41
0.0
 71
     5
 72
     1
  1
\A1;\U+2205140
 11
0.0
 21
1.0
 31
0.0
  0
POINT
  5
BFA
100
AcDbEntity
  8
DEFPOINTS
  6
BYBLOCK
 62
     0
100
AcDbPoint
 10
83.012475
 20
243.492677
 30
0.0
  0
POINT
  5
BFB
100
AcDbEntity
  8
DEFPOINTS
  6
BYBLOCK
 62
     0
100
AcDbPoint
 10
82.0
 20
103.5
 30
0.0
  0
POINT
  5
BFC
100
AcDbEntity
  8
DEFPOINTS
  6
BYBLOCK
 62
     0
100
AcDbPoint
 10
167.5
 20
103.5
 30
0.0
  0
ENDBLK
  5
BFE
100
AcDbEntity
  8
0
100
AcDbBlockEnd
  0
BLOCK
  5
C0A
100
AcDbEntity
  8
0
100
AcDbBlockBegin
  2
*D84
 70
     1
 10
0.0
 20
0.0
 30
0.0
  3
*D84
  1

  0
LINE
  5
C00
100
AcDbEntity
  8
0
  6
BYBLOCK
 62
     0
100
AcDbLine
 10
221.5
 20
243.5
 30
0.0
 11
179.5
 21
243.5
 31
0.0
  0
LINE
  5
C01
100
AcDbEntity
  8
0
  6
BYBLOCK
 62
     0
100
AcDbLine
 10
213.5
 20
218.0
 30
0.0
 11
179.5
 21
218.0
 31
0.0
  0
LINE
  5
C02
100
AcDbEntity
  8
0
  6
BYBLOCK
 62
     0
100
AcDbLine
 10
180.5
 20
241.5
 30
0.0
 11
180.5
 21
237.59
 31
0.0
  0
LINE
  5
C03
100
AcDbEntity
  8
0
  6
BYBLOCK
 62
     0
100
AcDbLine
 10
180.5
 20
220.0
 30
0.0
 11
180.5
 21
222.41
 31
0.0
  0
SOLID
  5
C04
100
AcDbEntity
  8
0
  6
BYBLOCK
 62
     0
100
AcDbTrace
 10
180.166667
 20
241.5
 30
0.0
 11
180.833333
 21
241.5
 31
0.0
 12
180.5
 22
243.5
 32
0.0
 13
180.5
 23
243.5
 33
0.0
  0
SOLID
  5
C05
100
AcDbEntity
  8
0
  6
BYBLOCK
 62
     0
100
AcDbTrace
 10
180.166667
 20
220.0
 30
0.0
 11
180.833333
 21
220.0
 31
0.0
 12
180.5
 22
218.0
 32
0.0
 13
180.5
 23
218.0
 33
0.0
  0
MTEXT
  5
C06
100
AcDbEntity
  8
0
  6
BYBLOCK
 62
     0
100
AcDbMText
 10
180.5
 20
230.0
 30
0.0
 40
5.0
 41
0.0
 71
     5
 72
     1
  1
\A1;25.5
 11
0.0
 21
1.0
 31
0.0
  0
POINT
  5
C07
100
AcDbEntity
  8
DEFPOINTS
  6
BYBLOCK
 62
     0
100
AcDbPoint
 10
222.5
 20
243.5
 30
5.786942
  0
POINT
  5
C08
100
AcDbEntity
  8
DEFPOINTS
  6
BYBLOCK
 62
     0
100
AcDbPoint
 10
214.5
 20
218.0
 30
0.0
  0
POINT
  5
C09
100
AcDbEntity
  8
DEFPOINTS
  6
BYBLOCK
 62
     0
100
AcDbPoint
 10
180.5
 20
218.0
 30
0.0
  0
ENDBLK
  5
C0B
100
AcDbEntity
  8
0
100
AcDbBlockEnd
  0
BLOCK
  5
C18
100
AcDbEntity
  8
0
100
AcDbBlockBegin
  2
*D85
 70
     1
 10
0.0
 20
0.0
 30
0.0
  3
*D85
  1

  0
LINE
  5
C0D
100
AcDbEntity
  8
0
  6
BYBLOCK
 62
     0
100
AcDbLine
 10
213.5
 20
233.0
 30
0.0
 11
185.993333
 21
233.0
 31
0.0
  0
LINE
  5
C0E
100
AcDbEntity
  8
0
  6
BYBLOCK
 62
     0
100
AcDbLine
 10
213.5
 20
223.236802
 30
0.0
 11
185.993333
 21
223.236802
 31
0.0
  0
LINE
  5
C0F
100
AcDbEntity
  8
0
  6
BYBLOCK
 62
     0
100
AcDbLine
 10
186.993333
 20
225.236802
 30
0.0
 11
186.993333
 21
231.0
 31
0.0
  0
LINE
  5
C10
100
AcDbEntity
  8
0
  6
BYBLOCK
 62
     0
100
AcDbLine
 10
186.993333
 20
233.0
 30
0.0
 11
186.993333
 21
238.0
 31
0.0
  0
LINE
  5
C11
100
AcDbEntity
  8
0
  6
BYBLOCK
 62
     0
100
AcDbLine
 10
186.993333
 20
238.0
 30
0.0
 11
188.993333
 21
238.0
 31
0.0
  0
SOLID
  5
C12
100
AcDbEntity
  8
0
  6
BYBLOCK
 62
     0
100
AcDbTrace
 10
186.66
 20
225.236802
 30
0.0
 11
187.326667
 21
225.236802
 31
0.0
 12
186.993333
 22
223.236802
 32
0.0
 13
186.993333
 23
223.236802
 33
0.0
  0
SOLID
  5
C13
100
AcDbEntity
  8
0
  6
BYBLOCK
 62
     0
100
AcDbTrace
 10
186.66
 20
231.0
 30
0.0
 11
187.326667
 21
231.0
 31
0.0
 12
186.993333
 22
233.0
 32
0.0
 13
186.993333
 23
233.0
 33
0.0
  0
MTEXT
  5
C14
100
AcDbEntity
  8
0
  6
BYBLOCK
 62
     0
100
AcDbMText
 10
194.5
 20
238.0
 30
0.0
 40
5.0
 41
0.0
 71
     5
 72
     1
  1
\A1;\U+220510
  0
POINT
  5
C15
100
AcDbEntity
  8
DEFPOINTS
  6
BYBLOCK
 62
     0
100
AcDbPoint
 10
214.5
 20
233.0
 30
0.0
  0
POINT
  5
C16
100
AcDbEntity
  8
DEFPOINTS
  6
BYBLOCK
 62
     0
100
AcDbPoint
 10
214.5
 20
223.236802
 30
0.0
  0
POINT
  5
C17
100
AcDbEntity
  8
DEFPOINTS
  6
BYBLOCK
 62
     0
100
AcDbPoint
 10
186.993333
 20
223.236802
 30
0.0
  0
ENDBLK
  5
C19
100
AcDbEntity
  8
0
100
AcDbBlockEnd
  0
BLOCK
  5
C25
100
AcDbEntity
  8
0
100
AcDbBlockBegin
  2
*D86
 70
     1
 10
0.0
 20
0.0
 30
0.0
  3
*D86
  1

  0
LINE
  5
C1B
100
AcDbEntity
  8
0
  6
BYBLOCK
 62
     0
100
AcDbLine
 10
233.5
 20
192.5
 30
0.0
 11
233.5
 21
220.0
 31
0.0
  0
LINE
  5
C1C
100
AcDbEntity
  8
0
  6
BYBLOCK
 62
     0
100
AcDbLine
 10
264.5
 20
190.5
 30
0.0
 11
264.5
 21
220.0
 31
0.0
  0
LINE
  5
C1D
100
AcDbEntity
  8
0
  6
BYBLOCK
 62
     0
100
AcDbLine
 10
235.5
 20
219.0
 30
0.0
 11
245.076667
 21
219.0
 31
0.0
  0
LINE
  5
C1E
100
AcDbEntity
  8
0
  6
BYBLOCK
 62
     0
100
AcDbLine
 10
262.5
 20
219.0
 30
0.0
 11
251.923333
 21
219.0
 31
0.0
  0
SOLID
  5
C1F
100
AcDbEntity
  8
0
  6
BYBLOCK
 62
     0
100
AcDbTrace
 10
235.5
 20
219.333333
 30
0.0
 11
235.5
 21
218.666667
 31
0.0
 12
233.5
 22
219.0
 32
0.0
 13
233.5
 23
219.0
 33
0.0
  0
SOLID
  5
C20
100
AcDbEntity
  8
0
  6
BYBLOCK
 62
     0
100
AcDbTrace
 10
262.5
 20
219.333333
 30
0.0
 11
262.5
 21
218.666667
 31
0.0
 12
264.5
 22
219.0
 32
0.0
 13
264.5
 23
219.0
 33
0.0
  0
MTEXT
  5
C21
100
AcDbEntity
  8
0
  6
BYBLOCK
 62
     0
100
AcDbMText
 10
248.5
 20
219.0
 30
0.0
 40
5.0
 41
0.0
 71
     5
 72
     1
  1
\A1;31
  0
POINT
  5
C22
100
AcDbEntity
  8
DEFPOINTS
  6
BYBLOCK
 62
     0
100
AcDbPoint
 10
233.5
 20
191.5
 30
0.0
  0
POINT
  5
C23
100
AcDbEntity
  8
DEFPOINTS
  6
BYBLOCK
 62
     0
100
AcDbPoint
 10
264.5
 20
189.5
 30
0.0
  0
POINT
  5
C24
100
AcDbEntity
  8
DEFPOINTS
  6
BYBLOCK
 62
     0
100
AcDbPoint
 10
264.5
 20
219.0
 30
0.0
  0
ENDBLK
  5
C26
100
AcDbEntity
  8
0
100
AcDbBlockEnd
  0
BLOCK
  5
C32
100
AcDbEntity
  8
0
100
AcDbBlockBegin
  2
*D87
 70
     1
 10
0.0
 20
0.0
 30
0.0
  3
*D87
  1

  0
LINE
  5
C28
100
AcDbEntity
  8
0
  6
BYBLOCK
 62
     0
100
AcDbLine
 10
250.5
 20
192.5
 30
0.0
 11
250.5
 21
211.0
 31
0.0
  0
LINE
  5
C29
100
AcDbEntity
  8
0
  6
BYBLOCK
 62
     0
100
AcDbLine
 10
264.5
 20
190.5
 30
0.0
 11
264.5
 21
211.0
 31
0.0
  0
LINE
  5
C2A
100
AcDbEntity
  8
0
  6
BYBLOCK
 62
     0
100
AcDbLine
 10
252.5
 20
210.0
 30
0.0
 11
254.076667
 21
210.0
 31
0.0
  0
LINE
  5
C2B
100
AcDbEntity
  8
0
  6
BYBLOCK
 62
     0
100
AcDbLine
 10
262.5
 20
210.0
 30
0.0
 11
260.923333
 21
210.0
 31
0.0
  0
SOLID
  5
C2C
100
AcDbEntity
  8
0
  6
BYBLOCK
 62
     0
100
AcDbTrace
 10
252.5
 20
210.333333
 30
0.0
 11
252.5
 21
209.666667
 31
0.0
 12
250.5
 22
210.0
 32
0.0
 13
250.5
 23
210.0
 33
0.0
  0
SOLID
  5
C2D
100
AcDbEntity
  8
0
  6
BYBLOCK
 62
     0
100
AcDbTrace
 10
262.5
 20
210.333333
 30
0.0
 11
262.5
 21
209.666667
 31
0.0
 12
264.5
 22
210.0
 32
0.0
 13
264.5
 23
210.0
 33
0.0
  0
MTEXT
  5
C2E
100
AcDbEntity
  8
0
  6
BYBLOCK
 62
     0
100
AcDbMText
 10
257.5
 20
210.0
 30
0.0
 40
5.0
 41
0.0
 71
     5
 72
     1
  1
\A1;14
  0
POINT
  5
C2F
100
AcDbEntity
  8
DEFPOINTS
  6
BYBLOCK
 62
     0
100
AcDbPoint
 10
250.5
 20
191.5
 30
0.0
  0
POINT
  5
C30
100
AcDbEntity
  8
DEFPOINTS
  6
BYBLOCK
 62
     0
100
AcDbPoint
 10
264.5
 20
189.5
 30
0.0
  0
POINT
  5
C31
100
AcDbEntity
  8
DEFPOINTS
  6
BYBLOCK
 62
     0
100
AcDbPoint
 10
264.5
 20
210.0
 30
0.0
  0
ENDBLK
  5
C33
100
AcDbEntity
  8
0
100
AcDbBlockEnd
  0
BLOCK
  5
C3F
100
AcDbEntity
  8
0
100
AcDbBlockBegin
  2
*D88
 70
     1
 10
0.0
 20
0.0
 30
0.0
  3
*D88
  1

  0
LINE
  5
C35
100
AcDbEntity
  8
0
  6
BYBLOCK
 62
     0
100
AcDbLine
 10
232.5
 20
191.5
 30
0.0
 11
181.5
 21
191.5
 31
0.0
  0
LINE
  5
C36
100
AcDbEntity
  8
0
  6
BYBLOCK
 62
     0
100
AcDbLine
 10
232.5
 20
155.5
 30
0.0
 11
181.5
 21
155.5
 31
0.0
  0
LINE
  5
C37
100
AcDbEntity
  8
0
  6
BYBLOCK
 62
     0
100
AcDbLine
 10
182.5
 20
189.5
 30
0.0
 11
182.5
 21
177.756667
 31
0.0
  0
LINE
  5
C38
100
AcDbEntity
  8
0
  6
BYBLOCK
 62
     0
100
AcDbLine
 10
182.5
 20
157.5
 30
0.0
 11
182.5
 21
169.243333
 31
0.0
  0
SOLID
  5
C39
100
AcDbEntity
  8
0
  6
BYBLOCK
 62
     0
100
AcDbTrace
 10
182.166667
 20
189.5
 30
0.0
 11
182.833333
 21
189.5
 31
0.0
 12
182.5
 22
191.5
 32
0.0
 13
182.5
 23
191.5
 33
0.0
  0
SOLID
  5
C3A
100
AcDbEntity
  8
0
  6
BYBLOCK
 62
     0
100
AcDbTrace
 10
182.166667
 20
157.5
 30
0.0
 11
182.833333
 21
157.5
 31
0.0
 12
182.5
 22
155.5
 32
0.0
 13
182.5
 23
155.5
 33
0.0
  0
MTEXT
  5
C3B
100
AcDbEntity
  8
0
  6
BYBLOCK
 62
     0
100
AcDbMText
 10
182.5
 20
173.5
 30
0.0
 40
5.0
 41
0.0
 71
     5
 72
     1
  1
\A1;36
 11
0.0
 21
1.0
 31
0.0
  0
POINT
  5
C3C
100
AcDbEntity
  8
DEFPOINTS
  6
BYBLOCK
 62
     0
100
AcDbPoint
 10
233.5
 20
191.5
 30
0.0
  0
POINT
  5
C3D
100
AcDbEntity
  8
DEFPOINTS
  6
BYBLOCK
 62
     0
100
AcDbPoint
 10
233.5
 20
155.5
 30
0.0
  0
POINT
  5
C3E
100
AcDbEntity
  8
DEFPOINTS
  6
BYBLOCK
 62
     0
100
AcDbPoint
 10
182.5
 20
155.5
 30
0.0
  0
ENDBLK
  5
C40
100
AcDbEntity
  8
0
100
AcDbBlockEnd
  0
BLOCK
  5
C4C
100
AcDbEntity
  8
0
100
AcDbBlockBegin
  2
*D89
 70
     1
 10
0.0
 20
0.0
 30
0.0
  3
*D89
  1

  0
LINE
  5
C42
100
AcDbEntity
  8
0
  6
BYBLOCK
 62
     0
100
AcDbLine
 10
232.5
 20
187.5
 30
0.0
 11
190.5
 21
187.5
 31
0.0
  0
LINE
  5
C43
100
AcDbEntity
  8
0
  6
BYBLOCK
 62
     0
100
AcDbLine
 10
232.5
 20
159.5
 30
0.0
 11
190.5
 21
159.5
 31
0.0
  0
LINE
  5
C44
100
AcDbEntity
  8
0
  6
BYBLOCK
 62
     0
100
AcDbLine
 10
191.5
 20
185.5
 30
0.0
 11
191.5
 21
178.256667
 31
0.0
  0
LINE
  5
C45
100
AcDbEntity
  8
0
  6
BYBLOCK
 62
     0
100
AcDbLine
 10
191.5
 20
161.5
 30
0.0
 11
191.5
 21
169.743333
 31
0.0
  0
SOLID
  5
C46
100
AcDbEntity
  8
0
  6
BYBLOCK
 62
     0
100
AcDbTrace
 10
191.166667
 20
185.5
 30
0.0
 11
191.833333
 21
185.5
 31
0.0
 12
191.5
 22
187.5
 32
0.0
 13
191.5
 23
187.5
 33
0.0
  0
SOLID
  5
C47
100
AcDbEntity
  8
0
  6
BYBLOCK
 62
     0
100
AcDbTrace
 10
191.166667
 20
161.5
 30
0.0
 11
191.833333
 21
161.5
 31
0.0
 12
191.5
 22
159.5
 32
0.0
 13
191.5
 23
159.5
 33
0.0
  0
MTEXT
  5
C48
100
AcDbEntity
  8
0
  6
BYBLOCK
 62
     0
100
AcDbMText
 10
191.5
 20
174.0
 30
0.0
 40
5.0
 41
0.0
 71
     5
 72
     1
  1
\A1;28
 11
0.0
 21
1.0
 31
0.0
  0
POINT
  5
C49
100
AcDbEntity
  8
DEFPOINTS
  6
BYBLOCK
 62
     0
100
AcDbPoint
 10
233.5
 20
187.5
 30
0.0
  0
POINT
  5
C4A
100
AcDbEntity
  8
DEFPOINTS
  6
BYBLOCK
 62
     0
100
AcDbPoint
 10
233.5
 20
159.5
 30
0.0
  0
POINT
  5
C4B
100
AcDbEntity
  8
DEFPOINTS
  6
BYBLOCK
 62
     0
100
AcDbPoint
 10
191.5
 20
159.5
 30
0.0
  0
ENDBLK
  5
C4D
100
AcDbEntity
  8
0
100
AcDbBlockEnd
  0
BLOCK
  5
C59
100
AcDbEntity
  8
0
100
AcDbBlockBegin
  2
*D90
 70
     1
 10
0.0
 20
0.0
 30
0.0
  3
*D90
  1

  0
LINE
  5
C4F
100
AcDbEntity
  8
0
  6
BYBLOCK
 62
     0
100
AcDbLine
 10
221.5
 20
123.5
 30
0.0
 11
182.5
 21
123.5
 31
0.0
  0
LINE
  5
C50
100
AcDbEntity
  8
0
  6
BYBLOCK
 62
     0
100
AcDbLine
 10
221.5
 20
103.5
 30
0.0
 11
182.5
 21
103.5
 31
0.0
  0
LINE
  5
C51
100
AcDbEntity
  8
0
  6
BYBLOCK
 62
     0
100
AcDbLine
 10
183.5
 20
121.5
 30
0.0
 11
183.5
 21
116.84
 31
0.0
  0
LINE
  5
C52
100
AcDbEntity
  8
0
  6
BYBLOCK
 62
     0
100
AcDbLine
 10
183.5
 20
105.5
 30
0.0
 11
183.5
 21
109.16
 31
0.0
  0
SOLID
  5
C53
100
AcDbEntity
  8
0
  6
BYBLOCK
 62
     0
100
AcDbTrace
 10
183.166667
 20
121.5
 30
0.0
 11
183.833333
 21
121.5
 31
0.0
 12
183.5
 22
123.5
 32
0.0
 13
183.5
 23
123.5
 33
0.0
  0
SOLID
  5
C54
100
AcDbEntity
  8
0
  6
BYBLOCK
 62
     0
100
AcDbTrace
 10
183.166667
 20
105.5
 30
0.0
 11
183.833333
 21
105.5
 31
0.0
 12
183.5
 22
103.5
 32
0.0
 13
183.5
 23
103.5
 33
0.0
  0
MTEXT
  5
C55
100
AcDbEntity
  8
0
  6
BYBLOCK
 62
     0
100
AcDbMText
 10
183.5
 20
113.0
 30
0.0
 40
5.0
 41
0.0
 71
     5
 72
     1
  1
\A1;20
 11
0.0
 21
1.0
 31
0.0
  0
POINT
  5
C56
100
AcDbEntity
  8
DEFPOINTS
  6
BYBLOCK
 62
     0
100
AcDbPoint
 10
222.5
 20
123.5
 30
5.786942
  0
POINT
  5
C57
100
AcDbEntity
  8
DEFPOINTS
  6
BYBLOCK
 62
     0
100
AcDbPoint
 10
222.5
 20
103.5
 30
5.786942
  0
POINT
  5
C58
100
AcDbEntity
  8
DEFPOINTS
  6
BYBLOCK
 62
     0
100
AcDbPoint
 10
183.5
 20
103.5
 30
0.0
  0
ENDBLK
  5
C5A
100
AcDbEntity
  8
0
100
AcDbBlockEnd
  0
BLOCK
  5
C64
100
AcDbEntity
  8
0
100
AcDbBlockBegin
  2
*D91
 70
     1
 10
0.0
 20
0.0
 30
0.0
  3
*D91
  1

  0
LINE
  5
C5C
100
AcDbEntity
  8
0
  6
BYBLOCK
 62
     0
100
AcDbLine
 10
107.0
 20
278.5
 30
0.0
 11
105.0
 21
278.5
 31
0.0
  0
LINE
  5
C5D
100
AcDbEntity
  8
0
  6
BYBLOCK
 62
     0
100
AcDbLine
 10
105.0
 20
278.5
 30
0.0
 11
99.870851
 21
273.482354
 31
0.0
  0
MTEXT
  5
C5E
100
AcDbEntity
  8
0
  6
BYBLOCK
 62
     0
100
AcDbMText
 10
113.756667
 20
278.5
 30
0.0
 40
5.0
 41
0.0
 71
     5
 72
     1
  1
\A1;\U+220546
  0
SOLID
  5
C5F
100
AcDbEntity
  8
0
  6
BYBLOCK
 62
     0
100
AcDbTrace
 10
99.637753
 20
273.720632
 30
0.0
 11
100.103949
 21
273.244076
 31
0.0
 12
98.441183
 22
272.083766
 32
0.0
 13
98.441183
 23
272.083766
 33
0.0
  0
LINE
  5
C60
100
AcDbEntity
  8
0
  6
BYBLOCK
 62
     0
100
AcDbLine
 10
81.91
 20
256.0
 30
0.0
 11
82.09
 21
256.0
 31
0.0
  0
LINE
  5
C61
100
AcDbEntity
  8
0
  6
BYBLOCK
 62
     0
100
AcDbLine
 10
82.0
 20
255.91
 30
0.0
 11
82.0
 21
256.09
 31
0.0
  0
POINT
  5
C62
100
AcDbEntity
  8
DEFPOINTS
  6
BYBLOCK
 62
     0
100
AcDbPoint
 10
98.441183
 20
272.083766
 30
0.0
  0
POINT
  5
C63
100
AcDbEntity
  8
DEFPOINTS
  6
BYBLOCK
 62
     0
100
AcDbPoint
 10
65.558817
 20
239.916234
 30
0.0
  0
ENDBLK
  5
C65
100
AcDbEntity
  8
0
100
AcDbBlockEnd
  0
BLOCK
  5
C71
100
AcDbEntity
  8
0
100
AcDbBlockBegin
  2
*D92
 70
     1
 10
0.0
 20
0.0
 30
0.0
  3
*D92
  1

  0
LINE
  5
C67
100
AcDbEntity
  8
0
  6
BYBLOCK
 62
     0
100
AcDbLine
 10
264.5
 20
239.0
 30
0.0
 11
264.5
 21
222.050997
 31
0.0
  0
LINE
  5
C68
100
AcDbEntity
  8
0
  6
BYBLOCK
 62
     0
100
AcDbLine
 10
239.5
 20
241.0
 30
0.0
 11
239.5
 21
222.050997
 31
0.0
  0
LINE
  5
C69
100
AcDbEntity
  8
0
  6
BYBLOCK
 62
     0
100
AcDbLine
 10
262.5
 20
223.050997
 30
0.0
 11
256.28257
 21
223.050997
 31
0.0
  0
LINE
  5
C6A
100
AcDbEntity
  8
0
  6
BYBLOCK
 62
     0
100
AcDbLine
 10
241.5
 20
223.050997
 30
0.0
 11
247.769236
 21
223.050997
 31
0.0
  0
SOLID
  5
C6B
100
AcDbEntity
  8
0
  6
BYBLOCK
 62
     0
100
AcDbTrace
 10
262.5
 20
223.38433
 30
0.0
 11
262.5
 21
222.717664
 31
0.0
 12
264.5
 22
223.050997
 32
0.0
 13
264.5
 23
223.050997
 33
0.0
  0
SOLID
  5
C6C
100
AcDbEntity
  8
0
  6
BYBLOCK
 62
     0
100
AcDbTrace
 10
241.5
 20
223.38433
 30
0.0
 11
241.5
 21
222.717664
 31
0.0
 12
239.5
 22
223.050997
 32
0.0
 13
239.5
 23
223.050997
 33
0.0
  0
MTEXT
  5
C6D
100
AcDbEntity
  8
0
  6
BYBLOCK
 62
     0
100
AcDbMText
 10
252.025903
 20
223.050997
 30
0.0
 40
5.0
 41
0.0
 71
     5
 72
     1
  1
\A1;25
  0
POINT
  5
C6E
100
AcDbEntity
  8
DEFPOINTS
  6
BYBLOCK
 62
     0
100
AcDbPoint
 10
264.5
 20
240.0
 30
0.0
  0
POINT
  5
C6F
100
AcDbEntity
  8
DEFPOINTS
  6
BYBLOCK
 62
     0
100
AcDbPoint
 10
239.5
 20
242.0
 30
0.0
  0
POINT
  5
C70
100
AcDbEntity
  8
DEFPOINTS
  6
BYBLOCK
 62
     0
100
AcDbPoint
 10
239.5
 20
223.050997
 30
0.0
  0
ENDBLK
  5
C72
100
AcDbEntity
  8
0
100
AcDbBlockEnd
  0
BLOCK
  5
D25
100
AcDbEntity
  8
0
100
AcDbBlockBegin
  2
A$C0B555716
 70
     0
 10
0.0
 20
0.0
 30
0.0
  3
A$C0B555716
  1

  0
DIMENSION
  5
C74
100
AcDbEntity
  8
0
100
AcDbDimension
  2
*D90
 10
176.0
 20
6.5
 30
0.0
 11
176.0
 21
16.0
 31
0.0
 12
-7.5
 22
-97.0
 32
0.0
 70
   128
  3
STANDARD
100
AcDbAlignedDimension
 13
215.0
 23
26.5
 33
5.786942
 14
215.0
 24
6.5
 34
5.786942
 50
90.0
100
AcDbRotatedDimension
1001
ACAD
1000
DSTYLE
1002
{
1070
    78
1070
     8
1070
   288
1070
     1
1070
   284
1070
     8
1070
   140
1040
5.0
1070
    73
1070
     0
1070
   272
1070
     2
1070
    42
1040
1.0
1070
    44
1040
1.0
1070
   271
1070
     2
1070
    41
1040
2.0
1002
}
  0
DIMENSION
  5
C75
100
AcDbEntity
  8
0
100
AcDbDimension
  2
*D83
 10
160.0
 20
6.5
 30
0.0
 11
160.0
 21
73.0
 31
0.0
 12
-7.5
 22
-97.0
 32
0.0
 70
   128
  1
%%C140
  3
STANDARD
100
AcDbAlignedDimension
 13
75.512475
 23
146.492677
 33
0.0
 14
74.5
 24
6.5
 34
0.0
 50
90.0
100
AcDbRotatedDimension
1001
ACAD
1000
DSTYLE
1002
{
1070
    78
1070
     8
1070
   288
1070
     1
1070
   284
1070
     8
1070
   140
1040
5.0
1070
    73
1070
     0
1070
   272
1070
     2
1070
    42
1040
1.0
1070
    44
1040
1.0
1070
   271
1070
     2
1070
    41
1040
2.0
1002
}
  0
CIRCLE
  5
C76
100
AcDbEntity
  8
3
100
AcDbCircle
 10
74.5
 20
76.5
 30
0.0
 40
70.0
  0
LINE
  5
C77
100
AcDbEntity
  8
1
100
AcDbLine
 10
74.5
 20
155.5
 30
0.0
 11
74.5
 21
0.0
 31
0.0
  0
ARC
  5
C78
100
AcDbEntity
  8
3
100
AcDbCircle
 10
215.0
 20
14.5
 30
5.786942
 40
8.0
100
AcDbArc
 50
270.0
 51
358.932668
  0
LINE
  5
C79
100
AcDbEntity
  8
1
100
AcDbLine
 10
215.0
 20
29.754679
 30
5.786942
 11
215.0
 21
3.429738
 31
5.786942
  0
LINE
  5
C7A
100
AcDbEntity
  8
1
100
AcDbLine
 10
215.0
 20
29.281777
 30
5.786942
 11
215.0
 21
3.272103
 31
5.786942
  0
ARC
  5
C7B
100
AcDbEntity
  8
3
100
AcDbCircle
 10
215.0
 20
14.5
 30
5.786942
 40
8.0
100
AcDbArc
 50
181.067332
 51
270.0
  0
DIMENSION
  5
C7C
100
AcDbEntity
  8
0
100
AcDbDimension
  2
*D84
 10
173.0
 20
121.0
 30
0.0
 11
173.0
 21
133.0
 31
0.0
 12
-7.5
 22
-97.0
 32
0.0
 70
   128
  3
STANDARD
100
AcDbAlignedDimension
 13
215.0
 23
146.5
 33
5.786942
 14
207.0
 24
121.0
 34
0.0
 50
90.0
100
AcDbRotatedDimension
1001
ACAD
1000
DSTYLE
1002
{
1070
    78
1070
     8
1070
   288
1070
     1
1070
   284
1070
     8
1070
   140
1040
5.0
1070
    73
1070
     0
1070
   272
1070
     2
1070
    42
1040
1.0
1070
    44
1040
1.0
1070
   271
1070
     2
1070
    41
1040
2.0
1002
}
  0
DIMENSION
  5
C7D
100
AcDbEntity
  8
0
100
AcDbDimension
  2
*D82
 10
149.0
 20
76.5
 30
0.0
 11
149.0
 21
104.0
 31
0.0
 12
-7.5
 22
-97.0
 32
0.0
 70
   128
  3
STANDARD
100
AcDbAlignedDimension
 13
93.5
 23
131.0
 33
0.0
 14
150.0
 24
76.5
 34
5.786942
 50
90.0
100
AcDbRotatedDimension
1001
ACAD
1000
DSTYLE
1002
{
1070
    78
1070
     8
1070
   288
1070
     1
1070
   284
1070
     8
1070
   140
1040
5.0
1070
    73
1070
     0
1070
   272
1070
     2
1070
    42
1040
1.0
1070
    44
1040
1.0
1070
   271
1070
     2
1070
    41
1040
2.0
1002
}
  0
DIMENSION
  5
C7E
100
AcDbEntity
  8
0
100
AcDbDimension
  2
*D91
 10
58.058817
 20
60.416234
 30
0.0
 11
106.256666
 21
99.0
 31
0.0
 12
-7.5
 22
-179.5
 32
0.0
 70
   131
  3
STANDARD
100
AcDbDiametricDimension
 15
90.941182
 25
92.583765
 35
0.0
 40
0.0
1001
ACAD
1000
DSTYLE
1002
{
1070
    78
1070
     8
1070
   288
1070
     1
1070
   284
1070
     8
1070
   140
1040
5.0
1070
    73
1070
     0
1070
   272
1070
     2
1070
    42
1040
1.0
1070
    44
1040
1.0
1070
   271
1070
     2
1070
    41
1040
2.0
1002
}
  0
ARC
  5
C7F
100
AcDbEntity
  8
3
100
AcDbCircle
 10
74.5
 20
76.5
 30
0.0
 40
23.0
100
AcDbArc
 50
357.143332
 51
62.856668
  0
LINE
  5
C80
100
AcDbEntity
  8
1
100
AcDbLine
 10
74.5
 20
76.5
 30
0.0
 11
138.52147
 21
39.537187
 31
0.0
  0
DIMENSION
  5
C81
100
AcDbEntity
  8
0
100
AcDbDimension
  2
*D79
 10
74.5
 20
131.0
 30
0.0
 11
113.006666
 21
159.5
 31
0.0
 12
-22.5
 22
-97.0
 32
0.0
 70
   132
  3
STANDARD
100
AcDbRadialDimension
 15
67.138324
 25
124.232007
 35
0.0
 40
0.0
1001
ACAD
1000
DSTYLE
1002
{
1070
    78
1070
     8
1070
   288
1070
     1
1070
   284
1070
     8
1070
   140
1040
5.0
1070
    73
1070
     0
1070
   272
1070
     2
1070
   287
1070
     4
1070
    42
1040
1.0
1070
    44
1040
1.0
1070
   271
1070
     2
1070
    41
1040
2.0
1002
}
  0
ARC
  5
C82
100
AcDbEntity
  8
3
100
AcDbCircle
 10
74.5
 20
76.5
 30
0.0
 40
50.0
100
AcDbArc
 50
340.36976
 51
79.63024
  0
ARC
  5
C83
100
AcDbEntity
  8
3
100
AcDbCircle
 10
74.5
 20
76.5
 30
0.0
 40
50.0
100
AcDbArc
 50
220.36976
 51
319.63024
  0
LINE
  5
C84
100
AcDbEntity
  8
3
100
AcDbLine
 10
86.858561
 20
57.240425
 30
0.0
 11
112.594013
 21
44.114106
 31
0.0
  0
ARC
  5
C85
100
AcDbEntity
  8
3
100
AcDbCircle
 10
69.240807
 20
79.536396
 30
0.0
 40
27.091534
100
AcDbArc
 50
309.613664
 51
350.386336
  0
ARC
  5
C86
100
AcDbEntity
  8
3
100
AcDbCircle
 10
74.5
 20
76.5
 30
0.0
 40
62.0
100
AcDbArc
 50
105.647577
 51
74.352423
  0
ARC
  5
C87
100
AcDbEntity
  8
3
100
AcDbCircle
 10
74.5
 20
76.5
 30
0.0
 40
62.0
100
AcDbArc
 50
105.647577
 51
74.352423
  0
CIRCLE
  5
C88
100
AcDbEntity
  8
3
100
AcDbCircle
 10
74.5
 20
131.0
 30
0.0
 40
4.0
  0
CIRCLE
  5
C89
100
AcDbEntity
  8
3
100
AcDbCircle
 10
74.5
 20
131.0
 30
0.0
 40
3.5
  0
CIRCLE
  5
C8A
100
AcDbEntity
  8
3
100
AcDbCircle
 10
74.5
 20
131.0
 30
0.0
 40
5.0
  0
ARC
  5
C8B
100
AcDbEntity
  8
3
100
AcDbCircle
 10
74.5
 20
131.0
 30
0.0
 40
10.0
100
AcDbArc
 50
180.0
 51
0.0
  0
ARC
  5
C8C
100
AcDbEntity
  8
3
100
AcDbCircle
 10
74.5
 20
76.5
 30
0.0
 40
50.0
100
AcDbArc
 50
100.36976
 51
199.63024
  0
CIRCLE
  5
C8D
100
AcDbEntity
  8
0
100
AcDbCircle
 10
74.5
 20
76.5
 30
0.0
 40
14.5
  0
LINE
  5
C8E
100
AcDbEntity
  8
1
100
AcDbLine
 10
74.5
 20
76.5
 30
0.0
 11
10.695036
 21
39.662187
 31
0.0
  0
DIMENSION
  5
C8F
100
AcDbEntity
  8
0
100
AcDbDimension
  2
*D80
 10
60.69907
 20
56.407673
 30
0.0
 11
40.5
 21
82.0
 31
0.0
 12
-22.5
 22
-97.0
 32
0.0
 70
   129
  3
STANDARD
100
AcDbAlignedDimension
 13
52.507464
 23
75.926959
 33
0.0
 14
63.007464
 24
57.740425
 34
0.0
1001
ACAD
1000
DSTYLE
1002
{
1070
    78
1070
     8
1070
   288
1070
     1
1070
   284
1070
     8
1070
   140
1040
5.0
1070
    73
1070
     0
1070
   272
1070
     2
1070
    42
1040
1.0
1070
    44
1040
1.0
1070
   271
1070
     2
1070
    41
1040
2.0
1002
}
  0
LINE
  5
C90
100
AcDbEntity
  8
3
100
AcDbLine
 10
51.49598
 20
75.675139
 30
0.0
 11
27.405986
 21
59.702563
 31
0.0
  0
ARC
  5
C91
100
AcDbEntity
  8
3
100
AcDbCircle
 10
79.613734
 20
79.784576
 30
0.0
 40
27.091534
100
AcDbArc
 50
189.613664
 51
230.386336
  0
CIRCLE
  5
C92
100
AcDbEntity
  8
3
100
AcDbCircle
 10
74.5
 20
76.5
 30
0.0
 40
18.0
  0
LINE
  5
C93
100
AcDbEntity
  8
3
100
AcDbLine
 10
61.99598
 20
57.488605
 30
0.0
 11
36.405986
 21
44.114106
 31
0.0
  0
DIMENSION
  5
C94
100
AcDbEntity
  8
0
100
AcDbDimension
  2
*D81
 10
38.676574
 20
45.42503
 30
0.0
 11
45.5
 21
43.0
 31
0.0
 12
-22.5
 22
-97.0
 32
0.0
 70
   129
  3
STANDARD
100
AcDbAlignedDimension
 13
27.405986
 23
59.702563
 33
0.0
 14
36.405986
 24
44.114106
 34
0.0
1001
ACAD
1000
DSTYLE
1002
{
1070
    78
1070
     8
1070
   288
1070
     1
1070
   284
1070
     8
1070
   140
1040
5.0
1070
    73
1070
     0
1070
   272
1070
     2
1070
    42
1040
1.0
1070
    44
1040
1.0
1070
   271
1070
     2
1070
    41
1040
2.0
1002
}
  0
ARC
  5
C95
100
AcDbEntity
  8
3
100
AcDbCircle
 10
46.944721
 20
60.590952
 30
0.0
 40
20.679523
100
AcDbArc
 50
187.718156
 51
232.281844
  0
ARC
  5
C96
100
AcDbEntity
  8
3
100
AcDbCircle
 10
28.610419
 20
57.909529
 30
0.0
 40
2.160007
100
AcDbArc
 50
123.890403
 51
182.543095
  0
ARC
  5
C97
100
AcDbEntity
  8
3
100
AcDbCircle
 10
35.455389
 20
46.053692
 30
0.0
 40
2.160007
100
AcDbArc
 50
237.456905
 51
296.109597
  0
ARC
  5
C98
100
AcDbEntity
  8
3
100
AcDbCircle
 10
74.5
 20
76.5
 30
0.0
 40
23.0
100
AcDbArc
 50
236.327642
 51
302.856668
  0
ARC
  5
C99
100
AcDbEntity
  8
3
100
AcDbCircle
 10
61.360772
 20
58.396212
 30
0.0
 40
1.107808
100
AcDbArc
 50
304.987081
 51
27.883669
  0
ARC
  5
C9A
100
AcDbEntity
  8
3
100
AcDbCircle
 10
87.493769
 20
58.148032
 30
0.0
 40
1.107808
100
AcDbArc
 50
152.116331
 51
235.012919
  0
ARC
  5
C9B
100
AcDbEntity
  8
3
100
AcDbCircle
 10
74.5
 20
76.5
 30
0.0
 40
23.0
100
AcDbArc
 50
117.143332
 51
182.03425
  0
ARC
  5
C9C
100
AcDbEntity
  8
3
100
AcDbCircle
 10
51.964387
 20
74.671229
 30
0.0
 40
1.107808
100
AcDbArc
 50
32.116331
 51
115.012919
  0
LINE
  5
C9D
100
AcDbEntity
  8
3
100
AcDbLine
 10
64.0
 20
96.832615
 30
0.0
 11
65.5
 21
125.68333
 31
0.0
  0
LINE
  5
C9E
100
AcDbEntity
  8
3
100
AcDbLine
 10
85.0
 20
96.832615
 30
0.0
 11
83.5
 21
125.68333
 31
0.0
  0
ARC
  5
C9F
100
AcDbEntity
  8
3
100
AcDbCircle
 10
74.5
 20
70.427207
 30
0.0
 40
27.091534
100
AcDbArc
 50
69.613664
 51
110.386336
  0
ARC
  5
CA0
100
AcDbEntity
  8
3
100
AcDbCircle
 10
65.103614
 20
96.928918
 30
0.0
 40
1.107808
100
AcDbArc
 50
184.987081
 51
267.883669
  0
ARC
  5
CA1
100
AcDbEntity
  8
3
100
AcDbCircle
 10
83.896385
 20
96.928918
 30
0.0
 40
1.107808
100
AcDbArc
 50
272.116331
 51
355.012919
  0
ARC
  5
CA2
100
AcDbEntity
  8
3
100
AcDbCircle
 10
67.655029
 20
125.536778
 30
0.0
 40
2.160007
100
AcDbArc
 50
158.100789
 51
176.109597
  0
ARC
  5
CA3
100
AcDbEntity
  8
3
100
AcDbCircle
 10
81.34497
 20
125.536778
 30
0.0
 40
2.160007
100
AcDbArc
 50
3.890403
 51
21.899211
  0
LINE
  5
CA4
100
AcDbEntity
  8
1
100
AcDbLine
 10
56.5
 20
131.0
 30
0.0
 11
93.5
 21
131.0
 31
0.0
  0
ARC
  5
CA5
100
AcDbEntity
  8
3
100
AcDbCircle
 10
59.002276
 20
130.840343
 30
0.0
 40
5.5
100
AcDbArc
 50
1.663444
 51
102.868051
  0
ARC
  5
CA6
100
AcDbEntity
  8
3
100
AcDbCircle
 10
89.997724
 20
130.840343
 30
0.0
 40
5.5
100
AcDbArc
 50
77.131949
 51
178.336556
  0
DIMENSION
  5
CA7
100
AcDbEntity
  8
0
100
AcDbDimension
  2
*D85
 10
179.493333
 20
126.236801
 30
0.0
 11
187.0
 21
141.0
 31
0.0
 12
-7.5
 22
-97.0
 32
0.0
 70
   128
  1
%%C10
  3
STANDARD
100
AcDbAlignedDimension
 13
207.0
 23
136.0
 33
0.0
 14
207.0
 24
126.236801
 34
0.0
 50
90.0
100
AcDbRotatedDimension
1001
ACAD
1000
DSTYLE
1002
{
1070
    78
1070
     8
1070
   288
1070
     1
1070
   284
1070
     8
1070
   140
1040
5.0
1070
    73
1070
     0
1070
   272
1070
     2
1070
    42
1040
1.0
1070
    44
1040
1.0
1070
   271
1070
     2
1070
    41
1040
2.0
1002
}
  0
LINE
  5
CA8
100
AcDbEntity
  8
3
100
AcDbLine
 10
223.0
 20
121.108108
 30
0.0
 11
223.0
 21
138.5
 31
0.0
  0
LINE
  5
CA9
100
AcDbEntity
  8
3
100
AcDbLine
 10
208.263198
 20
134.5
 30
0.0
 11
208.263198
 21
127.5
 31
0.0
  0
LINE
  5
CAA
100
AcDbEntity
  8
3
100
AcDbLine
 10
207.763198
 20
135.0
 30
0.0
 11
207.763198
 21
127.0
 31
0.0
  0
LINE
  5
CAB
100
AcDbEntity
  8
3
100
AcDbLine
 10
207.0
 20
138.5
 30
0.0
 11
207.0
 21
76.5
 31
0.0
  0
DIMENSION
  5
CAC
100
AcDbEntity
  8
0
100
AcDbDimension
  2
*D88
 10
175.0
 20
58.5
 30
0.0
 11
175.0
 21
76.5
 31
0.0
 12
-7.5
 22
-97.0
 32
0.0
 70
   128
  3
STANDARD
100
AcDbAlignedDimension
 13
226.0
 23
94.5
 33
0.0
 14
226.0
 24
58.5
 34
0.0
 50
90.0
100
AcDbRotatedDimension
1001
ACAD
1000
DSTYLE
1002
{
1070
    78
1070
     8
1070
   288
1070
     1
1070
   284
1070
     8
1070
   140
1040
5.0
1070
    73
1070
     0
1070
   272
1070
     2
1070
    42
1040
1.0
1070
    44
1040
1.0
1070
   271
1070
     2
1070
    41
1040
2.0
1002
}
  0
LINE
  5
CAD
100
AcDbEntity
  8
3
100
AcDbLine
 10
97.358561
 20
75.426959
 30
0.0
 11
121.594013
 21
59.702563
 31
0.0
  0
ARC
  5
CAE
100
AcDbEntity
  8
3
100
AcDbCircle
 10
102.055279
 20
60.590952
 30
0.0
 40
20.679523
100
AcDbArc
 50
307.718156
 51
352.281844
  0
ARC
  5
CAF
100
AcDbEntity
  8
3
100
AcDbCircle
 10
113.54461
 20
46.053692
 30
0.0
 40
2.160007
100
AcDbArc
 50
243.890403
 51
302.543095
  0
ARC
  5
CB0
100
AcDbEntity
  8
3
100
AcDbCircle
 10
120.38958
 20
57.909529
 30
0.0
 40
2.160007
100
AcDbArc
 50
357.456905
 51
56.109597
  0
ARC
  5
CB1
100
AcDbEntity
  8
3
100
AcDbCircle
 10
96.890154
 20
74.423049
 30
0.0
 40
1.107808
100
AcDbArc
 50
64.987081
 51
147.883669
  0
DIMENSION
  5
CB2
100
AcDbEntity
  8
0
100
AcDbDimension
  2
*D89
 10
190.0
 20
62.5
 30
0.0
 11
190.0
 21
77.0
 31
0.0
 12
-1.5
 22
-97.0
 32
0.0
 70
   128
  3
STANDARD
100
AcDbAlignedDimension
 13
232.0
 23
90.5
 33
0.0
 14
232.0
 24
62.5
 34
0.0
 50
90.0
100
AcDbRotatedDimension
1001
ACAD
1000
DSTYLE
1002
{
1070
    78
1070
     8
1070
   288
1070
     1
1070
   284
1070
     8
1070
   140
1040
5.0
1070
    73
1070
     0
1070
   272
1070
     2
1070
    42
1040
1.0
1070
    44
1040
1.0
1070
   271
1070
     2
1070
    41
1040
2.0
1002
}
  0
LINE
  5
CB3
100
AcDbEntity
  8
3
100
AcDbLine
 10
214.800284
 20
61.309228
 30
0.0
 11
226.070337
 21
71.182311
 31
0.0
  0
ARC
  5
CB4
100
AcDbEntity
  8
2
100
AcDbCircle
 10
243.006048
 20
66.75
 30
0.0
 40
15.140007
100
AcDbArc
 50
149.210275
 51
210.789725
  0
ARC
  5
CB5
100
AcDbEntity
  8
2
100
AcDbCircle
 10
222.780632
 20
66.75
 30
0.0
 40
14.894456
100
AcDbArc
 50
328.645756
 51
31.354244
  0
LINE
  5
CB6
100
AcDbEntity
  8
3
100
AcDbLine
 10
226.0
 20
60.5
 30
0.0
 11
226.0
 21
76.5
 31
0.0
  0
LINE
  5
CB7
100
AcDbEntity
  8
3
100
AcDbLine
 10
257.0
 20
76.5
 30
0.0
 11
257.0
 21
60.5
 31
0.0
  0
LINE
  5
CB8
100
AcDbEntity
  8
3
100
AcDbLine
 10
207.0
 20
14.5
 30
0.0
 11
207.0
 21
76.5
 31
0.0
  0
LINE
  5
CB9
100
AcDbEntity
  8
1
100
AcDbLine
 10
233.0
 20
76.5
 30
0.0
 11
233.0
 21
51.775201
 31
0.0
  0
LINE
  5
CBA
100
AcDbEntity
  8
3
100
AcDbLine
 10
223.0
 20
76.5
 30
0.0
 11
223.0
 21
68.492555
 31
0.0
  0
LINE
  5
CBB
100
AcDbEntity
  8
3
100
AcDbLine
 10
219.956178
 20
48.425742
 30
0.0
 11
230.149232
 21
55.25079
 31
0.0
  0
LINE
  5
CBC
100
AcDbEntity
  8
3
100
AcDbLine
 10
223.0
 20
50.463819
 30
0.0
 11
223.0
 21
14.5
 31
0.0
  0
ARC
  5
CBD
100
AcDbEntity
  8
3
100
AcDbCircle
 10
223.676222
 20
51.839778
 30
0.0
 40
12.849153
100
AcDbArc
 50
161.547568
 51
209.564332
  0
ARC
  5
CBE
100
AcDbEntity
  8
3
100
AcDbCircle
 10
215.032821
 20
47.130715
 30
0.0
 40
3.012377
100
AcDbArc
 50
212.774801
 51
328.369965
  0
ARC
  5
CBF
100
AcDbEntity
  8
3
100
AcDbCircle
 10
240.88298
 20
28.852819
 30
0.0
 40
28.653627
100
AcDbArc
 50
136.914647
 51
144.355294
  0
ARC
  5
CC0
100
AcDbEntity
  8
3
100
AcDbCircle
 10
222.028118
 20
53.160565
 30
0.0
 40
10.892304
100
AcDbArc
 50
131.572905
 51
165.396871
  0
CIRCLE
  5
CC1
100
AcDbEntity
  8
0
100
AcDbCircle
 10
243.946668
 20
43.406278
 30
0.0
 40
7.240436
  0
DIMENSION
  5
CC2
100
AcDbEntity
  8
0
100
AcDbDimension
  2
*D92
 10
232.0
 20
43.550997
 30
0.0
 11
244.525903
 21
43.550997
 31
0.0
 12
-7.5
 22
-179.5
 32
0.0
 70
   128
  3
STANDARD
100
AcDbAlignedDimension
 13
257.0
 23
60.5
 33
0.0
 14
232.0
 24
62.5
 34
0.0
100
AcDbRotatedDimension
1001
ACAD
1000
DSTYLE
1002
{
1070
    78
1070
     8
1070
   288
1070
     1
1070
   284
1070
     8
1070
   140
1040
5.0
1070
    73
1070
     0
1070
   272
1070
     2
1070
    42
1040
1.0
1070
    44
1040
1.0
1070
   271
1070
     2
1070
    41
1040
2.0
1002
}
  0
LINE
  5
CC3
100
AcDbEntity
  8
3
100
AcDbLine
 10
257.0
 20
60.5
 30
0.0
 11
243.0
 21
60.5
 31
0.0
  0
LINE
  5
CC4
100
AcDbEntity
  8
3
100
AcDbLine
 10
257.0
 20
60.5
 30
0.0
 11
243.0
 21
60.5
 31
0.0
  0
ARC
  5
CC5
100
AcDbEntity
  8
3
100
AcDbCircle
 10
233.892857
 20
64.214285
 30
0.0
 40
10.751424
100
AcDbArc
 50
265.236358
 51
327.893744
  0
ARC
  5
CC6
100
AcDbEntity
  8
3
100
AcDbCircle
 10
233.125
 20
61.075
 30
0.0
 40
7.576031
100
AcDbArc
 50
199.870034
 51
269.054611
  0
ARC
  5
CC7
100
AcDbEntity
  8
3
100
AcDbCircle
 10
238.0
 20
53.75
 30
0.0
 40
9.25
100
AcDbArc
 50
71.075356
 51
108.924644
  0
ARC
  5
CC8
100
AcDbEntity
  8
2
100
AcDbCircle
 10
232.75
 20
61.347409
 30
0.0
 40
3.615637
100
AcDbArc
 50
220.484186
 51
319.515814
  0
LINE
  5
CC9
100
AcDbEntity
  8
3
100
AcDbLine
 10
235.0
 20
64.0
 30
0.0
 11
241.0
 21
64.0
 31
0.0
  0
LINE
  5
CCA
100
AcDbEntity
  8
3
100
AcDbLine
 10
238.0
 20
66.0
 30
0.0
 11
235.0
 21
64.0
 31
0.0
  0
LINE
  5
CCB
100
AcDbEntity
  8
3
100
AcDbLine
 10
226.0
 20
60.5
 30
0.0
 11
226.0
 21
58.5
 31
0.0
  0
LINE
  5
CCC
100
AcDbEntity
  8
2
100
AcDbLine
 10
230.149232
 20
55.25079
 30
0.0
 11
234.640548
 21
58.267597
 31
0.0
  0
LINE
  5
CCD
100
AcDbEntity
  8
3
100
AcDbLine
 10
232.0
 20
62.5
 30
0.0
 11
226.0
 21
62.5
 31
0.0
  0
LINE
  5
CCE
100
AcDbEntity
  8
3
100
AcDbLine
 10
235.0
 20
62.5
 30
0.0
 11
232.0
 21
62.5
 31
0.0
  0
LINE
  5
CCF
100
AcDbEntity
  8
3
100
AcDbLine
 10
235.0
 20
62.5
 30
0.0
 11
235.0
 21
64.0
 31
0.0
  0
LINE
  5
CD0
100
AcDbEntity
  8
3
100
AcDbLine
 10
243.0
 20
60.5
 30
0.0
 11
243.0
 21
62.5
 31
0.0
  0
LINE
  5
CD1
100
AcDbEntity
  8
3
100
AcDbLine
 10
243.0
 20
62.5
 30
0.0
 11
243.0
 21
58.5
 31
0.0
  0
LINE
  5
CD2
100
AcDbEntity
  8
3
100
AcDbLine
 10
241.0
 20
64.0
 30
0.0
 11
238.0
 21
66.0
 31
0.0
  0
LINE
  5
CD3
100
AcDbEntity
  8
3
100
AcDbLine
 10
243.0
 20
62.5
 30
0.0
 11
241.0
 21
62.5
 31
0.0
  0
LINE
  5
CD4
100
AcDbEntity
  8
3
100
AcDbLine
 10
241.0
 20
64.0
 30
0.0
 11
241.0
 21
62.5
 31
0.0
  0
LINE
  5
CD5
100
AcDbEntity
  8
3
100
AcDbLine
 10
236.387796
 20
101.869091
 30
0.0
 11
221.995712
 21
122.655254
 31
0.0
  0
LINE
  5
CD6
100
AcDbEntity
  8
3
100
AcDbLine
 10
226.521712
 20
101.046395
 30
0.0
 11
213.877193
 21
121.0
 31
0.0
  0
LINE
  5
CD7
100
AcDbEntity
  8
3
100
AcDbLine
 10
223.0
 20
76.5
 30
0.0
 11
223.0
 21
106.142857
 31
0.0
  0
LINE
  5
CD8
100
AcDbEntity
  8
3
100
AcDbLine
 10
216.5
 20
126.5
 30
0.0
 11
213.5
 21
126.5
 31
0.0
  0
LINE
  5
CD9
100
AcDbEntity
  8
3
100
AcDbLine
 10
221.995712
 20
127.5
 30
0.0
 11
208.263198
 21
127.5
 31
0.0
  0
LINE
  5
CDA
100
AcDbEntity
  8
3
100
AcDbLine
 10
221.995712
 20
127.0
 30
0.0
 11
207.763198
 21
127.0
 31
0.0
  0
LINE
  5
CDB
100
AcDbEntity
  8
3
100
AcDbLine
 10
207.0
 20
121.0
 30
0.0
 11
213.877193
 21
121.0
 31
0.0
  0
LINE
  5
CDC
100
AcDbEntity
  8
3
100
AcDbLine
 10
213.5
 20
126.0
 30
0.0
 11
207.0
 21
126.0
 31
0.0
  0
LWPOLYLINE
  5
CDD
100
AcDbEntity
  8
3
100
AcDbPolyline
 90
        2
 70
     0
 43
0.0
 10
207.0
 20
126.236801
 10
208.263198
 20
127.5
  0
LINE
  5
CDE
100
AcDbEntity
  8
3
100
AcDbLine
 10
213.5
 20
126.5
 30
0.0
 11
213.5
 21
126.0
 31
0.0
  0
LINE
  5
CDF
100
AcDbEntity
  8
3
100
AcDbLine
 10
221.995712
 20
126.0
 30
0.0
 11
216.5
 21
126.0
 31
0.0
  0
LINE
  5
CE0
100
AcDbEntity
  8
3
100
AcDbLine
 10
216.5
 20
126.0
 30
0.0
 11
216.5
 21
126.5
 31
0.0
  0
ARC
  5
CE1
100
AcDbEntity
  8
3
100
AcDbCircle
 10
233.892857
 20
88.785714
 30
0.0
 40
10.751424
100
AcDbArc
 50
32.106256
 51
94.763642
  0
ARC
  5
CE2
100
AcDbEntity
  8
3
100
AcDbCircle
 10
233.125
 20
91.925
 30
0.0
 40
7.576031
100
AcDbArc
 50
90.945389
 51
160.129966
  0
MTEXT
  5
CE3
102
{ACAD_REACTORS
330
CE4
102
}
100
AcDbEntity
  8
0
100
AcDbMText
 10
264.59
 20
104.5
 30
0.0
 40
5.0
 41
0.0
 71
     4
 72
     1
  1
\A1;C1
  0
LEADER
  5
CE4
100
AcDbEntity
  8
0
100
AcDbLeader
  3
STANDARD
 73
     0
 40
5.0
 41
6.666667
 76
     3
 10
257.0
 20
92.5
 30
0.0
 10
263.5
 20
104.5
 30
0.0
 10
264.5
 20
104.5
 30
0.0
 77
   256
340
CE3
1001
ACAD
1000
DSTYLE
1002
{
1070
    78
1070
     8
1070
   288
1070
     1
1070
   284
1070
     8
1070
   140
1040
5.0
1070
    73
1070
     0
1070
   272
1070
     2
1070
    42
1040
1.0
1070
    44
1040
1.0
1070
   271
1070
     2
1070
    41
1040
2.0
1002
}
  0
DIMENSION
  5
CE5
100
AcDbEntity
  8
0
100
AcDbDimension
  2
*D87
 10
257.0
 20
113.0
 30
0.0
 11
250.0
 21
113.0
 31
0.0
 12
-7.5
 22
-97.0
 32
0.0
 70
   128
  3
STANDARD
100
AcDbAlignedDimension
 13
243.0
 23
94.5
 33
0.0
 14
257.0
 24
92.5
 34
0.0
100
AcDbRotatedDimension
1001
ACAD
1000
DSTYLE
1002
{
1070
    78
1070
     8
1070
   288
1070
     1
1070
   284
1070
     8
1070
   140
1040
5.0
1070
    73
1070
     0
1070
   272
1070
     2
1070
    42
1040
1.0
1070
    44
1040
1.0
1070
   271
1070
     2
1070
    41
1040
2.0
1002
}
  0
DIMENSION
  5
CE6
100
AcDbEntity
  8
0
100
AcDbDimension
  2
*D86
 10
257.0
 20
122.0
 30
0.0
 11
241.0
 21
122.0
 31
0.0
 12
-7.5
 22
-97.0
 32
0.0
 70
   128
  3
STANDARD
100
AcDbAlignedDimension
 13
226.0
 23
94.5
 33
0.0
 14
257.0
 24
92.5
 34
0.0
100
AcDbRotatedDimension
1001
ACAD
1000
DSTYLE
1002
{
1070
    78
1070
     8
1070
   288
1070
     1
1070
   284
1070
     8
1070
   140
1040
5.0
1070
    73
1070
     0
1070
   272
1070
     2
1070
    42
1040
1.0
1070
    44
1040
1.0
1070
   271
1070
     2
1070
    41
1040
2.0
1002
}
  0
ARC
  5
CE7
100
AcDbEntity
  8
3
100
AcDbCircle
 10
228.0
 20
96.424381
 30
0.0
 40
10.0
100
AcDbArc
 50
13.972504
 51
32.988522
  0
ARC
  5
CE8
100
AcDbEntity
  8
3
100
AcDbCircle
 10
218.0
 20
95.813765
 30
0.0
 40
10.0
100
AcDbArc
 50
9.053996
 51
31.551385
  0
LINE
  5
CE9
100
AcDbEntity
  8
1
100
AcDbLine
 10
233.0
 20
76.5
 30
0.0
 11
233.0
 21
111.0
 31
0.0
  0
LINE
  5
CEA
100
AcDbEntity
  8
3
100
AcDbLine
 10
257.0
 20
92.5
 30
0.0
 11
243.0
 21
92.5
 31
0.0
  0
LINE
  5
CEB
100
AcDbEntity
  8
3
100
AcDbLine
 10
257.0
 20
92.5
 30
0.0
 11
243.0
 21
92.5
 31
0.0
  0
LINE
  5
CEC
100
AcDbEntity
  8
3
100
AcDbLine
 10
226.0
 20
92.5
 30
0.0
 11
226.0
 21
76.5
 31
0.0
  0
CIRCLE
  5
CED
100
AcDbEntity
  8
2
100
AcDbCircle
 10
238.033532
 20
76.446916
 30
0.0
 40
3.0
  0
ARC
  5
CEE
100
AcDbEntity
  8
2
100
AcDbCircle
 10
232.75
 20
72.585514
 30
0.0
 40
3.350785
100
AcDbArc
 50
34.844738
 51
145.155262
  0
LINE
  5
CEF
100
AcDbEntity
  8
2
100
AcDbLine
 10
226.070337
 20
71.182311
 30
0.0
 11
230.3564
 21
74.919785
 31
0.0
  0
ARC
  5
CF0
100
AcDbEntity
  8
3
100
AcDbCircle
 10
238.0
 20
99.25
 30
0.0
 40
9.25
100
AcDbArc
 50
251.075356
 51
288.924644
  0
LINE
  5
CF1
100
AcDbEntity
  8
3
100
AcDbLine
 10
238.0
 20
87.0
 30
0.0
 11
235.0
 21
89.0
 31
0.0
  0
LINE
  5
CF2
100
AcDbEntity
  8
3
100
AcDbLine
 10
235.0
 20
89.0
 30
0.0
 11
241.0
 21
89.0
 31
0.0
  0
LINE
  5
CF3
100
AcDbEntity
  8
3
100
AcDbLine
 10
232.0
 20
90.5
 30
0.0
 11
226.0
 21
90.5
 31
0.0
  0
LINE
  5
CF4
100
AcDbEntity
  8
3
100
AcDbLine
 10
235.0
 20
90.5
 30
0.0
 11
232.0
 21
90.5
 31
0.0
  0
LINE
  5
CF5
100
AcDbEntity
  8
3
100
AcDbLine
 10
235.0
 20
90.5
 30
0.0
 11
235.0
 21
89.0
 31
0.0
  0
LINE
  5
CF6
100
AcDbEntity
  8
3
100
AcDbLine
 10
226.0
 20
92.5
 30
0.0
 11
226.0
 21
94.5
 31
0.0
  0
LINE
  5
CF7
100
AcDbEntity
  8
3
100
AcDbLine
 10
243.0
 20
90.5
 30
0.0
 11
243.0
 21
94.5
 31
0.0
  0
LINE
  5
CF8
100
AcDbEntity
  8
3
100
AcDbLine
 10
243.0
 20
92.5
 30
0.0
 11
243.0
 21
90.5
 31
0.0
  0
LINE
  5
CF9
100
AcDbEntity
  8
3
100
AcDbLine
 10
241.0
 20
89.0
 30
0.0
 11
238.0
 21
87.0
 31
0.0
  0
LINE
  5
CFA
100
AcDbEntity
  8
3
100
AcDbLine
 10
243.0
 20
90.5
 30
0.0
 11
241.0
 21
90.5
 31
0.0
  0
LINE
  5
CFB
100
AcDbEntity
  8
3
100
AcDbLine
 10
241.0
 20
89.0
 30
0.0
 11
241.0
 21
90.5
 31
0.0
  0
LINE
  5
CFC
100
AcDbEntity
  8
3
100
AcDbLine
 10
257.0
 20
76.5
 30
0.0
 11
257.0
 21
92.5
 31
0.0
  0
MTEXT
  5
CFD
102
{ACAD_REACTORS
330
CFE
102
}
100
AcDbEntity
  8
0
100
AcDbMText
 10
259.59
 20
141.5
 30
0.0
 40
5.0
 41
0.0
 71
     4
 72
     1
  1
\A1;M8-P1.25
  0
LEADER
  5
CFE
100
AcDbEntity
  8
0
100
AcDbLeader
  3
STANDARD
 73
     0
 74
     0
 75
     1
 40
5.0
 41
33.333333
 76
     3
 10
223.0
 20
131.0
 30
0.0
 10
257.5
 20
141.5
 30
0.0
 10
259.5
 20
141.5
 30
0.0
 77
   256
340
CFD
1001
ACAD
1000
DSTYLE
1002
{
1070
    78
1070
     8
1070
   288
1070
     1
1070
   284
1070
     8
1070
   140
1040
5.0
1070
    73
1070
     0
1070
   272
1070
     2
1070
    42
1040
1.0
1070
    44
1040
1.0
1070
   271
1070
     2
1070
    41
1040
2.0
1002
}
  0
LINE
  5
CFF
100
AcDbEntity
  8
1
100
AcDbLine
 10
202.0
 20
131.0
 30
0.0
 11
225.5
 21
131.0
 31
0.0
  0
LINE
  5
D00
100
AcDbEntity
  8
3
100
AcDbLine
 10
213.5
 20
135.5
 30
0.0
 11
216.5
 21
135.5
 31
0.0
  0
LINE
  5
D01
100
AcDbEntity
  8
3
100
AcDbLine
 10
208.263198
 20
134.5
 30
0.0
 11
221.995712
 21
134.5
 31
0.0
  0
LINE
  5
D02
100
AcDbEntity
  8
3
100
AcDbLine
 10
207.763198
 20
135.0
 30
0.0
 11
221.995712
 21
135.0
 31
0.0
  0
LINE
  5
D03
100
AcDbEntity
  8
3
100
AcDbLine
 10
207.0
 20
136.0
 30
0.0
 11
213.5
 21
136.0
 31
0.0
  0
LWPOLYLINE
  5
D04
100
AcDbEntity
  8
3
100
AcDbPolyline
 90
        2
 70
     0
 43
0.0
 10
208.263198
 20
134.5
 10
207.0
 20
135.763198
  0
LINE
  5
D05
100
AcDbEntity
  8
3
100
AcDbLine
 10
213.5
 20
136.0
 30
0.0
 11
213.5
 21
135.5
 31
0.0
  0
LINE
  5
D06
100
AcDbEntity
  8
3
100
AcDbLine
 10
216.5
 20
136.0
 30
0.0
 11
221.995712
 21
136.0
 31
0.0
  0
LINE
  5
D07
100
AcDbEntity
  8
3
100
AcDbLine
 10
216.5
 20
135.5
 30
0.0
 11
216.5
 21
136.0
 31
0.0
  0
LINE
  5
D08
100
AcDbEntity
  8
1
100
AcDbLine
 10
150.0
 20
76.5
 30
5.786942
 11
0.0
 21
76.5
 31
5.786942
  0
TEXT
  5
D09
100
AcDbEntity
  8
0
100
AcDbText
 10
6.797275
 20
36.956114
 30
11.224121
 40
2.8
  1
A
 41
0.7
  7
BIGFONT
100
AcDbText
  0
TEXT
  5
D0A
100
AcDbEntity
  8
0
100
AcDbText
 10
76.297275
 20
78.456114
 30
11.224121
 40
2.8
  1
A
 41
0.7
  7
BIGFONT
100
AcDbText
  0
LINE
  5
D0B
100
AcDbEntity
  8
3
100
AcDbLine
 10
221.995712
 20
138.035358
 30
5.786942
 11
221.995712
 21
122.655254
 31
5.786942
  0
LINE
  5
D0C
100
AcDbEntity
  8
1
100
AcDbLine
 10
215.0
 20
123.718222
 30
5.786942
 11
215.0
 21
149.727896
 31
5.786942
  0
LINE
  5
D0D
100
AcDbEntity
  8
1
100
AcDbLine
 10
215.0
 20
123.24532
 30
5.786942
 11
215.0
 21
149.570261
 31
5.786942
  0
LINE
  5
D0E
100
AcDbEntity
  8
3
100
AcDbLine
 10
219.235171
 20
65.194392
 30
5.786942
 11
219.235171
 21
112.274149
 31
5.786942
  0
LINE
  5
D0F
100
AcDbEntity
  8
1
100
AcDbLine
 10
215.0
 20
29.754679
 30
5.786942
 11
215.0
 21
76.5
 31
5.786942
  0
MTEXT
  5
D10
102
{ACAD_REACTORS
330
D11
102
}
100
AcDbEntity
  8
0
100
AcDbMText
 10
230.59
 20
30.0
 30
5.786942
 40
5.0
 41
0.0
 71
     4
 72
     1
  1
\A1;R0.5
  0
LEADER
  5
D11
100
AcDbEntity
  8
0
100
AcDbLeader
  3
STANDARD
 73
     0
 74
     0
 75
     1
 40
5.0
 41
14.166667
 76
     3
 10
219.235171
 20
24.15769
 30
5.786942
 10
228.5
 20
30.0
 30
5.786942
 10
230.5
 20
30.0
 30
5.786942
 77
   256
340
D10
1001
ACAD
1000
DSTYLE
1002
{
1070
    78
1070
     8
1070
   288
1070
     1
1070
   284
1070
     8
1070
   140
1040
5.0
1070
    73
1070
     0
1070
   272
1070
     2
1070
    42
1040
1.0
1070
    44
1040
1.0
1070
   271
1070
     2
1070
    41
1040
2.0
1002
}
  0
MTEXT
  5
D12
102
{ACAD_REACTORS
330
D13
102
}
100
AcDbEntity
  8
0
100
AcDbMText
 10
234.59
 20
20.0
 30
5.786942
 40
5.0
 41
0.0
 71
     4
 72
     1
  1
\A1;R0.5
  0
LEADER
  5
D13
100
AcDbEntity
  8
0
100
AcDbLeader
  3
STANDARD
 73
     0
 40
5.0
 41
14.166667
 76
     3
 10
222.936086
 20
14.5
 30
5.786942
 10
233.5
 20
20.0
 30
5.786942
 10
234.5
 20
20.0
 30
5.786942
 77
   256
340
D12
1001
ACAD
1000
DSTYLE
1002
{
1070
    78
1070
     8
1070
   288
1070
     1
1070
   284
1070
     8
1070
   140
1040
5.0
1070
    73
1070
     0
1070
   272
1070
     2
1070
    42
1040
1.0
1070
    44
1040
1.0
1070
   271
1070
     2
1070
    41
1040
2.0
1002
}
  0
LINE
  5
D14
100
AcDbEntity
  8
1
100
AcDbLine
 10
203.5
 20
14.5
 30
5.786942
 11
225.759055
 21
14.5
 31
5.786942
  0
ARC
  5
D15
100
AcDbEntity
  8
3
100
AcDbCircle
 10
215.0
 20
21.5
 30
5.786942
 40
5.0
100
AcDbArc
 50
32.109439
 51
90.0
  0
ARC
  5
D16
100
AcDbEntity
  8
3
100
AcDbCircle
 10
215.0
 20
21.5
 30
5.786942
 40
5.0
100
AcDbArc
 50
90.0
 51
147.890561
  0
ARC
  5
D17
100
AcDbEntity
  8
3
100
AcDbCircle
 10
226.0
 20
14.571787
 30
5.786942
 40
18.0
100
AcDbArc
 50
147.769398
 51
178.749408
  0
ARC
  5
D18
100
AcDbEntity
  8
3
100
AcDbCircle
 10
207.804335
 20
14.969006
 30
5.786942
 40
0.2
100
AcDbArc
 50
287.842417
 51
358.749408
  0
LINE
  5
D19
100
AcDbEntity
  8
3
100
AcDbLine
 10
207.140073
 20
14.545087
 30
5.786942
 11
207.865615
 21
14.778625
 31
5.786942
  0
ARC
  5
D1A
100
AcDbEntity
  8
3
100
AcDbCircle
 10
207.201353
 20
14.354706
 30
5.786942
 40
0.2
100
AcDbArc
 50
107.842417
 51
181.067332
  0
ARC
  5
D1B
100
AcDbEntity
  8
3
100
AcDbCircle
 10
229.972974
 20
22.742804
 30
5.786942
 40
10.837971
100
AcDbArc
 50
172.446775
 51
229.512589
  0
ARC
  5
D1C
100
AcDbEntity
  8
3
100
AcDbCircle
 10
204.0
 20
14.571787
 30
5.786942
 40
18.0
100
AcDbArc
 50
32.177922
 51
32.230602
  0
LINE
  5
D1D
100
AcDbEntity
  8
1
100
AcDbLine
 10
202.5
 20
76.5
 30
5.786942
 11
262.0
 21
76.5
 31
5.786942
  0
LINE
  5
D1E
100
AcDbEntity
  8
1
100
AcDbLine
 10
215.0
 20
123.24532
 30
5.786942
 11
215.0
 21
76.5
 31
5.786942
  0
LINE
  5
D1F
100
AcDbEntity
  8
1
100
AcDbLine
 10
203.5
 20
138.5
 30
5.786942
 11
225.759055
 21
138.5
 31
5.786942
  0
ARC
  5
D20
100
AcDbEntity
  8
3
100
AcDbCircle
 10
215.0
 20
138.5
 30
5.786942
 40
8.0
100
AcDbArc
 50
1.067332
 51
90.0
  0
ARC
  5
D21
100
AcDbEntity
  8
3
100
AcDbCircle
 10
215.0
 20
138.5
 30
5.786942
 40
8.0
100
AcDbArc
 50
90.0
 51
178.932668
  0
ARC
  5
D22
100
AcDbEntity
  8
3
100
AcDbCircle
 10
222.195664
 20
138.030993
 30
5.786942
 40
0.2
100
AcDbArc
 50
107.842417
 51
178.749408
  0
ARC
  5
D23
100
AcDbEntity
  8
3
100
AcDbCircle
 10
222.798646
 20
138.645293
 30
5.786942
 40
0.2
100
AcDbArc
 50
287.842417
 51
1.067332
  0
LINE
  5
D24
100
AcDbEntity
  8
3
100
AcDbLine
 10
222.859926
 20
138.454913
 30
5.786942
 11
222.134384
 21
138.221374
 31
5.786942
  0
ENDBLK
  5
D26
100
AcDbEntity
  8
0
100
AcDbBlockEnd
  0
BLOCK
  5
E83
100
AcDbEntity
  8
0
100
AcDbBlockBegin
  2
*D94
 70
     1
 10
0.0
 20
0.0
 30
0.0
  3
*D94
  1

  0
LINE
  5
E84
100
AcDbEntity
  8
0
  6
BYBLOCK
 62
     0
100
AcDbLine
 10
231.148404
 20
43.534159
 30
0.0
 11
192.148404
 21
43.534159
 31
0.0
  0
LINE
  5
E85
100
AcDbEntity
  8
0
  6
BYBLOCK
 62
     0
100
AcDbLine
 10
231.148404
 20
23.534159
 30
0.0
 11
192.148404
 21
23.534159
 31
0.0
  0
LINE
  5
E86
100
AcDbEntity
  8
0
  6
BYBLOCK
 62
     0
100
AcDbLine
 10
193.148404
 20
41.534159
 30
0.0
 11
193.148404
 21
40.624159
 31
0.0
  0
LINE
  5
E87
100
AcDbEntity
  8
0
  6
BYBLOCK
 62
     0
100
AcDbLine
 10
193.148404
 20
25.534159
 30
0.0
 11
193.148404
 21
25.624159
 31
0.0
  0
MTEXT
  5
E88
100
AcDbEntity
  8
0
  6
BYBLOCK
 62
     0
100
AcDbMText
 10
193.148404
 20
33.034159
 30
0.0
 40
10.0
 41
0.0
 71
     5
 72
     1
  1
\A1;20
  7
BIGFONT
 11
0.0
 21
1.0
 31
0.0
  0
SOLID
  5
E89
100
AcDbEntity
  8
0
  6
BYBLOCK
 62
     0
100
AcDbTrace
 10
192.81507
 20
41.534159
 30
0.0
 11
193.481737
 21
41.534159
 31
0.0
 12
193.148404
 22
43.534159
 32
0.0
 13
193.148404
 23
43.534159
 33
0.0
  0
SOLID
  5
E8A
100
AcDbEntity
  8
0
  6
BYBLOCK
 62
     0
100
AcDbTrace
 10
192.81507
 20
25.534159
 30
0.0
 11
193.481737
 21
25.534159
 31
0.0
 12
193.148404
 22
23.534159
 32
0.0
 13
193.148404
 23
23.534159
 33
0.0
  0
POINT
  5
E8B
100
AcDbEntity
  8
DEFPOINTS
  6
BYBLOCK
 62
     0
100
AcDbPoint
 10
232.148404
 20
43.534159
 30
5.786942
  0
POINT
  5
E8C
100
AcDbEntity
  8
DEFPOINTS
  6
BYBLOCK
 62
     0
100
AcDbPoint
 10
232.148404
 20
23.534159
 30
5.786942
  0
POINT
  5
E8D
100
AcDbEntity
  8
DEFPOINTS
  6
BYBLOCK
 62
     0
100
AcDbPoint
 10
193.148404
 20
23.534159
 30
0.0
  0
ENDBLK
  5
E8E
100
AcDbEntity
  8
0
100
AcDbBlockEnd
  0
BLOCK
  5
E8F
100
AcDbEntity
  8
0
100
AcDbBlockBegin
  2
*D95
 70
     1
 10
0.0
 20
0.0
 30
0.0
  3
*D95
  1

  0
LINE
  5
E90
100
AcDbEntity
  8
0
  6
BYBLOCK
 62
     0
100
AcDbLine
 10
93.660878
 20
163.526837
 30
0.0
 11
178.148404
 21
163.526837
 31
0.0
  0
LINE
  5
E91
100
AcDbEntity
  8
0
  6
BYBLOCK
 62
     0
100
AcDbLine
 10
92.648404
 20
23.534159
 30
0.0
 11
178.148404
 21
23.534159
 31
0.0
  0
LINE
  5
E92
100
AcDbEntity
  8
0
  6
BYBLOCK
 62
     0
100
AcDbLine
 10
177.148404
 20
161.526837
 30
0.0
 11
177.148404
 21
105.957493
 31
0.0
  0
LINE
  5
E93
100
AcDbEntity
  8
0
  6
BYBLOCK
 62
     0
100
AcDbLine
 10
177.148404
 20
25.534159
 30
0.0
 11
177.148404
 21
74.110826
 31
0.0
  0
MTEXT
  5
E94
100
AcDbEntity
  8
0
  6
BYBLOCK
 62
     0
100
AcDbMText
 10
177.148404
 20
90.034159
 30
0.0
 40
10.0
 41
0.0
 71
     5
 72
     1
  1
\A1;\U+2205140
  7
BIGFONT
 11
0.0
 21
1.0
 31
0.0
  0
SOLID
  5
E95
100
AcDbEntity
  8
0
  6
BYBLOCK
 62
     0
100
AcDbTrace
 10
176.81507
 20
161.526837
 30
0.0
 11
177.481737
 21
161.526837
 31
0.0
 12
177.148404
 22
163.526837
 32
0.0
 13
177.148404
 23
163.526837
 33
0.0
  0
SOLID
  5
E96
100
AcDbEntity
  8
0
  6
BYBLOCK
 62
     0
100
AcDbTrace
 10
176.81507
 20
25.534159
 30
0.0
 11
177.481737
 21
25.534159
 31
0.0
 12
177.148404
 22
23.534159
 32
0.0
 13
177.148404
 23
23.534159
 33
0.0
  0
POINT
  5
E97
100
AcDbEntity
  8
DEFPOINTS
  6
BYBLOCK
 62
     0
100
AcDbPoint
 10
92.660878
 20
163.526837
 30
0.0
  0
POINT
  5
E98
100
AcDbEntity
  8
DEFPOINTS
  6
BYBLOCK
 62
     0
100
AcDbPoint
 10
91.648404
 20
23.534159
 30
0.0
  0
POINT
  5
E99
100
AcDbEntity
  8
DEFPOINTS
  6
BYBLOCK
 62
     0
100
AcDbPoint
 10
177.148404
 20
23.534159
 30
0.0
  0
ENDBLK
  5
E9A
100
AcDbEntity
  8
0
100
AcDbBlockEnd
  0
BLOCK
  5
E9B
100
AcDbEntity
  8
0
100
AcDbBlockBegin
  2
*D96
 70
     1
 10
0.0
 20
0.0
 30
0.0
  3
*D96
  1

  0
LINE
  5
E9C
100
AcDbEntity
  8
0
  6
BYBLOCK
 62
     0
100
AcDbLine
 10
231.148404
 20
163.534159
 30
0.0
 11
189.148404
 21
163.534159
 31
0.0
  0
LINE
  5
E9D
100
AcDbEntity
  8
0
  6
BYBLOCK
 62
     0
100
AcDbLine
 10
223.148404
 20
138.034159
 30
0.0
 11
189.148404
 21
138.034159
 31
0.0
  0
LINE
  5
E9E
100
AcDbEntity
  8
0
  6
BYBLOCK
 62
     0
100
AcDbLine
 10
190.148404
 20
161.534159
 30
0.0
 11
190.148404
 21
140.034159
 31
0.0
  0
MTEXT
  5
E9F
100
AcDbEntity
  8
0
  6
BYBLOCK
 62
     0
100
AcDbMText
 10
190.148404
 20
150.034159
 30
0.0
 40
10.0
 41
0.0
 71
     5
 72
     1
  1
\A1;25.5
  7
BIGFONT
 11
0.0
 21
1.0
 31
0.0
  0
SOLID
  5
EA0
100
AcDbEntity
  8
0
  6
BYBLOCK
 62
     0
100
AcDbTrace
 10
189.81507
 20
161.534159
 30
0.0
 11
190.481737
 21
161.534159
 31
0.0
 12
190.148404
 22
163.534159
 32
0.0
 13
190.148404
 23
163.534159
 33
0.0
  0
SOLID
  5
EA1
100
AcDbEntity
  8
0
  6
BYBLOCK
 62
     0
100
AcDbTrace
 10
189.81507
 20
140.034159
 30
0.0
 11
190.481737
 21
140.034159
 31
0.0
 12
190.148404
 22
138.034159
 32
0.0
 13
190.148404
 23
138.034159
 33
0.0
  0
POINT
  5
EA2
100
AcDbEntity
  8
DEFPOINTS
  6
BYBLOCK
 62
     0
100
AcDbPoint
 10
232.148404
 20
163.534159
 30
5.786942
  0
POINT
  5
EA3
100
AcDbEntity
  8
DEFPOINTS
  6
BYBLOCK
 62
     0
100
AcDbPoint
 10
224.148404
 20
138.034159
 30
0.0
  0
POINT
  5
EA4
100
AcDbEntity
  8
DEFPOINTS
  6
BYBLOCK
 62
     0
100
AcDbPoint
 10
190.148404
 20
138.034159
 30
0.0
  0
ENDBLK
  5
EA5
100
AcDbEntity
  8
0
100
AcDbBlockEnd
  0
BLOCK
  5
EA6
100
AcDbEntity
  8
0
100
AcDbBlockBegin
  2
*D97
 70
     1
 10
0.0
 20
0.0
 30
0.0
  3
*D97
  1

  0
LINE
  5
EA7
100
AcDbEntity
  8
0
  6
BYBLOCK
 62
     0
100
AcDbLine
 10
111.648404
 20
148.034159
 30
0.0
 11
167.148404
 21
148.034159
 31
0.0
  0
LINE
  5
EA8
100
AcDbEntity
  8
0
  6
BYBLOCK
 62
     0
100
AcDbLine
 10
166.148404
 20
93.534159
 30
0.0
 11
165.148404
 21
93.534159
 31
0.0
  0
LINE
  5
EA9
100
AcDbEntity
  8
0
  6
BYBLOCK
 62
     0
100
AcDbLine
 10
166.148404
 20
146.034159
 30
0.0
 11
166.148404
 21
136.124159
 31
0.0
  0
LINE
  5
EAA
100
AcDbEntity
  8
0
  6
BYBLOCK
 62
     0
100
AcDbLine
 10
166.148404
 20
95.534159
 30
0.0
 11
166.148404
 21
105.944159
 31
0.0
  0
MTEXT
  5
EAB
100
AcDbEntity
  8
0
  6
BYBLOCK
 62
     0
100
AcDbMText
 10
166.148404
 20
121.034159
 30
0.0
 40
10.0
 41
0.0
 71
     5
 72
     1
  1
\A1;54.5
  7
BIGFONT
 11
0.0
 21
1.0
 31
0.0
  0
SOLID
  5
EAC
100
AcDbEntity
  8
0
  6
BYBLOCK
 62
     0
100
AcDbTrace
 10
165.81507
 20
146.034159
 30
0.0
 11
166.481737
 21
146.034159
 31
0.0
 12
166.148404
 22
148.034159
 32
0.0
 13
166.148404
 23
148.034159
 33
0.0
  0
SOLID
  5
EAD
100
AcDbEntity
  8
0
  6
BYBLOCK
 62
     0
100
AcDbTrace
 10
165.81507
 20
95.534159
 30
0.0
 11
166.481737
 21
95.534159
 31
0.0
 12
166.148404
 22
93.534159
 32
0.0
 13
166.148404
 23
93.534159
 33
0.0
  0
POINT
  5
EAE
100
AcDbEntity
  8
DEFPOINTS
  6
BYBLOCK
 62
     0
100
AcDbPoint
 10
110.648404
 20
148.034159
 30
0.0
  0
POINT
  5
EAF
100
AcDbEntity
  8
DEFPOINTS
  6
BYBLOCK
 62
     0
100
AcDbPoint
 10
167.148404
 20
93.534159
 30
5.786942
  0
POINT
  5
EB0
100
AcDbEntity
  8
DEFPOINTS
  6
BYBLOCK
 62
     0
100
AcDbPoint
 10
166.148404
 20
93.534159
 30
0.0
  0
ENDBLK
  5
EB1
100
AcDbEntity
  8
0
100
AcDbBlockEnd
  0
BLOCK
  5
EB2
100
AcDbEntity
  8
0
100
AcDbBlockBegin
  2
*D98
 70
     1
 10
0.0
 20
0.0
 30
0.0
  3
*D98
  1

  0
LINE
  5
EB3
100
AcDbEntity
  8
0
  6
BYBLOCK
 62
     0
100
AcDbLine
 10
76.636889
 20
78.848982
 30
0.0
 11
106.659918
 21
108.219337
 31
0.0
  0
MTEXT
  5
EB4
100
AcDbEntity
  8
0
  6
BYBLOCK
 62
     0
100
AcDbMText
 10
123.40507
 20
116.034159
 30
0.0
 40
10.0
 41
0.0
 71
     5
 72
     1
  1
\A1;\U+220546
  7
BIGFONT
  0
SOLID
  5
EB5
100
AcDbEntity
  8
0
  6
BYBLOCK
 62
     0
100
AcDbTrace
 10
76.403791
 20
79.08726
 30
0.0
 11
76.869987
 21
78.610704
 31
0.0
 12
75.207221
 22
77.450394
 32
0.0
 13
75.207221
 23
77.450394
 33
0.0
  0
SOLID
  5
EB6
100
AcDbEntity
  8
0
  6
BYBLOCK
 62
     0
100
AcDbTrace
 10
106.42682
 20
108.457615
 30
0.0
 11
106.893016
 21
107.981059
 31
0.0
 12
108.089586
 22
109.617925
 32
0.0
 13
108.089586
 23
109.617925
 33
0.0
  0
POINT
  5
EB7
100
AcDbEntity
  8
DEFPOINTS
  6
BYBLOCK
 62
     0
100
AcDbPoint
 10
108.089586
 20
109.617925
 30
0.0
  0
POINT
  5
EB8
100
AcDbEntity
  8
DEFPOINTS
  6
BYBLOCK
 62
     0
100
AcDbPoint
 10
75.207221
 20
77.450394
 30
0.0
  0
ENDBLK
  5
EB9
100
AcDbEntity
  8
0
100
AcDbBlockEnd
  0
BLOCK
  5
EBA
100
AcDbEntity
  8
0
100
AcDbBlockBegin
  2
*D99
 70
     1
 10
0.0
 20
0.0
 30
0.0
  3
*D99
  1

  0
LINE
  5
EBB
100
AcDbEntity
  8
0
  6
BYBLOCK
 62
     0
100
AcDbLine
 10
124.648404
 20
176.534159
 30
0.0
 11
122.648404
 21
176.534159
 31
0.0
  0
LINE
  5
EBC
100
AcDbEntity
  8
0
  6
BYBLOCK
 62
     0
100
AcDbLine
 10
122.648404
 20
176.534159
 30
0.0
 11
84.286727
 21
141.266167
 31
0.0
  0
MTEXT
  5
EBD
100
AcDbEntity
  8
0
  6
BYBLOCK
 62
     0
100
AcDbMText
 10
135.571737
 20
176.534159
 30
0.0
 40
10.0
 41
0.0
 71
     5
 72
     1
  1
\A1;R10
  7
BIGFONT
  0
SOLID
  5
EBE
100
AcDbEntity
  8
0
  6
BYBLOCK
 62
     0
100
AcDbTrace
 10
85.533463
 20
142.865155
 30
0.0
 11
85.984662
 21
142.374376
 31
0.0
 12
84.286727
 22
141.266167
 32
0.0
 13
84.286727
 23
141.266167
 33
0.0
  0
POINT
  5
EBF
100
AcDbEntity
  8
DEFPOINTS
  6
BYBLOCK
 62
     0
100
AcDbPoint
 10
84.286727
 20
141.266167
 30
0.0
  0
POINT
  5
EC0
100
AcDbEntity
  8
DEFPOINTS
  6
BYBLOCK
 62
     0
100
AcDbPoint
 10
91.648404
 20
148.034159
 30
0.0
  0
ENDBLK
  5
EC1
100
AcDbEntity
  8
0
100
AcDbBlockEnd
  0
BLOCK
  5
EC2
100
AcDbEntity
  8
0
100
AcDbBlockBegin
  2
*D100
 70
     1
 10
0.0
 20
0.0
 30
0.0
  3
*D100
  1

  0
LINE
  5
EC3
100
AcDbEntity
  8
0
  6
BYBLOCK
 62
     0
100
AcDbLine
 10
68.789843
 20
92.461119
 30
0.0
 11
66.481448
 21
91.128367
 31
0.0
  0
LINE
  5
EC4
100
AcDbEntity
  8
0
  6
BYBLOCK
 62
     0
100
AcDbLine
 10
79.289843
 20
74.274585
 30
0.0
 11
76.981448
 21
72.941833
 31
0.0
  0
LINE
  5
EC5
100
AcDbEntity
  8
0
  6
BYBLOCK
 62
     0
100
AcDbLine
 10
68.347473
 20
89.896316
 30
0.0
 11
76.847473
 21
75.173884
 31
0.0
  0
MTEXT
  5
EC6
100
AcDbEntity
  8
0
  6
BYBLOCK
 62
     0
100
AcDbMText
 10
57.648404
 20
99.034159
 30
0.0
 40
10.0
 41
0.0
 71
     5
 72
     1
  1
\A1;21
  7
BIGFONT
  0
SOLID
  5
EC7
100
AcDbEntity
  8
0
  6
BYBLOCK
 62
     0
100
AcDbTrace
 10
68.636149
 20
90.062982
 30
0.0
 11
68.058798
 21
89.729649
 31
0.0
 12
67.347473
 22
91.628367
 32
0.0
 13
67.347473
 23
91.628367
 33
0.0
  0
SOLID
  5
EC8
100
AcDbEntity
  8
0
  6
BYBLOCK
 62
     0
100
AcDbTrace
 10
77.136149
 20
75.340551
 30
0.0
 11
76.558798
 21
75.007217
 31
0.0
 12
77.847473
 22
73.441833
 32
0.0
 13
77.847473
 23
73.441833
 33
0.0
  0
POINT
  5
EC9
100
AcDbEntity
  8
DEFPOINTS
  6
BYBLOCK
 62
     0
100
AcDbPoint
 10
69.655868
 20
92.961119
 30
0.0
  0
POINT
  5
ECA
100
AcDbEntity
  8
DEFPOINTS
  6
BYBLOCK
 62
     0
100
AcDbPoint
 10
80.155868
 20
74.774585
 30
0.0
  0
POINT
  5
ECB
100
AcDbEntity
  8
DEFPOINTS
  6
BYBLOCK
 62
     0
100
AcDbPoint
 10
77.847473
 20
73.441833
 30
0.0
  0
ENDBLK
  5
ECC
100
AcDbEntity
  8
0
100
AcDbBlockEnd
  0
BLOCK
  5
ECD
100
AcDbEntity
  8
0
100
AcDbBlockBegin
  2
*D101
 70
     1
 10
0.0
 20
0.0
 30
0.0
  3
*D101
  1

  0
LINE
  5
ECE
100
AcDbEntity
  8
0
  6
BYBLOCK
 62
     0
100
AcDbLine
 10
45.420415
 20
77.236723
 30
0.0
 11
47.691004
 21
78.547648
 31
0.0
  0
LINE
  5
ECF
100
AcDbEntity
  8
0
  6
BYBLOCK
 62
     0
100
AcDbLine
 10
54.420415
 20
61.648266
 30
0.0
 11
56.691004
 21
62.95919
 31
0.0
  0
LINE
  5
ED0
100
AcDbEntity
  8
0
  6
BYBLOCK
 62
     0
100
AcDbLine
 10
47.824978
 20
76.315597
 30
0.0
 11
54.824978
 21
64.191241
 31
0.0
  0
MTEXT
  5
ED1
100
AcDbEntity
  8
0
  6
BYBLOCK
 62
     0
100
AcDbMText
 10
62.648404
 20
60.034159
 30
0.0
 40
10.0
 41
0.0
 71
     5
 72
     1
  1
\A1;18
  7
BIGFONT
  0
SOLID
  5
ED2
100
AcDbEntity
  8
0
  6
BYBLOCK
 62
     0
100
AcDbTrace
 10
48.113653
 20
76.482263
 30
0.0
 11
47.536303
 21
76.14893
 31
0.0
 12
46.824978
 22
78.047648
 32
0.0
 13
46.824978
 23
78.047648
 33
0.0
  0
SOLID
  5
ED3
100
AcDbEntity
  8
0
  6
BYBLOCK
 62
     0
100
AcDbTrace
 10
55.113653
 20
64.357908
 30
0.0
 11
54.536303
 21
64.024574
 31
0.0
 12
55.824978
 22
62.45919
 32
0.0
 13
55.824978
 23
62.45919
 33
0.0
  0
POINT
  5
ED4
100
AcDbEntity
  8
DEFPOINTS
  6
BYBLOCK
 62
     0
100
AcDbPoint
 10
44.55439
 20
76.736723
 30
0.0
  0
POINT
  5
ED5
100
AcDbEntity
  8
DEFPOINTS
  6
BYBLOCK
 62
     0
100
AcDbPoint
 10
53.55439
 20
61.148266
 30
0.0
  0
POINT
  5
ED6
100
AcDbEntity
  8
DEFPOINTS
  6
BYBLOCK
 62
     0
100
AcDbPoint
 10
55.824978
 20
62.45919
 30
0.0
  0
ENDBLK
  5
ED7
100
AcDbEntity
  8
0
100
AcDbBlockEnd
  0
BLOCK
  5
ED8
100
AcDbEntity
  8
0
100
AcDbBlockBegin
  2
*D102
 70
     1
 10
0.0
 20
0.0
 30
0.0
  3
*D102
  1

  0
LINE
  5
ED9
100
AcDbEntity
  8
0
  6
BYBLOCK
 62
     0
100
AcDbLine
 10
223.148404
 20
153.034159
 30
0.0
 11
195.641737
 21
153.034159
 31
0.0
  0
LINE
  5
EDA
100
AcDbEntity
  8
0
  6
BYBLOCK
 62
     0
100
AcDbLine
 10
223.148404
 20
143.270961
 30
0.0
 11
195.641737
 21
143.270961
 31
0.0
  0
LINE
  5
EDB
100
AcDbEntity
  8
0
  6
BYBLOCK
 62
     0
100
AcDbLine
 10
196.641737
 20
151.034159
 30
0.0
 11
196.641737
 21
145.270961
 31
0.0
  0
MTEXT
  5
EDC
100
AcDbEntity
  8
0
  6
BYBLOCK
 62
     0
100
AcDbMText
 10
204.148404
 20
158.034159
 30
0.0
 40
10.0
 41
0.0
 71
     5
 72
     1
  1
\A1;\U+220510
  7
BIGFONT
  0
SOLID
  5
EDD
100
AcDbEntity
  8
0
  6
BYBLOCK
 62
     0
100
AcDbTrace
 10
196.308404
 20
151.034159
 30
0.0
 11
196.97507
 21
151.034159
 31
0.0
 12
196.641737
 22
153.034159
 32
0.0
 13
196.641737
 23
153.034159
 33
0.0
  0
SOLID
  5
EDE
100
AcDbEntity
  8
0
  6
BYBLOCK
 62
     0
100
AcDbTrace
 10
196.308404
 20
145.270961
 30
0.0
 11
196.97507
 21
145.270961
 31
0.0
 12
196.641737
 22
143.270961
 32
0.0
 13
196.641737
 23
143.270961
 33
0.0
  0
POINT
  5
EDF
100
AcDbEntity
  8
DEFPOINTS
  6
BYBLOCK
 62
     0
100
AcDbPoint
 10
224.148404
 20
153.034159
 30
0.0
  0
POINT
  5
EE0
100
AcDbEntity
  8
DEFPOINTS
  6
BYBLOCK
 62
     0
100
AcDbPoint
 10
224.148404
 20
143.270961
 30
0.0
  0
POINT
  5
EE1
100
AcDbEntity
  8
DEFPOINTS
  6
BYBLOCK
 62
     0
100
AcDbPoint
 10
196.641737
 20
143.270961
 30
0.0
  0
ENDBLK
  5
EE2
100
AcDbEntity
  8
0
100
AcDbBlockEnd
  0
BLOCK
  5
EE3
100
AcDbEntity
  8
0
100
AcDbBlockBegin
  2
*D103
 70
     1
 10
0.0
 20
0.0
 30
0.0
  3
*D103
  1

  0
LINE
  5
EE4
100
AcDbEntity
  8
0
  6
BYBLOCK
 62
     0
100
AcDbLine
 10
242.148404
 20
111.534159
 30
0.0
 11
191.148404
 21
111.534159
 31
0.0
  0
LINE
  5
EE5
100
AcDbEntity
  8
0
  6
BYBLOCK
 62
     0
100
AcDbLine
 10
242.148404
 20
75.534159
 30
0.0
 11
191.148404
 21
75.534159
 31
0.0
  0
LINE
  5
EE6
100
AcDbEntity
  8
0
  6
BYBLOCK
 62
     0
100
AcDbLine
 10
192.148404
 20
109.534159
 30
0.0
 11
192.148404
 21
101.957493
 31
0.0
  0
LINE
  5
EE7
100
AcDbEntity
  8
0
  6
BYBLOCK
 62
     0
100
AcDbLine
 10
192.148404
 20
77.534159
 30
0.0
 11
192.148404
 21
85.110826
 31
0.0
  0
MTEXT
  5
EE8
100
AcDbEntity
  8
0
  6
BYBLOCK
 62
     0
100
AcDbMText
 10
192.148404
 20
93.534159
 30
0.0
 40
10.0
 41
0.0
 71
     5
 72
     1
  1
\A1;36
  7
BIGFONT
 11
0.0
 21
1.0
 31
0.0
  0
SOLID
  5
EE9
100
AcDbEntity
  8
0
  6
BYBLOCK
 62
     0
100
AcDbTrace
 10
191.81507
 20
109.534159
 30
0.0
 11
192.481737
 21
109.534159
 31
0.0
 12
192.148404
 22
111.534159
 32
0.0
 13
192.148404
 23
111.534159
 33
0.0
  0
SOLID
  5
EEA
100
AcDbEntity
  8
0
  6
BYBLOCK
 62
     0
100
AcDbTrace
 10
191.81507
 20
77.534159
 30
0.0
 11
192.481737
 21
77.534159
 31
0.0
 12
192.148404
 22
75.534159
 32
0.0
 13
192.148404
 23
75.534159
 33
0.0
  0
POINT
  5
EEB
100
AcDbEntity
  8
DEFPOINTS
  6
BYBLOCK
 62
     0
100
AcDbPoint
 10
243.148404
 20
111.534159
 30
0.0
  0
POINT
  5
EEC
100
AcDbEntity
  8
DEFPOINTS
  6
BYBLOCK
 62
     0
100
AcDbPoint
 10
243.148404
 20
75.534159
 30
0.0
  0
POINT
  5
EED
100
AcDbEntity
  8
DEFPOINTS
  6
BYBLOCK
 62
     0
100
AcDbPoint
 10
192.148404
 20
75.534159
 30
0.0
  0
ENDBLK
  5
EEE
100
AcDbEntity
  8
0
100
AcDbBlockEnd
  0
BLOCK
  5
EEF
100
AcDbEntity
  8
0
100
AcDbBlockBegin
  2
*D104
 70
     1
 10
0.0
 20
0.0
 30
0.0
  3
*D104
  1

  0
LINE
  5
EF0
100
AcDbEntity
  8
0
  6
BYBLOCK
 62
     0
100
AcDbLine
 10
248.148404
 20
107.534159
 30
0.0
 11
206.148404
 21
107.534159
 31
0.0
  0
LINE
  5
EF1
100
AcDbEntity
  8
0
  6
BYBLOCK
 62
     0
100
AcDbLine
 10
248.148404
 20
79.534159
 30
0.0
 11
206.148404
 21
79.534159
 31
0.0
  0
LINE
  5
EF2
100
AcDbEntity
  8
0
  6
BYBLOCK
 62
     0
100
AcDbLine
 10
207.148404
 20
105.534159
 30
0.0
 11
207.148404
 21
102.457493
 31
0.0
  0
LINE
  5
EF3
100
AcDbEntity
  8
0
  6
BYBLOCK
 62
     0
100
AcDbLine
 10
207.148404
 20
81.534159
 30
0.0
 11
207.148404
 21
85.610826
 31
0.0
  0
MTEXT
  5
EF4
100
AcDbEntity
  8
0
  6
BYBLOCK
 62
     0
100
AcDbMText
 10
207.148404
 20
94.034159
 30
0.0
 40
10.0
 41
0.0
 71
     5
 72
     1
  1
\A1;28
  7
BIGFONT
 11
0.0
 21
1.0
 31
0.0
  0
SOLID
  5
EF5
100
AcDbEntity
  8
0
  6
BYBLOCK
 62
     0
100
AcDbTrace
 10
206.81507
 20
105.534159
 30
0.0
 11
207.481737
 21
105.534159
 31
0.0
 12
207.148404
 22
107.534159
 32
0.0
 13
207.148404
 23
107.534159
 33
0.0
  0
SOLID
  5
EF6
100
AcDbEntity
  8
0
  6
BYBLOCK
 62
     0
100
AcDbTrace
 10
206.81507
 20
81.534159
 30
0.0
 11
207.481737
 21
81.534159
 31
0.0
 12
207.148404
 22
79.534159
 32
0.0
 13
207.148404
 23
79.534159
 33
0.0
  0
POINT
  5
EF7
100
AcDbEntity
  8
DEFPOINTS
  6
BYBLOCK
 62
     0
100
AcDbPoint
 10
249.148404
 20
107.534159
 30
0.0
  0
POINT
  5
EF8
100
AcDbEntity
  8
DEFPOINTS
  6
BYBLOCK
 62
     0
100
AcDbPoint
 10
249.148404
 20
79.534159
 30
0.0
  0
POINT
  5
EF9
100
AcDbEntity
  8
DEFPOINTS
  6
BYBLOCK
 62
     0
100
AcDbPoint
 10
207.148404
 20
79.534159
 30
0.0
  0
ENDBLK
  5
EFA
100
AcDbEntity
  8
0
100
AcDbBlockEnd
  0
BLOCK
  5
EFB
100
AcDbEntity
  8
0
100
AcDbBlockBegin
  2
*D105
 70
     1
 10
0.0
 20
0.0
 30
0.0
  3
*D105
  1

  0
LINE
  5
EFC
100
AcDbEntity
  8
0
  6
BYBLOCK
 62
     0
100
AcDbLine
 10
274.148404
 20
76.534159
 30
0.0
 11
274.148404
 21
59.585157
 31
0.0
  0
LINE
  5
EFD
100
AcDbEntity
  8
0
  6
BYBLOCK
 62
     0
100
AcDbLine
 10
249.148404
 20
78.534159
 30
0.0
 11
249.148404
 21
59.585157
 31
0.0
  0
LINE
  5
EFE
100
AcDbEntity
  8
0
  6
BYBLOCK
 62
     0
100
AcDbLine
 10
272.148404
 20
60.585157
 30
0.0
 11
270.09764
 21
60.585157
 31
0.0
  0
LINE
  5
EFF
100
AcDbEntity
  8
0
  6
BYBLOCK
 62
     0
100
AcDbLine
 10
251.148404
 20
60.585157
 30
0.0
 11
253.250973
 21
60.585157
 31
0.0
  0
MTEXT
  5
F00
100
AcDbEntity
  8
0
  6
BYBLOCK
 62
     0
100
AcDbMText
 10
261.674307
 20
60.585157
 30
0.0
 40
10.0
 41
0.0
 71
     5
 72
     1
  1
\A1;25
  7
BIGFONT
  0
SOLID
  5
F01
100
AcDbEntity
  8
0
  6
BYBLOCK
 62
     0
100
AcDbTrace
 10
272.148404
 20
60.91849
 30
0.0
 11
272.148404
 21
60.251823
 31
0.0
 12
274.148404
 22
60.585157
 32
0.0
 13
274.148404
 23
60.585157
 33
0.0
  0
SOLID
  5
F02
100
AcDbEntity
  8
0
  6
BYBLOCK
 62
     0
100
AcDbTrace
 10
251.148404
 20
60.91849
 30
0.0
 11
251.148404
 21
60.251823
 31
0.0
 12
249.148404
 22
60.585157
 32
0.0
 13
249.148404
 23
60.585157
 33
0.0
  0
POINT
  5
F03
100
AcDbEntity
  8
DEFPOINTS
  6
BYBLOCK
 62
     0
100
AcDbPoint
 10
274.148404
 20
77.534159
 30
0.0
  0
POINT
  5
F04
100
AcDbEntity
  8
DEFPOINTS
  6
BYBLOCK
 62
     0
100
AcDbPoint
 10
249.148404
 20
79.534159
 30
0.0
  0
POINT
  5
F05
100
AcDbEntity
  8
DEFPOINTS
  6
BYBLOCK
 62
     0
100
AcDbPoint
 10
249.148404
 20
60.585157
 30
0.0
  0
ENDBLK
  5
F06
100
AcDbEntity
  8
0
100
AcDbBlockEnd
  0
BLOCK
  5
F07
100
AcDbEntity
  8
0
100
AcDbBlockBegin
  2
*D106
 70
     1
 10
0.0
 20
0.0
 30
0.0
  3
*D106
  1

  0
LINE
  5
F08
100
AcDbEntity
  8
0
  6
BYBLOCK
 62
     0
100
AcDbLine
 10
260.148404
 20
112.534159
 30
0.0
 11
260.148404
 21
131.034159
 31
0.0
  0
LINE
  5
F09
100
AcDbEntity
  8
0
  6
BYBLOCK
 62
     0
100
AcDbLine
 10
274.148404
 20
110.534159
 30
0.0
 11
274.148404
 21
131.034159
 31
0.0
  0
LINE
  5
F0A
100
AcDbEntity
  8
0
  6
BYBLOCK
 62
     0
100
AcDbLine
 10
262.148404
 20
130.034159
 30
0.0
 11
262.238404
 21
130.034159
 31
0.0
  0
LINE
  5
F0B
100
AcDbEntity
  8
0
  6
BYBLOCK
 62
     0
100
AcDbLine
 10
272.148404
 20
130.034159
 30
0.0
 11
272.058404
 21
130.034159
 31
0.0
  0
MTEXT
  5
F0C
100
AcDbEntity
  8
0
  6
BYBLOCK
 62
     0
100
AcDbMText
 10
267.148404
 20
130.034159
 30
0.0
 40
10.0
 41
0.0
 71
     5
 72
     1
  1
\A1;14
  7
BIGFONT
  0
SOLID
  5
F0D
100
AcDbEntity
  8
0
  6
BYBLOCK
 62
     0
100
AcDbTrace
 10
262.148404
 20
130.367493
 30
0.0
 11
262.148404
 21
129.700826
 31
0.0
 12
260.148404
 22
130.034159
 32
0.0
 13
260.148404
 23
130.034159
 33
0.0
  0
SOLID
  5
F0E
100
AcDbEntity
  8
0
  6
BYBLOCK
 62
     0
100
AcDbTrace
 10
272.148404
 20
130.367493
 30
0.0
 11
272.148404
 21
129.700826
 31
0.0
 12
274.148404
 22
130.034159
 32
0.0
 13
274.148404
 23
130.034159
 33
0.0
  0
POINT
  5
F0F
100
AcDbEntity
  8
DEFPOINTS
  6
BYBLOCK
 62
     0
100
AcDbPoint
 10
260.148404
 20
111.534159
 30
0.0
  0
POINT
  5
F10
100
AcDbEntity
  8
DEFPOINTS
  6
BYBLOCK
 62
     0
100
AcDbPoint
 10
274.148404
 20
109.534159
 30
0.0
  0
POINT
  5
F11
100
AcDbEntity
  8
DEFPOINTS
  6
BYBLOCK
 62
     0
100
AcDbPoint
 10
274.148404
 20
130.034159
 30
0.0
  0
ENDBLK
  5
F12
100
AcDbEntity
  8
0
100
AcDbBlockEnd
  0
BLOCK
  5
F13
100
AcDbEntity
  8
0
100
AcDbBlockBegin
  2
*D107
 70
     1
 10
0.0
 20
0.0
 30
0.0
  3
*D107
  1

  0
LINE
  5
F14
100
AcDbEntity
  8
0
  6
BYBLOCK
 62
     0
100
AcDbLine
 10
243.148404
 20
112.534159
 30
0.0
 11
243.148404
 21
140.034159
 31
0.0
  0
LINE
  5
F15
100
AcDbEntity
  8
0
  6
BYBLOCK
 62
     0
100
AcDbLine
 10
274.148404
 20
110.534159
 30
0.0
 11
274.148404
 21
140.034159
 31
0.0
  0
LINE
  5
F16
100
AcDbEntity
  8
0
  6
BYBLOCK
 62
     0
100
AcDbLine
 10
245.148404
 20
139.034159
 30
0.0
 11
251.391737
 21
139.034159
 31
0.0
  0
LINE
  5
F17
100
AcDbEntity
  8
0
  6
BYBLOCK
 62
     0
100
AcDbLine
 10
272.148404
 20
139.034159
 30
0.0
 11
264.90507
 21
139.034159
 31
0.0
  0
MTEXT
  5
F18
100
AcDbEntity
  8
0
  6
BYBLOCK
 62
     0
100
AcDbMText
 10
258.148404
 20
139.034159
 30
0.0
 40
10.0
 41
0.0
 71
     5
 72
     1
  1
\A1;31
  7
BIGFONT
  0
SOLID
  5
F19
100
AcDbEntity
  8
0
  6
BYBLOCK
 62
     0
100
AcDbTrace
 10
245.148404
 20
139.367493
 30
0.0
 11
245.148404
 21
138.700826
 31
0.0
 12
243.148404
 22
139.034159
 32
0.0
 13
243.148404
 23
139.034159
 33
0.0
  0
SOLID
  5
F1A
100
AcDbEntity
  8
0
  6
BYBLOCK
 62
     0
100
AcDbTrace
 10
272.148404
 20
139.367493
 30
0.0
 11
272.148404
 21
138.700826
 31
0.0
 12
274.148404
 22
139.034159
 32
0.0
 13
274.148404
 23
139.034159
 33
0.0
  0
POINT
  5
F1B
100
AcDbEntity
  8
DEFPOINTS
  6
BYBLOCK
 62
     0
100
AcDbPoint
 10
243.148404
 20
111.534159
 30
0.0
  0
POINT
  5
F1C
100
AcDbEntity
  8
DEFPOINTS
  6
BYBLOCK
 62
     0
100
AcDbPoint
 10
274.148404
 20
109.534159
 30
0.0
  0
POINT
  5
F1D
100
AcDbEntity
  8
DEFPOINTS
  6
BYBLOCK
 62
     0
100
AcDbPoint
 10
274.148404
 20
139.034159
 30
0.0
  0
ENDBLK
  5
F1E
100
AcDbEntity
  8
0
100
AcDbBlockEnd
  0
ENDSEC
  0
SECTION
  2
ENTITIES
  0
CIRCLE
  5
D2A
100
AcDbEntity
  8
3
100
AcDbCircle
 10
91.648404
 20
93.534159
 30
0.0
 40
70.0
  0
LINE
  5
D2B
100
AcDbEntity
  8
1
100
AcDbLine
 10
91.648404
 20
172.534159
 30
0.0
 11
91.648404
 21
17.034159
 31
0.0
  0
ARC
  5
D2C
100
AcDbEntity
  8
3
100
AcDbCircle
 10
232.148404
 20
31.534159
 30
5.786942
 40
8.0
100
AcDbArc
 50
270.0
 51
358.932668
  0
LINE
  5
D2D
100
AcDbEntity
  8
1
100
AcDbLine
 10
232.148404
 20
46.788839
 30
5.786942
 11
232.148404
 21
20.463898
 31
5.786942
  0
LINE
  5
D2E
100
AcDbEntity
  8
1
100
AcDbLine
 10
232.148404
 20
46.315937
 30
5.786942
 11
232.148404
 21
20.306263
 31
5.786942
  0
ARC
  5
D2F
100
AcDbEntity
  8
3
100
AcDbCircle
 10
232.148404
 20
31.534159
 30
5.786942
 40
8.0
100
AcDbArc
 50
181.067332
 51
270.0
  0
ARC
  5
D33
100
AcDbEntity
  8
3
100
AcDbCircle
 10
91.648404
 20
93.534159
 30
0.0
 40
23.0
100
AcDbArc
 50
357.143332
 51
62.856668
  0
LINE
  5
D34
100
AcDbEntity
  8
1
100
AcDbLine
 10
91.648404
 20
93.534159
 30
0.0
 11
155.669874
 21
56.571347
 31
0.0
  0
ARC
  5
D36
100
AcDbEntity
  8
3
100
AcDbCircle
 10
91.648404
 20
93.534159
 30
0.0
 40
50.0
100
AcDbArc
 50
340.36976
 51
79.63024
  0
ARC
  5
D37
100
AcDbEntity
  8
3
100
AcDbCircle
 10
91.648404
 20
93.534159
 30
0.0
 40
50.0
100
AcDbArc
 50
220.36976
 51
319.63024
  0
LINE
  5
D38
100
AcDbEntity
  8
3
100
AcDbLine
 10
104.006965
 20
74.274585
 30
0.0
 11
129.742417
 21
61.148266
 31
0.0
  0
ARC
  5
D39
100
AcDbEntity
  8
3
100
AcDbCircle
 10
86.389211
 20
96.570556
 30
0.0
 40
27.091534
100
AcDbArc
 50
309.613664
 51
350.386336
  0
ARC
  5
D3A
100
AcDbEntity
  8
3
100
AcDbCircle
 10
91.648404
 20
93.534159
 30
0.0
 40
62.0
100
AcDbArc
 50
105.647577
 51
74.352423
  0
ARC
  5
D3B
100
AcDbEntity
  8
3
100
AcDbCircle
 10
91.648404
 20
93.534159
 30
0.0
 40
62.0
100
AcDbArc
 50
105.647577
 51
74.352423
  0
CIRCLE
  5
D3C
100
AcDbEntity
  8
3
100
AcDbCircle
 10
91.648404
 20
148.034159
 30
0.0
 40
4.0
  0
CIRCLE
  5
D3D
100
AcDbEntity
  8
3
100
AcDbCircle
 10
91.648404
 20
148.034159
 30
0.0
 40
3.5
  0
CIRCLE
  5
D3E
100
AcDbEntity
  8
3
100
AcDbCircle
 10
91.648404
 20
148.034159
 30
0.0
 40
5.0
  0
ARC
  5
D3F
100
AcDbEntity
  8
3
100
AcDbCircle
 10
91.648404
 20
148.034159
 30
0.0
 40
10.0
100
AcDbArc
 50
180.0
 51
0.0
  0
ARC
  5
D40
100
AcDbEntity
  8
3
100
AcDbCircle
 10
91.648404
 20
93.534159
 30
0.0
 40
50.0
100
AcDbArc
 50
100.36976
 51
199.63024
  0
CIRCLE
  5
D41
100
AcDbEntity
  8
0
100
AcDbCircle
 10
91.648404
 20
93.534159
 30
0.0
 40
14.5
  0
LINE
  5
D42
100
AcDbEntity
  8
1
100
AcDbLine
 10
91.648404
 20
93.534159
 30
0.0
 11
27.84344
 21
56.696347
 31
0.0
  0
LINE
  5
D44
100
AcDbEntity
  8
3
100
AcDbLine
 10
68.644384
 20
92.709298
 30
0.0
 11
44.55439
 21
76.736723
 31
0.0
  0
ARC
  5
D45
100
AcDbEntity
  8
3
100
AcDbCircle
 10
96.762138
 20
96.818736
 30
0.0
 40
27.091534
100
AcDbArc
 50
189.613664
 51
230.386336
  0
CIRCLE
  5
D46
100
AcDbEntity
  8
3
100
AcDbCircle
 10
91.648404
 20
93.534159
 30
0.0
 40
18.0
  0
LINE
  5
D47
100
AcDbEntity
  8
3
100
AcDbLine
 10
79.144384
 20
74.522765
 30
0.0
 11
53.55439
 21
61.148266
 31
0.0
  0
ARC
  5
D49
100
AcDbEntity
  8
3
100
AcDbCircle
 10
64.093125
 20
77.625112
 30
0.0
 40
20.679523
100
AcDbArc
 50
187.718156
 51
232.281844
  0
ARC
  5
D4A
100
AcDbEntity
  8
3
100
AcDbCircle
 10
45.758823
 20
74.943689
 30
0.0
 40
2.160007
100
AcDbArc
 50
123.890403
 51
182.543095
  0
ARC
  5
D4B
100
AcDbEntity
  8
3
100
AcDbCircle
 10
52.603793
 20
63.087852
 30
0.0
 40
2.160007
100
AcDbArc
 50
237.456905
 51
296.109597
  0
ARC
  5
D4C
100
AcDbEntity
  8
3
100
AcDbCircle
 10
91.648404
 20
93.534159
 30
0.0
 40
23.0
100
AcDbArc
 50
236.327642
 51
302.856668
  0
ARC
  5
D4D
100
AcDbEntity
  8
3
100
AcDbCircle
 10
78.509176
 20
75.430371
 30
0.0
 40
1.107808
100
AcDbArc
 50
304.987081
 51
27.883669
  0
ARC
  5
D4E
100
AcDbEntity
  8
3
100
AcDbCircle
 10
104.642173
 20
75.182192
 30
0.0
 40
1.107808
100
AcDbArc
 50
152.116331
 51
235.012919
  0
ARC
  5
D4F
100
AcDbEntity
  8
3
100
AcDbCircle
 10
91.648404
 20
93.534159
 30
0.0
 40
23.0
100
AcDbArc
 50
117.143332
 51
182.03425
  0
ARC
  5
D50
100
AcDbEntity
  8
3
100
AcDbCircle
 10
69.112791
 20
91.705389
 30
0.0
 40
1.107808
100
AcDbArc
 50
32.116331
 51
115.012919
  0
LINE
  5
D51
100
AcDbEntity
  8
3
100
AcDbLine
 10
81.148404
 20
113.866774
 30
0.0
 11
82.648404
 21
142.71749
 31
0.0
  0
LINE
  5
D52
100
AcDbEntity
  8
3
100
AcDbLine
 10
102.148404
 20
113.866774
 30
0.0
 11
100.648404
 21
142.71749
 31
0.0
  0
ARC
  5
D53
100
AcDbEntity
  8
3
100
AcDbCircle
 10
91.648404
 20
87.461366
 30
0.0
 40
27.091534
100
AcDbArc
 50
69.613664
 51
110.386336
  0
ARC
  5
D54
100
AcDbEntity
  8
3
100
AcDbCircle
 10
82.252018
 20
113.963077
 30
0.0
 40
1.107808
100
AcDbArc
 50
184.987081
 51
267.883669
  0
ARC
  5
D55
100
AcDbEntity
  8
3
100
AcDbCircle
 10
101.044789
 20
113.963077
 30
0.0
 40
1.107808
100
AcDbArc
 50
272.116331
 51
355.012919
  0
ARC
  5
D56
100
AcDbEntity
  8
3
100
AcDbCircle
 10
84.803433
 20
142.570937
 30
0.0
 40
2.160007
100
AcDbArc
 50
158.100789
 51
176.109597
  0
ARC
  5
D57
100
AcDbEntity
  8
3
100
AcDbCircle
 10
98.493374
 20
142.570937
 30
0.0
 40
2.160007
100
AcDbArc
 50
3.890403
 51
21.899211
  0
LINE
  5
D58
100
AcDbEntity
  8
1
100
AcDbLine
 10
73.648404
 20
148.034159
 30
0.0
 11
110.648404
 21
148.034159
 31
0.0
  0
ARC
  5
D59
100
AcDbEntity
  8
3
100
AcDbCircle
 10
76.15068
 20
147.874503
 30
0.0
 40
5.5
100
AcDbArc
 50
1.663444
 51
102.868051
  0
ARC
  5
D5A
100
AcDbEntity
  8
3
100
AcDbCircle
 10
107.146128
 20
147.874503
 30
0.0
 40
5.5
100
AcDbArc
 50
77.131949
 51
178.336556
  0
LINE
  5
D5C
100
AcDbEntity
  8
3
100
AcDbLine
 10
240.148404
 20
138.142268
 30
0.0
 11
240.148404
 21
155.534159
 31
0.0
  0
LINE
  5
D5D
100
AcDbEntity
  8
3
100
AcDbLine
 10
225.411602
 20
151.534159
 30
0.0
 11
225.411602
 21
144.534159
 31
0.0
  0
LINE
  5
D5E
100
AcDbEntity
  8
3
100
AcDbLine
 10
224.911602
 20
152.034159
 30
0.0
 11
224.911602
 21
144.034159
 31
0.0
  0
LINE
  5
D5F
100
AcDbEntity
  8
3
100
AcDbLine
 10
224.148404
 20
155.534159
 30
0.0
 11
224.148404
 21
93.534159
 31
0.0
  0
LINE
  5
D61
100
AcDbEntity
  8
3
100
AcDbLine
 10
114.506965
 20
92.461119
 30
0.0
 11
138.742417
 21
76.736723
 31
0.0
  0
ARC
  5
D62
100
AcDbEntity
  8
3
100
AcDbCircle
 10
119.203683
 20
77.625112
 30
0.0
 40
20.679523
100
AcDbArc
 50
307.718156
 51
352.281844
  0
ARC
  5
D63
100
AcDbEntity
  8
3
100
AcDbCircle
 10
130.693014
 20
63.087852
 30
0.0
 40
2.160007
100
AcDbArc
 50
243.890403
 51
302.543095
  0
ARC
  5
D64
100
AcDbEntity
  8
3
100
AcDbCircle
 10
137.537984
 20
74.943689
 30
0.0
 40
2.160007
100
AcDbArc
 50
357.456905
 51
56.109597
  0
ARC
  5
D65
100
AcDbEntity
  8
3
100
AcDbCircle
 10
114.038558
 20
91.457209
 30
0.0
 40
1.107808
100
AcDbArc
 50
64.987081
 51
147.883669
  0
LINE
  5
D67
100
AcDbEntity
  8
3
100
AcDbLine
 10
231.948688
 20
78.343388
 30
0.0
 11
243.218741
 21
88.216471
 31
0.0
  0
ARC
  5
D68
100
AcDbEntity
  8
2
100
AcDbCircle
 10
260.154452
 20
83.784159
 30
0.0
 40
15.140007
100
AcDbArc
 50
149.210275
 51
210.789725
  0
ARC
  5
D69
100
AcDbEntity
  8
2
100
AcDbCircle
 10
239.929036
 20
83.784159
 30
0.0
 40
14.894456
100
AcDbArc
 50
328.645756
 51
31.354244
  0
LINE
  5
D6A
100
AcDbEntity
  8
3
100
AcDbLine
 10
243.148404
 20
77.534159
 30
0.0
 11
243.148404
 21
93.534159
 31
0.0
  0
LINE
  5
D6B
100
AcDbEntity
  8
3
100
AcDbLine
 10
274.148404
 20
93.534159
 30
0.0
 11
274.148404
 21
77.534159
 31
0.0
  0
LINE
  5
D6C
100
AcDbEntity
  8
3
100
AcDbLine
 10
224.148404
 20
31.534159
 30
0.0
 11
224.148404
 21
93.534159
 31
0.0
  0
LINE
  5
D6D
100
AcDbEntity
  8
1
100
AcDbLine
 10
250.148404
 20
93.534159
 30
0.0
 11
250.148404
 21
68.80936
 31
0.0
  0
LINE
  5
D6E
100
AcDbEntity
  8
3
100
AcDbLine
 10
240.148404
 20
93.534159
 30
0.0
 11
240.148404
 21
85.526715
 31
0.0
  0
LINE
  5
D6F
100
AcDbEntity
  8
3
100
AcDbLine
 10
237.104582
 20
65.459902
 30
0.0
 11
247.297636
 21
72.28495
 31
0.0
  0
LINE
  5
D70
100
AcDbEntity
  8
3
100
AcDbLine
 10
240.148404
 20
67.497979
 30
0.0
 11
240.148404
 21
31.534159
 31
0.0
  0
ARC
  5
D71
100
AcDbEntity
  8
3
100
AcDbCircle
 10
240.824626
 20
68.873938
 30
0.0
 40
12.849153
100
AcDbArc
 50
161.547568
 51
209.564332
  0
ARC
  5
D72
100
AcDbEntity
  8
3
100
AcDbCircle
 10
232.181225
 20
64.164875
 30
0.0
 40
3.012377
100
AcDbArc
 50
212.774801
 51
328.369965
  0
ARC
  5
D73
100
AcDbEntity
  8
3
100
AcDbCircle
 10
258.031384
 20
45.886979
 30
0.0
 40
28.653627
100
AcDbArc
 50
136.914647
 51
144.355294
  0
ARC
  5
D74
100
AcDbEntity
  8
3
100
AcDbCircle
 10
239.176522
 20
70.194725
 30
0.0
 40
10.892304
100
AcDbArc
 50
131.572905
 51
165.396871
  0
LINE
  5
D77
100
AcDbEntity
  8
3
100
AcDbLine
 10
274.148404
 20
77.534159
 30
0.0
 11
260.148404
 21
77.534159
 31
0.0
  0
LINE
  5
D78
100
AcDbEntity
  8
3
100
AcDbLine
 10
274.148404
 20
77.534159
 30
0.0
 11
260.148404
 21
77.534159
 31
0.0
  0
ARC
  5
D79
100
AcDbEntity
  8
3
100
AcDbCircle
 10
251.041261
 20
81.248445
 30
0.0
 40
10.751424
100
AcDbArc
 50
265.236358
 51
327.893744
  0
ARC
  5
D7A
100
AcDbEntity
  8
3
100
AcDbCircle
 10
250.273404
 20
78.109159
 30
0.0
 40
7.576031
100
AcDbArc
 50
199.870034
 51
269.054611
  0
ARC
  5
D7B
100
AcDbEntity
  8
3
100
AcDbCircle
 10
255.148404
 20
70.784159
 30
0.0
 40
9.25
100
AcDbArc
 50
71.075356
 51
108.924644
  0
ARC
  5
D7C
100
AcDbEntity
  8
2
100
AcDbCircle
 10
249.898404
 20
78.381569
 30
0.0
 40
3.615637
100
AcDbArc
 50
220.484186
 51
319.515814
  0
LINE
  5
D7D
100
AcDbEntity
  8
3
100
AcDbLine
 10
252.148404
 20
81.034159
 30
0.0
 11
258.148404
 21
81.034159
 31
0.0
  0
LINE
  5
D7E
100
AcDbEntity
  8
3
100
AcDbLine
 10
255.148404
 20
83.034159
 30
0.0
 11
252.148404
 21
81.034159
 31
0.0
  0
LINE
  5
D7F
100
AcDbEntity
  8
3
100
AcDbLine
 10
243.148404
 20
77.534159
 30
0.0
 11
243.148404
 21
75.534159
 31
0.0
  0
LINE
  5
D80
100
AcDbEntity
  8
2
100
AcDbLine
 10
247.297636
 20
72.28495
 30
0.0
 11
251.788952
 21
75.301757
 31
0.0
  0
LINE
  5
D81
100
AcDbEntity
  8
3
100
AcDbLine
 10
249.148404
 20
79.534159
 30
0.0
 11
243.148404
 21
79.534159
 31
0.0
  0
LINE
  5
D82
100
AcDbEntity
  8
3
100
AcDbLine
 10
252.148404
 20
79.534159
 30
0.0
 11
249.148404
 21
79.534159
 31
0.0
  0
LINE
  5
D83
100
AcDbEntity
  8
3
100
AcDbLine
 10
252.148404
 20
79.534159
 30
0.0
 11
252.148404
 21
81.034159
 31
0.0
  0
LINE
  5
D84
100
AcDbEntity
  8
3
100
AcDbLine
 10
260.148404
 20
77.534159
 30
0.0
 11
260.148404
 21
79.534159
 31
0.0
  0
LINE
  5
D85
100
AcDbEntity
  8
3
100
AcDbLine
 10
260.148404
 20
79.534159
 30
0.0
 11
260.148404
 21
75.534159
 31
0.0
  0
LINE
  5
D86
100
AcDbEntity
  8
3
100
AcDbLine
 10
258.148404
 20
81.034159
 30
0.0
 11
255.148404
 21
83.034159
 31
0.0
  0
LINE
  5
D87
100
AcDbEntity
  8
3
100
AcDbLine
 10
260.148404
 20
79.534159
 30
0.0
 11
258.148404
 21
79.534159
 31
0.0
  0
LINE
  5
D88
100
AcDbEntity
  8
3
100
AcDbLine
 10
258.148404
 20
81.034159
 30
0.0
 11
258.148404
 21
79.534159
 31
0.0
  0
LINE
  5
D89
100
AcDbEntity
  8
3
100
AcDbLine
 10
253.5362
 20
118.90325
 30
0.0
 11
239.144116
 21
139.689413
 31
0.0
  0
LINE
  5
D8A
100
AcDbEntity
  8
3
100
AcDbLine
 10
243.670116
 20
118.080555
 30
0.0
 11
231.025597
 21
138.034159
 31
0.0
  0
LINE
  5
D8B
100
AcDbEntity
  8
3
100
AcDbLine
 10
240.148404
 20
93.534159
 30
0.0
 11
240.148404
 21
123.177017
 31
0.0
  0
LINE
  5
D8C
100
AcDbEntity
  8
3
100
AcDbLine
 10
233.648404
 20
143.534159
 30
0.0
 11
230.648404
 21
143.534159
 31
0.0
  0
LINE
  5
D8D
100
AcDbEntity
  8
3
100
AcDbLine
 10
239.144116
 20
144.534159
 30
0.0
 11
225.411602
 21
144.534159
 31
0.0
  0
LINE
  5
D8E
100
AcDbEntity
  8
3
100
AcDbLine
 10
239.144116
 20
144.034159
 30
0.0
 11
224.911602
 21
144.034159
 31
0.0
  0
LINE
  5
D8F
100
AcDbEntity
  8
3
100
AcDbLine
 10
224.148404
 20
138.034159
 30
0.0
 11
231.025597
 21
138.034159
 31
0.0
  0
LINE
  5
D90
100
AcDbEntity
  8
3
100
AcDbLine
 10
230.648404
 20
143.034159
 30
0.0
 11
224.148404
 21
143.034159
 31
0.0
  0
LWPOLYLINE
  5
D91
100
AcDbEntity
  8
3
100
AcDbPolyline
 90
        2
 70
     0
 43
0.0
 10
224.148404
 20
143.270961
 10
225.411602
 20
144.534159
  0
LINE
  5
D92
100
AcDbEntity
  8
3
100
AcDbLine
 10
230.648404
 20
143.534159
 30
0.0
 11
230.648404
 21
143.034159
 31
0.0
  0
LINE
  5
D93
100
AcDbEntity
  8
3
100
AcDbLine
 10
239.144116
 20
143.034159
 30
0.0
 11
233.648404
 21
143.034159
 31
0.0
  0
LINE
  5
D94
100
AcDbEntity
  8
3
100
AcDbLine
 10
233.648404
 20
143.034159
 30
0.0
 11
233.648404
 21
143.534159
 31
0.0
  0
ARC
  5
D95
100
AcDbEntity
  8
3
100
AcDbCircle
 10
251.041261
 20
105.819874
 30
0.0
 40
10.751424
100
AcDbArc
 50
32.106256
 51
94.763642
  0
ARC
  5
D96
100
AcDbEntity
  8
3
100
AcDbCircle
 10
250.273404
 20
108.959159
 30
0.0
 40
7.576031
100
AcDbArc
 50
90.945389
 51
160.129966
  0
ARC
  5
D9B
100
AcDbEntity
  8
3
100
AcDbCircle
 10
245.148404
 20
113.45854
 30
0.0
 40
10.0
100
AcDbArc
 50
13.972504
 51
32.988522
  0
ARC
  5
D9C
100
AcDbEntity
  8
3
100
AcDbCircle
 10
235.148404
 20
112.847924
 30
0.0
 40
10.0
100
AcDbArc
 50
9.053996
 51
31.551385
  0
LINE
  5
D9D
100
AcDbEntity
  8
1
100
AcDbLine
 10
250.148404
 20
93.534159
 30
0.0
 11
250.148404
 21
128.034159
 31
0.0
  0
LINE
  5
D9E
100
AcDbEntity
  8
3
100
AcDbLine
 10
274.148404
 20
109.534159
 30
0.0
 11
260.148404
 21
109.534159
 31
0.0
  0
LINE
  5
D9F
100
AcDbEntity
  8
3
100
AcDbLine
 10
274.148404
 20
109.534159
 30
0.0
 11
260.148404
 21
109.534159
 31
0.0
  0
LINE
  5
DA0
100
AcDbEntity
  8
3
100
AcDbLine
 10
243.148404
 20
109.534159
 30
0.0
 11
243.148404
 21
93.534159
 31
0.0
  0
CIRCLE
  5
DA1
100
AcDbEntity
  8
2
100
AcDbCircle
 10
255.181936
 20
93.481076
 30
0.0
 40
3.0
  0
ARC
  5
DA2
100
AcDbEntity
  8
2
100
AcDbCircle
 10
249.898404
 20
89.619673
 30
0.0
 40
3.350785
100
AcDbArc
 50
34.844738
 51
145.155262
  0
LINE
  5
DA3
100
AcDbEntity
  8
2
100
AcDbLine
 10
243.218741
 20
88.216471
 30
0.0
 11
247.504804
 21
91.953944
 31
0.0
  0
ARC
  5
DA4
100
AcDbEntity
  8
3
100
AcDbCircle
 10
255.148404
 20
116.284159
 30
0.0
 40
9.25
100
AcDbArc
 50
251.075356
 51
288.924644
  0
LINE
  5
DA5
100
AcDbEntity
  8
3
100
AcDbLine
 10
255.148404
 20
104.034159
 30
0.0
 11
252.148404
 21
106.034159
 31
0.0
  0
LINE
  5
DA6
100
AcDbEntity
  8
3
100
AcDbLine
 10
252.148404
 20
106.034159
 30
0.0
 11
258.148404
 21
106.034159
 31
0.0
  0
LINE
  5
DA7
100
AcDbEntity
  8
3
100
AcDbLine
 10
249.148404
 20
107.534159
 30
0.0
 11
243.148404
 21
107.534159
 31
0.0
  0
LINE
  5
DA8
100
AcDbEntity
  8
3
100
AcDbLine
 10
252.148404
 20
107.534159
 30
0.0
 11
249.148404
 21
107.534159
 31
0.0
  0
LINE
  5
DA9
100
AcDbEntity
  8
3
100
AcDbLine
 10
252.148404
 20
107.534159
 30
0.0
 11
252.148404
 21
106.034159
 31
0.0
  0
LINE
  5
DAA
100
AcDbEntity
  8
3
100
AcDbLine
 10
243.148404
 20
109.534159
 30
0.0
 11
243.148404
 21
111.534159
 31
0.0
  0
LINE
  5
DAB
100
AcDbEntity
  8
3
100
AcDbLine
 10
260.148404
 20
107.534159
 30
0.0
 11
260.148404
 21
111.534159
 31
0.0
  0
LINE
  5
DAC
100
AcDbEntity
  8
3
100
AcDbLine
 10
260.148404
 20
109.534159
 30
0.0
 11
260.148404
 21
107.534159
 31
0.0
  0
LINE
  5
DAD
100
AcDbEntity
  8
3
100
AcDbLine
 10
258.148404
 20
106.034159
 30
0.0
 11
255.148404
 21
104.034159
 31
0.0
  0
LINE
  5
DAE
100
AcDbEntity
  8
3
100
AcDbLine
 10
260.148404
 20
107.534159
 30
0.0
 11
258.148404
 21
107.534159
 31
0.0
  0
LINE
  5
DAF
100
AcDbEntity
  8
3
100
AcDbLine
 10
258.148404
 20
106.034159
 30
0.0
 11
258.148404
 21
107.534159
 31
0.0
  0
LINE
  5
DB0
100
AcDbEntity
  8
3
100
AcDbLine
 10
274.148404
 20
93.534159
 30
0.0
 11
274.148404
 21
109.534159
 31
0.0
  0
LINE
  5
DB3
100
AcDbEntity
  8
1
100
AcDbLine
 10
219.148404
 20
148.034159
 30
0.0
 11
242.648404
 21
148.034159
 31
0.0
  0
LINE
  5
DB4
100
AcDbEntity
  8
3
100
AcDbLine
 10
230.648404
 20
152.534159
 30
0.0
 11
233.648404
 21
152.534159
 31
0.0
  0
LINE
  5
DB5
100
AcDbEntity
  8
3
100
AcDbLine
 10
225.411602
 20
151.534159
 30
0.0
 11
239.144116
 21
151.534159
 31
0.0
  0
LINE
  5
DB6
100
AcDbEntity
  8
3
100
AcDbLine
 10
224.911602
 20
152.034159
 30
0.0
 11
239.144116
 21
152.034159
 31
0.0
  0
LINE
  5
DB7
100
AcDbEntity
  8
3
100
AcDbLine
 10
224.148404
 20
153.034159
 30
0.0
 11
230.648404
 21
153.034159
 31
0.0
  0
LWPOLYLINE
  5
DB8
100
AcDbEntity
  8
3
100
AcDbPolyline
 90
        2
 70
     0
 43
0.0
 10
225.411602
 20
151.534159
 10
224.148404
 20
152.797358
  0
LINE
  5
DB9
100
AcDbEntity
  8
3
100
AcDbLine
 10
230.648404
 20
153.034159
 30
0.0
 11
230.648404
 21
152.534159
 31
0.0
  0
LINE
  5
DBA
100
AcDbEntity
  8
3
100
AcDbLine
 10
233.648404
 20
153.034159
 30
0.0
 11
239.144116
 21
153.034159
 31
0.0
  0
LINE
  5
DBB
100
AcDbEntity
  8
3
100
AcDbLine
 10
233.648404
 20
152.534159
 30
0.0
 11
233.648404
 21
153.034159
 31
0.0
  0
LINE
  5
DBC
100
AcDbEntity
  8
1
100
AcDbLine
 10
167.148404
 20
93.534159
 30
5.786942
 11
17.148404
 21
93.534159
 31
5.786942
  0
LINE
  5
DBF
100
AcDbEntity
  8
3
100
AcDbLine
 10
239.144116
 20
155.069518
 30
5.786942
 11
239.144116
 21
139.689413
 31
5.786942
  0
LINE
  5
DC0
100
AcDbEntity
  8
1
100
AcDbLine
 10
232.148404
 20
140.752382
 30
5.786942
 11
232.148404
 21
166.762056
 31
5.786942
  0
LINE
  5
DC1
100
AcDbEntity
  8
1
100
AcDbLine
 10
232.148404
 20
140.27948
 30
5.786942
 11
232.148404
 21
166.604421
 31
5.786942
  0
LINE
  5
DC2
100
AcDbEntity
  8
3
100
AcDbLine
 10
236.383575
 20
82.228552
 30
5.786942
 11
236.383575
 21
129.308308
 31
5.786942
  0
LINE
  5
DC3
100
AcDbEntity
  8
1
100
AcDbLine
 10
232.148404
 20
46.788839
 30
5.786942
 11
232.148404
 21
93.534159
 31
5.786942
  0
LINE
  5
DC8
100
AcDbEntity
  8
1
100
AcDbLine
 10
220.648404
 20
31.534159
 30
5.786942
 11
242.907459
 21
31.534159
 31
5.786942
  0
ARC
  5
DC9
100
AcDbEntity
  8
3
100
AcDbCircle
 10
232.148404
 20
38.534159
 30
5.786942
 40
5.0
100
AcDbArc
 50
32.109439
 51
90.0
  0
ARC
  5
DCA
100
AcDbEntity
  8
3
100
AcDbCircle
 10
232.148404
 20
38.534159
 30
5.786942
 40
5.0
100
AcDbArc
 50
90.0
 51
147.890561
  0
ARC
  5
DCB
100
AcDbEntity
  8
3
100
AcDbCircle
 10
243.148404
 20
31.605947
 30
5.786942
 40
18.0
100
AcDbArc
 50
147.769398
 51
178.749408
  0
ARC
  5
DCC
100
AcDbEntity
  8
3
100
AcDbCircle
 10
224.952739
 20
32.003166
 30
5.786942
 40
0.2
100
AcDbArc
 50
287.842417
 51
358.749408
  0
LINE
  5
DCD
100
AcDbEntity
  8
3
100
AcDbLine
 10
224.288477
 20
31.579246
 30
5.786942
 11
225.014019
 21
31.812785
 31
5.786942
  0
ARC
  5
DCE
100
AcDbEntity
  8
3
100
AcDbCircle
 10
224.349757
 20
31.388866
 30
5.786942
 40
0.2
100
AcDbArc
 50
107.842417
 51
181.067332
  0
ARC
  5
DCF
100
AcDbEntity
  8
3
100
AcDbCircle
 10
247.121378
 20
39.776963
 30
5.786942
 40
10.837971
100
AcDbArc
 50
172.446775
 51
229.512589
  0
ARC
  5
DD0
100
AcDbEntity
  8
3
100
AcDbCircle
 10
221.148404
 20
31.605947
 30
5.786942
 40
18.0
100
AcDbArc
 50
32.177922
 51
32.230602
  0
LINE
  5
DD1
100
AcDbEntity
  8
1
100
AcDbLine
 10
219.648404
 20
93.534159
 30
5.786942
 11
279.148404
 21
93.534159
 31
5.786942
  0
LINE
  5
DD2
100
AcDbEntity
  8
1
100
AcDbLine
 10
232.148404
 20
140.27948
 30
5.786942
 11
232.148404
 21
93.534159
 31
5.786942
  0
LINE
  5
DD3
100
AcDbEntity
  8
1
100
AcDbLine
 10
220.648404
 20
155.534159
 30
5.786942
 11
242.907459
 21
155.534159
 31
5.786942
  0
ARC
  5
DD4
100
AcDbEntity
  8
3
100
AcDbCircle
 10
232.148404
 20
155.534159
 30
5.786942
 40
8.0
100
AcDbArc
 50
1.067332
 51
90.0
  0
ARC
  5
DD5
100
AcDbEntity
  8
3
100
AcDbCircle
 10
232.148404
 20
155.534159
 30
5.786942
 40
8.0
100
AcDbArc
 50
90.0
 51
178.932668
  0
ARC
  5
DD6
100
AcDbEntity
  8
3
100
AcDbCircle
 10
239.344068
 20
155.065153
 30
5.786942
 40
0.2
100
AcDbArc
 50
107.842417
 51
178.749408
  0
ARC
  5
DD7
100
AcDbEntity
  8
3
100
AcDbCircle
 10
239.94705
 20
155.679453
 30
5.786942
 40
0.2
100
AcDbArc
 50
287.842417
 51
1.067332
  0
LINE
  5
DD8
100
AcDbEntity
  8
3
100
AcDbLine
 10
240.00833
 20
155.489072
 30
5.786942
 11
239.282788
 21
155.255534
 31
5.786942
  0
ENDSEC
  0
SECTION
  2
OBJECTS
  0
DICTIONARY
  5
20B
100
AcDbDictionary
  3
ACAD_GROUP
350
20C
  3
ACAD_MLINESTYLE
350
219
  3
ACDBVARIABLEDICTIONARY
350
228
  0
DICTIONARY
  5
2C7
100
AcDbDictionary
280
     1
  3
ACAD_XREC_ROUNDTRIP
360
2C8
  0
DICTIONARY
  5
20C
102
{ACAD_REACTORS
330
20B
102
}
100
AcDbDictionary
  0
DICTIONARY
  5
219
102
{ACAD_REACTORS
330
20B
102
}
100
AcDbDictionary
  3
STANDARD
350
21A
  0
DICTIONARY
  5
228
102
{ACAD_REACTORS
330
20B
102
}
100
AcDbDictionary
  3
DIMADEC
350
229
  0
XRECORD
  5
2C8
102
{ACAD_REACTORS
330
2C7
102
}
100
AcDbXrecord
102
PLOTBIT
280
     0
  0
MLINESTYLE
  5
21A
102
{ACAD_REACTORS
330
219
102
}
100
AcDbMlineStyle
  2
STANDARD
 70
     0
  3

 62
   256
 51
90.0
 52
90.0
 71
     2
 49
0.5
 62
   256
  6
BYLAYER
 49
-0.5
 62
   256
  6
BYLAYER
  0
DICTIONARYVAR
  5
229
102
{ACAD_REACTORS
330
228
102
}
100
DictionaryVariables
280
     0
  1
0
  0
ENDSEC
  0
EOF
