  0
SECTION
  2
HEADER
  9
$ACADVER
  1
AC1014
  9
$ACADMAINTVER
 70
     0
  9
$DWGCODEPAGE
  3
ANSI_932
  9
$INSBASE
 10
0.0
 20
0.0
 30
0.0
  9
$EXTMIN
 10
13.096959
 20
32.882397
 30
11.197397
  9
$EXTMAX
 10
205.807761
 20
117.598477
 30
11.197397
  9
$LIMMIN
 10
0.0
 20
0.0
  9
$LIMMAX
 10
300.0
 20
200.0
  9
$ORTHOMODE
 70
     0
  9
$REGENMODE
 70
     1
  9
$FILLMODE
 70
     1
  9
$QTEXTMODE
 70
     0
  9
$MIRRTEXT
 70
     1
  9
$DRAGMODE
 70
     2
  9
$LTSCALE
 40
1.0
  9
$OSMODE
 70
    32
  9
$ATTMODE
 70
     1
  9
$TEXTSIZE
 40
10.0
  9
$TRACEWID
 40
0.05
  9
$TEXTSTYLE
  7
BIGFONT
  9
$CLAYER
  8
3
  9
$CELTYPE
  6
BYLAYER
  9
$CECOLOR
 62
   256
  9
$CELTSCALE
 40
1.0
  9
$DELOBJ
 70
     1
  9
$DISPSILH
 70
     0
  9
$DIMSCALE
 40
1.0
  9
$DIMASZ
 40
0.18
  9
$DIMEXO
 40
0.0625
  9
$DIMDLI
 40
0.38
  9
$DIMRND
 40
0.0
  9
$DIMDLE
 40
0.0
  9
$DIMEXE
 40
0.18
  9
$DIMTP
 40
0.0
  9
$DIMTM
 40
0.0
  9
$DIMTXT
 40
0.18
  9
$DIMCEN
 40
0.09
  9
$DIMTSZ
 40
0.0
  9
$DIMTOL
 70
     0
  9
$DIMLIM
 70
     0
  9
$DIMTIH
 70
     1
  9
$DIMTOH
 70
     1
  9
$DIMSE1
 70
     0
  9
$DIMSE2
 70
     0
  9
$DIMTAD
 70
     0
  9
$DIMZIN
 70
     0
  9
$DIMBLK
  1

  9
$DIMASO
 70
     1
  9
$DIMSHO
 70
     1
  9
$DIMPOST
  1

  9
$DIMAPOST
  1

  9
$DIMALT
 70
     0
  9
$DIMALTD
 70
     2
  9
$DIMALTF
 40
25.4
  9
$DIMLFAC
 40
1.0
  9
$DIMTOFL
 70
     0
  9
$DIMTVP
 40
0.0
  9
$DIMTIX
 70
     0
  9
$DIMSOXD
 70
     0
  9
$DIMSAH
 70
     0
  9
$DIMBLK1
  1

  9
$DIMBLK2
  1

  9
$DIMSTYLE
  2
STANDARD
  9
$DIMCLRD
 70
     0
  9
$DIMCLRE
 70
     0
  9
$DIMCLRT
 70
     0
  9
$DIMTFAC
 40
1.0
  9
$DIMGAP
 40
0.09
  9
$DIMJUST
 70
     0
  9
$DIMSD1
 70
     0
  9
$DIMSD2
 70
     0
  9
$DIMTOLJ
 70
     1
  9
$DIMTZIN
 70
     0
  9
$DIMALTZ
 70
     0
  9
$DIMALTTZ
 70
     0
  9
$DIMFIT
 70
     5
  9
$DIMUPT
 70
     0
  9
$DIMUNIT
 70
     2
  9
$DIMDEC
 70
     4
  9
$DIMTDEC
 70
     4
  9
$DIMALTU
 70
     2
  9
$DIMALTTD
 70
     2
  9
$DIMTXSTY
  7
BIGFONT
  9
$DIMAUNIT
 70
     0
  9
$LUNITS
 70
     2
  9
$LUPREC
 70
     4
  9
$SKETCHINC
 40
0.1
  9
$FILLETRAD
 40
0.0
  9
$AUNITS
 70
     0
  9
$AUPREC
 70
     0
  9
$MENU
  1
acad
  9
$ELEVATION
 40
0.0
  9
$PELEVATION
 40
0.0
  9
$THICKNESS
 40
0.0
  9
$LIMCHECK
 70
     0
  9
$BLIPMODE
 70
     0
  9
$CHAMFERA
 40
0.0
  9
$CHAMFERB
 40
0.0
  9
$CHAMFERC
 40
0.0
  9
$CHAMFERD
 40
0.0
  9
$SKPOLY
 70
     0
  9
$TDCREATE
 40
2450870.978377083
  9
$TDUPDATE
 40
2453594.404232488
  9
$TDINDWG
 40
0.0135460069
  9
$TDUSRTIMER
 40
0.0135460069
  9
$USRTIMER
 70
     1
  9
$ANGBASE
 50
0.0
  9
$ANGDIR
 70
     0
  9
$PDMODE
 70
     0
  9
$PDSIZE
 40
0.0
  9
$PLINEWID
 40
0.0
  9
$COORDS
 70
     2
  9
$SPLFRAME
 70
     0
  9
$SPLINETYPE
 70
     6
  9
$SPLINESEGS
 70
     8
  9
$ATTDIA
 70
     0
  9
$ATTREQ
 70
     1
  9
$HANDLING
 70
     1
  9
$HANDSEED
  5
7D8
  9
$SURFTAB1
 70
     6
  9
$SURFTAB2
 70
     6
  9
$SURFTYPE
 70
     6
  9
$SURFU
 70
     6
  9
$SURFV
 70
     6
  9
$UCSNAME
  2

  9
$UCSORG
 10
0.0
 20
0.0
 30
0.0
  9
$UCSXDIR
 10
1.0
 20
0.0
 30
0.0
  9
$UCSYDIR
 10
0.0
 20
1.0
 30
0.0
  9
$PUCSNAME
  2

  9
$PUCSORG
 10
0.0
 20
0.0
 30
0.0
  9
$PUCSXDIR
 10
1.0
 20
0.0
 30
0.0
  9
$PUCSYDIR
 10
0.0
 20
1.0
 30
0.0
  9
$USERI1
 70
     0
  9
$USERI2
 70
     0
  9
$USERI3
 70
     0
  9
$USERI4
 70
     0
  9
$USERI5
 70
     0
  9
$USERR1
 40
0.0
  9
$USERR2
 40
0.0
  9
$USERR3
 40
0.0
  9
$USERR4
 40
0.0
  9
$USERR5
 40
0.0
  9
$WORLDVIEW
 70
     1
  9
$SHADEDGE
 70
     3
  9
$SHADEDIF
 70
    70
  9
$TILEMODE
 70
     1
  9
$MAXACTVP
 70
    16
  9
$PINSBASE
 10
0.0
 20
0.0
 30
0.0
  9
$PLIMCHECK
 70
     0
  9
$PEXTMIN
 10
1.000000E+20
 20
1.000000E+20
 30
1.000000E+20
  9
$PEXTMAX
 10
-1.000000E+20
 20
-1.000000E+20
 30
-1.000000E+20
  9
$PLIMMIN
 10
0.0
 20
0.0
  9
$PLIMMAX
 10
12.0
 20
9.0
  9
$UNITMODE
 70
     0
  9
$VISRETAIN
 70
     0
  9
$PLINEGEN
 70
     0
  9
$PSLTSCALE
 70
     1
  9
$TREEDEPTH
 70
  3020
  9
$PICKSTYLE
 70
     1
  9
$CMLSTYLE
  2
STANDARD
  9
$CMLJUST
 70
     0
  9
$CMLSCALE
 40
1.0
  9
$PROXYGRAPHICS
 70
     1
  9
$MEASUREMENT
 70
     0
  0
ENDSEC
  0
SECTION
  2
CLASSES
  0
CLASS
  1
DICTIONARYVAR
  2
AcDbDictionaryVar
  3
"AutoCAD"
 90
        0
280
     0
281
     0
  0
CLASS
  1
XRECORD
  2
AcDbXrecord
  3
"<Built In>"
 90
        0
280
     0
281
     0
  0
CLASS
  1
HATCH
  2
AcDbHatch
  3
"ACAD_SEDONA"
 90
        0
280
     0
281
     1
  0
CLASS
  1
LWPOLYLINE
  2
AcDbPolyline
  3
"AutoCAD"
 90
        0
280
     0
281
     1
  0
ENDSEC
  0
SECTION
  2
TABLES
  0
TABLE
  2
VPORT
  5
207
100
AcDbSymbolTable
 70
     4
  0
VPORT
  5
7D7
100
AcDbSymbolTableRecord
100
AcDbViewportTableRecord
  2
*ACTIVE
 70
     0
 10
0.0
 20
0.0
 11
1.0
 21
1.0
 12
125.0
 22
87.111399
 13
0.0
 23
0.0
 14
10.0
 24
10.0
 15
20.0
 25
20.0
 16
0.0
 26
0.0
 36
1.0
 17
0.0
 27
0.0
 37
0.0
 40
348.445596
 41
1.434944
 42
50.0
 43
0.0
 44
0.0
 50
0.0
 51
0.0
 71
     0
 72
 20000
 73
     1
 74
     1
 75
     0
 76
     1
 77
     0
 78
     0
  0
ENDTAB
  0
TABLE
  2
LTYPE
  5
204
100
AcDbSymbolTable
 70
     6
  0
LTYPE
  5
210
100
AcDbSymbolTableRecord
100
AcDbLinetypeTableRecord
  2
BYBLOCK
 70
     0
  3

 72
    65
 73
     0
 40
0.0
  0
LTYPE
  5
211
100
AcDbSymbolTableRecord
100
AcDbLinetypeTableRecord
  2
BYLAYER
 70
     0
  3

 72
    65
 73
     0
 40
0.0
  0
LTYPE
  5
212
100
AcDbSymbolTableRecord
100
AcDbLinetypeTableRecord
  2
CONTINUOUS
 70
     0
  3
Solid line
 72
    65
 73
     0
 40
0.0
  0
LTYPE
  5
21C
100
AcDbSymbolTableRecord
100
AcDbLinetypeTableRecord
  2
TENSEN1
 70
     0
  3

 72
    65
 73
     2
 40
0.4
 49
0.3
 74
     0
 49
-0.1
 74
     0
  0
LTYPE
  5
21D
100
AcDbSymbolTableRecord
100
AcDbLinetypeTableRecord
  2
ITTEN1
 70
     0
  3

 72
    65
 73
     4
 40
8.2
 49
5.0
 74
     0
 49
-1.0
 74
     0
 49
1.2
 74
     0
 49
-1.0
 74
     0
  0
LTYPE
  5
21E
100
AcDbSymbolTableRecord
100
AcDbLinetypeTableRecord
  2
TENSEN2
 70
     0
  3

 72
    65
 73
     2
 40
2.1
 49
1.5
 74
     0
 49
-0.6
 74
     0
  0
LTYPE
  5
2C5
100
AcDbSymbolTableRecord
100
AcDbLinetypeTableRecord
  2
ITTEN
 70
     0
  3

 72
    65
 73
     4
 40
5.5
 49
2.5
 74
     0
 49
-1.0
 74
     0
 49
1.0
 74
     0
 49
-1.0
 74
     0
  0
LTYPE
  5
525
100
AcDbSymbolTableRecord
100
AcDbLinetypeTableRecord
  2
TENSEN
 70
     0
  3

 72
    65
 73
     2
 40
4.0
 49
3.0
 74
     0
 49
-1.0
 74
     0
  0
ENDTAB
  0
TABLE
  2
LAYER
  5
201
100
AcDbSymbolTable
 70
     5
  0
LAYER
  5
20D
100
AcDbSymbolTableRecord
100
AcDbLayerTableRecord
  2
0
 70
     0
 62
     7
  6
CONTINUOUS
  0
LAYER
  5
221
100
AcDbSymbolTableRecord
100
AcDbLayerTableRecord
  2
1
 70
     0
 62
     1
  6
ITTEN1
  0
LAYER
  5
222
100
AcDbSymbolTableRecord
100
AcDbLayerTableRecord
  2
2
 70
     0
 62
     2
  6
TENSEN2
  0
LAYER
  5
223
100
AcDbSymbolTableRecord
100
AcDbLayerTableRecord
  2
3
 70
     0
 62
     3
  6
CONTINUOUS
  0
LAYER
  5
2C6
102
{ACAD_XDICTIONARY
360
2C7
102
}
100
AcDbSymbolTableRecord
100
AcDbLayerTableRecord
  2
DEFPOINTS
 70
     0
 62
     7
  6
CONTINUOUS
  0
ENDTAB
  0
TABLE
  2
STYLE
  5
202
100
AcDbSymbolTable
 70
     2
  0
STYLE
  5
20E
100
AcDbSymbolTableRecord
100
AcDbTextStyleTableRecord
  2
STANDARD
 70
     0
 40
0.0
 41
1.0
 50
0.0
 71
     0
 42
0.2
  3
txt
  4

  0
STYLE
  5
21B
100
AcDbSymbolTableRecord
100
AcDbTextStyleTableRecord
  2
BIGFONT
 70
     0
 40
10.0
 41
1.0
 50
0.0
 71
     0
 42
10.0
  3
txt.shx
  4
bigfont
  0
ENDTAB
  0
TABLE
  2
VIEW
  5
205
100
AcDbSymbolTable
 70
     0
  0
ENDTAB
  0
TABLE
  2
UCS
  5
206
100
AcDbSymbolTable
 70
     0
  0
ENDTAB
  0
TABLE
  2
APPID
  5
208
100
AcDbSymbolTable
 70
     1
  0
APPID
  5
20F
100
AcDbSymbolTableRecord
100
AcDbRegAppTableRecord
  2
ACAD
 70
     0
  0
ENDTAB
  0
TABLE
  2
DIMSTYLE
  5
209
100
AcDbSymbolTable
 70
     1
  0
DIMSTYLE
105
220
100
AcDbSymbolTableRecord
100
AcDbDimStyleTableRecord
  2
STANDARD
 70
     0
  3

  4

  5

  6

  7

 40
1.0
 41
0.18
 42
0.0625
 43
0.38
 44
0.18
 45
0.0
 46
0.0
 47
0.0
 48
0.0
140
0.18
141
0.09
142
0.0
143
25.4
144
1.0
145
0.0
146
1.0
147
0.09
 71
     0
 72
     0
 73
     1
 74
     1
 75
     0
 76
     0
 77
     0
 78
     0
170
     0
171
     2
172
     0
173
     0
174
     0
175
     0
176
     0
177
     0
178
     0
270
     2
271
     4
272
     4
273
     2
274
     2
340
21B
275
     0
280
     0
281
     0
282
     0
283
     1
284
     0
285
     0
286
     0
287
     5
288
     0
  0
ENDTAB
  0
TABLE
  2
BLOCK_RECORD
  5
200
100
AcDbSymbolTable
 70
    28
  0
BLOCK_RECORD
  5
216
100
AcDbSymbolTableRecord
100
AcDbBlockTableRecord
  2
*MODEL_SPACE
  0
BLOCK_RECORD
  5
213
100
AcDbSymbolTableRecord
100
AcDbBlockTableRecord
  2
*PAPER_SPACE
  0
BLOCK_RECORD
  5
238
100
AcDbSymbolTableRecord
100
AcDbBlockTableRecord
  2
*D0
  0
BLOCK_RECORD
  5
243
100
AcDbSymbolTableRecord
100
AcDbBlockTableRecord
  2
*D1
  0
BLOCK_RECORD
  5
24E
100
AcDbSymbolTableRecord
100
AcDbBlockTableRecord
  2
*D2
  0
BLOCK_RECORD
  5
259
100
AcDbSymbolTableRecord
100
AcDbBlockTableRecord
  2
*D3
  0
BLOCK_RECORD
  5
266
100
AcDbSymbolTableRecord
100
AcDbBlockTableRecord
  2
*D4
  0
BLOCK_RECORD
  5
273
100
AcDbSymbolTableRecord
100
AcDbBlockTableRecord
  2
*D5
  0
BLOCK_RECORD
  5
280
100
AcDbSymbolTableRecord
100
AcDbBlockTableRecord
  2
*D6
  0
BLOCK_RECORD
  5
28B
100
AcDbSymbolTableRecord
100
AcDbBlockTableRecord
  2
*D7
  0
BLOCK_RECORD
  5
296
100
AcDbSymbolTableRecord
100
AcDbBlockTableRecord
  2
*D8
  0
BLOCK_RECORD
  5
2A1
100
AcDbSymbolTableRecord
100
AcDbBlockTableRecord
  2
*D9
  0
BLOCK_RECORD
  5
2AC
100
AcDbSymbolTableRecord
100
AcDbBlockTableRecord
  2
*D10
  0
BLOCK_RECORD
  5
2BA
100
AcDbSymbolTableRecord
100
AcDbBlockTableRecord
  2
*D11
  0
BLOCK_RECORD
  5
2C9
100
AcDbSymbolTableRecord
100
AcDbBlockTableRecord
  2
A$C502C4094
  0
BLOCK_RECORD
  5
474
100
AcDbSymbolTableRecord
100
AcDbBlockTableRecord
  2
*D13
  0
BLOCK_RECORD
  5
481
100
AcDbSymbolTableRecord
100
AcDbBlockTableRecord
  2
*D14
  0
BLOCK_RECORD
  5
48F
100
AcDbSymbolTableRecord
100
AcDbBlockTableRecord
  2
*D15
  0
BLOCK_RECORD
  5
49D
100
AcDbSymbolTableRecord
100
AcDbBlockTableRecord
  2
*D16
  0
BLOCK_RECORD
  5
4AA
100
AcDbSymbolTableRecord
100
AcDbBlockTableRecord
  2
*D17
  0
BLOCK_RECORD
  5
4B7
100
AcDbSymbolTableRecord
100
AcDbBlockTableRecord
  2
*D18
  0
BLOCK_RECORD
  5
4C4
100
AcDbSymbolTableRecord
100
AcDbBlockTableRecord
  2
*D19
  0
BLOCK_RECORD
  5
4D2
100
AcDbSymbolTableRecord
100
AcDbBlockTableRecord
  2
*D20
  0
BLOCK_RECORD
  5
4DF
100
AcDbSymbolTableRecord
100
AcDbBlockTableRecord
  2
*D21
  0
BLOCK_RECORD
  5
4E8
100
AcDbSymbolTableRecord
100
AcDbBlockTableRecord
  2
*D22
  0
BLOCK_RECORD
  5
4F5
100
AcDbSymbolTableRecord
100
AcDbBlockTableRecord
  2
*D23
  0
BLOCK_RECORD
  5
502
100
AcDbSymbolTableRecord
100
AcDbBlockTableRecord
  2
*D24
  0
BLOCK_RECORD
  5
50F
100
AcDbSymbolTableRecord
100
AcDbBlockTableRecord
  2
*D25
  0
BLOCK_RECORD
  5
518
100
AcDbSymbolTableRecord
100
AcDbBlockTableRecord
  2
*D26
  0
BLOCK_RECORD
  5
526
100
AcDbSymbolTableRecord
100
AcDbBlockTableRecord
  2
A$C7921082D
  0
ENDTAB
  0
ENDSEC
  0
SECTION
  2
BLOCKS
  0
BLOCK
  5
226
100
AcDbEntity
  8
0
100
AcDbBlockBegin
  2
*MODEL_SPACE
 70
     0
 10
0.0
 20
0.0
 30
0.0
  3
*MODEL_SPACE
  1

  0
ENDBLK
  5
227
100
AcDbEntity
  8
0
100
AcDbBlockEnd
  0
BLOCK
  5
224
100
AcDbEntity
 67
     1
  8
0
100
AcDbBlockBegin
  2
*PAPER_SPACE
 70
     0
 10
0.0
 20
0.0
 30
0.0
  3
*PAPER_SPACE
  1

  0
ENDBLK
  5
225
100
AcDbEntity
 67
     1
  8
0
100
AcDbBlockEnd
  0
BLOCK
  5
241
100
AcDbEntity
  8
0
100
AcDbBlockBegin
  2
*D0
 70
     1
 10
0.0
 20
0.0
 30
0.0
  3
*D0
  1

  0
LINE
  5
239
100
AcDbEntity
  8
0
  6
BYBLOCK
 62
     0
100
AcDbLine
 10
79.0
 20
129.0
 30
0.0
 11
81.0
 21
129.0
 31
0.0
  0
LINE
  5
23A
100
AcDbEntity
  8
0
  6
BYBLOCK
 62
     0
100
AcDbLine
 10
81.0
 20
129.0
 30
0.0
 11
86.588475
 21
121.814818
 31
0.0
  0
MTEXT
  5
23B
100
AcDbEntity
  8
0
  6
BYBLOCK
 62
     0
100
AcDbMText
 10
76.25
 20
129.0
 30
0.0
 40
3.5
 41
0.0
 71
     5
 72
     1
  1
\A1;\U+220512
  0
SOLID
  5
23C
100
AcDbEntity
  8
0
  6
BYBLOCK
 62
     0
100
AcDbTrace
 10
86.851593
 20
122.019465
 30
0.0
 11
86.325358
 21
121.610171
 31
0.0
 12
87.816356
 22
120.236113
 32
0.0
 13
87.816356
 23
120.236113
 33
0.0
  0
LINE
  5
23D
100
AcDbEntity
  8
0
  6
BYBLOCK
 62
     0
100
AcDbLine
 10
91.4
 20
115.5
 30
0.0
 11
91.6
 21
115.5
 31
0.0
  0
LINE
  5
23E
100
AcDbEntity
  8
0
  6
BYBLOCK
 62
     0
100
AcDbLine
 10
91.5
 20
115.4
 30
0.0
 11
91.5
 21
115.6
 31
0.0
  0
POINT
  5
23F
100
AcDbEntity
  8
DEFPOINTS
  6
BYBLOCK
 62
     0
100
AcDbPoint
 10
87.816356
 20
120.236113
 30
0.0
  0
POINT
  5
240
100
AcDbEntity
  8
DEFPOINTS
  6
BYBLOCK
 62
     0
100
AcDbPoint
 10
95.183644
 20
110.763887
 30
0.0
  0
ENDBLK
  5
242
100
AcDbEntity
  8
0
100
AcDbBlockEnd
  0
BLOCK
  5
24C
100
AcDbEntity
  8
0
100
AcDbBlockBegin
  2
*D1
 70
     1
 10
0.0
 20
0.0
 30
0.0
  3
*D1
  1

  0
LINE
  5
244
100
AcDbEntity
  8
0
  6
BYBLOCK
 62
     0
100
AcDbLine
 10
79.25
 20
124.0
 30
0.0
 11
81.25
 21
124.0
 31
0.0
  0
LINE
  5
245
100
AcDbEntity
  8
0
  6
BYBLOCK
 62
     0
100
AcDbLine
 10
81.25
 20
124.0
 30
0.0
 11
86.727501
 21
119.457683
 31
0.0
  0
MTEXT
  5
246
100
AcDbEntity
  8
0
  6
BYBLOCK
 62
     0
100
AcDbMText
 10
75.95
 20
124.0
 30
0.0
 40
3.5
 41
0.0
 71
     5
 72
     1
  1
\A1;\U+22058.4
  0
SOLID
  5
247
100
AcDbEntity
  8
0
  6
BYBLOCK
 62
     0
100
AcDbTrace
 10
86.940279
 20
119.714269
 30
0.0
 11
86.514722
 21
119.201097
 31
0.0
 12
88.267017
 22
118.181011
 32
0.0
 13
88.267017
 23
118.181011
 33
0.0
  0
LINE
  5
248
100
AcDbEntity
  8
0
  6
BYBLOCK
 62
     0
100
AcDbLine
 10
91.4
 20
115.5
 30
0.0
 11
91.6
 21
115.5
 31
0.0
  0
LINE
  5
249
100
AcDbEntity
  8
0
  6
BYBLOCK
 62
     0
100
AcDbLine
 10
91.5
 20
115.4
 30
0.0
 11
91.5
 21
115.6
 31
0.0
  0
POINT
  5
24A
100
AcDbEntity
  8
DEFPOINTS
  6
BYBLOCK
 62
     0
100
AcDbPoint
 10
88.267017
 20
118.181011
 30
0.0
  0
POINT
  5
24B
100
AcDbEntity
  8
DEFPOINTS
  6
BYBLOCK
 62
     0
100
AcDbPoint
 10
94.732983
 20
112.81899
 30
0.0
  0
ENDBLK
  5
24D
100
AcDbEntity
  8
0
100
AcDbBlockEnd
  0
BLOCK
  5
257
100
AcDbEntity
  8
0
100
AcDbBlockBegin
  2
*D2
 70
     1
 10
0.0
 20
0.0
 30
0.0
  3
*D2
  1

  0
LINE
  5
24F
100
AcDbEntity
  8
0
  6
BYBLOCK
 62
     0
100
AcDbLine
 10
79.75
 20
110.0
 30
0.0
 11
81.75
 21
110.0
 31
0.0
  0
LINE
  5
250
100
AcDbEntity
  8
0
  6
BYBLOCK
 62
     0
100
AcDbLine
 10
81.75
 20
110.0
 30
0.0
 11
87.05801
 21
112.994262
 31
0.0
  0
MTEXT
  5
251
100
AcDbEntity
  8
0
  6
BYBLOCK
 62
     0
100
AcDbMText
 10
76.5
 20
110.0
 30
0.0
 40
3.5
 41
0.0
 71
     5
 72
     1
  1
\A1;\U+22056.2
  0
SOLID
  5
252
100
AcDbEntity
  8
0
  6
BYBLOCK
 62
     0
100
AcDbTrace
 10
86.894236
 20
113.284588
 30
0.0
 11
87.221784
 21
112.703936
 31
0.0
 12
88.799967
 22
113.976905
 32
0.0
 13
88.799967
 23
113.976905
 33
0.0
  0
LINE
  5
253
100
AcDbEntity
  8
0
  6
BYBLOCK
 62
     0
100
AcDbLine
 10
91.4
 20
115.5
 30
0.0
 11
91.6
 21
115.5
 31
0.0
  0
LINE
  5
254
100
AcDbEntity
  8
0
  6
BYBLOCK
 62
     0
100
AcDbLine
 10
91.5
 20
115.4
 30
0.0
 11
91.5
 21
115.6
 31
0.0
  0
POINT
  5
255
100
AcDbEntity
  8
DEFPOINTS
  6
BYBLOCK
 62
     0
100
AcDbPoint
 10
88.799967
 20
113.976905
 30
0.0
  0
POINT
  5
256
100
AcDbEntity
  8
DEFPOINTS
  6
BYBLOCK
 62
     0
100
AcDbPoint
 10
94.200033
 20
117.023096
 30
0.0
  0
ENDBLK
  5
258
100
AcDbEntity
  8
0
100
AcDbBlockEnd
  0
BLOCK
  5
264
100
AcDbEntity
  8
0
100
AcDbBlockBegin
  2
*D3
 70
     1
 10
0.0
 20
0.0
 30
0.0
  3
*D3
  1

  0
LINE
  5
25A
100
AcDbEntity
  8
0
  6
BYBLOCK
 62
     0
100
AcDbLine
 10
128.25
 20
120.6
 30
0.0
 11
128.25
 21
143.95
 31
0.0
  0
LINE
  5
25B
100
AcDbEntity
  8
0
  6
BYBLOCK
 62
     0
100
AcDbLine
 10
146.25
 20
120.6
 30
0.0
 11
146.25
 21
143.95
 31
0.0
  0
LINE
  5
25C
100
AcDbEntity
  8
0
  6
BYBLOCK
 62
     0
100
AcDbLine
 10
130.25
 20
143.75
 30
0.0
 11
135.35
 21
143.75
 31
0.0
  0
LINE
  5
25D
100
AcDbEntity
  8
0
  6
BYBLOCK
 62
     0
100
AcDbLine
 10
144.25
 20
143.75
 30
0.0
 11
138.65
 21
143.75
 31
0.0
  0
SOLID
  5
25E
100
AcDbEntity
  8
0
  6
BYBLOCK
 62
     0
100
AcDbTrace
 10
130.25
 20
144.083333
 30
0.0
 11
130.25
 21
143.416667
 31
0.0
 12
128.25
 22
143.75
 32
0.0
 13
128.25
 23
143.75
 33
0.0
  0
SOLID
  5
25F
100
AcDbEntity
  8
0
  6
BYBLOCK
 62
     0
100
AcDbTrace
 10
144.25
 20
144.083333
 30
0.0
 11
144.25
 21
143.416667
 31
0.0
 12
146.25
 22
143.75
 32
0.0
 13
146.25
 23
143.75
 33
0.0
  0
MTEXT
  5
260
100
AcDbEntity
  8
0
  6
BYBLOCK
 62
     0
100
AcDbMText
 10
137.0
 20
143.75
 30
0.0
 40
3.5
 41
0.0
 71
     5
 72
     1
  1
\A1;18
  0
POINT
  5
261
100
AcDbEntity
  8
DEFPOINTS
  6
BYBLOCK
 62
     0
100
AcDbPoint
 10
128.25
 20
120.5
 30
0.0
  0
POINT
  5
262
100
AcDbEntity
  8
DEFPOINTS
  6
BYBLOCK
 62
     0
100
AcDbPoint
 10
146.25
 20
120.5
 30
0.0
  0
POINT
  5
263
100
AcDbEntity
  8
DEFPOINTS
  6
BYBLOCK
 62
     0
100
AcDbPoint
 10
146.25
 20
143.75
 30
0.0
  0
ENDBLK
  5
265
100
AcDbEntity
  8
0
100
AcDbBlockEnd
  0
BLOCK
  5
271
100
AcDbEntity
  8
0
100
AcDbBlockBegin
  2
*D4
 70
     1
 10
0.0
 20
0.0
 30
0.0
  3
*D4
  1

  0
LINE
  5
267
100
AcDbEntity
  8
0
  6
BYBLOCK
 62
     0
100
AcDbLine
 10
128.25
 20
120.6
 30
0.0
 11
128.25
 21
137.7
 31
0.0
  0
LINE
  5
268
100
AcDbEntity
  8
0
  6
BYBLOCK
 62
     0
100
AcDbLine
 10
131.25
 20
119.8
 30
0.0
 11
131.25
 21
137.7
 31
0.0
  0
LINE
  5
269
100
AcDbEntity
  8
0
  6
BYBLOCK
 62
     0
100
AcDbLine
 10
126.25
 20
137.5
 30
0.0
 11
124.25
 21
137.5
 31
0.0
  0
LINE
  5
26A
100
AcDbEntity
  8
0
  6
BYBLOCK
 62
     0
100
AcDbLine
 10
133.25
 20
137.5
 30
0.0
 11
135.25
 21
137.5
 31
0.0
  0
SOLID
  5
26B
100
AcDbEntity
  8
0
  6
BYBLOCK
 62
     0
100
AcDbTrace
 10
126.25
 20
137.833333
 30
0.0
 11
126.25
 21
137.166667
 31
0.0
 12
128.25
 22
137.5
 32
0.0
 13
128.25
 23
137.5
 33
0.0
  0
SOLID
  5
26C
100
AcDbEntity
  8
0
  6
BYBLOCK
 62
     0
100
AcDbTrace
 10
133.25
 20
137.833333
 30
0.0
 11
133.25
 21
137.166667
 31
0.0
 12
131.25
 22
137.5
 32
0.0
 13
131.25
 23
137.5
 33
0.0
  0
MTEXT
  5
26D
100
AcDbEntity
  8
0
  6
BYBLOCK
 62
     0
100
AcDbMText
 10
129.75
 20
137.5
 30
0.0
 40
3.5
 41
0.0
 71
     5
 72
     1
  1
\A1;3
  0
POINT
  5
26E
100
AcDbEntity
  8
DEFPOINTS
  6
BYBLOCK
 62
     0
100
AcDbPoint
 10
128.25
 20
120.5
 30
0.0
  0
POINT
  5
26F
100
AcDbEntity
  8
DEFPOINTS
  6
BYBLOCK
 62
     0
100
AcDbPoint
 10
131.25
 20
119.7
 30
0.0
  0
POINT
  5
270
100
AcDbEntity
  8
DEFPOINTS
  6
BYBLOCK
 62
     0
100
AcDbPoint
 10
131.25
 20
137.5
 30
0.0
  0
ENDBLK
  5
272
100
AcDbEntity
  8
0
100
AcDbBlockEnd
  0
BLOCK
  5
27E
100
AcDbEntity
  8
0
100
AcDbBlockBegin
  2
*D5
 70
     1
 10
0.0
 20
0.0
 30
0.0
  3
*D5
  1

  0
LINE
  5
274
100
AcDbEntity
  8
0
  6
BYBLOCK
 62
     0
100
AcDbLine
 10
131.25
 20
119.8
 30
0.0
 11
131.25
 21
134.7
 31
0.0
  0
LINE
  5
275
100
AcDbEntity
  8
0
  6
BYBLOCK
 62
     0
100
AcDbLine
 10
146.25
 20
120.6
 30
0.0
 11
146.25
 21
134.7
 31
0.0
  0
LINE
  5
276
100
AcDbEntity
  8
0
  6
BYBLOCK
 62
     0
100
AcDbLine
 10
133.25
 20
134.5
 30
0.0
 11
137.1
 21
134.5
 31
0.0
  0
LINE
  5
277
100
AcDbEntity
  8
0
  6
BYBLOCK
 62
     0
100
AcDbLine
 10
144.25
 20
134.5
 30
0.0
 11
140.4
 21
134.5
 31
0.0
  0
SOLID
  5
278
100
AcDbEntity
  8
0
  6
BYBLOCK
 62
     0
100
AcDbTrace
 10
133.25
 20
134.833333
 30
0.0
 11
133.25
 21
134.166667
 31
0.0
 12
131.25
 22
134.5
 32
0.0
 13
131.25
 23
134.5
 33
0.0
  0
SOLID
  5
279
100
AcDbEntity
  8
0
  6
BYBLOCK
 62
     0
100
AcDbTrace
 10
144.25
 20
134.833333
 30
0.0
 11
144.25
 21
134.166667
 31
0.0
 12
146.25
 22
134.5
 32
0.0
 13
146.25
 23
134.5
 33
0.0
  0
MTEXT
  5
27A
100
AcDbEntity
  8
0
  6
BYBLOCK
 62
     0
100
AcDbMText
 10
138.75
 20
134.5
 30
0.0
 40
3.5
 41
0.0
 71
     5
 72
     1
  1
\A1;15
  0
POINT
  5
27B
100
AcDbEntity
  8
DEFPOINTS
  6
BYBLOCK
 62
     0
100
AcDbPoint
 10
131.25
 20
119.7
 30
0.0
  0
POINT
  5
27C
100
AcDbEntity
  8
DEFPOINTS
  6
BYBLOCK
 62
     0
100
AcDbPoint
 10
146.25
 20
120.5
 30
0.0
  0
POINT
  5
27D
100
AcDbEntity
  8
DEFPOINTS
  6
BYBLOCK
 62
     0
100
AcDbPoint
 10
146.25
 20
134.5
 30
0.0
  0
ENDBLK
  5
27F
100
AcDbEntity
  8
0
100
AcDbBlockEnd
  0
BLOCK
  5
289
100
AcDbEntity
  8
0
100
AcDbBlockBegin
  2
*D6
 70
     1
 10
0.0
 20
0.0
 30
0.0
  3
*D6
  1

  0
LINE
  5
281
100
AcDbEntity
  8
0
  6
BYBLOCK
 62
     0
100
AcDbLine
 10
119.75
 20
104.0
 30
0.0
 11
121.75
 21
104.0
 31
0.0
  0
LINE
  5
282
100
AcDbEntity
  8
0
  6
BYBLOCK
 62
     0
100
AcDbLine
 10
121.75
 20
104.0
 30
0.0
 11
128.494311
 21
109.845069
 31
0.0
  0
MTEXT
  5
283
100
AcDbEntity
  8
0
  6
BYBLOCK
 62
     0
100
AcDbMText
 10
118.25
 20
104.0
 30
0.0
 40
3.5
 41
0.0
 71
     5
 72
     1
  1
\A1;R1
  0
SOLID
  5
284
100
AcDbEntity
  8
0
  6
BYBLOCK
 62
     0
100
AcDbTrace
 10
126.764623
 20
108.787105
 30
0.0
 11
127.201243
 21
108.283312
 31
0.0
 12
128.494311
 22
109.845069
 32
0.0
 13
128.494311
 23
109.845069
 33
0.0
  0
LINE
  5
285
100
AcDbEntity
  8
0
  6
BYBLOCK
 62
     0
100
AcDbLine
 10
129.15
 20
110.5
 30
0.0
 11
129.35
 21
110.5
 31
0.0
  0
LINE
  5
286
100
AcDbEntity
  8
0
  6
BYBLOCK
 62
     0
100
AcDbLine
 10
129.25
 20
110.4
 30
0.0
 11
129.25
 21
110.6
 31
0.0
  0
POINT
  5
287
100
AcDbEntity
  8
DEFPOINTS
  6
BYBLOCK
 62
     0
100
AcDbPoint
 10
128.494311
 20
109.845069
 30
0.0
  0
POINT
  5
288
100
AcDbEntity
  8
DEFPOINTS
  6
BYBLOCK
 62
     0
100
AcDbPoint
 10
129.25
 20
110.5
 30
0.0
  0
ENDBLK
  5
28A
100
AcDbEntity
  8
0
100
AcDbBlockEnd
  0
BLOCK
  5
294
100
AcDbEntity
  8
0
100
AcDbBlockBegin
  2
*D7
 70
     1
 10
0.0
 20
0.0
 30
0.0
  3
*D7
  1

  0
LINE
  5
28C
100
AcDbEntity
  8
0
  6
BYBLOCK
 62
     0
100
AcDbLine
 10
154.5
 20
96.75
 30
0.0
 11
152.5
 21
96.75
 31
0.0
  0
LINE
  5
28D
100
AcDbEntity
  8
0
  6
BYBLOCK
 62
     0
100
AcDbLine
 10
152.5
 20
96.75
 30
0.0
 11
145.716409
 21
109.615431
 31
0.0
  0
MTEXT
  5
28E
100
AcDbEntity
  8
0
  6
BYBLOCK
 62
     0
100
AcDbMText
 10
156.0
 20
96.75
 30
0.0
 40
3.5
 41
0.0
 71
     5
 72
     1
  1
\A1;R1
  0
SOLID
  5
28F
100
AcDbEntity
  8
0
  6
BYBLOCK
 62
     0
100
AcDbTrace
 10
146.944084
 20
108.001762
 30
0.0
 11
146.354371
 21
107.690823
 31
0.0
 12
145.716409
 22
109.615431
 32
0.0
 13
145.716409
 23
109.615431
 33
0.0
  0
LINE
  5
290
100
AcDbEntity
  8
0
  6
BYBLOCK
 62
     0
100
AcDbLine
 10
145.15
 20
110.5
 30
0.0
 11
145.35
 21
110.5
 31
0.0
  0
LINE
  5
291
100
AcDbEntity
  8
0
  6
BYBLOCK
 62
     0
100
AcDbLine
 10
145.25
 20
110.4
 30
0.0
 11
145.25
 21
110.6
 31
0.0
  0
POINT
  5
292
100
AcDbEntity
  8
DEFPOINTS
  6
BYBLOCK
 62
     0
100
AcDbPoint
 10
145.716409
 20
109.615431
 30
0.0
  0
POINT
  5
293
100
AcDbEntity
  8
DEFPOINTS
  6
BYBLOCK
 62
     0
100
AcDbPoint
 10
145.25
 20
110.5
 30
0.0
  0
ENDBLK
  5
295
100
AcDbEntity
  8
0
100
AcDbBlockEnd
  0
BLOCK
  5
29F
100
AcDbEntity
  8
0
100
AcDbBlockBegin
  2
*D8
 70
     1
 10
0.0
 20
0.0
 30
0.0
  3
*D8
  1

  0
LINE
  5
297
100
AcDbEntity
  8
0
  6
BYBLOCK
 62
     0
100
AcDbLine
 10
169.75
 20
129.75
 30
0.0
 11
171.75
 21
129.75
 31
0.0
  0
LINE
  5
298
100
AcDbEntity
  8
0
  6
BYBLOCK
 62
     0
100
AcDbLine
 10
171.75
 20
129.75
 30
0.0
 11
176.982529
 21
122.102458
 31
0.0
  0
MTEXT
  5
299
100
AcDbEntity
  8
0
  6
BYBLOCK
 62
     0
100
AcDbMText
 10
167.0
 20
129.75
 30
0.0
 40
3.5
 41
0.0
 71
     5
 72
     1
  1
\A1;\U+220512
  0
SOLID
  5
29A
100
AcDbEntity
  8
0
  6
BYBLOCK
 62
     0
100
AcDbTrace
 10
177.257631
 20
122.290686
 30
0.0
 11
176.707426
 21
121.91423
 31
0.0
 12
178.111897
 22
120.451844
 32
0.0
 13
178.111897
 23
120.451844
 33
0.0
  0
LINE
  5
29B
100
AcDbEntity
  8
0
  6
BYBLOCK
 62
     0
100
AcDbLine
 10
181.4
 20
115.5
 30
0.0
 11
181.6
 21
115.5
 31
0.0
  0
LINE
  5
29C
100
AcDbEntity
  8
0
  6
BYBLOCK
 62
     0
100
AcDbLine
 10
181.5
 20
115.4
 30
0.0
 11
181.5
 21
115.6
 31
0.0
  0
POINT
  5
29D
100
AcDbEntity
  8
DEFPOINTS
  6
BYBLOCK
 62
     0
100
AcDbPoint
 10
178.111897
 20
120.451844
 30
0.0
  0
POINT
  5
29E
100
AcDbEntity
  8
DEFPOINTS
  6
BYBLOCK
 62
     0
100
AcDbPoint
 10
184.888103
 20
110.548157
 30
0.0
  0
ENDBLK
  5
2A0
100
AcDbEntity
  8
0
100
AcDbBlockEnd
  0
BLOCK
  5
2AA
100
AcDbEntity
  8
0
100
AcDbBlockBegin
  2
*D9
 70
     1
 10
0.0
 20
0.0
 30
0.0
  3
*D9
  1

  0
LINE
  5
2A2
100
AcDbEntity
  8
0
  6
BYBLOCK
 62
     0
100
AcDbLine
 10
169.0
 20
121.25
 30
0.0
 11
171.0
 21
121.25
 31
0.0
  0
LINE
  5
2A3
100
AcDbEntity
  8
0
  6
BYBLOCK
 62
     0
100
AcDbLine
 10
171.0
 20
121.25
 30
0.0
 11
177.026809
 21
117.949605
 31
0.0
  0
MTEXT
  5
2A4
100
AcDbEntity
  8
0
  6
BYBLOCK
 62
     0
100
AcDbMText
 10
165.75
 20
121.25
 30
0.0
 40
3.5
 41
0.0
 71
     5
 72
     1
  1
\A1;\U+22056.2
  0
SOLID
  5
2A5
100
AcDbEntity
  8
0
  6
BYBLOCK
 62
     0
100
AcDbTrace
 10
177.186914
 20
118.24197
 30
0.0
 11
176.866704
 21
117.657239
 31
0.0
 12
178.781002
 22
116.988976
 32
0.0
 13
178.781002
 23
116.988976
 33
0.0
  0
LINE
  5
2A6
100
AcDbEntity
  8
0
  6
BYBLOCK
 62
     0
100
AcDbLine
 10
181.4
 20
115.5
 30
0.0
 11
181.6
 21
115.5
 31
0.0
  0
LINE
  5
2A7
100
AcDbEntity
  8
0
  6
BYBLOCK
 62
     0
100
AcDbLine
 10
181.5
 20
115.4
 30
0.0
 11
181.5
 21
115.6
 31
0.0
  0
POINT
  5
2A8
100
AcDbEntity
  8
DEFPOINTS
  6
BYBLOCK
 62
     0
100
AcDbPoint
 10
178.781002
 20
116.988976
 30
0.0
  0
POINT
  5
2A9
100
AcDbEntity
  8
DEFPOINTS
  6
BYBLOCK
 62
     0
100
AcDbPoint
 10
184.218998
 20
114.011025
 30
0.0
  0
ENDBLK
  5
2AB
100
AcDbEntity
  8
0
100
AcDbBlockEnd
  0
BLOCK
  5
2B8
100
AcDbEntity
  8
0
100
AcDbBlockBegin
  2
*D10
 70
     1
 10
0.0
 20
0.0
 30
0.0
  3
*D10
  1

  0
LINE
  5
2AD
100
AcDbEntity
  8
0
  6
BYBLOCK
 62
     0
100
AcDbLine
 10
129.15
 20
79.25
 30
0.0
 11
109.9
 21
79.25
 31
0.0
  0
LINE
  5
2AE
100
AcDbEntity
  8
0
  6
BYBLOCK
 62
     0
100
AcDbLine
 10
129.15
 20
77.75
 30
0.0
 11
109.9
 21
77.75
 31
0.0
  0
LINE
  5
2AF
100
AcDbEntity
  8
0
  6
BYBLOCK
 62
     0
100
AcDbLine
 10
110.1
 20
75.75
 30
0.0
 11
110.1
 21
73.75
 31
0.0
  0
LINE
  5
2B0
100
AcDbEntity
  8
0
  6
BYBLOCK
 62
     0
100
AcDbLine
 10
110.1
 20
81.25
 30
0.0
 11
110.1
 21
84.0
 31
0.0
  0
LINE
  5
2B1
100
AcDbEntity
  8
0
  6
BYBLOCK
 62
     0
100
AcDbLine
 10
110.1
 20
84.0
 30
0.0
 11
112.1
 21
84.0
 31
0.0
  0
SOLID
  5
2B2
100
AcDbEntity
  8
0
  6
BYBLOCK
 62
     0
100
AcDbTrace
 10
109.766667
 20
75.75
 30
0.0
 11
110.433333
 21
75.75
 31
0.0
 12
110.1
 22
77.75
 32
0.0
 13
110.1
 23
77.75
 33
0.0
  0
SOLID
  5
2B3
100
AcDbEntity
  8
0
  6
BYBLOCK
 62
     0
100
AcDbTrace
 10
109.766667
 20
81.25
 30
0.0
 11
110.433333
 21
81.25
 31
0.0
 12
110.1
 22
79.25
 32
0.0
 13
110.1
 23
79.25
 33
0.0
  0
MTEXT
  5
2B4
100
AcDbEntity
  8
0
  6
BYBLOCK
 62
     0
100
AcDbMText
 10
114.25
 20
84.0
 30
0.0
 40
3.5
 41
0.0
 71
     5
 72
     1
  1
\A1;1.5
  0
POINT
  5
2B5
100
AcDbEntity
  8
DEFPOINTS
  6
BYBLOCK
 62
     0
100
AcDbPoint
 10
129.25
 20
79.25
 30
0.0
  0
POINT
  5
2B6
100
AcDbEntity
  8
DEFPOINTS
  6
BYBLOCK
 62
     0
100
AcDbPoint
 10
129.25
 20
77.75
 30
0.0
  0
POINT
  5
2B7
100
AcDbEntity
  8
DEFPOINTS
  6
BYBLOCK
 62
     0
100
AcDbPoint
 10
110.1
 20
77.75
 30
0.0
  0
ENDBLK
  5
2B9
100
AcDbEntity
  8
0
100
AcDbBlockEnd
  0
BLOCK
  5
2C3
100
AcDbEntity
  8
0
100
AcDbBlockBegin
  2
*D11
 70
     1
 10
0.0
 20
0.0
 30
0.0
  3
*D11
  1

  0
LINE
  5
2BB
100
AcDbEntity
  8
0
  6
BYBLOCK
 62
     0
100
AcDbLine
 10
183.5
 20
86.25
 30
0.0
 11
185.5
 21
86.25
 31
0.0
  0
LINE
  5
2BC
100
AcDbEntity
  8
0
  6
BYBLOCK
 62
     0
100
AcDbLine
 10
185.5
 20
86.25
 30
0.0
 11
190.917398
 21
81.711099
 31
0.0
  0
MTEXT
  5
2BD
100
AcDbEntity
  8
0
  6
BYBLOCK
 62
     0
100
AcDbMText
 10
181.75
 20
86.25
 30
0.0
 40
3.5
 41
0.0
 71
     5
 72
     1
  1
\A1;\U+22056
  0
SOLID
  5
2BE
100
AcDbEntity
  8
0
  6
BYBLOCK
 62
     0
100
AcDbTrace
 10
191.131471
 20
81.966606
 30
0.0
 11
190.703324
 21
81.455592
 31
0.0
 12
192.450439
 22
80.426659
 32
0.0
 13
192.450439
 23
80.426659
 33
0.0
  0
LINE
  5
2BF
100
AcDbEntity
  8
0
  6
BYBLOCK
 62
     0
100
AcDbLine
 10
194.65
 20
78.5
 30
0.0
 11
194.85
 21
78.5
 31
0.0
  0
LINE
  5
2C0
100
AcDbEntity
  8
0
  6
BYBLOCK
 62
     0
100
AcDbLine
 10
194.75
 20
78.4
 30
0.0
 11
194.75
 21
78.6
 31
0.0
  0
POINT
  5
2C1
100
AcDbEntity
  8
DEFPOINTS
  6
BYBLOCK
 62
     0
100
AcDbPoint
 10
192.450439
 20
80.426659
 30
0.0
  0
POINT
  5
2C2
100
AcDbEntity
  8
DEFPOINTS
  6
BYBLOCK
 62
     0
100
AcDbPoint
 10
197.049562
 20
76.57334
 30
0.0
  0
ENDBLK
  5
2C4
100
AcDbEntity
  8
0
100
AcDbBlockEnd
  0
BLOCK
  5
31C
100
AcDbEntity
  8
0
100
AcDbBlockBegin
  2
A$C502C4094
 70
     0
 10
0.0
 20
0.0
 30
0.0
  3
A$C502C4094
  1

  0
LINE
  5
2CA
100
AcDbEntity
  8
1
100
AcDbLine
 10
53.15
 20
5.25
 30
0.0
 11
77.4
 21
5.25
 31
0.0
  0
LINE
  5
2CB
100
AcDbEntity
  8
3
100
AcDbLine
 10
75.4
 20
2.25
 30
0.0
 11
59.4
 21
2.25
 31
0.0
  0
LINE
  5
2CC
100
AcDbEntity
  8
3
100
AcDbLine
 10
75.4
 20
8.25
 30
0.0
 11
59.4
 21
8.25
 31
0.0
  0
HATCH
  5
2CD
100
AcDbEntity
  8
0
100
AcDbHatch
 10
0.0
 20
0.0
 30
0.0
210
0.0
220
0.0
230
1.0
  2
ANSI31
 70
     0
 71
     1
 91
        1
 92
        7
 72
     1
 73
     1
 93
        8
 10
73.40000004562319
 20
37.25000032117286
 42
0.0
 10
73.40000004562319
 20
39.15000032117287
 42
0.0
 10
58.40000004562321
 20
39.15000032117285
 42
0.0
 10
58.40000004562319
 20
38.05000032117286
 42
0.0
 10
55.40000004562319
 20
38.05000032117287
 42
0.0
 10
55.40000004562319
 20
37.25000032117286
 42
0.4142135623730951
 10
56.40000004562319
 20
36.25000032117286
 42
0.0
 10
72.40000004562318
 20
36.25000032117286
 42
0.4142135623730951
 97
        8
330
317
330
2D0
330
2F3
330
2F1
330
2F0
330
2F2
330
2D1
330
316
 75
     0
 76
     1
 52
0.0
 41
3.0
 77
     0
 78
     1
 53
45.0
 43
-72.85
 44
-73.25
 45
-0.2651650429449553
 46
0.2651650429449553
 79
     0
 47
0.136474
 98
        1
 10
65.4
 20
37.25
  0
DIMENSION
  5
2CE
100
AcDbEntity
  8
0
100
AcDbDimension
  2
*D5
 10
73.4
 20
61.25
 30
0.0
 11
65.9
 21
61.25
 31
0.0
 12
-72.85
 22
-73.25
 32
0.0
 70
   128
  3
STANDARD
100
AcDbAlignedDimension
 13
58.4
 23
46.45
 33
0.0
 14
73.4
 24
47.25
 34
0.0
100
AcDbRotatedDimension
1001
ACAD
1000
DSTYLE
1002
{
1070
    78
1070
     8
1070
   288
1070
     1
1070
   284
1070
     8
1070
   140
1040
2.0
1070
    73
1070
     0
1070
   272
1070
     2
1070
   147
1040
0.1
1070
    42
1040
0.1
1070
    44
1040
0.2
1070
    43
1040
0.4
1070
   271
1070
     2
1070
   141
1040
0.1
1070
    41
1040
2.0
1002
}
  0
DIMENSION
  5
2CF
100
AcDbEntity
  8
0
100
AcDbDimension
  2
*D3
 10
73.4
 20
70.5
 30
0.0
 11
64.15
 21
70.5
 31
0.0
 12
-72.85
 22
-73.25
 32
0.0
 70
   128
  3
STANDARD
100
AcDbAlignedDimension
 13
55.4
 23
47.25
 33
0.0
 14
73.4
 24
47.25
 34
0.0
100
AcDbRotatedDimension
1001
ACAD
1000
DSTYLE
1002
{
1070
    78
1070
     8
1070
   288
1070
     1
1070
   284
1070
     8
1070
   140
1040
2.0
1070
    73
1070
     0
1070
   272
1070
     2
1070
   147
1040
0.1
1070
    42
1040
0.1
1070
    44
1040
0.2
1070
    43
1040
0.4
1070
   271
1070
     2
1070
   141
1040
0.1
1070
    41
1040
2.0
1002
}
  0
LINE
  5
2D0
102
{ACAD_REACTORS
330
2CD
102
}
100
AcDbEntity
  8
3
100
AcDbLine
 10
73.4
 20
39.15
 30
0.0
 11
58.4
 21
39.15
 31
0.0
  0
LINE
  5
2D1
102
{ACAD_REACTORS
330
2CD
102
}
100
AcDbEntity
  8
3
100
AcDbLine
 10
56.4
 20
36.25
 30
0.0
 11
72.4
 21
36.25
 31
0.0
  0
LINE
  5
2D2
100
AcDbEntity
  8
3
100
AcDbLine
 10
73.4
 20
45.35
 30
0.0
 11
58.4
 21
45.35
 31
0.0
  0
LINE
  5
2D3
100
AcDbEntity
  8
3
100
AcDbLine
 10
56.4
 20
48.25
 30
0.0
 11
72.4
 21
48.25
 31
0.0
  0
LINE
  5
2D4
100
AcDbEntity
  8
1
100
AcDbLine
 10
52.15
 20
42.250001
 30
0.0
 11
76.4
 21
42.250001
 31
0.0
  0
CIRCLE
  5
2D5
100
AcDbEntity
  8
3
100
AcDbCircle
 10
16.9
 20
5.25
 30
0.0
 40
4.0
  0
LINE
  5
2D6
100
AcDbEntity
  8
1
100
AcDbLine
 10
16.9
 20
10.25
 30
0.0
 11
16.9
 21
0.0
 31
0.0
  0
LINE
  5
2D7
100
AcDbEntity
  8
1
100
AcDbLine
 10
11.4
 20
5.25
 30
0.0
 11
22.65
 21
5.25
 31
0.0
  0
LINE
  5
2D8
100
AcDbEntity
  8
3
100
AcDbLine
 10
20.829059
 20
6.0
 30
0.0
 11
12.970942
 21
6.0
 31
0.0
  0
LINE
  5
2D9
100
AcDbEntity
  8
3
100
AcDbLine
 10
20.829059
 20
4.5
 30
0.0
 11
12.970942
 21
4.5
 31
0.0
  0
DIMENSION
  5
2DA
100
AcDbEntity
  8
0
100
AcDbDimension
  2
*D10
 10
37.25
 20
4.5
 30
0.0
 11
41.4
 21
10.75
 31
0.0
 12
-72.85
 22
-73.25
 32
0.0
 70
   128
  3
STANDARD
100
AcDbAlignedDimension
 13
56.4
 23
6.0
 33
0.0
 14
56.4
 24
4.5
 34
0.0
 50
90.0
100
AcDbRotatedDimension
1001
ACAD
1000
DSTYLE
1002
{
1070
    78
1070
     8
1070
   288
1070
     1
1070
   284
1070
     8
1070
   140
1040
2.0
1070
    73
1070
     0
1070
   272
1070
     2
1070
   147
1040
0.1
1070
    42
1040
0.1
1070
    44
1040
0.2
1070
    43
1040
0.4
1070
   271
1070
     2
1070
   141
1040
0.1
1070
    41
1040
2.0
1002
}
  0
LINE
  5
2DB
100
AcDbEntity
  8
3
100
AcDbLine
 10
59.4
 20
5.25
 30
0.0
 11
59.4
 21
9.25
 31
0.0
  0
LINE
  5
2DC
100
AcDbEntity
  8
3
100
AcDbLine
 10
56.4
 20
9.25
 30
0.0
 11
56.4
 21
6.0
 31
0.0
  0
LINE
  5
2DD
100
AcDbEntity
  8
3
100
AcDbLine
 10
59.4
 20
5.25
 30
0.0
 11
59.4
 21
1.25
 31
0.0
  0
LINE
  5
2DE
100
AcDbEntity
  8
3
100
AcDbLine
 10
56.4
 20
1.25
 30
0.0
 11
56.4
 21
4.5
 31
0.0
  0
LINE
  5
2DF
100
AcDbEntity
  8
3
100
AcDbLine
 10
59.4
 20
1.25
 30
0.0
 11
56.4
 21
1.25
 31
0.0
  0
LINE
  5
2E0
100
AcDbEntity
  8
3
100
AcDbLine
 10
57.4
 20
4.5
 30
0.0
 11
57.4
 21
5.25
 31
0.0
  0
LINE
  5
2E1
100
AcDbEntity
  8
3
100
AcDbLine
 10
56.4
 20
4.5
 30
0.0
 11
57.4
 21
4.5
 31
0.0
  0
LINE
  5
2E2
100
AcDbEntity
  8
3
100
AcDbLine
 10
57.4
 20
6.0
 30
0.0
 11
57.4
 21
5.25
 31
0.0
  0
LINE
  5
2E3
100
AcDbEntity
  8
3
100
AcDbLine
 10
56.4
 20
6.0
 30
0.0
 11
57.4
 21
6.0
 31
0.0
  0
LINE
  5
2E4
100
AcDbEntity
  8
3
100
AcDbLine
 10
59.4
 20
9.25
 30
0.0
 11
56.4
 21
9.25
 31
0.0
  0
CIRCLE
  5
2E5
100
AcDbEntity
  8
3
100
AcDbCircle
 10
18.65
 20
42.250001
 30
0.0
 40
6.0
  0
LINE
  5
2E6
100
AcDbEntity
  8
1
100
AcDbLine
 10
27.65
 20
42.250001
 30
0.0
 11
8.65
 21
42.250001
 31
0.0
  0
DIMENSION
  5
2E7
100
AcDbEntity
  8
0
100
AcDbDimension
  2
*D0
 10
22.333644
 20
37.513888
 30
0.0
 11
3.4
 21
55.75
 31
0.0
 12
-72.85
 22
-73.25
 32
0.0
 70
   131
  3
STANDARD
100
AcDbDiametricDimension
 15
14.966356
 25
46.986114
 35
0.0
 40
0.0
1001
ACAD
1000
DSTYLE
1002
{
1070
    78
1070
     8
1070
   288
1070
     1
1070
   284
1070
     8
1070
   140
1040
2.0
1070
    73
1070
     0
1070
   272
1070
     2
1070
   147
1040
0.1
1070
    42
1040
0.1
1070
    44
1040
0.2
1070
    43
1040
0.4
1070
   271
1070
     2
1070
   141
1040
0.1
1070
    41
1040
2.0
1002
}
  0
DIMENSION
  5
2E8
100
AcDbEntity
  8
0
100
AcDbDimension
  2
*D2
 10
21.350033
 20
43.773096
 30
0.0
 11
3.65
 21
36.75
 31
0.0
 12
-72.85
 22
-73.25
 32
0.0
 70
   131
  3
STANDARD
100
AcDbDiametricDimension
 15
15.949967
 25
40.726905
 35
0.0
 40
0.0
1001
ACAD
1000
DSTYLE
1002
{
1070
    78
1070
     8
1070
   288
1070
     1
1070
   284
1070
     8
1070
   140
1040
2.0
1070
    73
1070
     0
1070
   272
1070
     2
1070
   147
1040
0.1
1070
    42
1040
0.1
1070
    44
1040
0.2
1070
    43
1040
0.4
1070
   271
1070
     2
1070
   141
1040
0.1
1070
    41
1040
2.0
1002
}
  0
DIMENSION
  5
2E9
100
AcDbEntity
  8
0
100
AcDbDimension
  2
*D1
 10
21.882984
 20
39.56899
 30
0.0
 11
3.1
 21
50.75
 31
0.0
 12
-72.85
 22
-73.25
 32
0.0
 70
   131
  3
STANDARD
100
AcDbDiametricDimension
 15
15.417017
 25
44.931011
 35
0.0
 40
0.0
1001
ACAD
1000
DSTYLE
1002
{
1070
    78
1070
     8
1070
   288
1070
     1
1070
   284
1070
     8
1070
   140
1040
2.0
1070
    73
1070
     0
1070
   272
1070
     2
1070
   147
1040
0.1
1070
    42
1040
0.1
1070
    44
1040
0.2
1070
    43
1040
0.4
1070
   271
1070
     2
1070
   141
1040
0.1
1070
    41
1040
2.0
1002
}
  0
CIRCLE
  5
2EA
100
AcDbEntity
  8
3
100
AcDbCircle
 10
18.65
 20
42.250001
 30
0.0
 40
3.1
  0
CIRCLE
  5
2EB
100
AcDbEntity
  8
3
100
AcDbCircle
 10
18.65
 20
42.250001
 30
0.0
 40
4.2
  0
LINE
  5
2EC
100
AcDbEntity
  8
1
100
AcDbLine
 10
18.65
 20
51.5
 30
0.0
 11
18.65
 21
33.0
 31
0.0
  0
DIMENSION
  5
2ED
100
AcDbEntity
  8
0
100
AcDbDimension
  2
*D4
 10
58.4
 20
64.25
 30
0.0
 11
56.9
 21
64.25
 31
0.0
 12
-72.85
 22
-73.25
 32
0.0
 70
   128
  3
STANDARD
100
AcDbAlignedDimension
 13
55.4
 23
47.25
 33
0.0
 14
58.4
 24
46.45
 34
0.0
100
AcDbRotatedDimension
1001
ACAD
1000
DSTYLE
1002
{
1070
    78
1070
     8
1070
   288
1070
     1
1070
   284
1070
     8
1070
   140
1040
2.0
1070
    73
1070
     0
1070
   272
1070
     2
1070
   147
1040
0.1
1070
    42
1040
0.1
1070
    44
1040
0.2
1070
    43
1040
0.4
1070
   271
1070
     2
1070
   141
1040
0.1
1070
    41
1040
2.0
1002
}
  0
DIMENSION
  5
2EE
100
AcDbEntity
  8
0
100
AcDbDimension
  2
*D6
 10
56.4
 20
37.25
 30
0.0
 11
45.4
 21
30.75
 31
0.0
 12
-72.85
 22
-73.25
 32
0.0
 70
   132
  3
STANDARD
100
AcDbRadialDimension
 15
55.644311
 25
36.59507
 35
0.0
 40
0.0
1001
ACAD
1000
DSTYLE
1002
{
1070
    78
1070
     8
1070
   288
1070
     1
1070
   284
1070
     8
1070
   140
1040
2.0
1070
    73
1070
     0
1070
   272
1070
     2
1070
   147
1040
0.1
1070
    42
1040
0.1
1070
    44
1040
0.2
1070
    43
1040
0.4
1070
   271
1070
     2
1070
   141
1040
0.1
1070
    41
1040
2.0
1002
}
  0
LINE
  5
2EF
100
AcDbEntity
  8
3
100
AcDbLine
 10
58.4
 20
39.15
 30
0.0
 11
58.4
 21
42.25
 31
0.0
  0
LINE
  5
2F0
102
{ACAD_REACTORS
330
2CD
102
}
100
AcDbEntity
  8
3
100
AcDbLine
 10
55.4
 20
37.25
 30
0.0
 11
55.4
 21
42.25
 31
0.0
  0
LINE
  5
2F1
102
{ACAD_REACTORS
330
2CD
102
}
100
AcDbEntity
  8
3
100
AcDbLine
 10
58.4
 20
38.05
 30
0.0
 11
55.4
 21
38.05
 31
0.0
  0
ARC
  5
2F2
102
{ACAD_REACTORS
330
2CD
102
}
100
AcDbEntity
  8
3
100
AcDbCircle
 10
56.4
 20
37.25
 30
0.0
 40
1.0
100
AcDbArc
 50
180.0
 51
270.0
  0
LINE
  5
2F3
102
{ACAD_REACTORS
330
2CD
102
}
100
AcDbEntity
  8
3
100
AcDbLine
 10
58.4
 20
39.15
 30
0.0
 11
58.4
 21
38.05
 31
0.0
  0
ARC
  5
2F4
100
AcDbEntity
  8
3
100
AcDbCircle
 10
56.4
 20
47.25
 30
0.0
 40
1.0
100
AcDbArc
 50
90.0
 51
180.0
  0
LINE
  5
2F5
100
AcDbEntity
  8
3
100
AcDbLine
 10
58.4
 20
46.45
 30
0.0
 11
55.4
 21
46.45
 31
0.0
  0
LINE
  5
2F6
100
AcDbEntity
  8
3
100
AcDbLine
 10
55.4
 20
47.25
 30
0.0
 11
55.4
 21
42.25
 31
0.0
  0
LINE
  5
2F7
100
AcDbEntity
  8
3
100
AcDbLine
 10
58.4
 20
45.35
 30
0.0
 11
58.4
 21
42.25
 31
0.0
  0
LINE
  5
2F8
100
AcDbEntity
  8
3
100
AcDbLine
 10
58.4
 20
45.35
 30
0.0
 11
58.4
 21
46.45
 31
0.0
  0
DIMENSION
  5
2F9
100
AcDbEntity
  8
0
100
AcDbDimension
  2
*D7
 10
72.4
 20
37.25
 30
0.0
 11
83.15
 21
23.5
 31
0.0
 12
-72.85
 22
-73.25
 32
0.0
 70
   132
  3
STANDARD
100
AcDbRadialDimension
 15
72.866409
 25
36.365431
 35
0.0
 40
0.0
1001
ACAD
1000
DSTYLE
1002
{
1070
    78
1070
     8
1070
   288
1070
     1
1070
   284
1070
     8
1070
   140
1040
2.0
1070
    73
1070
     0
1070
   272
1070
     2
1070
   147
1040
0.1
1070
    42
1040
0.1
1070
    44
1040
0.2
1070
    43
1040
0.4
1070
   271
1070
     2
1070
   141
1040
0.1
1070
    41
1040
2.0
1002
}
  0
DIMENSION
  5
2FA
100
AcDbEntity
  8
0
100
AcDbDimension
  2
*D11
 10
124.199562
 20
3.32334
 30
0.0
 11
108.9
 21
13.0
 31
0.0
 12
-72.85
 22
-73.25
 32
0.0
 70
   131
  3
STANDARD
100
AcDbDiametricDimension
 15
119.600439
 25
7.17666
 35
0.0
 40
0.0
1001
ACAD
1000
DSTYLE
1002
{
1070
    78
1070
     8
1070
   288
1070
     1
1070
   284
1070
     8
1070
   140
1040
2.0
1070
    73
1070
     0
1070
   272
1070
     2
1070
   147
1040
0.1
1070
    42
1040
0.1
1070
    44
1040
0.2
1070
    43
1040
0.4
1070
   271
1070
     2
1070
   141
1040
0.1
1070
    41
1040
2.0
1002
}
  0
LINE
  5
2FB
100
AcDbEntity
  8
1
100
AcDbLine
 10
77.65
 20
5.25
 30
0.0
 11
85.9
 21
5.25
 31
0.0
  0
LINE
  5
2FC
100
AcDbEntity
  8
3
100
AcDbLine
 10
83.4
 20
2.75
 30
0.0
 11
75.4
 21
2.75
 31
0.0
  0
LINE
  5
2FD
100
AcDbEntity
  8
3
100
AcDbLine
 10
84.15
 20
3.5
 30
0.0
 11
76.15
 21
3.5
 31
0.0
  0
LINE
  5
2FE
100
AcDbEntity
  8
3
100
AcDbLine
 10
84.15
 20
7.0
 30
0.0
 11
76.15
 21
7.0
 31
0.0
  0
LINE
  5
2FF
100
AcDbEntity
  8
3
100
AcDbLine
 10
83.4
 20
7.75
 30
0.0
 11
75.4
 21
7.75
 31
0.0
  0
LINE
  5
300
100
AcDbEntity
  8
3
100
AcDbLine
 10
76.15
 20
5.25
 30
0.0
 11
76.15
 21
2.75
 31
0.0
  0
LINE
  5
301
100
AcDbEntity
  8
3
100
AcDbLine
 10
75.4
 20
5.25
 30
0.0
 11
75.4
 21
2.25
 31
0.0
  0
LINE
  5
302
100
AcDbEntity
  8
3
100
AcDbLine
 10
75.4
 20
5.25
 30
0.0
 11
75.4
 21
8.25
 31
0.0
  0
LINE
  5
303
100
AcDbEntity
  8
3
100
AcDbLine
 10
76.15
 20
5.25
 30
0.0
 11
76.15
 21
7.75
 31
0.0
  0
LINE
  5
304
100
AcDbEntity
  8
3
100
AcDbLine
 10
84.4
 20
6.75
 30
0.0
 11
83.4
 21
7.75
 31
0.0
  0
LINE
  5
305
100
AcDbEntity
  8
3
100
AcDbLine
 10
84.4
 20
3.75
 30
0.0
 11
83.4
 21
2.75
 31
0.0
  0
LINE
  5
306
100
AcDbEntity
  8
3
100
AcDbLine
 10
83.4
 20
5.25
 30
0.0
 11
83.4
 21
2.75
 31
0.0
  0
LINE
  5
307
100
AcDbEntity
  8
3
100
AcDbLine
 10
83.4
 20
5.25
 30
0.0
 11
83.4
 21
7.75
 31
0.0
  0
LINE
  5
308
100
AcDbEntity
  8
3
100
AcDbLine
 10
84.4
 20
5.25
 30
0.0
 11
84.4
 21
3.75
 31
0.0
  0
LINE
  5
309
100
AcDbEntity
  8
3
100
AcDbLine
 10
84.4
 20
5.25
 30
0.0
 11
84.4
 21
6.75
 31
0.0
  0
LINE
  5
30A
100
AcDbEntity
  8
1
100
AcDbLine
 10
121.9
 20
10.25
 30
0.0
 11
121.9
 21
0.0
 31
0.0
  0
CIRCLE
  5
30B
100
AcDbEntity
  8
3
100
AcDbCircle
 10
121.9
 20
5.25
 30
0.0
 40
4.0
  0
LINE
  5
30C
100
AcDbEntity
  8
1
100
AcDbLine
 10
116.4
 20
5.25
 30
0.0
 11
127.65
 21
5.25
 31
0.0
  0
CIRCLE
  5
30D
100
AcDbEntity
  8
3
100
AcDbCircle
 10
121.9
 20
5.25
 30
0.0
 40
2.5
  0
CIRCLE
  5
30E
100
AcDbEntity
  8
3
100
AcDbCircle
 10
121.9
 20
5.25
 30
0.0
 40
1.75
  0
CIRCLE
  5
30F
100
AcDbEntity
  8
3
100
AcDbCircle
 10
121.9
 20
5.25
 30
0.0
 40
3.0
  0
DIMENSION
  5
310
100
AcDbEntity
  8
0
100
AcDbDimension
  2
*D9
 10
111.368999
 20
40.761025
 30
0.0
 11
92.9
 21
48.0
 31
0.0
 12
-72.85
 22
-73.25
 32
0.0
 70
   131
  3
STANDARD
100
AcDbDiametricDimension
 15
105.931002
 25
43.738976
 35
0.0
 40
0.0
1001
ACAD
1000
DSTYLE
1002
{
1070
    78
1070
     8
1070
   288
1070
     1
1070
   284
1070
     8
1070
   140
1040
2.0
1070
    73
1070
     0
1070
   272
1070
     2
1070
   147
1040
0.1
1070
    42
1040
0.1
1070
    44
1040
0.2
1070
    43
1040
0.4
1070
   271
1070
     2
1070
   141
1040
0.1
1070
    41
1040
2.0
1002
}
  0
DIMENSION
  5
311
100
AcDbEntity
  8
0
100
AcDbDimension
  2
*D8
 10
112.038103
 20
37.298157
 30
0.0
 11
94.15
 21
56.5
 31
0.0
 12
-72.85
 22
-73.25
 32
0.0
 70
   131
  3
STANDARD
100
AcDbDiametricDimension
 15
105.261897
 25
47.201844
 35
0.0
 40
0.0
1001
ACAD
1000
DSTYLE
1002
{
1070
    78
1070
     8
1070
   288
1070
     1
1070
   284
1070
     8
1070
   140
1040
2.0
1070
    73
1070
     0
1070
   272
1070
     2
1070
   147
1040
0.1
1070
    42
1040
0.1
1070
    44
1040
0.2
1070
    43
1040
0.4
1070
   271
1070
     2
1070
   141
1040
0.1
1070
    41
1040
2.0
1002
}
  0
LINE
  5
312
100
AcDbEntity
  8
1
100
AcDbLine
 10
117.65
 20
42.250001
 30
0.0
 11
98.65
 21
42.250001
 31
0.0
  0
CIRCLE
  5
313
100
AcDbEntity
  8
3
100
AcDbCircle
 10
108.65
 20
42.250001
 30
0.0
 40
6.0
  0
CIRCLE
  5
314
100
AcDbEntity
  8
3
100
AcDbCircle
 10
108.65
 20
42.250001
 30
0.0
 40
3.1
  0
LINE
  5
315
100
AcDbEntity
  8
3
100
AcDbLine
 10
73.4
 20
39.15
 30
0.0
 11
73.4
 21
42.25
 31
0.0
  0
ARC
  5
316
102
{ACAD_REACTORS
330
2CD
102
}
100
AcDbEntity
  8
3
100
AcDbCircle
 10
72.4
 20
37.25
 30
0.0
 40
1.0
100
AcDbArc
 50
270.0
 51
0.0
  0
LINE
  5
317
102
{ACAD_REACTORS
330
2CD
102
}
100
AcDbEntity
  8
3
100
AcDbLine
 10
73.4
 20
37.25
 30
0.0
 11
73.4
 21
39.15
 31
0.0
  0
LINE
  5
318
100
AcDbEntity
  8
3
100
AcDbLine
 10
73.4
 20
47.25
 30
0.0
 11
73.4
 21
45.35
 31
0.0
  0
LINE
  5
319
100
AcDbEntity
  8
3
100
AcDbLine
 10
73.4
 20
45.35
 30
0.0
 11
73.4
 21
42.25
 31
0.0
  0
ARC
  5
31A
100
AcDbEntity
  8
3
100
AcDbCircle
 10
72.4
 20
47.25
 30
0.0
 40
1.0
100
AcDbArc
 50
0.0
 51
90.0
  0
LINE
  5
31B
100
AcDbEntity
  8
1
100
AcDbLine
 10
108.65
 20
51.5
 30
0.0
 11
108.65
 21
33.0
 31
0.0
  0
ENDBLK
  5
31D
100
AcDbEntity
  8
0
100
AcDbBlockEnd
  0
BLOCK
  5
47F
100
AcDbEntity
  8
0
100
AcDbBlockBegin
  2
*D13
 70
     1
 10
0.0
 20
0.0
 30
0.0
  3
*D13
  1

  0
LINE
  5
475
100
AcDbEntity
  8
0
  6
BYBLOCK
 62
     0
100
AcDbLine
 10
61.159213
 20
199.0
 30
0.0
 11
104.75
 21
199.0
 31
0.0
  0
LINE
  5
476
100
AcDbEntity
  8
0
  6
BYBLOCK
 62
     0
100
AcDbLine
 10
96.710801
 20
170.5
 30
0.0
 11
104.75
 21
170.5
 31
0.0
  0
LINE
  5
477
100
AcDbEntity
  8
0
  6
BYBLOCK
 62
     0
100
AcDbLine
 10
103.75
 20
196.5
 30
0.0
 11
103.75
 21
191.125
 31
0.0
  0
LINE
  5
478
100
AcDbEntity
  8
0
  6
BYBLOCK
 62
     0
100
AcDbLine
 10
103.75
 20
173.0
 30
0.0
 11
103.75
 21
177.875
 31
0.0
  0
SOLID
  5
479
100
AcDbEntity
  8
0
  6
BYBLOCK
 62
     0
100
AcDbTrace
 10
103.333333
 20
196.5
 30
0.0
 11
104.166667
 21
196.5
 31
0.0
 12
103.75
 22
199.0
 32
0.0
 13
103.75
 23
199.0
 33
0.0
  0
SOLID
  5
47A
100
AcDbEntity
  8
0
  6
BYBLOCK
 62
     0
100
AcDbTrace
 10
103.333333
 20
173.0
 30
0.0
 11
104.166667
 21
173.0
 31
0.0
 12
103.75
 22
170.5
 32
0.0
 13
103.75
 23
170.5
 33
0.0
  0
MTEXT
  5
47B
100
AcDbEntity
  8
0
  6
BYBLOCK
 62
     0
100
AcDbMText
 10
103.75
 20
184.5
 30
0.0
 40
4.0
 41
0.0
 71
     5
 72
     1
  1
\A1;28.5
 11
0.0
 21
1.0
 31
0.0
  0
POINT
  5
47C
100
AcDbEntity
  8
DEFPOINTS
  6
BYBLOCK
 62
     0
100
AcDbPoint
 10
60.159213
 20
199.0
 30
0.0
  0
POINT
  5
47D
100
AcDbEntity
  8
DEFPOINTS
  6
BYBLOCK
 62
     0
100
AcDbPoint
 10
95.710801
 20
170.5
 30
0.0
  0
POINT
  5
47E
100
AcDbEntity
  8
DEFPOINTS
  6
BYBLOCK
 62
     0
100
AcDbPoint
 10
103.75
 20
170.5
 30
0.0
  0
ENDBLK
  5
480
100
AcDbEntity
  8
0
100
AcDbBlockEnd
  0
BLOCK
  5
48D
100
AcDbEntity
  8
0
100
AcDbBlockBegin
  2
*D14
 70
     1
 10
0.0
 20
0.0
 30
0.0
  3
*D14
  1

  0
LINE
  5
482
100
AcDbEntity
  8
0
  6
BYBLOCK
 62
     0
100
AcDbLine
 10
37.693003
 20
171.188781
 30
0.0
 11
36.618269
 21
170.568283
 31
0.0
  0
LINE
  5
483
100
AcDbEntity
  8
0
  6
BYBLOCK
 62
     0
100
AcDbLine
 10
44.693003
 20
159.064425
 30
0.0
 11
43.618269
 21
158.443927
 31
0.0
  0
LINE
  5
484
100
AcDbEntity
  8
0
  6
BYBLOCK
 62
     0
100
AcDbLine
 10
43.234294
 20
161.108991
 30
0.0
 11
38.734294
 21
168.903219
 31
0.0
  0
LINE
  5
485
100
AcDbEntity
  8
0
  6
BYBLOCK
 62
     0
100
AcDbLine
 10
37.484294
 20
171.068283
 30
0.0
 11
35.791667
 21
174.0
 31
0.0
  0
LINE
  5
486
100
AcDbEntity
  8
0
  6
BYBLOCK
 62
     0
100
AcDbLine
 10
35.791667
 20
174.0
 30
0.0
 11
33.291667
 21
174.0
 31
0.0
  0
SOLID
  5
487
100
AcDbEntity
  8
0
  6
BYBLOCK
 62
     0
100
AcDbTrace
 10
43.595138
 20
161.317324
 30
0.0
 11
42.873451
 21
160.900657
 31
0.0
 12
44.484294
 22
158.943927
 32
0.0
 13
44.484294
 23
158.943927
 33
0.0
  0
SOLID
  5
488
100
AcDbEntity
  8
0
  6
BYBLOCK
 62
     0
100
AcDbTrace
 10
39.095138
 20
169.111552
 30
0.0
 11
38.373451
 21
168.694886
 31
0.0
 12
37.484294
 22
171.068283
 32
0.0
 13
37.484294
 23
171.068283
 33
0.0
  0
MTEXT
  5
489
100
AcDbEntity
  8
0
  6
BYBLOCK
 62
     0
100
AcDbMText
 10
30.0
 20
174.0
 30
0.0
 40
4.0
 41
0.0
 71
     5
 72
     1
  1
\A1;14
  0
POINT
  5
48A
100
AcDbEntity
  8
DEFPOINTS
  6
BYBLOCK
 62
     0
100
AcDbPoint
 10
38.559028
 20
171.688781
 30
0.0
  0
POINT
  5
48B
100
AcDbEntity
  8
DEFPOINTS
  6
BYBLOCK
 62
     0
100
AcDbPoint
 10
45.559028
 20
159.564425
 30
0.0
  0
POINT
  5
48C
100
AcDbEntity
  8
DEFPOINTS
  6
BYBLOCK
 62
     0
100
AcDbPoint
 10
44.484294
 20
158.943927
 30
0.0
  0
ENDBLK
  5
48E
100
AcDbEntity
  8
0
100
AcDbBlockEnd
  0
BLOCK
  5
49B
100
AcDbEntity
  8
0
100
AcDbBlockBegin
  2
*D15
 70
     1
 10
0.0
 20
0.0
 30
0.0
  3
*D15
  1

  0
LINE
  5
490
100
AcDbEntity
  8
0
  6
BYBLOCK
 62
     0
100
AcDbLine
 10
28.108214
 20
165.07765
 30
0.0
 11
30.749281
 21
166.602471
 31
0.0
  0
LINE
  5
491
100
AcDbEntity
  8
0
  6
BYBLOCK
 62
     0
100
AcDbLine
 10
34.608214
 20
153.81932
 30
0.0
 11
37.249281
 21
155.34414
 31
0.0
  0
LINE
  5
492
100
AcDbEntity
  8
0
  6
BYBLOCK
 62
     0
100
AcDbLine
 10
31.133255
 20
163.937407
 30
0.0
 11
35.133255
 21
157.009204
 31
0.0
  0
LINE
  5
493
100
AcDbEntity
  8
0
  6
BYBLOCK
 62
     0
100
AcDbLine
 10
36.383255
 20
154.84414
 30
0.0
 11
38.458333
 21
151.25
 31
0.0
  0
LINE
  5
494
100
AcDbEntity
  8
0
  6
BYBLOCK
 62
     0
100
AcDbLine
 10
38.458333
 20
151.25
 30
0.0
 11
40.958333
 21
151.25
 31
0.0
  0
SOLID
  5
495
100
AcDbEntity
  8
0
  6
BYBLOCK
 62
     0
100
AcDbTrace
 10
31.494099
 20
164.14574
 30
0.0
 11
30.772412
 21
163.729074
 31
0.0
 12
29.883255
 22
166.102471
 32
0.0
 13
29.883255
 23
166.102471
 33
0.0
  0
SOLID
  5
496
100
AcDbEntity
  8
0
  6
BYBLOCK
 62
     0
100
AcDbTrace
 10
35.494099
 20
157.217537
 30
0.0
 11
34.772412
 21
156.80087
 31
0.0
 12
36.383255
 22
154.84414
 32
0.0
 13
36.383255
 23
154.84414
 33
0.0
  0
MTEXT
  5
497
100
AcDbEntity
  8
0
  6
BYBLOCK
 62
     0
100
AcDbMText
 10
44.25
 20
151.25
 30
0.0
 40
4.0
 41
0.0
 71
     5
 72
     1
  1
\A1;13
  0
POINT
  5
498
100
AcDbEntity
  8
DEFPOINTS
  6
BYBLOCK
 62
     0
100
AcDbPoint
 10
27.242189
 20
164.57765
 30
0.0
  0
POINT
  5
499
100
AcDbEntity
  8
DEFPOINTS
  6
BYBLOCK
 62
     0
100
AcDbPoint
 10
33.742189
 20
153.31932
 30
0.0
  0
POINT
  5
49A
100
AcDbEntity
  8
DEFPOINTS
  6
BYBLOCK
 62
     0
100
AcDbPoint
 10
36.383255
 20
154.84414
 30
0.0
  0
ENDBLK
  5
49C
100
AcDbEntity
  8
0
100
AcDbBlockEnd
  0
BLOCK
  5
4A8
100
AcDbEntity
  8
0
100
AcDbBlockBegin
  2
*D16
 70
     1
 10
0.0
 20
0.0
 30
0.0
  3
*D16
  1

  0
LINE
  5
49E
100
AcDbEntity
  8
0
  6
BYBLOCK
 62
     0
100
AcDbLine
 10
51.5
 20
210.5
 30
0.0
 11
118.75
 21
210.5
 31
0.0
  0
LINE
  5
49F
100
AcDbEntity
  8
0
  6
BYBLOCK
 62
     0
100
AcDbLine
 10
51.5
 20
130.5
 30
0.0
 11
118.75
 21
130.5
 31
0.0
  0
LINE
  5
4A0
100
AcDbEntity
  8
0
  6
BYBLOCK
 62
     0
100
AcDbLine
 10
117.75
 20
208.0
 30
0.0
 11
117.75
 21
175.375
 31
0.0
  0
LINE
  5
4A1
100
AcDbEntity
  8
0
  6
BYBLOCK
 62
     0
100
AcDbLine
 10
117.75
 20
133.0
 30
0.0
 11
117.75
 21
164.125
 31
0.0
  0
SOLID
  5
4A2
100
AcDbEntity
  8
0
  6
BYBLOCK
 62
     0
100
AcDbTrace
 10
117.333333
 20
208.0
 30
0.0
 11
118.166667
 21
208.0
 31
0.0
 12
117.75
 22
210.5
 32
0.0
 13
117.75
 23
210.5
 33
0.0
  0
SOLID
  5
4A3
100
AcDbEntity
  8
0
  6
BYBLOCK
 62
     0
100
AcDbTrace
 10
117.333333
 20
133.0
 30
0.0
 11
118.166667
 21
133.0
 31
0.0
 12
117.75
 22
130.5
 32
0.0
 13
117.75
 23
130.5
 33
0.0
  0
MTEXT
  5
4A4
100
AcDbEntity
  8
0
  6
BYBLOCK
 62
     0
100
AcDbMText
 10
117.75
 20
169.75
 30
0.0
 40
4.0
 41
0.0
 71
     5
 72
     1
  1
\A1;\U+220580
 11
0.0
 21
1.0
 31
0.0
  0
POINT
  5
4A5
100
AcDbEntity
  8
DEFPOINTS
  6
BYBLOCK
 62
     0
100
AcDbPoint
 10
50.5
 20
210.5
 30
0.0
  0
POINT
  5
4A6
100
AcDbEntity
  8
DEFPOINTS
  6
BYBLOCK
 62
     0
100
AcDbPoint
 10
50.5
 20
130.5
 30
0.0
  0
POINT
  5
4A7
100
AcDbEntity
  8
DEFPOINTS
  6
BYBLOCK
 62
     0
100
AcDbPoint
 10
117.75
 20
130.5
 30
0.0
  0
ENDBLK
  5
4A9
100
AcDbEntity
  8
0
100
AcDbBlockEnd
  0
BLOCK
  5
4B5
100
AcDbEntity
  8
0
100
AcDbBlockBegin
  2
*D17
 70
     1
 10
0.0
 20
0.0
 30
0.0
  3
*D17
  1

  0
LINE
  5
4AB
100
AcDbEntity
  8
0
  6
BYBLOCK
 62
     0
100
AcDbLine
 10
168.0
 20
180.5
 30
0.0
 11
168.0
 21
191.5
 31
0.0
  0
LINE
  5
4AC
100
AcDbEntity
  8
0
  6
BYBLOCK
 62
     0
100
AcDbLine
 10
192.0
 20
180.5
 30
0.0
 11
192.0
 21
191.5
 31
0.0
  0
LINE
  5
4AD
100
AcDbEntity
  8
0
  6
BYBLOCK
 62
     0
100
AcDbLine
 10
170.5
 20
190.5
 30
0.0
 11
176.291667
 21
190.5
 31
0.0
  0
LINE
  5
4AE
100
AcDbEntity
  8
0
  6
BYBLOCK
 62
     0
100
AcDbLine
 10
189.5
 20
190.5
 30
0.0
 11
184.208333
 21
190.5
 31
0.0
  0
SOLID
  5
4AF
100
AcDbEntity
  8
0
  6
BYBLOCK
 62
     0
100
AcDbTrace
 10
170.5
 20
190.916667
 30
0.0
 11
170.5
 21
190.083333
 31
0.0
 12
168.0
 22
190.5
 32
0.0
 13
168.0
 23
190.5
 33
0.0
  0
SOLID
  5
4B0
100
AcDbEntity
  8
0
  6
BYBLOCK
 62
     0
100
AcDbTrace
 10
189.5
 20
190.916667
 30
0.0
 11
189.5
 21
190.083333
 31
0.0
 12
192.0
 22
190.5
 32
0.0
 13
192.0
 23
190.5
 33
0.0
  0
MTEXT
  5
4B1
100
AcDbEntity
  8
0
  6
BYBLOCK
 62
     0
100
AcDbMText
 10
180.25
 20
190.5
 30
0.0
 40
4.0
 41
0.0
 71
     5
 72
     1
  1
\A1;24
  0
POINT
  5
4B2
100
AcDbEntity
  8
DEFPOINTS
  6
BYBLOCK
 62
     0
100
AcDbPoint
 10
168.0
 20
179.5
 30
0.0
  0
POINT
  5
4B3
100
AcDbEntity
  8
DEFPOINTS
  6
BYBLOCK
 62
     0
100
AcDbPoint
 10
192.0
 20
179.5
 30
0.0
  0
POINT
  5
4B4
100
AcDbEntity
  8
DEFPOINTS
  6
BYBLOCK
 62
     0
100
AcDbPoint
 10
192.0
 20
190.5
 30
0.0
  0
ENDBLK
  5
4B6
100
AcDbEntity
  8
0
100
AcDbBlockEnd
  0
BLOCK
  5
4C2
100
AcDbEntity
  8
0
100
AcDbBlockBegin
  2
*D18
 70
     1
 10
0.0
 20
0.0
 30
0.0
  3
*D18
  1

  0
LINE
  5
4B8
100
AcDbEntity
  8
0
  6
BYBLOCK
 62
     0
100
AcDbLine
 10
161.5
 20
210.5
 30
0.0
 11
127.25
 21
210.5
 31
0.0
  0
LINE
  5
4B9
100
AcDbEntity
  8
0
  6
BYBLOCK
 62
     0
100
AcDbLine
 10
155.001928
 20
190.75
 30
0.0
 11
127.25
 21
190.75
 31
0.0
  0
LINE
  5
4BA
100
AcDbEntity
  8
0
  6
BYBLOCK
 62
     0
100
AcDbLine
 10
128.25
 20
208.0
 30
0.0
 11
128.25
 21
207.375
 31
0.0
  0
LINE
  5
4BB
100
AcDbEntity
  8
0
  6
BYBLOCK
 62
     0
100
AcDbLine
 10
128.25
 20
193.25
 30
0.0
 11
128.25
 21
193.875
 31
0.0
  0
SOLID
  5
4BC
100
AcDbEntity
  8
0
  6
BYBLOCK
 62
     0
100
AcDbTrace
 10
127.833333
 20
208.0
 30
0.0
 11
128.666667
 21
208.0
 31
0.0
 12
128.25
 22
210.5
 32
0.0
 13
128.25
 23
210.5
 33
0.0
  0
SOLID
  5
4BD
100
AcDbEntity
  8
0
  6
BYBLOCK
 62
     0
100
AcDbTrace
 10
127.833333
 20
193.25
 30
0.0
 11
128.666667
 21
193.25
 31
0.0
 12
128.25
 22
190.75
 32
0.0
 13
128.25
 23
190.75
 33
0.0
  0
MTEXT
  5
4BE
100
AcDbEntity
  8
0
  6
BYBLOCK
 62
     0
100
AcDbMText
 10
128.25
 20
200.5
 30
0.0
 40
4.0
 41
0.0
 71
     5
 72
     1
  1
\A1;19.75
 11
0.0
 21
1.0
 31
0.0
  0
POINT
  5
4BF
100
AcDbEntity
  8
DEFPOINTS
  6
BYBLOCK
 62
     0
100
AcDbPoint
 10
162.5
 20
210.5
 30
0.0
  0
POINT
  5
4C0
100
AcDbEntity
  8
DEFPOINTS
  6
BYBLOCK
 62
     0
100
AcDbPoint
 10
156.001928
 20
190.75
 30
0.0
  0
POINT
  5
4C1
100
AcDbEntity
  8
DEFPOINTS
  6
BYBLOCK
 62
     0
100
AcDbPoint
 10
128.25
 20
190.75
 30
0.0
  0
ENDBLK
  5
4C3
100
AcDbEntity
  8
0
100
AcDbBlockEnd
  0
BLOCK
  5
4D0
100
AcDbEntity
  8
0
100
AcDbBlockBegin
  2
*D19
 70
     1
 10
0.0
 20
0.0
 30
0.0
  3
*D19
  1

  0
LINE
  5
4C5
100
AcDbEntity
  8
0
  6
BYBLOCK
 62
     0
100
AcDbLine
 10
155.001928
 20
203.0
 30
0.0
 11
141.958333
 21
203.0
 31
0.0
  0
LINE
  5
4C6
100
AcDbEntity
  8
0
  6
BYBLOCK
 62
     0
100
AcDbLine
 10
155.001928
 20
195.0
 30
0.0
 11
141.958333
 21
195.0
 31
0.0
  0
LINE
  5
4C7
100
AcDbEntity
  8
0
  6
BYBLOCK
 62
     0
100
AcDbLine
 10
142.958333
 20
200.5
 30
0.0
 11
142.958333
 21
197.5
 31
0.0
  0
LINE
  5
4C8
100
AcDbEntity
  8
0
  6
BYBLOCK
 62
     0
100
AcDbLine
 10
142.958333
 20
195.0
 30
0.0
 11
142.958333
 21
192.5
 31
0.0
  0
LINE
  5
4C9
100
AcDbEntity
  8
0
  6
BYBLOCK
 62
     0
100
AcDbLine
 10
142.958333
 20
192.5
 30
0.0
 11
140.458333
 21
192.5
 31
0.0
  0
SOLID
  5
4CA
100
AcDbEntity
  8
0
  6
BYBLOCK
 62
     0
100
AcDbTrace
 10
142.541667
 20
200.5
 30
0.0
 11
143.375
 21
200.5
 31
0.0
 12
142.958333
 22
203.0
 32
0.0
 13
142.958333
 23
203.0
 33
0.0
  0
SOLID
  5
4CB
100
AcDbEntity
  8
0
  6
BYBLOCK
 62
     0
100
AcDbTrace
 10
142.541667
 20
197.5
 30
0.0
 11
143.375
 21
197.5
 31
0.0
 12
142.958333
 22
195.0
 32
0.0
 13
142.958333
 23
195.0
 33
0.0
  0
MTEXT
  5
4CC
100
AcDbEntity
  8
0
  6
BYBLOCK
 62
     0
100
AcDbMText
 10
136.5
 20
192.5
 30
0.0
 40
4.0
 41
0.0
 71
     5
 72
     1
  1
\A1;\U+22058
  0
POINT
  5
4CD
100
AcDbEntity
  8
DEFPOINTS
  6
BYBLOCK
 62
     0
100
AcDbPoint
 10
156.001928
 20
203.0
 30
0.0
  0
POINT
  5
4CE
100
AcDbEntity
  8
DEFPOINTS
  6
BYBLOCK
 62
     0
100
AcDbPoint
 10
156.001928
 20
195.0
 30
0.0
  0
POINT
  5
4CF
100
AcDbEntity
  8
DEFPOINTS
  6
BYBLOCK
 62
     0
100
AcDbPoint
 10
142.958333
 20
195.0
 30
0.0
  0
ENDBLK
  5
4D1
100
AcDbEntity
  8
0
100
AcDbBlockEnd
  0
BLOCK
  5
4DD
100
AcDbEntity
  8
0
100
AcDbBlockBegin
  2
*D20
 70
     1
 10
0.0
 20
0.0
 30
0.0
  3
*D20
  1

  0
LINE
  5
4D3
100
AcDbEntity
  8
0
  6
BYBLOCK
 62
     0
100
AcDbLine
 10
193.0
 20
179.5
 30
0.0
 11
207.5
 21
179.5
 31
0.0
  0
LINE
  5
4D4
100
AcDbEntity
  8
0
  6
BYBLOCK
 62
     0
100
AcDbLine
 10
193.0
 20
161.5
 30
0.0
 11
207.5
 21
161.5
 31
0.0
  0
LINE
  5
4D5
100
AcDbEntity
  8
0
  6
BYBLOCK
 62
     0
100
AcDbLine
 10
206.5
 20
177.0
 30
0.0
 11
206.5
 21
175.791667
 31
0.0
  0
LINE
  5
4D6
100
AcDbEntity
  8
0
  6
BYBLOCK
 62
     0
100
AcDbLine
 10
206.5
 20
164.0
 30
0.0
 11
206.5
 21
165.208333
 31
0.0
  0
SOLID
  5
4D7
100
AcDbEntity
  8
0
  6
BYBLOCK
 62
     0
100
AcDbTrace
 10
206.083333
 20
177.0
 30
0.0
 11
206.916667
 21
177.0
 31
0.0
 12
206.5
 22
179.5
 32
0.0
 13
206.5
 23
179.5
 33
0.0
  0
SOLID
  5
4D8
100
AcDbEntity
  8
0
  6
BYBLOCK
 62
     0
100
AcDbTrace
 10
206.083333
 20
164.0
 30
0.0
 11
206.916667
 21
164.0
 31
0.0
 12
206.5
 22
161.5
 32
0.0
 13
206.5
 23
161.5
 33
0.0
  0
MTEXT
  5
4D9
100
AcDbEntity
  8
0
  6
BYBLOCK
 62
     0
100
AcDbMText
 10
206.5
 20
170.5
 30
0.0
 40
4.0
 41
0.0
 71
     5
 72
     1
  1
\A1;\U+220518
 11
0.0
 21
1.0
 31
0.0
  0
POINT
  5
4DA
100
AcDbEntity
  8
DEFPOINTS
  6
BYBLOCK
 62
     0
100
AcDbPoint
 10
192.0
 20
179.5
 30
0.0
  0
POINT
  5
4DB
100
AcDbEntity
  8
DEFPOINTS
  6
BYBLOCK
 62
     0
100
AcDbPoint
 10
192.0
 20
161.5
 30
0.0
  0
POINT
  5
4DC
100
AcDbEntity
  8
DEFPOINTS
  6
BYBLOCK
 62
     0
100
AcDbPoint
 10
206.5
 20
161.5
 30
0.0
  0
ENDBLK
  5
4DE
100
AcDbEntity
  8
0
100
AcDbBlockEnd
  0
BLOCK
  5
4E6
100
AcDbEntity
  8
0
100
AcDbBlockBegin
  2
*D21
 70
     1
 10
0.0
 20
0.0
 30
0.0
  3
*D21
  1

  0
LINE
  5
4E0
100
AcDbEntity
  8
0
  6
BYBLOCK
 62
     0
100
AcDbLine
 10
175.118583
 20
149.493834
 30
0.0
 11
172.618583
 21
149.493834
 31
0.0
  0
LINE
  5
4E1
100
AcDbEntity
  8
0
  6
BYBLOCK
 62
     0
100
AcDbLine
 10
172.618583
 20
149.493834
 30
0.0
 11
165.882366
 21
144.460176
 31
0.0
  0
MTEXT
  5
4E2
100
AcDbEntity
  8
0
  6
BYBLOCK
 62
     0
100
AcDbMText
 10
181.41025
 20
149.493834
 30
0.0
 40
4.0
 41
0.0
 71
     5
 72
     1
  1
\A1;R0.5
  0
SOLID
  5
4E3
100
AcDbEntity
  8
0
  6
BYBLOCK
 62
     0
100
AcDbTrace
 10
167.635591
 20
146.290426
 30
0.0
 11
168.134417
 21
145.62288
 31
0.0
 12
165.882366
 22
144.460176
 32
0.0
 13
165.882366
 23
144.460176
 33
0.0
  0
POINT
  5
4E4
100
AcDbEntity
  8
DEFPOINTS
  6
BYBLOCK
 62
     0
100
AcDbPoint
 10
165.882366
 20
144.460176
 30
0.0
  0
POINT
  5
4E5
100
AcDbEntity
  8
DEFPOINTS
  6
BYBLOCK
 62
     0
100
AcDbPoint
 10
165.481839
 20
144.160881
 30
0.0
  0
ENDBLK
  5
4E7
100
AcDbEntity
  8
0
100
AcDbBlockEnd
  0
BLOCK
  5
4F3
100
AcDbEntity
  8
0
100
AcDbBlockBegin
  2
*D22
 70
     1
 10
0.0
 20
0.0
 30
0.0
  3
*D22
  1

  0
LINE
  5
4E9
100
AcDbEntity
  8
0
  6
BYBLOCK
 62
     0
100
AcDbLine
 10
166.507169
 20
180.4855
 30
0.0
 11
134.681435
 21
180.4855
 31
0.0
  0
LINE
  5
4EA
100
AcDbEntity
  8
0
  6
BYBLOCK
 62
     0
100
AcDbLine
 10
166.507169
 20
160.307915
 30
0.0
 11
134.681435
 21
160.307915
 31
0.0
  0
LINE
  5
4EB
100
AcDbEntity
  8
0
  6
BYBLOCK
 62
     0
100
AcDbLine
 10
135.681435
 20
177.9855
 30
0.0
 11
135.681435
 21
175.921819
 31
0.0
  0
LINE
  5
4EC
100
AcDbEntity
  8
0
  6
BYBLOCK
 62
     0
100
AcDbLine
 10
135.681435
 20
162.807915
 30
0.0
 11
135.681435
 21
164.671819
 31
0.0
  0
SOLID
  5
4ED
100
AcDbEntity
  8
0
  6
BYBLOCK
 62
     0
100
AcDbTrace
 10
135.264768
 20
177.9855
 30
0.0
 11
136.098101
 21
177.9855
 31
0.0
 12
135.681435
 22
180.4855
 32
0.0
 13
135.681435
 23
180.4855
 33
0.0
  0
SOLID
  5
4EE
100
AcDbEntity
  8
0
  6
BYBLOCK
 62
     0
100
AcDbTrace
 10
135.264768
 20
162.807915
 30
0.0
 11
136.098101
 21
162.807915
 31
0.0
 12
135.681435
 22
160.307915
 32
0.0
 13
135.681435
 23
160.307915
 33
0.0
  0
MTEXT
  5
4EF
100
AcDbEntity
  8
0
  6
BYBLOCK
 62
     0
100
AcDbMText
 10
135.681435
 20
170.296819
 30
0.0
 40
4.0
 41
0.0
 71
     5
 72
     1
  1
\A1;\U+220520
 11
0.0
 21
1.0
 31
0.0
  0
POINT
  5
4F0
100
AcDbEntity
  8
DEFPOINTS
  6
BYBLOCK
 62
     0
100
AcDbPoint
 10
167.507169
 20
180.4855
 30
0.0
  0
POINT
  5
4F1
100
AcDbEntity
  8
DEFPOINTS
  6
BYBLOCK
 62
     0
100
AcDbPoint
 10
167.507169
 20
160.307915
 30
0.0
  0
POINT
  5
4F2
100
AcDbEntity
  8
DEFPOINTS
  6
BYBLOCK
 62
     0
100
AcDbPoint
 10
135.681435
 20
160.307915
 30
0.0
  0
ENDBLK
  5
4F4
100
AcDbEntity
  8
0
100
AcDbBlockEnd
  0
BLOCK
  5
500
100
AcDbEntity
  8
0
100
AcDbBlockBegin
  2
*D23
 70
     1
 10
0.0
 20
0.0
 30
0.0
  3
*D23
  1

  0
LINE
  5
4F6
100
AcDbEntity
  8
0
  6
BYBLOCK
 62
     0
100
AcDbLine
 10
167.0
 20
177.5
 30
0.0
 11
144.089041
 21
177.5
 31
0.0
  0
LINE
  5
4F7
100
AcDbEntity
  8
0
  6
BYBLOCK
 62
     0
100
AcDbLine
 10
167.0
 20
163.5
 30
0.0
 11
144.089041
 21
163.5
 31
0.0
  0
LINE
  5
4F8
100
AcDbEntity
  8
0
  6
BYBLOCK
 62
     0
100
AcDbLine
 10
145.089041
 20
175.0
 30
0.0
 11
145.089041
 21
174.375
 31
0.0
  0
LINE
  5
4F9
100
AcDbEntity
  8
0
  6
BYBLOCK
 62
     0
100
AcDbLine
 10
145.089041
 20
166.0
 30
0.0
 11
145.089041
 21
166.625
 31
0.0
  0
SOLID
  5
4FA
100
AcDbEntity
  8
0
  6
BYBLOCK
 62
     0
100
AcDbTrace
 10
144.672375
 20
175.0
 30
0.0
 11
145.505708
 21
175.0
 31
0.0
 12
145.089041
 22
177.5
 32
0.0
 13
145.089041
 23
177.5
 33
0.0
  0
SOLID
  5
4FB
100
AcDbEntity
  8
0
  6
BYBLOCK
 62
     0
100
AcDbTrace
 10
144.672375
 20
166.0
 30
0.0
 11
145.505708
 21
166.0
 31
0.0
 12
145.089041
 22
163.5
 32
0.0
 13
145.089041
 23
163.5
 33
0.0
  0
MTEXT
  5
4FC
100
AcDbEntity
  8
0
  6
BYBLOCK
 62
     0
100
AcDbMText
 10
145.089041
 20
170.696375
 30
0.0
 40
4.0
 41
0.0
 71
     5
 72
     1
  1
\A1;\U+220514
 11
0.0
 21
1.0
 31
0.0
  0
POINT
  5
4FD
100
AcDbEntity
  8
DEFPOINTS
  6
BYBLOCK
 62
     0
100
AcDbPoint
 10
168.0
 20
177.5
 30
0.0
  0
POINT
  5
4FE
100
AcDbEntity
  8
DEFPOINTS
  6
BYBLOCK
 62
     0
100
AcDbPoint
 10
168.0
 20
163.5
 30
0.0
  0
POINT
  5
4FF
100
AcDbEntity
  8
DEFPOINTS
  6
BYBLOCK
 62
     0
100
AcDbPoint
 10
145.089041
 20
163.5
 30
0.0
  0
ENDBLK
  5
501
100
AcDbEntity
  8
0
100
AcDbBlockEnd
  0
BLOCK
  5
50D
100
AcDbEntity
  8
0
100
AcDbBlockBegin
  2
*D24
 70
     1
 10
0.0
 20
0.0
 30
0.0
  3
*D24
  1

  0
LINE
  5
503
100
AcDbEntity
  8
0
  6
BYBLOCK
 62
     0
100
AcDbLine
 10
192.0
 20
180.5
 30
0.0
 11
192.0
 21
187.286
 31
0.0
  0
LINE
  5
504
100
AcDbEntity
  8
0
  6
BYBLOCK
 62
     0
100
AcDbLine
 10
182.0
 20
181.5
 30
0.0
 11
182.0
 21
187.286
 31
0.0
  0
LINE
  5
505
100
AcDbEntity
  8
0
  6
BYBLOCK
 62
     0
100
AcDbLine
 10
189.5
 20
186.286
 30
0.0
 11
188.875
 21
186.286
 31
0.0
  0
LINE
  5
506
100
AcDbEntity
  8
0
  6
BYBLOCK
 62
     0
100
AcDbLine
 10
184.5
 20
186.286
 30
0.0
 11
185.125
 21
186.286
 31
0.0
  0
SOLID
  5
507
100
AcDbEntity
  8
0
  6
BYBLOCK
 62
     0
100
AcDbTrace
 10
189.5
 20
186.702667
 30
0.0
 11
189.5
 21
185.869333
 31
0.0
 12
192.0
 22
186.286
 32
0.0
 13
192.0
 23
186.286
 33
0.0
  0
SOLID
  5
508
100
AcDbEntity
  8
0
  6
BYBLOCK
 62
     0
100
AcDbTrace
 10
184.5
 20
186.702667
 30
0.0
 11
184.5
 21
185.869333
 31
0.0
 12
182.0
 22
186.286
 32
0.0
 13
182.0
 23
186.286
 33
0.0
  0
MTEXT
  5
509
100
AcDbEntity
  8
0
  6
BYBLOCK
 62
     0
100
AcDbMText
 10
186.579464
 20
186.286
 30
0.0
 40
4.0
 41
0.0
 71
     5
 72
     1
  1
\A1;10
  0
POINT
  5
50A
100
AcDbEntity
  8
DEFPOINTS
  6
BYBLOCK
 62
     0
100
AcDbPoint
 10
192.0
 20
179.5
 30
0.0
  0
POINT
  5
50B
100
AcDbEntity
  8
DEFPOINTS
  6
BYBLOCK
 62
     0
100
AcDbPoint
 10
182.0
 20
180.5
 30
0.0
  0
POINT
  5
50C
100
AcDbEntity
  8
DEFPOINTS
  6
BYBLOCK
 62
     0
100
AcDbPoint
 10
182.0
 20
186.286
 30
0.0
  0
ENDBLK
  5
50E
100
AcDbEntity
  8
0
100
AcDbBlockEnd
  0
BLOCK
  5
516
100
AcDbEntity
  8
0
100
AcDbBlockBegin
  2
*D25
 70
     1
 10
0.0
 20
0.0
 30
0.0
  3
*D25
  1

  0
LINE
  5
510
100
AcDbEntity
  8
0
  6
BYBLOCK
 62
     0
100
AcDbLine
 10
66.580329
 20
180.726175
 30
0.0
 11
64.080329
 21
180.726175
 31
0.0
  0
LINE
  5
511
100
AcDbEntity
  8
0
  6
BYBLOCK
 62
     0
100
AcDbLine
 10
64.080329
 20
180.726175
 30
0.0
 11
62.083222
 21
179.222326
 31
0.0
  0
MTEXT
  5
512
100
AcDbEntity
  8
0
  6
BYBLOCK
 62
     0
100
AcDbMText
 10
72.538663
 20
180.726175
 30
0.0
 40
4.0
 41
0.0
 71
     5
 72
     1
  1
\A1;\U+220527
  0
SOLID
  5
513
100
AcDbEntity
  8
0
  6
BYBLOCK
 62
     0
100
AcDbTrace
 10
61.832581
 20
179.555177
 30
0.0
 11
62.333864
 21
178.889475
 31
0.0
 12
60.086115
 22
177.718476
 32
0.0
 13
60.086115
 23
177.718476
 33
0.0
  0
POINT
  5
514
100
AcDbEntity
  8
DEFPOINTS
  6
BYBLOCK
 62
     0
100
AcDbPoint
 10
60.086115
 20
177.718476
 30
0.0
  0
POINT
  5
515
100
AcDbEntity
  8
DEFPOINTS
  6
BYBLOCK
 62
     0
100
AcDbPoint
 10
40.913885
 20
163.281524
 30
0.0
  0
ENDBLK
  5
517
100
AcDbEntity
  8
0
100
AcDbBlockEnd
  0
BLOCK
  5
523
100
AcDbEntity
  8
0
100
AcDbBlockBegin
  2
*D26
 70
     1
 10
0.0
 20
0.0
 30
0.0
  3
*D26
  1

  0
LINE
  5
519
100
AcDbEntity
  8
0
  6
BYBLOCK
 62
     0
100
AcDbLine
 10
168.0
 20
162.5
 30
0.0
 11
168.0
 21
140.882636
 31
0.0
  0
LINE
  5
51A
100
AcDbEntity
  8
0
  6
BYBLOCK
 62
     0
100
AcDbLine
 10
187.0
 20
160.5
 30
0.0
 11
187.0
 21
140.882636
 31
0.0
  0
LINE
  5
51B
100
AcDbEntity
  8
0
  6
BYBLOCK
 62
     0
100
AcDbLine
 10
170.5
 20
141.882636
 30
0.0
 11
173.548827
 21
141.882636
 31
0.0
  0
LINE
  5
51C
100
AcDbEntity
  8
0
  6
BYBLOCK
 62
     0
100
AcDbLine
 10
184.5
 20
141.882636
 30
0.0
 11
180.132161
 21
141.882636
 31
0.0
  0
SOLID
  5
51D
100
AcDbEntity
  8
0
  6
BYBLOCK
 62
     0
100
AcDbTrace
 10
170.5
 20
142.299303
 30
0.0
 11
170.5
 21
141.465969
 31
0.0
 12
168.0
 22
141.882636
 32
0.0
 13
168.0
 23
141.882636
 33
0.0
  0
SOLID
  5
51E
100
AcDbEntity
  8
0
  6
BYBLOCK
 62
     0
100
AcDbTrace
 10
184.5
 20
142.299303
 30
0.0
 11
184.5
 21
141.465969
 31
0.0
 12
187.0
 22
141.882636
 32
0.0
 13
187.0
 23
141.882636
 33
0.0
  0
MTEXT
  5
51F
100
AcDbEntity
  8
0
  6
BYBLOCK
 62
     0
100
AcDbMText
 10
176.840494
 20
141.882636
 30
0.0
 40
4.0
 41
0.0
 71
     5
 72
     1
  1
\A1;19
  0
POINT
  5
520
100
AcDbEntity
  8
DEFPOINTS
  6
BYBLOCK
 62
     0
100
AcDbPoint
 10
168.0
 20
163.5
 30
0.0
  0
POINT
  5
521
100
AcDbEntity
  8
DEFPOINTS
  6
BYBLOCK
 62
     0
100
AcDbPoint
 10
187.0
 20
161.5
 30
0.0
  0
POINT
  5
522
100
AcDbEntity
  8
DEFPOINTS
  6
BYBLOCK
 62
     0
100
AcDbPoint
 10
187.0
 20
141.882636
 30
0.0
  0
ENDBLK
  5
524
100
AcDbEntity
  8
0
100
AcDbBlockEnd
  0
BLOCK
  5
5D7
100
AcDbEntity
  8
0
100
AcDbBlockBegin
  2
A$C7921082D
 70
     0
 10
0.0
 20
0.0
 30
0.0
  3
A$C7921082D
  1

  0
DIMENSION
  5
527
100
AcDbEntity
  8
0
100
AcDbDimension
  2
*D20
 10
200.399807
 20
33.5
 30
11.197397
 11
200.399807
 21
42.5
 31
11.197397
 12
-6.100193
 22
-128.0
 32
11.197397
 70
   128
  1
%%C18
  3
STANDARD
100
AcDbAlignedDimension
 13
185.899807
 23
51.5
 33
11.197397
 14
185.899807
 24
33.5
 34
11.197397
 50
90.0
100
AcDbRotatedDimension
1001
ACAD
1000
DSTYLE
1002
{
1070
   140
1040
4.0
1070
    77
1070
     0
1070
    40
1040
1.0
1070
   141
1040
0.0
1002
}
  0
MTEXT
  5
528
102
{ACAD_REACTORS
330
529
102
}
100
AcDbEntity
  8
0
100
AcDbMText
 10
198.774807
 20
66.25
 30
11.197397
 40
4.0
 41
0.0
 71
     4
 72
     1
  1
\A1;C1
  0
LEADER
  5
529
100
AcDbEntity
  8
0
100
AcDbLeader
  3
STANDARD
 73
     0
 74
     0
 75
     1
 40
4.0
 41
5.333333
 76
     3
 10
186.149807
 20
51.25
 30
11.197397
 10
198.504807
 20
66.25
 30
11.197397
 10
198.684807
 20
66.25
 30
11.197397
 77
   256
340
528
1001
ACAD
1000
DSTYLE
1002
{
1070
   140
1040
4.0
1070
    77
1070
     0
1070
    40
1040
1.0
1070
   141
1040
0.0
1002
}
  0
DIMENSION
  5
52A
100
AcDbEntity
  8
0
100
AcDbDimension
  2
*D16
 10
111.649807
 20
2.5
 30
11.197397
 11
111.649807
 21
41.75
 31
11.197397
 12
-6.100193
 22
-128.0
 32
11.197397
 70
   128
  1
%%C80
  3
STANDARD
100
AcDbAlignedDimension
 13
44.399807
 23
82.5
 33
11.197397
 14
44.399807
 24
2.5
 34
11.197397
 50
90.0
100
AcDbRotatedDimension
1001
ACAD
1000
DSTYLE
1002
{
1070
   140
1040
4.0
1070
    77
1070
     0
1070
    40
1040
1.0
1070
   141
1040
0.0
1002
}
  0
ARC
  5
52B
100
AcDbEntity
  8
3
100
AcDbCircle
 10
156.399807
 20
9.0
 30
11.197397
 40
6.5
100
AcDbArc
 50
270.0
 51
357.78824
  0
LINE
  5
52C
100
AcDbEntity
  8
1
100
AcDbLine
 10
156.399807
 20
0.283921
 30
11.197397
 11
156.399807
 21
21.297069
 31
11.197397
  0
ARC
  5
52D
100
AcDbEntity
  8
3
100
AcDbCircle
 10
156.399807
 20
9.0
 30
11.197397
 40
6.5
100
AcDbArc
 50
181.395721
 51
270.0
  0
CIRCLE
  5
52E
100
AcDbEntity
  8
3
100
AcDbCircle
 10
44.399807
 20
42.5
 30
11.197397
 40
40.0
  0
LINE
  5
52F
100
AcDbEntity
  8
1
100
AcDbLine
 10
44.399807
 20
0.0
 30
11.197397
 11
44.399807
 21
84.5
 31
11.197397
  0
DIMENSION
  5
530
100
AcDbEntity
  8
0
100
AcDbDimension
  2
*D13
 10
97.649807
 20
42.5
 30
11.197397
 11
97.649807
 21
56.5
 31
11.197397
 12
-6.100193
 22
-128.0
 32
11.197397
 70
   128
  3
STANDARD
100
AcDbAlignedDimension
 13
54.059019
 23
71.0
 33
11.197397
 14
89.610608
 24
42.5
 34
11.197397
 50
90.0
100
AcDbRotatedDimension
1001
ACAD
1000
DSTYLE
1002
{
1070
   140
1040
4.0
1070
    77
1070
     0
1070
    40
1040
1.0
1070
   141
1040
0.0
1002
}
  0
LINE
  5
531
100
AcDbEntity
  8
1
100
AcDbLine
 10
44.399807
 20
42.5
 30
11.197397
 11
81.675492
 21
20.978873
 31
11.197397
  0
ARC
  5
532
100
AcDbEntity
  8
3
100
AcDbCircle
 10
44.399807
 20
42.5
 30
11.197397
 40
24.0
100
AcDbArc
 50
345.713861
 51
74.286139
  0
ARC
  5
533
100
AcDbEntity
  8
3
100
AcDbCircle
 10
44.399807
 20
42.5
 30
11.197397
 40
33.5
100
AcDbArc
 50
110.990243
 51
69.009757
  0
LINE
  5
534
100
AcDbEntity
  8
1
100
AcDbLine
 10
89.610608
 20
42.5
 30
11.197397
 11
-0.600193
 21
42.5
 31
11.197397
  0
LINE
  5
535
100
AcDbEntity
  8
1
100
AcDbLine
 10
44.399807
 20
42.5
 30
11.197397
 11
6.589624
 21
20.670281
 31
11.197397
  0
TEXT
  5
536
100
AcDbEntity
  8
0
100
AcDbText
 10
5.549807
 20
21.54
 30
11.197397
 40
2.8
  1
A
 41
0.7
  7
BIGFONT
100
AcDbText
  0
CIRCLE
  5
537
100
AcDbEntity
  8
0
100
AcDbCircle
 10
44.399807
 20
42.5
 30
11.197397
 40
7.0
  0
DIMENSION
  5
538
100
AcDbEntity
  8
0
100
AcDbDimension
  2
*D25
 10
34.813692
 20
35.281524
 30
11.197397
 11
66.438469
 21
52.726175
 31
11.197397
 12
-6.100193
 22
-128.0
 32
11.197397
 70
   131
  1
%%C27
  3
STANDARD
100
AcDbDiametricDimension
 15
53.985921
 25
49.718477
 35
11.197397
 40
0.0
1001
ACAD
1000
DSTYLE
1002
{
1070
   140
1040
4.0
1070
    77
1070
     0
1070
    40
1040
1.0
1070
   141
1040
0.0
1002
}
  0
ARC
  5
539
100
AcDbEntity
  8
3
100
AcDbCircle
 10
44.399807
 20
42.5
 30
11.197397
 40
12.0
100
AcDbArc
 50
5.685335
 51
54.314665
  0
ARC
  5
53A
100
AcDbEntity
  8
3
100
AcDbCircle
 10
44.399807
 20
42.5
 30
11.197397
 40
12.0
100
AcDbArc
 50
125.685335
 51
174.314665
  0
CIRCLE
  5
53B
100
AcDbEntity
  8
3
100
AcDbCircle
 10
44.399807
 20
42.5
 30
11.197397
 40
10.5
  0
ARC
  5
53C
100
AcDbEntity
  8
3
100
AcDbCircle
 10
44.399807
 20
42.5
 30
11.197397
 40
24.0
100
AcDbArc
 50
105.713861
 51
194.286139
  0
ARC
  5
53D
100
AcDbEntity
  8
3
100
AcDbCircle
 10
44.399807
 20
42.5
 30
11.197397
 40
24.0
100
AcDbArc
 50
225.713861
 51
314.286139
  0
ARC
  5
53E
100
AcDbEntity
  8
3
100
AcDbCircle
 10
44.399807
 20
42.5
 30
11.197397
 40
12.0
100
AcDbArc
 50
245.685335
 51
294.314665
  0
DIMENSION
  5
53F
100
AcDbEntity
  8
0
100
AcDbDimension
  2
*D15
 10
30.283062
 20
26.84414
 30
11.197397
 11
38.149807
 21
23.25
 31
11.197397
 12
-6.100193
 22
-128.0
 32
11.197397
 70
   129
  3
STANDARD
100
AcDbAlignedDimension
 13
21.141996
 23
36.57765
 33
11.197397
 14
27.641996
 24
25.31932
 34
11.197397
1001
ACAD
1000
DSTYLE
1002
{
1070
   140
1040
4.0
1070
    77
1070
     0
1070
    40
1040
1.0
1070
   141
1040
0.0
1002
}
  0
ARC
  5
540
100
AcDbEntity
  8
3
100
AcDbCircle
 10
30.124937
 20
34.2584
 30
11.197397
 40
10.384921
100
AcDbArc
 50
176.547903
 51
243.452097
  0
LINE
  5
541
100
AcDbEntity
  8
3
100
AcDbLine
 10
39.458835
 20
31.564425
 30
11.197397
 11
27.641996
 21
25.31932
 31
11.197397
  0
ARC
  5
542
100
AcDbEntity
  8
3
100
AcDbCircle
 10
25.974953
 20
28.75987
 30
11.197397
 40
3.823142
100
AcDbArc
 50
262.61345
 51
295.851488
  0
DIMENSION
  5
543
100
AcDbEntity
  8
0
100
AcDbDimension
  2
*D14
 10
38.384101
 20
30.943927
 30
11.197397
 11
23.899807
 21
46.0
 31
11.197397
 12
-6.100193
 22
-128.0
 32
11.197397
 70
   129
  3
STANDARD
100
AcDbAlignedDimension
 13
32.458835
 23
43.688781
 33
11.197397
 14
39.458835
 24
31.564425
 34
11.197397
1001
ACAD
1000
DSTYLE
1002
{
1070
   140
1040
4.0
1070
    77
1070
     0
1070
    40
1040
1.0
1070
   141
1040
0.0
1002
}
  0
LINE
  5
544
100
AcDbEntity
  8
3
100
AcDbLine
 10
32.458835
 20
43.688781
 30
11.197397
 11
21.141996
 21
36.57765
 31
11.197397
  0
ARC
  5
545
100
AcDbEntity
  8
3
100
AcDbCircle
 10
23.288078
 20
33.413674
 30
11.197397
 40
3.823142
100
AcDbArc
 50
124.148512
 51
157.38655
  0
ARC
  5
546
100
AcDbEntity
  8
3
100
AcDbCircle
 10
47.04465
 20
44.027001
 30
11.197397
 40
14.024269
100
AcDbArc
 50
182.159972
 51
237.840028
  0
ARC
  5
547
100
AcDbEntity
  8
3
100
AcDbCircle
 10
38.975585
 20
31.970882
 30
11.197397
 40
0.631456
100
AcDbArc
 50
319.933123
 51
16.909042
  0
ARC
  5
548
100
AcDbEntity
  8
3
100
AcDbCircle
 10
32.569212
 20
43.067046
 30
11.197397
 40
0.631456
100
AcDbArc
 50
43.090958
 51
100.066877
  0
ARC
  5
549
100
AcDbEntity
  8
3
100
AcDbCircle
 10
58.674676
 20
34.2584
 30
11.197397
 40
10.384921
100
AcDbArc
 50
296.547903
 51
3.452097
  0
LINE
  5
54A
100
AcDbEntity
  8
3
100
AcDbLine
 10
49.340778
 20
31.564425
 30
11.197397
 11
61.157617
 21
25.31932
 31
11.197397
  0
ARC
  5
54B
100
AcDbEntity
  8
3
100
AcDbCircle
 10
62.82466
 20
28.75987
 30
11.197397
 40
3.823142
100
AcDbArc
 50
244.148512
 51
277.38655
  0
LINE
  5
54C
100
AcDbEntity
  8
3
100
AcDbLine
 10
56.340778
 20
43.688781
 30
11.197397
 11
67.657617
 21
36.57765
 31
11.197397
  0
ARC
  5
54D
100
AcDbEntity
  8
3
100
AcDbCircle
 10
41.754963
 20
44.027001
 30
11.197397
 40
14.024269
100
AcDbArc
 50
302.159972
 51
357.840028
  0
ARC
  5
54E
100
AcDbEntity
  8
3
100
AcDbCircle
 10
49.824028
 20
31.970882
 30
11.197397
 40
0.631456
100
AcDbArc
 50
163.090958
 51
220.066877
  0
TEXT
  5
54F
100
AcDbEntity
  8
0
100
AcDbText
 10
44.880843
 20
42.939886
 30
11.197397
 40
2.8
  1
A
 41
0.7
  7
BIGFONT
100
AcDbText
  0
ARC
  5
550
100
AcDbEntity
  8
3
100
AcDbCircle
 10
56.230401
 20
43.067046
 30
11.197397
 40
0.631456
100
AcDbArc
 50
79.933123
 51
136.909042
  0
ARC
  5
551
100
AcDbEntity
  8
3
100
AcDbCircle
 10
65.511535
 20
33.413674
 30
11.197397
 40
3.823142
100
AcDbArc
 50
22.61345
 51
55.851488
  0
LINE
  5
552
100
AcDbEntity
  8
1
100
AcDbLine
 10
54.059019
 20
71.0
 30
11.197397
 11
34.649807
 21
71.0
 31
11.197397
  0
CIRCLE
  5
553
100
AcDbEntity
  8
3
100
AcDbCircle
 10
44.399807
 20
71.0
 30
11.197397
 40
3.0
  0
CIRCLE
  5
554
100
AcDbEntity
  8
3
100
AcDbCircle
 10
44.399807
 20
71.0
 30
11.197397
 40
4.0
  0
ARC
  5
555
100
AcDbEntity
  8
3
100
AcDbCircle
 10
44.399807
 20
71.0
 30
11.197397
 40
8.25
100
AcDbArc
 50
180.0
 51
0.0
  0
ARC
  5
556
100
AcDbEntity
  8
3
100
AcDbCircle
 10
44.399807
 20
39.445998
 30
11.197397
 40
14.024269
100
AcDbArc
 50
62.159972
 51
117.840028
  0
LINE
  5
557
100
AcDbEntity
  8
3
100
AcDbLine
 10
37.399807
 20
52.246795
 30
11.197397
 11
37.899807
 21
65.60303
 31
11.197397
  0
ARC
  5
558
100
AcDbEntity
  8
3
100
AcDbCircle
 10
37.993433
 20
52.462073
 30
11.197397
 40
0.631456
100
AcDbArc
 50
199.933123
 51
256.909042
  0
ARC
  5
559
100
AcDbEntity
  8
3
100
AcDbCircle
 10
41.712931
 20
65.326457
 30
11.197397
 40
3.823142
100
AcDbArc
 50
171.663378
 51
175.851488
  0
ARC
  5
55A
100
AcDbEntity
  8
3
100
AcDbCircle
 10
33.069592
 20
70.760992
 30
11.197397
 40
3.089474
100
AcDbArc
 50
4.436955
 51
102.520913
  0
CIRCLE
  5
55B
100
AcDbEntity
  8
3
100
AcDbCircle
 10
44.399807
 20
71.0
 30
11.197397
 40
2.25
  0
LINE
  5
55C
100
AcDbEntity
  8
3
100
AcDbLine
 10
51.399807
 20
52.246795
 30
11.197397
 11
50.899807
 21
65.60303
 31
11.197397
  0
ARC
  5
55D
100
AcDbEntity
  8
3
100
AcDbCircle
 10
50.80618
 20
52.462073
 30
11.197397
 40
0.631456
100
AcDbArc
 50
283.090958
 51
340.066877
  0
ARC
  5
55E
100
AcDbEntity
  8
3
100
AcDbCircle
 10
47.086682
 20
65.326457
 30
11.197397
 40
3.823142
100
AcDbArc
 50
4.148512
 51
8.336622
  0
ARC
  5
55F
100
AcDbEntity
  8
3
100
AcDbCircle
 10
55.730021
 20
70.760992
 30
11.197397
 40
3.089474
100
AcDbArc
 50
77.479087
 51
175.563045
  0
DIMENSION
  5
560
100
AcDbEntity
  8
0
100
AcDbDimension
  2
*D22
 10
129.581241
 20
32.307916
 30
11.197397
 11
129.581241
 21
42.296819
 31
11.197397
 12
-6.100193
 22
-128.0
 32
11.197397
 70
   128
  1
%%c20
  3
STANDARD
100
AcDbAlignedDimension
 13
161.406976
 23
52.4855
 33
11.197397
 14
161.406976
 24
32.307916
 34
11.197397
 50
90.0
100
AcDbRotatedDimension
1001
ACAD
1000
DSTYLE
1002
{
1070
   140
1040
4.0
1070
    77
1070
     0
1070
    40
1040
1.0
1070
   141
1040
0.0
1002
}
  0
DIMENSION
  5
561
100
AcDbEntity
  8
0
100
AcDbDimension
  2
*D19
 10
136.85814
 20
67.0
 30
11.197397
 11
130.399807
 21
64.5
 31
11.197397
 12
-6.100193
 22
-128.0
 32
11.197397
 70
   128
  1
%%C8
  3
STANDARD
100
AcDbAlignedDimension
 13
149.901735
 23
75.0
 33
11.197397
 14
149.901735
 24
67.0
 34
11.197397
 50
90.0
100
AcDbRotatedDimension
1001
ACAD
1000
DSTYLE
1002
{
1070
   140
1040
4.0
1070
    77
1070
     0
1070
    40
1040
1.0
1070
   141
1040
0.0
1002
}
  0
DIMENSION
  5
562
100
AcDbEntity
  8
0
100
AcDbDimension
  2
*D18
 10
122.149807
 20
62.75
 30
11.197397
 11
122.149807
 21
72.5
 31
11.197397
 12
-6.100193
 22
-128.0
 32
11.197397
 70
   128
  3
STANDARD
100
AcDbAlignedDimension
 13
156.399807
 23
82.5
 33
11.197397
 14
149.901735
 24
62.75
 34
11.197397
 50
90.0
100
AcDbRotatedDimension
1001
ACAD
1000
DSTYLE
1002
{
1070
   140
1040
4.0
1070
    77
1070
     0
1070
    40
1040
1.0
1070
   141
1040
0.0
1002
}
  0
DIMENSION
  5
563
100
AcDbEntity
  8
0
100
AcDbDimension
  2
*D23
 10
140.988848
 20
35.5
 30
11.197397
 11
140.988848
 21
42.696375
 31
11.197397
 12
-4.100193
 22
-128.0
 32
11.197397
 70
   128
  1
%%c14
  3
STANDARD
100
AcDbAlignedDimension
 13
163.899807
 23
49.5
 33
11.197397
 14
163.899807
 24
35.5
 34
11.197397
 50
90.0
100
AcDbRotatedDimension
1001
ACAD
1000
DSTYLE
1002
{
1070
   140
1040
4.0
1070
    77
1070
     0
1070
    40
1040
1.0
1070
   141
1040
0.0
1002
}
  0
LINE
  5
564
100
AcDbEntity
  8
3
100
AcDbLine
 10
168.399807
 20
48.5
 30
11.197397
 11
168.399807
 21
49.5
 31
11.197397
  0
LINE
  5
565
100
AcDbEntity
  8
3
100
AcDbLine
 10
172.399807
 20
49.5
 30
11.197397
 11
172.399807
 21
48.5
 31
11.197397
  0
LINE
  5
566
100
AcDbEntity
  8
3
100
AcDbLine
 10
159.899807
 20
39.458434
 30
11.197397
 11
159.899807
 21
57.268877
 31
11.197397
  0
LINE
  5
567
100
AcDbEntity
  8
3
100
AcDbLine
 10
150.403635
 20
62.75
 30
11.197397
 11
150.403635
 21
9.282279
 31
11.197397
  0
LINE
  5
568
100
AcDbEntity
  8
1
100
AcDbLine
 10
167.395588
 20
27.5
 30
11.197397
 11
167.395588
 21
58.225421
 31
11.197397
  0
LINE
  5
569
100
AcDbEntity
  8
3
100
AcDbLine
 10
149.901735
 20
76.158324
 30
11.197397
 11
149.901735
 21
42.5
 31
11.197397
  0
LINE
  5
56A
100
AcDbEntity
  8
3
100
AcDbLine
 10
161.899807
 20
51.5
 30
11.197397
 11
161.899807
 21
42.5
 31
11.197397
  0
LINE
  5
56B
100
AcDbEntity
  8
3
100
AcDbLine
 10
185.899807
 20
42.5
 30
11.197397
 11
185.899807
 21
51.5
 31
11.197397
  0
LINE
  5
56C
100
AcDbEntity
  8
1
100
AcDbLine
 10
156.399807
 20
63.702932
 30
11.197397
 11
156.399807
 21
42.5
 31
11.197397
  0
DIMENSION
  5
56D
100
AcDbEntity
  8
0
100
AcDbDimension
  2
*D26
 10
185.899807
 20
13.882636
 30
11.197397
 11
175.7403
 21
13.882636
 31
11.197397
 12
-1.100193
 22
-128.0
 32
11.197397
 70
   128
  3
STANDARD
100
AcDbAlignedDimension
 13
166.899807
 23
35.5
 33
11.197397
 14
185.899807
 24
33.5
 34
11.197397
100
AcDbRotatedDimension
1001
ACAD
1000
DSTYLE
1002
{
1070
   140
1040
4.0
1070
    77
1070
     0
1070
    40
1040
1.0
1070
   141
1040
0.0
1002
}
  0
DIMENSION
  5
56E
100
AcDbEntity
  8
0
100
AcDbDimension
  2
*D21
 10
159.381645
 20
16.160881
 30
11.197397
 11
175.310056
 21
21.493834
 31
11.197397
 12
-6.100193
 22
-128.0
 32
11.197397
 70
   132
  3
STANDARD
100
AcDbRadialDimension
 15
159.782173
 25
16.460176
 35
11.197397
 40
0.0
1001
ACAD
1000
DSTYLE
1002
{
1070
   140
1040
4.0
1070
    77
1070
     0
1070
    40
1040
1.0
1070
   141
1040
0.0
1002
}
  0
LINE
  5
56F
100
AcDbEntity
  8
3
100
AcDbLine
 10
162.897878
 20
8.841676
 30
11.197397
 11
162.898997
 21
28.369515
 31
11.197397
  0
LINE
  5
570
100
AcDbEntity
  8
3
100
AcDbLine
 10
166.899807
 20
35.5
 30
11.197397
 11
161.899807
 21
35.5
 31
11.197397
  0
LINE
  5
571
100
AcDbEntity
  8
2
100
AcDbLine
 10
161.899807
 20
40.760931
 30
11.197397
 11
165.649807
 21
43.25
 31
11.197397
  0
LINE
  5
572
100
AcDbEntity
  8
3
100
AcDbLine
 10
158.399807
 20
25.75
 30
11.197397
 11
166.582178
 21
30.513934
 31
11.197397
  0
ARC
  5
573
100
AcDbEntity
  8
2
100
AcDbCircle
 10
169.712307
 20
37.929688
 30
11.197397
 40
6.694
100
AcDbArc
 50
127.364737
 51
168.624497
  0
ARC
  5
574
100
AcDbEntity
  8
2
100
AcDbCircle
 10
168.124807
 20
36.458334
 30
11.197397
 40
5.105784
100
AcDbArc
 50
208.782115
 51
247.24346
  0
ARC
  5
575
100
AcDbEntity
  8
3
100
AcDbCircle
 10
167.569913
 20
41.159422
 30
11.197397
 40
10.691213
100
AcDbArc
 50
241.911816
 51
288.147283
  0
ARC
  5
576
100
AcDbEntity
  8
3
100
AcDbCircle
 10
167.16725
 20
30.523161
 30
11.197397
 40
14.339743
100
AcDbArc
 50
170.476761
 51
192.170638
  0
LINE
  5
577
100
AcDbEntity
  8
1
100
AcDbLine
 10
156.399807
 20
21.297069
 30
11.197397
 11
156.399807
 21
42.5
 31
11.197397
  0
LINE
  5
578
100
AcDbEntity
  8
3
100
AcDbLine
 10
159.899807
 20
16.310637
 30
11.197397
 11
159.899807
 21
26.623329
 31
11.197397
  0
ARC
  5
579
100
AcDbEntity
  8
3
100
AcDbCircle
 10
168.016941
 20
15.370732
 30
11.197397
 40
8.17137
100
AcDbArc
 50
174.77187
 51
229.586839
  0
ARC
  5
57A
100
AcDbEntity
  8
3
100
AcDbCircle
 10
162.395337
 20
8.768443
 30
11.197397
 40
0.5
100
AcDbArc
 50
357.78824
 51
49.586839
  0
ARC
  5
57B
100
AcDbEntity
  8
3
100
AcDbCircle
 10
156.798275
 20
28.328064
 30
11.197397
 40
3.035015
100
AcDbArc
 50
262.455836
 51
301.849171
  0
ARC
  5
57C
100
AcDbEntity
  8
3
100
AcDbCircle
 10
156.399807
 20
28.5
 30
11.197397
 40
3.400368
100
AcDbArc
 50
197.102729
 51
233.972627
  0
ARC
  5
57D
100
AcDbEntity
  8
3
100
AcDbCircle
 10
156.001338
 20
28.328064
 30
11.197397
 40
3.035015
100
AcDbArc
 50
238.150829
 51
277.544164
  0
LINE
  5
57E
100
AcDbEntity
  8
3
100
AcDbLine
 10
154.885471
 20
36.192854
 30
11.197397
 11
161.899807
 21
40.760931
 31
11.197397
  0
ARC
  5
57F
100
AcDbEntity
  8
2
100
AcDbCircle
 10
170.919869
 20
37.341197
 30
11.197397
 40
8.001087
100
AcDbArc
 50
166.19796
 51
204.682704
  0
ARC
  5
580
100
AcDbEntity
  8
3
100
AcDbCircle
 10
158.909553
 20
31.996751
 30
11.197397
 40
5.952683
100
AcDbArc
 50
157.757554
 51
171.314821
  0
ARC
  5
581
100
AcDbEntity
  8
3
100
AcDbCircle
 10
158.774807
 20
31.875
 30
11.197397
 40
5.87633
100
AcDbArc
 50
141.911227
 51
156.16126
  0
ARC
  5
582
100
AcDbEntity
  8
3
100
AcDbCircle
 10
156.399807
 20
33.75
 30
11.197397
 40
2.850439
100
AcDbArc
 50
122.749199
 51
142.125016
  0
LINE
  5
583
100
AcDbEntity
  8
3
100
AcDbLine
 10
161.899807
 20
33.5
 30
11.197397
 11
161.899807
 21
32.658918
 31
11.197397
  0
ARC
  5
584
100
AcDbEntity
  8
3
100
AcDbCircle
 10
162.899807
 20
32.658918
 30
11.197397
 40
1.0
100
AcDbArc
 50
180.0
 51
248.676314
  0
CIRCLE
  5
585
100
AcDbEntity
  8
3
100
AcDbCircle
 10
175.321696
 20
13.743469
 30
11.197397
 40
4.052866
  0
ARC
  5
586
100
AcDbEntity
  8
2
100
AcDbCircle
 10
163.871307
 20
37.341197
 30
11.197397
 40
8.001087
100
AcDbArc
 50
335.317296
 51
13.80204
  0
LINE
  5
587
100
AcDbEntity
  8
3
100
AcDbLine
 10
173.899807
 20
35.5
 30
11.197397
 11
172.914321
 21
35.5
 31
11.197397
  0
LINE
  5
588
100
AcDbEntity
  8
3
100
AcDbLine
 10
173.399807
 20
32.5
 30
11.197397
 11
170.899807
 21
31.0
 31
11.197397
  0
ARC
  5
589
100
AcDbEntity
  8
2
100
AcDbCircle
 10
166.666369
 20
36.458334
 30
11.197397
 40
5.105784
100
AcDbArc
 50
292.75654
 51
331.217885
  0
LINE
  5
58A
100
AcDbEntity
  8
2
100
AcDbLine
 10
166.582178
 20
30.513934
 30
11.197397
 11
169.310548
 21
32.102443
 31
11.197397
  0
ARC
  5
58B
100
AcDbEntity
  8
2
100
AcDbCircle
 10
167.391369
 20
35.867053
 30
11.197397
 40
4.30263
100
AcDbArc
 50
270.056178
 51
286.88909
  0
ARC
  5
58C
100
AcDbEntity
  8
2
100
AcDbCircle
 10
167.399807
 20
35.867053
 30
11.197397
 40
4.30263
100
AcDbArc
 50
253.11091
 51
269.943822
  0
ARC
  5
58D
100
AcDbEntity
  8
3
100
AcDbCircle
 10
170.399807
 20
27.625
 30
11.197397
 40
8.125
100
AcDbArc
 50
75.749967
 51
104.250033
  0
LINE
  5
58E
100
AcDbEntity
  8
3
100
AcDbLine
 10
168.399807
 20
36.5
 30
11.197397
 11
172.399807
 21
36.5
 31
11.197397
  0
LINE
  5
58F
100
AcDbEntity
  8
3
100
AcDbLine
 10
168.399807
 20
35.5
 30
11.197397
 11
168.399807
 21
36.5
 31
11.197397
  0
LINE
  5
590
100
AcDbEntity
  8
3
100
AcDbLine
 10
166.899807
 20
35.5
 30
11.197397
 11
168.399807
 21
35.5
 31
11.197397
  0
LINE
  5
591
100
AcDbEntity
  8
3
100
AcDbLine
 10
172.399807
 20
35.5
 30
11.197397
 11
172.899807
 21
35.5
 31
11.197397
  0
LINE
  5
592
100
AcDbEntity
  8
3
100
AcDbLine
 10
172.399807
 20
36.5
 30
11.197397
 11
172.399807
 21
35.5
 31
11.197397
  0
LINE
  5
593
100
AcDbEntity
  8
3
100
AcDbLine
 10
170.399807
 20
35.5
 30
11.197397
 11
170.395588
 21
35.5
 31
11.197397
  0
LINE
  5
594
100
AcDbEntity
  8
3
100
AcDbLine
 10
175.899807
 20
35.5
 30
11.197397
 11
175.899807
 21
32.5
 31
11.197397
  0
LINE
  5
595
100
AcDbEntity
  8
3
100
AcDbLine
 10
175.899807
 20
32.5
 30
11.197397
 11
173.399807
 21
32.5
 31
11.197397
  0
LINE
  5
596
100
AcDbEntity
  8
3
100
AcDbLine
 10
173.899807
 20
35.5
 30
11.197397
 11
175.899807
 21
35.5
 31
11.197397
  0
ARC
  5
597
100
AcDbEntity
  8
2
100
AcDbCircle
 10
167.078869
 20
37.929688
 30
11.197397
 40
6.694
100
AcDbArc
 50
11.375503
 51
52.635263
  0
CIRCLE
  5
598
100
AcDbEntity
  8
2
100
AcDbCircle
 10
170.399807
 20
42.5
 30
11.197397
 40
2.0
  0
ARC
  5
599
100
AcDbEntity
  8
2
100
AcDbCircle
 10
170.399807
 20
39.979626
 30
11.197397
 40
3.709157
100
AcDbArc
 50
90.065167
 51
118.151547
  0
ARC
  5
59A
100
AcDbEntity
  8
2
100
AcDbCircle
 10
170.391369
 20
39.979626
 30
11.197397
 40
3.709157
100
AcDbArc
 50
61.848453
 51
89.934833
  0
LINE
  5
59B
100
AcDbEntity
  8
3
100
AcDbLine
 10
172.399807
 20
48.5
 30
11.197397
 11
168.399807
 21
48.5
 31
11.197397
  0
LINE
  5
59C
100
AcDbEntity
  8
1
100
AcDbLine
 10
145.610608
 20
42.5
 30
11.197397
 11
192.110608
 21
42.5
 31
11.197397
  0
LINE
  5
59D
100
AcDbEntity
  8
3
100
AcDbLine
 10
149.901735
 20
8.841676
 30
11.197397
 11
149.901735
 21
42.5
 31
11.197397
  0
LINE
  5
59E
100
AcDbEntity
  8
3
100
AcDbLine
 10
150.050497
 20
9.039889
 30
11.197397
 11
150.254877
 21
9.093989
 31
11.197397
  0
ARC
  5
59F
100
AcDbEntity
  8
3
100
AcDbCircle
 10
162.399807
 20
8.979198
 30
11.197397
 40
12.0
100
AcDbArc
 50
134.872625
 51
178.55274
  0
ARC
  5
5A0
100
AcDbEntity
  8
3
100
AcDbCircle
 10
150.101676
 20
8.846548
 30
11.197397
 40
0.2
100
AcDbArc
 50
104.82648
 51
181.395721
  0
ARC
  5
5A1
100
AcDbEntity
  8
3
100
AcDbCircle
 10
156.399807
 20
15.0
 30
11.197397
 40
3.5
100
AcDbArc
 50
45.002386
 51
90.0
  0
ARC
  5
5A2
100
AcDbEntity
  8
3
100
AcDbCircle
 10
156.399807
 20
15.0
 30
11.197397
 40
3.5
100
AcDbArc
 50
90.0
 51
134.997614
  0
ARC
  5
5A3
100
AcDbEntity
  8
3
100
AcDbCircle
 10
150.203698
 20
9.28733
 30
11.197397
 40
0.2
100
AcDbArc
 50
284.82648
 51
358.55274
  0
ARC
  5
5A4
100
AcDbEntity
  8
3
100
AcDbCircle
 10
159.381645
 20
16.160881
 30
11.197397
 40
0.5
100
AcDbArc
 50
354.77187
 51
38.64507
  0
ARC
  5
5A5
100
AcDbEntity
  8
3
100
AcDbCircle
 10
150.399807
 20
8.979198
 30
11.197397
 40
12.0
100
AcDbArc
 50
38.64507
 51
45.127375
  0
LINE
  5
5A6
100
AcDbEntity
  8
3
100
AcDbLine
 10
161.899807
 20
33.5
 30
11.197397
 11
161.899807
 21
42.5
 31
11.197397
  0
LINE
  5
5A7
100
AcDbEntity
  8
3
100
AcDbLine
 10
185.899807
 20
33.5
 30
11.197397
 11
175.899807
 21
33.5
 31
11.197397
  0
LINE
  5
5A8
100
AcDbEntity
  8
3
100
AcDbLine
 10
185.899807
 20
42.5
 30
11.197397
 11
185.899807
 21
33.5
 31
11.197397
  0
DIMENSION
  5
5A9
100
AcDbEntity
  8
0
100
AcDbDimension
  2
*D24
 10
175.899807
 20
58.286
 30
11.197397
 11
180.479271
 21
58.286
 31
11.197397
 12
-6.100193
 22
-128.0
 32
11.197397
 70
   128
  3
STANDARD
100
AcDbAlignedDimension
 13
185.899807
 23
51.5
 33
11.197397
 14
175.899807
 24
52.5
 34
11.197397
100
AcDbRotatedDimension
1001
ACAD
1000
DSTYLE
1002
{
1070
   140
1040
4.0
1070
    77
1070
     0
1070
    40
1040
1.0
1070
   141
1040
0.0
1002
}
  0
DIMENSION
  5
5AA
100
AcDbEntity
  8
0
100
AcDbDimension
  2
*D17
 10
185.899807
 20
62.5
 30
11.197397
 11
174.149807
 21
62.5
 31
11.197397
 12
-6.100193
 22
-128.0
 32
11.197397
 70
   128
  3
STANDARD
100
AcDbAlignedDimension
 13
161.899807
 23
51.5
 33
11.197397
 14
185.899807
 24
51.5
 34
11.197397
100
AcDbRotatedDimension
1001
ACAD
1000
DSTYLE
1002
{
1070
   140
1040
4.0
1070
    77
1070
     0
1070
    40
1040
1.0
1070
   141
1040
0.0
1002
}
  0
LINE
  5
5AB
100
AcDbEntity
  8
1
100
AcDbLine
 10
167.395588
 20
53.476175
 30
11.197397
 11
156.399807
 21
66.5
 31
11.197397
  0
LINE
  5
5AC
100
AcDbEntity
  8
1
100
AcDbLine
 10
156.399807
 20
84.71608
 30
11.197397
 11
156.399807
 21
63.702932
 31
11.197397
  0
LINE
  5
5AD
100
AcDbEntity
  8
3
100
AcDbLine
 10
166.899807
 20
49.5
 30
11.197397
 11
161.899807
 21
49.5
 31
11.197397
  0
MTEXT
  5
5AE
102
{ACAD_REACTORS
330
5AF
102
}
100
AcDbEntity
  8
0
100
AcDbMText
 10
191.774807
 20
84.75
 30
11.197397
 40
4.0
 41
0.0
 71
     4
 72
     1
  1
\A1;M6-P1.0
  0
LEADER
  5
5AF
100
AcDbEntity
  8
0
100
AcDbLeader
  3
STANDARD
 73
     0
 40
4.0
 41
22.0
 76
     3
 10
161.899807
 20
71.0
 30
11.197397
 10
189.149807
 20
85.0
 30
11.197397
 10
191.684807
 20
84.75
 30
11.197397
 77
   256
340
5AE
1001
ACAD
1000
DSTYLE
1002
{
1070
   140
1040
4.0
1070
    77
1070
     0
1070
    40
1040
1.0
1070
   141
1040
0.0
1002
}
  0
LINE
  5
5B0
100
AcDbEntity
  8
3
100
AcDbLine
 10
171.895588
 20
53.402531
 30
11.197397
 11
161.899807
 21
64.503971
 31
11.197397
  0
LINE
  5
5B1
100
AcDbEntity
  8
3
100
AcDbLine
 10
151.149807
 20
68.75
 30
11.197397
 11
151.149807
 21
73.25
 31
11.197397
  0
LINE
  5
5B2
100
AcDbEntity
  8
3
100
AcDbLine
 10
150.399807
 20
68.0
 30
11.197397
 11
150.399807
 21
74.0
 31
11.197397
  0
LINE
  5
5B3
100
AcDbEntity
  8
3
100
AcDbLine
 10
161.899807
 20
75.047013
 30
11.197397
 11
161.899807
 21
64.503971
 31
11.197397
  0
LWPOLYLINE
  5
5B4
100
AcDbEntity
  8
3
100
AcDbPolyline
 90
        2
 70
     0
 43
0.0
 38
11.197397
 10
149.901735
 20
67.501929
 10
151.149807
 20
68.75
  0
LINE
  5
5B5
100
AcDbEntity
  8
3
100
AcDbLine
 10
149.901735
 20
62.75
 30
11.197397
 11
155.539925
 21
62.75
 31
11.197397
  0
LINE
  5
5B6
100
AcDbEntity
  8
3
100
AcDbLine
 10
162.899176
 20
53.498153
 30
11.197397
 11
155.539925
 21
62.75
 31
11.197397
  0
ARC
  5
5B7
100
AcDbEntity
  8
3
100
AcDbCircle
 10
167.569913
 20
43.840578
 30
11.197397
 40
10.691213
100
AcDbArc
 50
115.74601
 51
118.088184
  0
ARC
  5
5B8
100
AcDbEntity
  8
3
100
AcDbCircle
 10
162.899807
 20
52.341082
 30
11.197397
 40
1.0
100
AcDbArc
 50
111.323686
 51
180.0
  0
LINE
  5
5B9
100
AcDbEntity
  8
3
100
AcDbLine
 10
161.899807
 20
51.5
 30
11.197397
 11
161.899807
 21
52.341082
 31
11.197397
  0
LINE
  5
5BA
100
AcDbEntity
  8
3
100
AcDbLine
 10
161.899807
 20
68.0
 30
11.197397
 11
150.399807
 21
68.0
 31
11.197397
  0
LINE
  5
5BB
100
AcDbEntity
  8
3
100
AcDbLine
 10
161.899807
 20
68.75
 30
11.197397
 11
151.149807
 21
68.75
 31
11.197397
  0
LWPOLYLINE
  5
5BC
100
AcDbEntity
  8
3
100
AcDbPolyline
 90
        2
 70
     0
 43
0.0
 38
11.197397
 10
151.149807
 20
73.25
 10
149.901735
 20
74.498072
  0
LINE
  5
5BD
100
AcDbEntity
  8
3
100
AcDbLine
 10
161.899807
 20
73.25
 30
11.197397
 11
151.149807
 21
73.25
 31
11.197397
  0
LINE
  5
5BE
100
AcDbEntity
  8
3
100
AcDbLine
 10
161.899807
 20
74.0
 30
11.197397
 11
150.399807
 21
74.0
 31
11.197397
  0
ARC
  5
5BF
100
AcDbEntity
  8
3
100
AcDbCircle
 10
168.016941
 20
69.629268
 30
11.197397
 40
8.17137
100
AcDbArc
 50
128.772319
 51
138.469744
  0
LINE
  5
5C0
100
AcDbEntity
  8
3
100
AcDbLine
 10
173.899807
 20
49.5
 30
11.197397
 11
172.878878
 21
49.5
 31
11.197397
  0
LINE
  5
5C1
100
AcDbEntity
  8
3
100
AcDbLine
 10
173.399807
 20
52.5
 30
11.197397
 11
171.895588
 21
53.402531
 31
11.197397
  0
ARC
  5
5C2
100
AcDbEntity
  8
3
100
AcDbCircle
 10
170.399807
 20
57.375
 30
11.197397
 40
8.125
100
AcDbArc
 50
255.749967
 51
284.250033
  0
LINE
  5
5C3
100
AcDbEntity
  8
3
100
AcDbLine
 10
166.899807
 20
49.5
 30
11.197397
 11
168.399807
 21
49.5
 31
11.197397
  0
LINE
  5
5C4
100
AcDbEntity
  8
3
100
AcDbLine
 10
172.399807
 20
49.5
 30
11.197397
 11
172.899807
 21
49.5
 31
11.197397
  0
LINE
  5
5C5
100
AcDbEntity
  8
3
100
AcDbLine
 10
173.899807
 20
49.5
 30
11.197397
 11
175.899807
 21
49.5
 31
11.197397
  0
LINE
  5
5C6
100
AcDbEntity
  8
3
100
AcDbLine
 10
175.899807
 20
52.5
 30
11.197397
 11
173.399807
 21
52.5
 31
11.197397
  0
LINE
  5
5C7
100
AcDbEntity
  8
3
100
AcDbLine
 10
175.899807
 20
49.5
 30
11.197397
 11
175.899807
 21
52.5
 31
11.197397
  0
LINE
  5
5C8
100
AcDbEntity
  8
1
100
AcDbLine
 10
146.399807
 20
71.0
 30
11.197397
 11
165.899807
 21
71.0
 31
11.197397
  0
LINE
  5
5C9
100
AcDbEntity
  8
3
100
AcDbLine
 10
162.897878
 20
76.158324
 30
11.197397
 11
162.898609
 21
63.394688
 31
11.197397
  0
LINE
  5
5CA
100
AcDbEntity
  8
3
100
AcDbLine
 10
149.901735
 20
67.0
 30
11.197397
 11
154.899807
 21
67.0
 31
11.197397
  0
LINE
  5
5CB
100
AcDbEntity
  8
3
100
AcDbLine
 10
154.899807
 20
67.5
 30
11.197397
 11
157.899807
 21
67.5
 31
11.197397
  0
LINE
  5
5CC
100
AcDbEntity
  8
3
100
AcDbLine
 10
154.899807
 20
67.0
 30
11.197397
 11
154.899807
 21
67.5
 31
11.197397
  0
LINE
  5
5CD
100
AcDbEntity
  8
3
100
AcDbLine
 10
157.899807
 20
67.0
 30
11.197397
 11
161.899807
 21
67.0
 31
11.197397
  0
LINE
  5
5CE
100
AcDbEntity
  8
3
100
AcDbLine
 10
157.899807
 20
67.5
 30
11.197397
 11
157.899807
 21
67.0
 31
11.197397
  0
LINE
  5
5CF
100
AcDbEntity
  8
3
100
AcDbLine
 10
149.901735
 20
75.0
 30
11.197397
 11
154.899807
 21
75.0
 31
11.197397
  0
ARC
  5
5D0
100
AcDbEntity
  8
3
100
AcDbCircle
 10
156.399807
 20
76.0
 30
11.197397
 40
6.5
100
AcDbArc
 50
0.0
 51
180.0
  0
LINE
  5
5D1
100
AcDbEntity
  8
3
100
AcDbLine
 10
149.901735
 20
71.0
 30
11.197397
 11
149.901735
 21
75.0
 31
11.197397
  0
LINE
  5
5D2
100
AcDbEntity
  8
3
100
AcDbLine
 10
154.899807
 20
74.5
 30
11.197397
 11
157.899807
 21
74.5
 31
11.197397
  0
LINE
  5
5D3
100
AcDbEntity
  8
3
100
AcDbLine
 10
154.899807
 20
75.0
 30
11.197397
 11
154.899807
 21
74.5
 31
11.197397
  0
LINE
  5
5D4
100
AcDbEntity
  8
3
100
AcDbLine
 10
157.899807
 20
75.0
 30
11.197397
 11
161.899807
 21
75.0
 31
11.197397
  0
LINE
  5
5D5
100
AcDbEntity
  8
3
100
AcDbLine
 10
157.899807
 20
74.5
 30
11.197397
 11
157.899807
 21
75.0
 31
11.197397
  0
LINE
  5
5D6
100
AcDbEntity
  8
3
100
AcDbLine
 10
185.899807
 20
51.5
 30
11.197397
 11
175.899807
 21
51.5
 31
11.197397
  0
ENDBLK
  5
5D8
100
AcDbEntity
  8
0
100
AcDbBlockEnd
  0
ENDSEC
  0
SECTION
  2
ENTITIES
  0
ARC
  5
5DE
100
AcDbEntity
  8
3
100
AcDbCircle
 10
170.096959
 20
41.882397
 30
11.197397
 40
6.5
100
AcDbArc
 50
270.0
 51
357.78824
  0
LINE
  5
5DF
100
AcDbEntity
  8
1
100
AcDbLine
 10
170.096959
 20
33.166317
 30
11.197397
 11
170.096959
 21
54.179466
 31
11.197397
  0
ARC
  5
5E0
100
AcDbEntity
  8
3
100
AcDbCircle
 10
170.096959
 20
41.882397
 30
11.197397
 40
6.5
100
AcDbArc
 50
181.395721
 51
270.0
  0
CIRCLE
  5
5E1
100
AcDbEntity
  8
3
100
AcDbCircle
 10
58.096959
 20
75.382397
 30
11.197397
 40
40.0
  0
LINE
  5
5E2
100
AcDbEntity
  8
1
100
AcDbLine
 10
58.096959
 20
32.882397
 30
11.197397
 11
58.096959
 21
117.382397
 31
11.197397
  0
LINE
  5
5E4
100
AcDbEntity
  8
1
100
AcDbLine
 10
58.096959
 20
75.382397
 30
11.197397
 11
95.372645
 21
53.86127
 31
11.197397
  0
ARC
  5
5E5
100
AcDbEntity
  8
3
100
AcDbCircle
 10
58.096959
 20
75.382397
 30
11.197397
 40
24.0
100
AcDbArc
 50
345.713861
 51
74.286139
  0
ARC
  5
5E6
100
AcDbEntity
  8
3
100
AcDbCircle
 10
58.096959
 20
75.382397
 30
11.197397
 40
33.5
100
AcDbArc
 50
110.990243
 51
69.009757
  0
LINE
  5
5E7
100
AcDbEntity
  8
1
100
AcDbLine
 10
103.307761
 20
75.382397
 30
11.197397
 11
13.096959
 21
75.382397
 31
11.197397
  0
LINE
  5
5E8
100
AcDbEntity
  8
1
100
AcDbLine
 10
58.096959
 20
75.382397
 30
11.197397
 11
20.286777
 21
53.552678
 31
11.197397
  0
CIRCLE
  5
5EA
100
AcDbEntity
  8
0
100
AcDbCircle
 10
58.096959
 20
75.382397
 30
11.197397
 40
7.0
  0
ARC
  5
5EC
100
AcDbEntity
  8
3
100
AcDbCircle
 10
58.096959
 20
75.382397
 30
11.197397
 40
12.0
100
AcDbArc
 50
5.685335
 51
54.314665
  0
ARC
  5
5ED
100
AcDbEntity
  8
3
100
AcDbCircle
 10
58.096959
 20
75.382397
 30
11.197397
 40
12.0
100
AcDbArc
 50
125.685335
 51
174.314665
  0
CIRCLE
  5
5EE
100
AcDbEntity
  8
3
100
AcDbCircle
 10
58.096959
 20
75.382397
 30
11.197397
 40
10.5
  0
ARC
  5
5EF
100
AcDbEntity
  8
3
100
AcDbCircle
 10
58.096959
 20
75.382397
 30
11.197397
 40
24.0
100
AcDbArc
 50
105.713861
 51
194.286139
  0
ARC
  5
5F0
100
AcDbEntity
  8
3
100
AcDbCircle
 10
58.096959
 20
75.382397
 30
11.197397
 40
24.0
100
AcDbArc
 50
225.713861
 51
314.286139
  0
ARC
  5
5F1
100
AcDbEntity
  8
3
100
AcDbCircle
 10
58.096959
 20
75.382397
 30
11.197397
 40
12.0
100
AcDbArc
 50
245.685335
 51
294.314665
  0
ARC
  5
5F3
100
AcDbEntity
  8
3
100
AcDbCircle
 10
43.822089
 20
67.140797
 30
11.197397
 40
10.384921
100
AcDbArc
 50
176.547903
 51
243.452097
  0
LINE
  5
5F4
100
AcDbEntity
  8
3
100
AcDbLine
 10
53.155988
 20
64.446822
 30
11.197397
 11
41.339148
 21
58.201717
 31
11.197397
  0
ARC
  5
5F5
100
AcDbEntity
  8
3
100
AcDbCircle
 10
39.672105
 20
61.642267
 30
11.197397
 40
3.823142
100
AcDbArc
 50
262.61345
 51
295.851488
  0
LINE
  5
5F7
100
AcDbEntity
  8
3
100
AcDbLine
 10
46.155988
 20
76.571178
 30
11.197397
 11
34.839148
 21
69.460047
 31
11.197397
  0
ARC
  5
5F8
100
AcDbEntity
  8
3
100
AcDbCircle
 10
36.98523
 20
66.296071
 30
11.197397
 40
3.823142
100
AcDbArc
 50
124.148512
 51
157.38655
  0
ARC
  5
5F9
100
AcDbEntity
  8
3
100
AcDbCircle
 10
60.741803
 20
76.909398
 30
11.197397
 40
14.024269
100
AcDbArc
 50
182.159972
 51
237.840028
  0
ARC
  5
5FA
100
AcDbEntity
  8
3
100
AcDbCircle
 10
52.672738
 20
64.853279
 30
11.197397
 40
0.631456
100
AcDbArc
 50
319.933123
 51
16.909042
  0
ARC
  5
5FB
100
AcDbEntity
  8
3
100
AcDbCircle
 10
46.266365
 20
75.949443
 30
11.197397
 40
0.631456
100
AcDbArc
 50
43.090958
 51
100.066877
  0
ARC
  5
5FC
100
AcDbEntity
  8
3
100
AcDbCircle
 10
72.371829
 20
67.140797
 30
11.197397
 40
10.384921
100
AcDbArc
 50
296.547903
 51
3.452097
  0
LINE
  5
5FD
100
AcDbEntity
  8
3
100
AcDbLine
 10
63.037931
 20
64.446822
 30
11.197397
 11
74.85477
 21
58.201717
 31
11.197397
  0
ARC
  5
5FE
100
AcDbEntity
  8
3
100
AcDbCircle
 10
76.521813
 20
61.642267
 30
11.197397
 40
3.823142
100
AcDbArc
 50
244.148512
 51
277.38655
  0
LINE
  5
5FF
100
AcDbEntity
  8
3
100
AcDbLine
 10
70.037931
 20
76.571178
 30
11.197397
 11
81.35477
 21
69.460047
 31
11.197397
  0
ARC
  5
600
100
AcDbEntity
  8
3
100
AcDbCircle
 10
55.452116
 20
76.909398
 30
11.197397
 40
14.024269
100
AcDbArc
 50
302.159972
 51
357.840028
  0
ARC
  5
601
100
AcDbEntity
  8
3
100
AcDbCircle
 10
63.52118
 20
64.853279
 30
11.197397
 40
0.631456
100
AcDbArc
 50
163.090958
 51
220.066877
  0
ARC
  5
603
100
AcDbEntity
  8
3
100
AcDbCircle
 10
69.927554
 20
75.949443
 30
11.197397
 40
0.631456
100
AcDbArc
 50
79.933123
 51
136.909042
  0
ARC
  5
604
100
AcDbEntity
  8
3
100
AcDbCircle
 10
79.208688
 20
66.296071
 30
11.197397
 40
3.823142
100
AcDbArc
 50
22.61345
 51
55.851488
  0
LINE
  5
605
100
AcDbEntity
  8
1
100
AcDbLine
 10
67.756172
 20
103.882397
 30
11.197397
 11
48.346959
 21
103.882397
 31
11.197397
  0
ARC
  5
608
100
AcDbEntity
  8
3
100
AcDbCircle
 10
58.096959
 20
103.882397
 30
11.197397
 40
8.25
100
AcDbArc
 50
180.0
 51
0.0
  0
ARC
  5
609
100
AcDbEntity
  8
3
100
AcDbCircle
 10
58.096959
 20
72.328395
 30
11.197397
 40
14.024269
100
AcDbArc
 50
62.159972
 51
117.840028
  0
LINE
  5
60A
100
AcDbEntity
  8
3
100
AcDbLine
 10
51.096959
 20
85.129191
 30
11.197397
 11
51.596959
 21
98.485427
 31
11.197397
  0
ARC
  5
60B
100
AcDbEntity
  8
3
100
AcDbCircle
 10
51.690586
 20
85.344469
 30
11.197397
 40
0.631456
100
AcDbArc
 50
199.933123
 51
256.909042
  0
ARC
  5
60C
100
AcDbEntity
  8
3
100
AcDbCircle
 10
55.410084
 20
98.208854
 30
11.197397
 40
3.823142
100
AcDbArc
 50
171.663378
 51
175.851488
  0
ARC
  5
60D
100
AcDbEntity
  8
3
100
AcDbCircle
 10
46.766745
 20
103.643389
 30
11.197397
 40
3.089474
100
AcDbArc
 50
4.436955
 51
102.520913
  0
LINE
  5
60F
100
AcDbEntity
  8
3
100
AcDbLine
 10
65.096959
 20
85.129191
 30
11.197397
 11
64.596959
 21
98.485427
 31
11.197397
  0
ARC
  5
610
100
AcDbEntity
  8
3
100
AcDbCircle
 10
64.503333
 20
85.344469
 30
11.197397
 40
0.631456
100
AcDbArc
 50
283.090958
 51
340.066877
  0
ARC
  5
611
100
AcDbEntity
  8
3
100
AcDbCircle
 10
60.783834
 20
98.208854
 30
11.197397
 40
3.823142
100
AcDbArc
 50
4.148512
 51
8.336622
  0
ARC
  5
612
100
AcDbEntity
  8
3
100
AcDbCircle
 10
69.427174
 20
103.643389
 30
11.197397
 40
3.089474
100
AcDbArc
 50
77.479087
 51
175.563045
  0
LINE
  5
617
100
AcDbEntity
  8
3
100
AcDbLine
 10
182.096959
 20
81.382397
 30
11.197397
 11
182.096959
 21
82.382397
 31
11.197397
  0
LINE
  5
618
100
AcDbEntity
  8
3
100
AcDbLine
 10
186.096959
 20
82.382397
 30
11.197397
 11
186.096959
 21
81.382397
 31
11.197397
  0
LINE
  5
619
100
AcDbEntity
  8
3
100
AcDbLine
 10
173.596959
 20
72.340831
 30
11.197397
 11
173.596959
 21
90.151274
 31
11.197397
  0
LINE
  5
61A
100
AcDbEntity
  8
3
100
AcDbLine
 10
164.100787
 20
95.632397
 30
11.197397
 11
164.100787
 21
42.164676
 31
11.197397
  0
LINE
  5
61B
100
AcDbEntity
  8
1
100
AcDbLine
 10
181.09274
 20
60.382397
 30
11.197397
 11
181.09274
 21
91.107818
 31
11.197397
  0
LINE
  5
61C
100
AcDbEntity
  8
3
100
AcDbLine
 10
163.598888
 20
109.040721
 30
11.197397
 11
163.598888
 21
75.382397
 31
11.197397
  0
LINE
  5
61D
100
AcDbEntity
  8
3
100
AcDbLine
 10
175.596959
 20
84.382397
 30
11.197397
 11
175.596959
 21
75.382397
 31
11.197397
  0
LINE
  5
61E
100
AcDbEntity
  8
3
100
AcDbLine
 10
199.596959
 20
75.382397
 30
11.197397
 11
199.596959
 21
84.382397
 31
11.197397
  0
LINE
  5
61F
100
AcDbEntity
  8
1
100
AcDbLine
 10
170.096959
 20
96.585329
 30
11.197397
 11
170.096959
 21
75.382397
 31
11.197397
  0
LINE
  5
622
100
AcDbEntity
  8
3
100
AcDbLine
 10
176.595031
 20
41.724073
 30
11.197397
 11
176.59615
 21
61.251912
 31
11.197397
  0
LINE
  5
623
100
AcDbEntity
  8
3
100
AcDbLine
 10
180.596959
 20
68.382397
 30
11.197397
 11
175.596959
 21
68.382397
 31
11.197397
  0
LINE
  5
624
100
AcDbEntity
  8
2
100
AcDbLine
 10
175.596959
 20
73.643328
 30
11.197397
 11
179.346959
 21
76.132397
 31
11.197397
  0
LINE
  5
625
100
AcDbEntity
  8
3
100
AcDbLine
 10
172.096959
 20
58.632397
 30
11.197397
 11
180.279331
 21
63.396331
 31
11.197397
  0
ARC
  5
626
100
AcDbEntity
  8
2
100
AcDbCircle
 10
183.409459
 20
70.812085
 30
11.197397
 40
6.694
100
AcDbArc
 50
127.364737
 51
168.624497
  0
ARC
  5
627
100
AcDbEntity
  8
2
100
AcDbCircle
 10
181.821959
 20
69.34073
 30
11.197397
 40
5.105784
100
AcDbArc
 50
208.782115
 51
247.24346
  0
ARC
  5
628
100
AcDbEntity
  8
3
100
AcDbCircle
 10
181.267066
 20
74.041819
 30
11.197397
 40
10.691213
100
AcDbArc
 50
241.911816
 51
288.147283
  0
ARC
  5
629
100
AcDbEntity
  8
3
100
AcDbCircle
 10
180.864403
 20
63.405557
 30
11.197397
 40
14.339743
100
AcDbArc
 50
170.476761
 51
192.170638
  0
LINE
  5
62A
100
AcDbEntity
  8
1
100
AcDbLine
 10
170.096959
 20
54.179466
 30
11.197397
 11
170.096959
 21
75.382397
 31
11.197397
  0
LINE
  5
62B
100
AcDbEntity
  8
3
100
AcDbLine
 10
173.596959
 20
49.193034
 30
11.197397
 11
173.596959
 21
59.505726
 31
11.197397
  0
ARC
  5
62C
100
AcDbEntity
  8
3
100
AcDbCircle
 10
181.714094
 20
48.253129
 30
11.197397
 40
8.17137
100
AcDbArc
 50
174.77187
 51
229.586839
  0
ARC
  5
62D
100
AcDbEntity
  8
3
100
AcDbCircle
 10
176.092489
 20
41.65084
 30
11.197397
 40
0.5
100
AcDbArc
 50
357.78824
 51
49.586839
  0
ARC
  5
62E
100
AcDbEntity
  8
3
100
AcDbCircle
 10
170.495427
 20
61.210461
 30
11.197397
 40
3.035015
100
AcDbArc
 50
262.455836
 51
301.849171
  0
ARC
  5
62F
100
AcDbEntity
  8
3
100
AcDbCircle
 10
170.096959
 20
61.382397
 30
11.197397
 40
3.400368
100
AcDbArc
 50
197.102729
 51
233.972627
  0
ARC
  5
630
100
AcDbEntity
  8
3
100
AcDbCircle
 10
169.698491
 20
61.210461
 30
11.197397
 40
3.035015
100
AcDbArc
 50
238.150829
 51
277.544164
  0
LINE
  5
631
100
AcDbEntity
  8
3
100
AcDbLine
 10
168.582624
 20
69.075251
 30
11.197397
 11
175.596959
 21
73.643328
 31
11.197397
  0
ARC
  5
632
100
AcDbEntity
  8
2
100
AcDbCircle
 10
184.617021
 20
70.223593
 30
11.197397
 40
8.001087
100
AcDbArc
 50
166.19796
 51
204.682704
  0
ARC
  5
633
100
AcDbEntity
  8
3
100
AcDbCircle
 10
172.606705
 20
64.879148
 30
11.197397
 40
5.952683
100
AcDbArc
 50
157.757554
 51
171.314821
  0
ARC
  5
634
100
AcDbEntity
  8
3
100
AcDbCircle
 10
172.471959
 20
64.757397
 30
11.197397
 40
5.87633
100
AcDbArc
 50
141.911227
 51
156.16126
  0
ARC
  5
635
100
AcDbEntity
  8
3
100
AcDbCircle
 10
170.096959
 20
66.632397
 30
11.197397
 40
2.850439
100
AcDbArc
 50
122.749199
 51
142.125016
  0
LINE
  5
636
100
AcDbEntity
  8
3
100
AcDbLine
 10
175.596959
 20
66.382397
 30
11.197397
 11
175.596959
 21
65.541315
 31
11.197397
  0
ARC
  5
637
100
AcDbEntity
  8
3
100
AcDbCircle
 10
176.596959
 20
65.541315
 30
11.197397
 40
1.0
100
AcDbArc
 50
180.0
 51
248.676314
  0
ARC
  5
639
100
AcDbEntity
  8
2
100
AcDbCircle
 10
177.56846
 20
70.223593
 30
11.197397
 40
8.001087
100
AcDbArc
 50
335.317296
 51
13.80204
  0
LINE
  5
63A
100
AcDbEntity
  8
3
100
AcDbLine
 10
187.596959
 20
68.382397
 30
11.197397
 11
186.611473
 21
68.382397
 31
11.197397
  0
LINE
  5
63B
100
AcDbEntity
  8
3
100
AcDbLine
 10
187.096959
 20
65.382397
 30
11.197397
 11
184.596959
 21
63.882397
 31
11.197397
  0
ARC
  5
63C
100
AcDbEntity
  8
2
100
AcDbCircle
 10
180.363522
 20
69.34073
 30
11.197397
 40
5.105784
100
AcDbArc
 50
292.75654
 51
331.217885
  0
LINE
  5
63D
100
AcDbEntity
  8
2
100
AcDbLine
 10
180.279331
 20
63.396331
 30
11.197397
 11
183.007701
 21
64.98484
 31
11.197397
  0
ARC
  5
63E
100
AcDbEntity
  8
2
100
AcDbCircle
 10
181.088522
 20
68.74945
 30
11.197397
 40
4.30263
100
AcDbArc
 50
270.056178
 51
286.88909
  0
ARC
  5
63F
100
AcDbEntity
  8
2
100
AcDbCircle
 10
181.096959
 20
68.74945
 30
11.197397
 40
4.30263
100
AcDbArc
 50
253.11091
 51
269.943822
  0
ARC
  5
640
100
AcDbEntity
  8
3
100
AcDbCircle
 10
184.096959
 20
60.507397
 30
11.197397
 40
8.125
100
AcDbArc
 50
75.749967
 51
104.250033
  0
LINE
  5
641
100
AcDbEntity
  8
3
100
AcDbLine
 10
182.096959
 20
69.382397
 30
11.197397
 11
186.096959
 21
69.382397
 31
11.197397
  0
LINE
  5
642
100
AcDbEntity
  8
3
100
AcDbLine
 10
182.096959
 20
68.382397
 30
11.197397
 11
182.096959
 21
69.382397
 31
11.197397
  0
LINE
  5
643
100
AcDbEntity
  8
3
100
AcDbLine
 10
180.596959
 20
68.382397
 30
11.197397
 11
182.096959
 21
68.382397
 31
11.197397
  0
LINE
  5
644
100
AcDbEntity
  8
3
100
AcDbLine
 10
186.096959
 20
68.382397
 30
11.197397
 11
186.596959
 21
68.382397
 31
11.197397
  0
LINE
  5
645
100
AcDbEntity
  8
3
100
AcDbLine
 10
186.096959
 20
69.382397
 30
11.197397
 11
186.096959
 21
68.382397
 31
11.197397
  0
LINE
  5
646
100
AcDbEntity
  8
3
100
AcDbLine
 10
184.096959
 20
68.382397
 30
11.197397
 11
184.09274
 21
68.382397
 31
11.197397
  0
LINE
  5
647
100
AcDbEntity
  8
3
100
AcDbLine
 10
189.596959
 20
68.382397
 30
11.197397
 11
189.596959
 21
65.382397
 31
11.197397
  0
LINE
  5
648
100
AcDbEntity
  8
3
100
AcDbLine
 10
189.596959
 20
65.382397
 30
11.197397
 11
187.096959
 21
65.382397
 31
11.197397
  0
LINE
  5
649
100
AcDbEntity
  8
3
100
AcDbLine
 10
187.596959
 20
68.382397
 30
11.197397
 11
189.596959
 21
68.382397
 31
11.197397
  0
ARC
  5
64A
100
AcDbEntity
  8
2
100
AcDbCircle
 10
180.776022
 20
70.812085
 30
11.197397
 40
6.694
100
AcDbArc
 50
11.375503
 51
52.635263
  0
CIRCLE
  5
64B
100
AcDbEntity
  8
2
100
AcDbCircle
 10
184.096959
 20
75.382397
 30
11.197397
 40
2.0
  0
ARC
  5
64C
100
AcDbEntity
  8
2
100
AcDbCircle
 10
184.096959
 20
72.862023
 30
11.197397
 40
3.709157
100
AcDbArc
 50
90.065167
 51
118.151547
  0
ARC
  5
64D
100
AcDbEntity
  8
2
100
AcDbCircle
 10
184.088522
 20
72.862023
 30
11.197397
 40
3.709157
100
AcDbArc
 50
61.848453
 51
89.934833
  0
LINE
  5
64E
100
AcDbEntity
  8
3
100
AcDbLine
 10
186.096959
 20
81.382397
 30
11.197397
 11
182.096959
 21
81.382397
 31
11.197397
  0
LINE
  5
64F
100
AcDbEntity
  8
1
100
AcDbLine
 10
159.307761
 20
75.382397
 30
11.197397
 11
205.807761
 21
75.382397
 31
11.197397
  0
LINE
  5
650
100
AcDbEntity
  8
3
100
AcDbLine
 10
163.598888
 20
41.724073
 30
11.197397
 11
163.598888
 21
75.382397
 31
11.197397
  0
LINE
  5
651
100
AcDbEntity
  8
3
100
AcDbLine
 10
163.74765
 20
41.922286
 30
11.197397
 11
163.95203
 21
41.976386
 31
11.197397
  0
ARC
  5
652
100
AcDbEntity
  8
3
100
AcDbCircle
 10
176.096959
 20
41.861595
 30
11.197397
 40
12.0
100
AcDbArc
 50
134.872625
 51
178.55274
  0
ARC
  5
653
100
AcDbEntity
  8
3
100
AcDbCircle
 10
163.798828
 20
41.728945
 30
11.197397
 40
0.2
100
AcDbArc
 50
104.82648
 51
181.395721
  0
ARC
  5
654
100
AcDbEntity
  8
3
100
AcDbCircle
 10
170.096959
 20
47.882397
 30
11.197397
 40
3.5
100
AcDbArc
 50
45.002386
 51
90.0
  0
ARC
  5
655
100
AcDbEntity
  8
3
100
AcDbCircle
 10
170.096959
 20
47.882397
 30
11.197397
 40
3.5
100
AcDbArc
 50
90.0
 51
134.997614
  0
ARC
  5
656
100
AcDbEntity
  8
3
100
AcDbCircle
 10
163.900851
 20
42.169727
 30
11.197397
 40
0.2
100
AcDbArc
 50
284.82648
 51
358.55274
  0
ARC
  5
657
100
AcDbEntity
  8
3
100
AcDbCircle
 10
173.078798
 20
49.043278
 30
11.197397
 40
0.5
100
AcDbArc
 50
354.77187
 51
38.64507
  0
ARC
  5
658
100
AcDbEntity
  8
3
100
AcDbCircle
 10
164.096959
 20
41.861595
 30
11.197397
 40
12.0
100
AcDbArc
 50
38.64507
 51
45.127375
  0
LINE
  5
659
100
AcDbEntity
  8
3
100
AcDbLine
 10
175.596959
 20
66.382397
 30
11.197397
 11
175.596959
 21
75.382397
 31
11.197397
  0
LINE
  5
65A
100
AcDbEntity
  8
3
100
AcDbLine
 10
199.596959
 20
66.382397
 30
11.197397
 11
189.596959
 21
66.382397
 31
11.197397
  0
LINE
  5
65B
100
AcDbEntity
  8
3
100
AcDbLine
 10
199.596959
 20
75.382397
 30
11.197397
 11
199.596959
 21
66.382397
 31
11.197397
  0
LINE
  5
65E
100
AcDbEntity
  8
1
100
AcDbLine
 10
181.09274
 20
86.358571
 30
11.197397
 11
170.096959
 21
99.382397
 31
11.197397
  0
LINE
  5
65F
100
AcDbEntity
  8
1
100
AcDbLine
 10
170.096959
 20
117.598477
 30
11.197397
 11
170.096959
 21
96.585329
 31
11.197397
  0
LINE
  5
660
100
AcDbEntity
  8
3
100
AcDbLine
 10
180.596959
 20
82.382397
 30
11.197397
 11
175.596959
 21
82.382397
 31
11.197397
  0
LINE
  5
663
100
AcDbEntity
  8
3
100
AcDbLine
 10
185.59274
 20
86.284928
 30
11.197397
 11
175.596959
 21
97.386368
 31
11.197397
  0
LINE
  5
666
100
AcDbEntity
  8
3
100
AcDbLine
 10
175.596959
 20
107.92941
 30
11.197397
 11
175.596959
 21
97.386368
 31
11.197397
  0
LINE
  5
668
100
AcDbEntity
  8
3
100
AcDbLine
 10
163.598888
 20
95.632397
 30
11.197397
 11
169.237077
 21
95.632397
 31
11.197397
  0
LINE
  5
669
100
AcDbEntity
  8
3
100
AcDbLine
 10
176.596329
 20
86.38055
 30
11.197397
 11
169.237077
 21
95.632397
 31
11.197397
  0
ARC
  5
66A
100
AcDbEntity
  8
3
100
AcDbCircle
 10
181.267066
 20
76.722975
 30
11.197397
 40
10.691213
100
AcDbArc
 50
115.74601
 51
118.088184
  0
ARC
  5
66B
100
AcDbEntity
  8
3
100
AcDbCircle
 10
176.596959
 20
85.223479
 30
11.197397
 40
1.0
100
AcDbArc
 50
111.323686
 51
180.0
  0
LINE
  5
66C
100
AcDbEntity
  8
3
100
AcDbLine
 10
175.596959
 20
84.382397
 30
11.197397
 11
175.596959
 21
85.223479
 31
11.197397
  0
ARC
  5
672
100
AcDbEntity
  8
3
100
AcDbCircle
 10
181.714094
 20
102.511665
 30
11.197397
 40
8.17137
100
AcDbArc
 50
128.772319
 51
138.469744
  0
LINE
  5
673
100
AcDbEntity
  8
3
100
AcDbLine
 10
187.596959
 20
82.382397
 30
11.197397
 11
186.576031
 21
82.382397
 31
11.197397
  0
LINE
  5
674
100
AcDbEntity
  8
3
100
AcDbLine
 10
187.096959
 20
85.382397
 30
11.197397
 11
185.59274
 21
86.284928
 31
11.197397
  0
ARC
  5
675
100
AcDbEntity
  8
3
100
AcDbCircle
 10
184.096959
 20
90.257397
 30
11.197397
 40
8.125
100
AcDbArc
 50
255.749967
 51
284.250033
  0
LINE
  5
676
100
AcDbEntity
  8
3
100
AcDbLine
 10
180.596959
 20
82.382397
 30
11.197397
 11
182.096959
 21
82.382397
 31
11.197397
  0
LINE
  5
677
100
AcDbEntity
  8
3
100
AcDbLine
 10
186.096959
 20
82.382397
 30
11.197397
 11
186.596959
 21
82.382397
 31
11.197397
  0
LINE
  5
678
100
AcDbEntity
  8
3
100
AcDbLine
 10
187.596959
 20
82.382397
 30
11.197397
 11
189.596959
 21
82.382397
 31
11.197397
  0
LINE
  5
679
100
AcDbEntity
  8
3
100
AcDbLine
 10
189.596959
 20
85.382397
 30
11.197397
 11
187.096959
 21
85.382397
 31
11.197397
  0
LINE
  5
67A
100
AcDbEntity
  8
3
100
AcDbLine
 10
189.596959
 20
82.382397
 30
11.197397
 11
189.596959
 21
85.382397
 31
11.197397
  0
LINE
  5
67B
100
AcDbEntity
  8
1
100
AcDbLine
 10
160.096959
 20
103.882397
 30
11.197397
 11
179.596959
 21
103.882397
 31
11.197397
  0
LINE
  5
67C
100
AcDbEntity
  8
3
100
AcDbLine
 10
176.595031
 20
109.040721
 30
11.197397
 11
176.595762
 21
96.277085
 31
11.197397
  0
ARC
  5
683
100
AcDbEntity
  8
3
100
AcDbCircle
 10
170.096959
 20
108.882397
 30
11.197397
 40
6.5
100
AcDbArc
 50
0.0
 51
180.0
  0
LINE
  5
689
100
AcDbEntity
  8
3
100
AcDbLine
 10
199.596959
 20
84.382397
 30
11.197397
 11
189.596959
 21
84.382397
 31
11.197397
  0
ENDSEC
  0
SECTION
  2
OBJECTS
  0
DICTIONARY
  5
20B
100
AcDbDictionary
  3
ACAD_GROUP
350
20C
  3
ACAD_MLINESTYLE
350
219
  3
ACDBVARIABLEDICTIONARY
350
228
  0
DICTIONARY
  5
2C7
100
AcDbDictionary
280
     1
  3
ACAD_XREC_ROUNDTRIP
360
2C8
  0
DICTIONARY
  5
20C
102
{ACAD_REACTORS
330
20B
102
}
100
AcDbDictionary
  0
DICTIONARY
  5
219
102
{ACAD_REACTORS
330
20B
102
}
100
AcDbDictionary
  3
STANDARD
350
21A
  0
DICTIONARY
  5
228
102
{ACAD_REACTORS
330
20B
102
}
100
AcDbDictionary
  3
DIMADEC
350
229
  0
XRECORD
  5
2C8
102
{ACAD_REACTORS
330
2C7
102
}
100
AcDbXrecord
102
PLOTBIT
280
     0
  0
MLINESTYLE
  5
21A
102
{ACAD_REACTORS
330
219
102
}
100
AcDbMlineStyle
  2
STANDARD
 70
     0
  3

 62
   256
 51
90.0
 52
90.0
 71
     2
 49
0.5
 62
   256
  6
BYLAYER
 49
-0.5
 62
   256
  6
BYLAYER
  0
DICTIONARYVAR
  5
229
102
{ACAD_REACTORS
330
228
102
}
100
DictionaryVariables
280
     0
  1
0
  0
ENDSEC
  0
EOF
