  0
SECTION
  2
HEADER
  9
$ACADVER
  1
AC1014
  9
$ACADMAINTVER
 70
     0
  9
$DWGCODEPAGE
  3
ANSI_932
  9
$INSBASE
 10
0.0
 20
0.0
 30
0.0
  9
$EXTMIN
 10
33.815073
 20
42.085903
 30
0.0
  9
$EXTMAX
 10
295.815073
 20
197.585903
 30
5.786942
  9
$LIMMIN
 10
0.0
 20
0.0
  9
$LIMMAX
 10
420.0
 20
297.0
  9
$ORTHOMODE
 70
     0
  9
$REGENMODE
 70
     1
  9
$FILLMODE
 70
     1
  9
$QTEXTMODE
 70
     0
  9
$MIRRTEXT
 70
     1
  9
$DRAGMODE
 70
     2
  9
$LTSCALE
 40
1.0
  9
$OSMODE
 70
     0
  9
$ATTMODE
 70
     1
  9
$TEXTSIZE
 40
2.5
  9
$TRACEWID
 40
1.0
  9
$TEXTSTYLE
  7
STANDARD
  9
$CLAYER
  8
3
  9
$CELTYPE
  6
BYLAYER
  9
$CECOLOR
 62
   256
  9
$CELTSCALE
 40
1.0
  9
$DELOBJ
 70
     1
  9
$DISPSILH
 70
     0
  9
$DIMSCALE
 40
1.0
  9
$DIMASZ
 40
2.5
  9
$DIMEXO
 40
0.625
  9
$DIMDLI
 40
3.75
  9
$DIMRND
 40
0.0
  9
$DIMDLE
 40
0.0
  9
$DIMEXE
 40
1.25
  9
$DIMTP
 40
0.0
  9
$DIMTM
 40
0.0
  9
$DIMTXT
 40
2.5
  9
$DIMCEN
 40
2.5
  9
$DIMTSZ
 40
0.0
  9
$DIMTOL
 70
     0
  9
$DIMLIM
 70
     0
  9
$DIMTIH
 70
     0
  9
$DIMTOH
 70
     0
  9
$DIMSE1
 70
     0
  9
$DIMSE2
 70
     0
  9
$DIMTAD
 70
     1
  9
$DIMZIN
 70
     8
  9
$DIMBLK
  1

  9
$DIMASO
 70
     1
  9
$DIMSHO
 70
     1
  9
$DIMPOST
  1

  9
$DIMAPOST
  1

  9
$DIMALT
 70
     0
  9
$DIMALTD
 70
     4
  9
$DIMALTF
 40
0.0394
  9
$DIMLFAC
 40
1.0
  9
$DIMTOFL
 70
     1
  9
$DIMTVP
 40
0.0
  9
$DIMTIX
 70
     0
  9
$DIMSOXD
 70
     0
  9
$DIMSAH
 70
     0
  9
$DIMBLK1
  1

  9
$DIMBLK2
  1

  9
$DIMSTYLE
  2
STANDARD
  9
$DIMCLRD
 70
     0
  9
$DIMCLRE
 70
     0
  9
$DIMCLRT
 70
     0
  9
$DIMTFAC
 40
1.0
  9
$DIMGAP
 40
0.625
  9
$DIMJUST
 70
     0
  9
$DIMSD1
 70
     0
  9
$DIMSD2
 70
     0
  9
$DIMTOLJ
 70
     1
  9
$DIMTZIN
 70
     0
  9
$DIMALTZ
 70
     0
  9
$DIMALTTZ
 70
     0
  9
$DIMFIT
 70
     3
  9
$DIMUPT
 70
     0
  9
$DIMUNIT
 70
     8
  9
$DIMDEC
 70
     4
  9
$DIMTDEC
 70
     4
  9
$DIMALTU
 70
     8
  9
$DIMALTTD
 70
     4
  9
$DIMTXSTY
  7
STANDARD
  9
$DIMAUNIT
 70
     0
  9
$LUNITS
 70
     2
  9
$LUPREC
 70
     4
  9
$SKETCHINC
 40
1.0
  9
$FILLETRAD
 40
1.5
  9
$AUNITS
 70
     0
  9
$AUPREC
 70
     0
  9
$MENU
  1
.
  9
$ELEVATION
 40
0.0
  9
$PELEVATION
 40
0.0
  9
$THICKNESS
 40
0.0
  9
$LIMCHECK
 70
     0
  9
$BLIPMODE
 70
     0
  9
$CHAMFERA
 40
10.0
  9
$CHAMFERB
 40
10.0
  9
$CHAMFERC
 40
20.0
  9
$CHAMFERD
 40
0.0
  9
$SKPOLY
 70
     0
  9
$TDCREATE
 40
2452822.416695023
  9
$TDUPDATE
 40
2452822.451383912
  9
$TDINDWG
 40
0.0346888889
  9
$TDUSRTIMER
 40
0.0346888889
  9
$USRTIMER
 70
     1
  9
$ANGBASE
 50
0.0
  9
$ANGDIR
 70
     0
  9
$PDMODE
 70
     0
  9
$PDSIZE
 40
0.0
  9
$PLINEWID
 40
0.0
  9
$COORDS
 70
     2
  9
$SPLFRAME
 70
     0
  9
$SPLINETYPE
 70
     6
  9
$SPLINESEGS
 70
     8
  9
$ATTDIA
 70
     0
  9
$ATTREQ
 70
     1
  9
$HANDLING
 70
     1
  9
$HANDSEED
  5
58F
  9
$SURFTAB1
 70
     6
  9
$SURFTAB2
 70
     6
  9
$SURFTYPE
 70
     6
  9
$SURFU
 70
     6
  9
$SURFV
 70
     6
  9
$UCSNAME
  2

  9
$UCSORG
 10
0.0
 20
0.0
 30
0.0
  9
$UCSXDIR
 10
1.0
 20
0.0
 30
0.0
  9
$UCSYDIR
 10
0.0
 20
1.0
 30
0.0
  9
$PUCSNAME
  2

  9
$PUCSORG
 10
0.0
 20
0.0
 30
0.0
  9
$PUCSXDIR
 10
1.0
 20
0.0
 30
0.0
  9
$PUCSYDIR
 10
0.0
 20
1.0
 30
0.0
  9
$USERI1
 70
     0
  9
$USERI2
 70
     0
  9
$USERI3
 70
     0
  9
$USERI4
 70
     0
  9
$USERI5
 70
     0
  9
$USERR1
 40
0.0
  9
$USERR2
 40
0.0
  9
$USERR3
 40
0.0
  9
$USERR4
 40
0.0
  9
$USERR5
 40
0.0
  9
$WORLDVIEW
 70
     1
  9
$SHADEDGE
 70
     3
  9
$SHADEDIF
 70
    70
  9
$TILEMODE
 70
     1
  9
$MAXACTVP
 70
    48
  9
$PINSBASE
 10
0.0
 20
0.0
 30
0.0
  9
$PLIMCHECK
 70
     0
  9
$PEXTMIN
 10
1.000000E+20
 20
1.000000E+20
 30
1.000000E+20
  9
$PEXTMAX
 10
-1.000000E+20
 20
-1.000000E+20
 30
-1.000000E+20
  9
$PLIMMIN
 10
0.0
 20
0.0
  9
$PLIMMAX
 10
420.0
 20
297.0
  9
$UNITMODE
 70
     0
  9
$VISRETAIN
 70
     1
  9
$PLINEGEN
 70
     0
  9
$PSLTSCALE
 70
     1
  9
$TREEDEPTH
 70
  3020
  9
$PICKSTYLE
 70
     1
  9
$CMLSTYLE
  2
STANDARD
  9
$CMLJUST
 70
     0
  9
$CMLSCALE
 40
20.0
  9
$PROXYGRAPHICS
 70
     1
  9
$MEASUREMENT
 70
     1
  0
ENDSEC
  0
SECTION
  2
CLASSES
  0
CLASS
  1
XRECORD
  2
AcDbXrecord
  3
"<Built In>"
 90
        0
280
     0
281
     0
  0
CLASS
  1
LWPOLYLINE
  2
AcDbPolyline
  3
"AutoCAD"
 90
        0
280
     0
281
     1
  0
ENDSEC
  0
SECTION
  2
TABLES
  0
TABLE
  2
VPORT
  5
8
100
AcDbSymbolTable
 70
     1
  0
VPORT
  5
58A
100
AcDbSymbolTableRecord
100
AcDbViewportTableRecord
  2
*ACTIVE
 70
     0
 10
0.0
 20
0.0
 11
1.0
 21
1.0
 12
215.980147
 22
148.5
 13
0.0
 23
0.0
 14
10.0
 24
10.0
 15
10.0
 25
10.0
 16
0.0
 26
0.0
 36
1.0
 17
0.0
 27
0.0
 37
0.0
 40
297.0
 41
1.454412
 42
50.0
 43
0.0
 44
0.0
 50
0.0
 51
0.0
 71
     0
 72
 20000
 73
     1
 74
     1
 75
     0
 76
     0
 77
     0
 78
     0
  0
ENDTAB
  0
TABLE
  2
LTYPE
  5
5
100
AcDbSymbolTable
 70
     3
  0
LTYPE
  5
12
100
AcDbSymbolTableRecord
100
AcDbLinetypeTableRecord
  2
BYBLOCK
 70
     0
  3

 72
    65
 73
     0
 40
0.0
  0
LTYPE
  5
13
100
AcDbSymbolTableRecord
100
AcDbLinetypeTableRecord
  2
BYLAYER
 70
     0
  3

 72
    65
 73
     0
 40
0.0
  0
LTYPE
  5
14
100
AcDbSymbolTableRecord
100
AcDbLinetypeTableRecord
  2
CONTINUOUS
 70
     0
  3
Solid line
 72
    65
 73
     0
 40
0.0
  0
LTYPE
  5
54
100
AcDbSymbolTableRecord
100
AcDbLinetypeTableRecord
  2
TENSEN
 70
     0
  3

 72
    65
 73
     2
 40
4.0
 49
3.0
 74
     0
 49
-1.0
 74
     0
  0
LTYPE
  5
55
100
AcDbSymbolTableRecord
100
AcDbLinetypeTableRecord
  2
ITTEN1
 70
     0
  3

 72
    65
 73
     4
 40
8.2
 49
5.0
 74
     0
 49
-1.0
 74
     0
 49
1.2
 74
     0
 49
-1.0
 74
     0
  0
ENDTAB
  0
TABLE
  2
LAYER
  5
2
100
AcDbSymbolTable
 70
     5
  0
LAYER
  5
E
100
AcDbSymbolTableRecord
100
AcDbLayerTableRecord
  2
0
 70
     0
 62
     7
  6
CONTINUOUS
  0
LAYER
  5
56
100
AcDbSymbolTableRecord
100
AcDbLayerTableRecord
  2
1
 70
     0
 62
     1
  6
ITTEN1
  0
LAYER
  5
57
100
AcDbSymbolTableRecord
100
AcDbLayerTableRecord
  2
2
 70
     0
 62
     2
  6
TENSEN
  0
LAYER
  5
58
100
AcDbSymbolTableRecord
100
AcDbLayerTableRecord
  2
3
 70
     0
 62
     3
  6
CONTINUOUS
  0
LAYER
  5
59
102
{ACAD_XDICTIONARY
360
5A
102
}
100
AcDbSymbolTableRecord
100
AcDbLayerTableRecord
  2
DEFPOINTS
 70
     0
 62
     7
  6
CONTINUOUS
  0
ENDTAB
  0
TABLE
  2
STYLE
  5
3
100
AcDbSymbolTable
 70
     2
  0
STYLE
  5
F
100
AcDbSymbolTableRecord
100
AcDbTextStyleTableRecord
  2
STANDARD
 70
     0
 40
0.0
 41
1.0
 50
0.0
 71
     0
 42
2.5
  3
txt
  4

  0
STYLE
  5
5C
100
AcDbSymbolTableRecord
100
AcDbTextStyleTableRecord
  2
BIGFONT
 70
     0
 40
7.0
 41
0.7
 50
0.0
 71
     0
 42
7.0
  3
txt.shx
  4
bigfont.shx
  0
ENDTAB
  0
TABLE
  2
VIEW
  5
6
100
AcDbSymbolTable
 70
     0
  0
ENDTAB
  0
TABLE
  2
UCS
  5
7
100
AcDbSymbolTable
 70
     0
  0
ENDTAB
  0
TABLE
  2
APPID
  5
9
100
AcDbSymbolTable
 70
     1
  0
APPID
  5
10
100
AcDbSymbolTableRecord
100
AcDbRegAppTableRecord
  2
ACAD
 70
     0
  0
ENDTAB
  0
TABLE
  2
DIMSTYLE
  5
A
100
AcDbSymbolTable
 70
     1
  0
DIMSTYLE
105
1D
100
AcDbSymbolTableRecord
100
AcDbDimStyleTableRecord
  2
STANDARD
 70
     0
  3

  4

  5

  6

  7

 40
1.0
 41
0.18
 42
0.0625
 43
0.38
 44
0.18
 45
0.0
 46
0.0
 47
0.0
 48
0.0
140
0.18
141
0.09
142
0.0
143
25.4
144
1.0
145
0.0
146
1.0
147
0.09
 71
     0
 72
     0
 73
     1
 74
     1
 75
     0
 76
     0
 77
     0
 78
     0
170
     0
171
     2
172
     0
173
     0
174
     0
175
     0
176
     0
177
     0
178
     0
270
     2
271
     4
272
     4
273
     2
274
     2
340
F
275
     0
280
     0
281
     0
282
     0
283
     1
284
     0
285
     0
286
     0
287
     3
288
     0
  0
ENDTAB
  0
TABLE
  2
BLOCK_RECORD
  5
1
100
AcDbSymbolTable
 70
    26
  0
BLOCK_RECORD
  5
18
100
AcDbSymbolTableRecord
100
AcDbBlockTableRecord
  2
*MODEL_SPACE
  0
BLOCK_RECORD
  5
15
100
AcDbSymbolTableRecord
100
AcDbBlockTableRecord
  2
*PAPER_SPACE
  0
BLOCK_RECORD
  5
20
100
AcDbSymbolTableRecord
100
AcDbBlockTableRecord
  2
*D0
  0
BLOCK_RECORD
  5
2D
100
AcDbSymbolTableRecord
100
AcDbBlockTableRecord
  2
*D1
  0
BLOCK_RECORD
  5
3A
100
AcDbSymbolTableRecord
100
AcDbBlockTableRecord
  2
*D2
  0
BLOCK_RECORD
  5
47
100
AcDbSymbolTableRecord
100
AcDbBlockTableRecord
  2
*D3
  0
BLOCK_RECORD
  5
5D
100
AcDbSymbolTableRecord
100
AcDbBlockTableRecord
  2
A$C4F953287
  0
BLOCK_RECORD
  5
1C5
100
AcDbSymbolTableRecord
100
AcDbBlockTableRecord
  2
*D9
  0
BLOCK_RECORD
  5
1D2
100
AcDbSymbolTableRecord
100
AcDbBlockTableRecord
  2
*D10
  0
BLOCK_RECORD
  5
1DF
100
AcDbSymbolTableRecord
100
AcDbBlockTableRecord
  2
A$C35F207D7
  0
BLOCK_RECORD
  5
2F8
100
AcDbSymbolTableRecord
100
AcDbBlockTableRecord
  2
*D14
  0
BLOCK_RECORD
  5
305
100
AcDbSymbolTableRecord
100
AcDbBlockTableRecord
  2
*D15
  0
BLOCK_RECORD
  5
312
100
AcDbSymbolTableRecord
100
AcDbBlockTableRecord
  2
*D16
  0
BLOCK_RECORD
  5
31F
100
AcDbSymbolTableRecord
100
AcDbBlockTableRecord
  2
A$C1AE72FE9
  0
BLOCK_RECORD
  5
456
100
AcDbSymbolTableRecord
100
AcDbBlockTableRecord
  2
*D21
  0
BLOCK_RECORD
  5
463
100
AcDbSymbolTableRecord
100
AcDbBlockTableRecord
  2
*D22
  0
BLOCK_RECORD
  5
470
100
AcDbSymbolTableRecord
100
AcDbBlockTableRecord
  2
A$C0CFF4D5E
  0
ENDTAB
  0
ENDSEC
  0
SECTION
  2
BLOCKS
  0
BLOCK
  5
19
100
AcDbEntity
  8
0
100
AcDbBlockBegin
  2
*MODEL_SPACE
 70
     0
 10
0.0
 20
0.0
 30
0.0
  3
*MODEL_SPACE
  1

  0
ENDBLK
  5
1A
100
AcDbEntity
  8
0
100
AcDbBlockEnd
  0
BLOCK
  5
16
100
AcDbEntity
 67
     1
  8
0
100
AcDbBlockBegin
  2
*PAPER_SPACE
 70
     0
 10
0.0
 20
0.0
 30
0.0
  3
*PAPER_SPACE
  1

  0
ENDBLK
  5
17
100
AcDbEntity
 67
     1
  8
0
100
AcDbBlockEnd
  0
BLOCK
  5
2B
100
AcDbEntity
  8
0
100
AcDbBlockBegin
  2
*D0
 70
     1
 10
0.0
 20
0.0
 30
0.0
  3
*D0
  1

  0
LINE
  5
21
100
AcDbEntity
  8
0
  6
BYBLOCK
 62
     0
100
AcDbLine
 10
168.0
 20
182.003847
 30
0.0
 11
168.0
 21
193.427611
 31
0.0
  0
LINE
  5
22
100
AcDbEntity
  8
0
  6
BYBLOCK
 62
     0
100
AcDbLine
 10
192.0
 20
180.50132
 30
0.0
 11
192.0
 21
193.427611
 31
0.0
  0
LINE
  5
23
100
AcDbEntity
  8
0
  6
BYBLOCK
 62
     0
100
AcDbLine
 10
170.5
 20
192.427611
 30
0.0
 11
177.727496
 21
192.427611
 31
0.0
  0
LINE
  5
24
100
AcDbEntity
  8
0
  6
BYBLOCK
 62
     0
100
AcDbLine
 10
189.5
 20
192.427611
 30
0.0
 11
185.644163
 21
192.427611
 31
0.0
  0
SOLID
  5
25
100
AcDbEntity
  8
0
  6
BYBLOCK
 62
     0
100
AcDbTrace
 10
170.5
 20
192.844277
 30
0.0
 11
170.5
 21
192.010944
 31
0.0
 12
168.0
 22
192.427611
 32
0.0
 13
168.0
 23
192.427611
 33
0.0
  0
SOLID
  5
26
100
AcDbEntity
  8
0
  6
BYBLOCK
 62
     0
100
AcDbTrace
 10
189.5
 20
192.844277
 30
0.0
 11
189.5
 21
192.010944
 31
0.0
 12
192.0
 22
192.427611
 32
0.0
 13
192.0
 23
192.427611
 33
0.0
  0
MTEXT
  5
27
100
AcDbEntity
  8
0
  6
BYBLOCK
 62
     0
100
AcDbMText
 10
181.685829
 20
192.427611
 30
0.0
 40
4.0
 41
0.0
 71
     5
 72
     1
  1
\A1;24
  0
POINT
  5
28
100
AcDbEntity
  8
DEFPOINTS
  6
BYBLOCK
 62
     0
100
AcDbPoint
 10
168.0
 20
181.003847
 30
0.0
  0
POINT
  5
29
100
AcDbEntity
  8
DEFPOINTS
  6
BYBLOCK
 62
     0
100
AcDbPoint
 10
192.0
 20
179.50132
 30
0.0
  0
POINT
  5
2A
100
AcDbEntity
  8
DEFPOINTS
  6
BYBLOCK
 62
     0
100
AcDbPoint
 10
192.0
 20
192.427611
 30
0.0
  0
ENDBLK
  5
2C
100
AcDbEntity
  8
0
100
AcDbBlockEnd
  0
BLOCK
  5
38
100
AcDbEntity
  8
0
100
AcDbBlockBegin
  2
*D1
 70
     1
 10
0.0
 20
0.0
 30
0.0
  3
*D1
  1

  0
LINE
  5
2E
100
AcDbEntity
  8
0
  6
BYBLOCK
 62
     0
100
AcDbLine
 10
182.0
 20
181.50132
 30
0.0
 11
182.0
 21
187.961446
 31
0.0
  0
LINE
  5
2F
100
AcDbEntity
  8
0
  6
BYBLOCK
 62
     0
100
AcDbLine
 10
192.0
 20
180.50132
 30
0.0
 11
192.0
 21
187.961446
 31
0.0
  0
LINE
  5
30
100
AcDbEntity
  8
0
  6
BYBLOCK
 62
     0
100
AcDbLine
 10
184.5
 20
186.961446
 30
0.0
 11
185.125
 21
186.961446
 31
0.0
  0
LINE
  5
31
100
AcDbEntity
  8
0
  6
BYBLOCK
 62
     0
100
AcDbLine
 10
189.5
 20
186.961446
 30
0.0
 11
188.875
 21
186.961446
 31
0.0
  0
SOLID
  5
32
100
AcDbEntity
  8
0
  6
BYBLOCK
 62
     0
100
AcDbTrace
 10
184.5
 20
187.378113
 30
0.0
 11
184.5
 21
186.544779
 31
0.0
 12
182.0
 22
186.961446
 32
0.0
 13
182.0
 23
186.961446
 33
0.0
  0
SOLID
  5
33
100
AcDbEntity
  8
0
  6
BYBLOCK
 62
     0
100
AcDbTrace
 10
189.5
 20
187.378113
 30
0.0
 11
189.5
 21
186.544779
 31
0.0
 12
192.0
 22
186.961446
 32
0.0
 13
192.0
 23
186.961446
 33
0.0
  0
MTEXT
  5
34
100
AcDbEntity
  8
0
  6
BYBLOCK
 62
     0
100
AcDbMText
 10
187.286965
 20
186.961446
 30
0.0
 40
4.0
 41
0.0
 71
     5
 72
     1
  1
\A1;10
  0
POINT
  5
35
100
AcDbEntity
  8
DEFPOINTS
  6
BYBLOCK
 62
     0
100
AcDbPoint
 10
182.0
 20
180.50132
 30
0.0
  0
POINT
  5
36
100
AcDbEntity
  8
DEFPOINTS
  6
BYBLOCK
 62
     0
100
AcDbPoint
 10
192.0
 20
179.50132
 30
0.0
  0
POINT
  5
37
100
AcDbEntity
  8
DEFPOINTS
  6
BYBLOCK
 62
     0
100
AcDbPoint
 10
192.0
 20
186.961446
 30
0.0
  0
ENDBLK
  5
39
100
AcDbEntity
  8
0
100
AcDbBlockEnd
  0
BLOCK
  5
45
100
AcDbEntity
  8
0
100
AcDbBlockBegin
  2
*D2
 70
     1
 10
0.0
 20
0.0
 30
0.0
  3
*D2
  1

  0
LINE
  5
3B
100
AcDbEntity
  8
0
  6
BYBLOCK
 62
     0
100
AcDbLine
 10
193.0
 20
179.50132
 30
0.0
 11
206.708477
 21
179.50132
 31
0.0
  0
LINE
  5
3C
100
AcDbEntity
  8
0
  6
BYBLOCK
 62
     0
100
AcDbLine
 10
193.0
 20
161.50132
 30
0.0
 11
206.708477
 21
161.50132
 31
0.0
  0
LINE
  5
3D
100
AcDbEntity
  8
0
  6
BYBLOCK
 62
     0
100
AcDbLine
 10
205.708477
 20
177.00132
 30
0.0
 11
205.708477
 21
175.730386
 31
0.0
  0
LINE
  5
3E
100
AcDbEntity
  8
0
  6
BYBLOCK
 62
     0
100
AcDbLine
 10
205.708477
 20
164.00132
 30
0.0
 11
205.708477
 21
165.147053
 31
0.0
  0
SOLID
  5
3F
100
AcDbEntity
  8
0
  6
BYBLOCK
 62
     0
100
AcDbTrace
 10
205.29181
 20
177.00132
 30
0.0
 11
206.125143
 21
177.00132
 31
0.0
 12
205.708477
 22
179.50132
 32
0.0
 13
205.708477
 23
179.50132
 33
0.0
  0
SOLID
  5
40
100
AcDbEntity
  8
0
  6
BYBLOCK
 62
     0
100
AcDbTrace
 10
205.29181
 20
164.00132
 30
0.0
 11
206.125143
 21
164.00132
 31
0.0
 12
205.708477
 22
161.50132
 32
0.0
 13
205.708477
 23
161.50132
 33
0.0
  0
MTEXT
  5
41
100
AcDbEntity
  8
0
  6
BYBLOCK
 62
     0
100
AcDbMText
 10
205.708477
 20
170.43872
 30
0.0
 40
4.0
 41
0.0
 71
     5
 72
     1
  1
\A1;\U+220518
 11
0.0
 21
1.0
 31
0.0
  0
POINT
  5
42
100
AcDbEntity
  8
DEFPOINTS
  6
BYBLOCK
 62
     0
100
AcDbPoint
 10
192.0
 20
179.50132
 30
0.0
  0
POINT
  5
43
100
AcDbEntity
  8
DEFPOINTS
  6
BYBLOCK
 62
     0
100
AcDbPoint
 10
192.0
 20
161.50132
 30
0.0
  0
POINT
  5
44
100
AcDbEntity
  8
DEFPOINTS
  6
BYBLOCK
 62
     0
100
AcDbPoint
 10
205.708477
 20
161.50132
 30
0.0
  0
ENDBLK
  5
46
100
AcDbEntity
  8
0
100
AcDbBlockEnd
  0
BLOCK
  5
52
100
AcDbEntity
  8
0
100
AcDbBlockBegin
  2
*D3
 70
     1
 10
0.0
 20
0.0
 30
0.0
  3
*D3
  1

  0
LINE
  5
48
100
AcDbEntity
  8
0
  6
BYBLOCK
 62
     0
100
AcDbLine
 10
155.440099
 20
204.195789
 30
0.0
 11
155.440099
 21
251.023023
 31
0.0
  0
LINE
  5
49
100
AcDbEntity
  8
0
  6
BYBLOCK
 62
     0
100
AcDbLine
 10
192.0
 20
180.50132
 30
0.0
 11
192.0
 21
251.023023
 31
0.0
  0
LINE
  5
4A
100
AcDbEntity
  8
0
  6
BYBLOCK
 62
     0
100
AcDbLine
 10
157.940099
 20
250.023023
 30
0.0
 11
170.752088
 21
250.023023
 31
0.0
  0
LINE
  5
4B
100
AcDbEntity
  8
0
  6
BYBLOCK
 62
     0
100
AcDbLine
 10
189.5
 20
250.023023
 30
0.0
 11
178.668755
 21
250.023023
 31
0.0
  0
SOLID
  5
4C
100
AcDbEntity
  8
0
  6
BYBLOCK
 62
     0
100
AcDbTrace
 10
157.940099
 20
250.43969
 30
0.0
 11
157.940099
 21
249.606356
 31
0.0
 12
155.440099
 22
250.023023
 32
0.0
 13
155.440099
 23
250.023023
 33
0.0
  0
SOLID
  5
4D
100
AcDbEntity
  8
0
  6
BYBLOCK
 62
     0
100
AcDbTrace
 10
189.5
 20
250.43969
 30
0.0
 11
189.5
 21
249.606356
 31
0.0
 12
192.0
 22
250.023023
 32
0.0
 13
192.0
 23
250.023023
 33
0.0
  0
MTEXT
  5
4E
100
AcDbEntity
  8
0
  6
BYBLOCK
 62
     0
100
AcDbMText
 10
174.710421
 20
250.023023
 30
0.0
 40
4.0
 41
0.0
 71
     5
 72
     1
  1
\A1;36
  0
POINT
  5
4F
100
AcDbEntity
  8
DEFPOINTS
  6
BYBLOCK
 62
     0
100
AcDbPoint
 10
155.440099
 20
203.195789
 30
0.0
  0
POINT
  5
50
100
AcDbEntity
  8
DEFPOINTS
  6
BYBLOCK
 62
     0
100
AcDbPoint
 10
192.0
 20
179.50132
 30
0.0
  0
POINT
  5
51
100
AcDbEntity
  8
DEFPOINTS
  6
BYBLOCK
 62
     0
100
AcDbPoint
 10
192.0
 20
250.023023
 30
0.0
  0
ENDBLK
  5
53
100
AcDbEntity
  8
0
100
AcDbBlockEnd
  0
BLOCK
  5
D8
100
AcDbEntity
  8
0
100
AcDbBlockBegin
  2
A$C4F953287
 70
     0
 10
0.0
 20
0.0
 30
0.0
  3
A$C4F953287
  1

  0
DIMENSION
  5
5E
100
AcDbEntity
  8
0
100
AcDbDimension
  2
*D3
 10
162.987185
 20
123.349936
 30
9.567247
 11
145.697606
 21
123.349936
 31
9.567247
 12
-29.012815
 22
-126.673087
 32
9.567247
 70
   128
  1
36
  3
STANDARD
100
AcDbAlignedDimension
 13
126.427283
 23
76.522702
 33
9.567247
 14
162.987185
 24
52.828234
 34
9.567247
100
AcDbRotatedDimension
1001
ACAD
1000
DSTYLE
1002
{
1070
   140
1040
4.0
1070
   272
1070
     1
1070
    77
1070
     0
1070
    40
1040
1.0
1070
   271
1070
     1
1070
   141
1040
0.0
1002
}
  0
DIMENSION
  5
5F
100
AcDbEntity
  8
0
100
AcDbDimension
  2
*D0
 10
162.987185
 20
65.754524
 30
9.567247
 11
152.673014
 21
65.754524
 31
9.567247
 12
-29.012815
 22
-126.673087
 32
9.567247
 70
   128
  3
STANDARD
100
AcDbAlignedDimension
 13
138.987185
 23
54.330761
 33
9.567247
 14
162.987185
 24
52.828234
 34
9.567247
100
AcDbRotatedDimension
1001
ACAD
1000
DSTYLE
1002
{
1070
   140
1040
4.0
1070
   272
1070
     1
1070
    77
1070
     0
1070
    40
1040
1.0
1070
   271
1070
     1
1070
   141
1040
0.0
1002
}
  0
ARC
  5
60
100
AcDbEntity
  8
3
100
AcDbCircle
 10
143.708676
 20
47.988674
 30
9.567247
 40
7.906614
100
AcDbArc
 50
84.380049
 51
126.666563
  0
ARC
  5
61
100
AcDbEntity
  8
3
100
AcDbCircle
 10
143.708676
 20
39.665153
 30
9.567247
 40
7.906614
100
AcDbArc
 50
233.333437
 51
275.619951
  0
LINE
  5
62
100
AcDbEntity
  8
3
100
AcDbLine
 10
136.776985
 20
27.482958
 30
9.567247
 11
145.967054
 21
31.909765
 31
9.567247
  0
LINE
  5
63
100
AcDbEntity
  8
3
100
AcDbLine
 10
152.392022
 20
53.826913
 30
9.567247
 11
138.987185
 21
68.714493
 31
9.567247
  0
LINE
  5
64
100
AcDbEntity
  8
1
100
AcDbLine
 10
144.482966
 20
54.803088
 30
9.567247
 11
133.487185
 21
67.826913
 31
9.567247
  0
ARC
  5
65
100
AcDbEntity
  8
2
100
AcDbCircle
 10
144.487185
 20
41.306539
 30
9.567247
 40
3.709157
100
AcDbArc
 50
90.065167
 51
118.151547
  0
ARC
  5
66
100
AcDbEntity
  8
2
100
AcDbCircle
 10
144.487185
 20
37.193966
 30
9.567247
 40
4.30263
100
AcDbArc
 50
253.11091
 51
269.943822
  0
LINE
  5
67
100
AcDbEntity
  8
1
100
AcDbLine
 10
122.697986
 20
43.826913
 30
9.567247
 11
169.197986
 21
43.826913
 31
9.567247
  0
LINE
  5
68
100
AcDbEntity
  8
3
100
AcDbLine
 10
138.987185
 20
54.330761
 30
9.567247
 11
138.987185
 21
33.323066
 31
9.567247
  0
LINE
  5
69
100
AcDbEntity
  8
3
100
AcDbLine
 10
126.504416
 20
77.808915
 30
9.567247
 11
126.504416
 21
9.844912
 31
9.567247
  0
LINE
  5
6A
100
AcDbEntity
  8
3
100
AcDbLine
 10
127.491013
 20
64.076913
 30
9.567247
 11
127.491013
 21
10.609192
 31
9.567247
  0
ARC
  5
6B
100
AcDbEntity
  8
3
100
AcDbCircle
 10
144.254628
 20
31.850074
 30
9.567247
 40
14.339743
100
AcDbArc
 50
170.476761
 51
192.170638
  0
ARC
  5
6C
100
AcDbEntity
  8
2
100
AcDbCircle
 10
145.212185
 20
37.785247
 30
9.567247
 40
5.105784
100
AcDbArc
 50
208.782115
 51
247.24346
  0
LINE
  5
6D
100
AcDbEntity
  8
1
100
AcDbLine
 10
44.487185
 20
43.826913
 30
9.567247
 11
81.76287
 21
22.305786
 31
9.567247
  0
LINE
  5
6E
100
AcDbEntity
  8
1
100
AcDbLine
 10
44.487185
 20
43.826913
 30
9.567247
 11
6.677003
 21
21.997194
 31
9.567247
  0
ARC
  5
6F
100
AcDbEntity
  8
3
100
AcDbCircle
 10
58.762055
 20
35.585313
 30
9.567247
 40
10.384921
100
AcDbArc
 50
296.547903
 51
3.452097
  0
ARC
  5
70
100
AcDbEntity
  8
3
100
AcDbCircle
 10
49.911406
 20
33.297795
 30
9.567247
 40
0.631456
100
AcDbArc
 50
163.090958
 51
220.066877
  0
ARC
  5
71
100
AcDbEntity
  8
3
100
AcDbCircle
 10
41.842341
 20
45.353914
 30
9.567247
 40
14.024269
100
AcDbArc
 50
302.159972
 51
357.840028
  0
ARC
  5
72
100
AcDbEntity
  8
3
100
AcDbCircle
 10
30.212315
 20
35.585313
 30
9.567247
 40
10.384921
100
AcDbArc
 50
176.547903
 51
243.452097
  0
ARC
  5
73
100
AcDbEntity
  8
3
100
AcDbCircle
 10
39.062964
 20
33.297795
 30
9.567247
 40
0.631456
100
AcDbArc
 50
319.933123
 51
16.909042
  0
ARC
  5
74
100
AcDbEntity
  8
3
100
AcDbCircle
 10
47.132028
 20
45.353914
 30
9.567247
 40
14.024269
100
AcDbArc
 50
182.159972
 51
237.840028
  0
LINE
  5
75
100
AcDbEntity
  8
1
100
AcDbLine
 10
133.487185
 20
22.623982
 30
9.567247
 11
133.487185
 21
43.826913
 31
9.567247
  0
ARC
  5
76
100
AcDbEntity
  8
3
100
AcDbCircle
 10
44.487185
 20
43.826913
 30
9.567247
 40
33.5
100
AcDbArc
 50
110.990243
 51
69.009757
  0
CIRCLE
  5
77
100
AcDbEntity
  8
3
100
AcDbCircle
 10
44.487185
 20
43.826913
 30
9.567247
 40
40.0
  0
LINE
  5
78
100
AcDbEntity
  8
1
100
AcDbLine
 10
44.487185
 20
1.326913
 30
9.567247
 11
44.487185
 21
85.826913
 31
9.567247
  0
LINE
  5
79
100
AcDbEntity
  8
1
100
AcDbLine
 10
133.487185
 20
16.547572
 30
9.567247
 11
133.487185
 21
22.623982
 31
9.567247
  0
ARC
  5
7A
100
AcDbEntity
  8
3
100
AcDbCircle
 10
44.487185
 20
43.826913
 30
9.567247
 40
24.0
100
AcDbArc
 50
225.713861
 51
314.286139
  0
LINE
  5
7B
100
AcDbEntity
  8
3
100
AcDbLine
 10
39.546213
 20
32.891338
 30
9.567247
 11
27.729374
 21
26.646233
 31
9.567247
  0
ARC
  5
7C
100
AcDbEntity
  8
3
100
AcDbCircle
 10
26.062331
 20
30.086783
 30
9.567247
 40
3.823142
100
AcDbArc
 50
262.61345
 51
295.851488
  0
LINE
  5
7D
100
AcDbEntity
  8
3
100
AcDbLine
 10
139.985256
 20
10.168589
 30
9.567247
 11
139.986337
 21
29.028886
 31
9.567247
  0
ARC
  5
7E
100
AcDbEntity
  8
3
100
AcDbCircle
 10
62.912039
 20
30.086783
 30
9.567247
 40
3.823142
100
AcDbArc
 50
244.148512
 51
277.38655
  0
ARC
  5
7F
100
AcDbEntity
  8
3
100
AcDbCircle
 10
44.487185
 20
43.826913
 30
9.567247
 40
12.0
100
AcDbArc
 50
245.685335
 51
294.314665
  0
LINE
  5
80
100
AcDbEntity
  8
3
100
AcDbLine
 10
49.428156
 20
32.891338
 30
9.567247
 11
61.244996
 21
26.646233
 31
9.567247
  0
ARC
  5
81
100
AcDbEntity
  8
3
100
AcDbCircle
 10
145.104319
 20
16.697645
 30
9.567247
 40
8.17137
100
AcDbArc
 50
174.77187
 51
229.586839
  0
ARC
  5
82
100
AcDbEntity
  8
3
100
AcDbCircle
 10
139.482715
 20
10.095356
 30
9.567247
 40
0.5
100
AcDbArc
 50
357.78824
 51
49.586839
  0
LINE
  5
83
100
AcDbEntity
  8
3
100
AcDbLine
 10
136.987185
 20
17.63755
 30
9.567247
 11
136.987185
 21
27.603516
 31
9.567247
  0
ARC
  5
84
100
AcDbEntity
  8
3
100
AcDbCircle
 10
133.810793
 20
32.259593
 30
9.567247
 40
5.622681
100
AcDbArc
 50
266.700571
 51
301.839426
  0
ARC
  5
85
100
AcDbEntity
  8
3
100
AcDbCircle
 10
133.487185
 20
29.826913
 30
9.567247
 40
3.400368
100
AcDbArc
 50
197.102729
 51
233.972627
  0
ARC
  5
86
100
AcDbEntity
  8
3
100
AcDbCircle
 10
133.088717
 20
29.654977
 30
9.567247
 40
3.035015
100
AcDbArc
 50
238.150829
 51
277.544164
  0
LINE
  5
87
100
AcDbEntity
  8
3
100
AcDbLine
 10
127.342255
 20
10.420902
 30
9.567247
 11
126.948509
 21
10.377622
 31
9.567247
  0
ARC
  5
88
100
AcDbEntity
  8
3
100
AcDbCircle
 10
133.237185
 20
10.326913
 30
9.567247
 40
6.75
100
AcDbArc
 50
184.094842
 51
1.363125
  0
ARC
  5
89
100
AcDbEntity
  8
3
100
AcDbCircle
 10
127.00314
 20
9.880615
 30
9.567247
 40
0.5
100
AcDbArc
 50
96.272761
 51
184.094842
  0
LINE
  5
8A
100
AcDbEntity
  8
1
100
AcDbLine
 10
133.237185
 20
10.326913
 30
9.567247
 11
133.237185
 21
0.0
 31
9.567247
  0
ARC
  5
8B
100
AcDbEntity
  8
3
100
AcDbCircle
 10
139.487185
 20
10.306111
 30
9.567247
 40
12.0
100
AcDbArc
 50
134.872625
 51
178.55274
  0
ARC
  5
8C
100
AcDbEntity
  8
3
100
AcDbCircle
 10
127.291077
 20
10.614243
 30
9.567247
 40
0.2
100
AcDbArc
 50
284.82648
 51
358.55274
  0
ARC
  5
8D
100
AcDbEntity
  8
3
100
AcDbCircle
 10
127.487185
 20
10.306111
 30
9.567247
 40
12.0
100
AcDbArc
 50
38.64507
 51
45.127375
  0
ARC
  5
8E
100
AcDbEntity
  8
3
100
AcDbCircle
 10
133.487185
 20
16.326913
 30
9.567247
 40
3.5
100
AcDbArc
 50
45.002386
 51
90.0
  0
ARC
  5
8F
100
AcDbEntity
  8
3
100
AcDbCircle
 10
133.487185
 20
16.326913
 30
9.567247
 40
3.5
100
AcDbArc
 50
90.0
 51
134.997614
  0
ARC
  5
90
100
AcDbEntity
  8
3
100
AcDbCircle
 10
136.469024
 20
17.487794
 30
9.567247
 40
0.5
100
AcDbArc
 50
354.77187
 51
38.64507
  0
LINE
  5
91
100
AcDbEntity
  8
1
100
AcDbLine
 10
54.146398
 20
72.326913
 30
9.567247
 11
34.737185
 21
72.326913
 31
9.567247
  0
CIRCLE
  5
92
100
AcDbEntity
  8
3
100
AcDbCircle
 10
44.487185
 20
43.826913
 30
9.567247
 40
10.393661
  0
ARC
  5
93
100
AcDbEntity
  8
3
100
AcDbCircle
 10
33.15697
 20
72.087905
 30
9.567247
 40
3.089474
100
AcDbArc
 50
4.436955
 51
102.520913
  0
ARC
  5
94
100
AcDbEntity
  8
3
100
AcDbCircle
 10
44.487185
 20
43.826913
 30
9.567247
 40
12.0
100
AcDbArc
 50
125.685335
 51
174.314665
  0
ARC
  5
95
100
AcDbEntity
  8
3
100
AcDbCircle
 10
44.487185
 20
43.826913
 30
9.567247
 40
24.0
100
AcDbArc
 50
105.713861
 51
194.286139
  0
LINE
  5
96
100
AcDbEntity
  8
1
100
AcDbLine
 10
89.697986
 20
43.826913
 30
9.567247
 11
-0.512815
 21
43.826913
 31
9.567247
  0
ARC
  5
97
100
AcDbEntity
  8
3
100
AcDbCircle
 10
23.375456
 20
34.740587
 30
9.567247
 40
3.823142
100
AcDbArc
 50
124.148512
 51
157.38655
  0
LINE
  5
98
100
AcDbEntity
  8
3
100
AcDbLine
 10
32.546213
 20
45.015694
 30
9.567247
 11
21.229374
 21
37.904563
 31
9.567247
  0
ARC
  5
99
100
AcDbEntity
  8
3
100
AcDbCircle
 10
32.65659
 20
44.393959
 30
9.567247
 40
0.631456
100
AcDbArc
 50
43.090958
 51
100.066877
  0
ARC
  5
9A
100
AcDbEntity
  8
3
100
AcDbCircle
 10
44.487185
 20
72.326913
 30
9.567247
 40
8.25
100
AcDbArc
 50
180.0
 51
0.0
  0
ARC
  5
9B
100
AcDbEntity
  8
3
100
AcDbCircle
 10
44.487185
 20
43.826913
 30
9.567247
 40
24.0
100
AcDbArc
 50
345.713861
 51
74.286139
  0
LINE
  5
9C
100
AcDbEntity
  8
3
100
AcDbLine
 10
56.428156
 20
45.015694
 30
9.567247
 11
67.744996
 21
37.904563
 31
9.567247
  0
ARC
  5
9D
100
AcDbEntity
  8
3
100
AcDbCircle
 10
44.487185
 20
43.826913
 30
9.567247
 40
12.0
100
AcDbArc
 50
5.685335
 51
54.314665
  0
ARC
  5
9E
100
AcDbEntity
  8
3
100
AcDbCircle
 10
56.317779
 20
44.393959
 30
9.567247
 40
0.631456
100
AcDbArc
 50
79.933123
 51
136.909042
  0
ARC
  5
9F
100
AcDbEntity
  8
3
100
AcDbCircle
 10
44.487185
 20
40.772911
 30
9.567247
 40
14.024269
100
AcDbArc
 50
62.159972
 51
117.840028
  0
LINE
  5
A0
100
AcDbEntity
  8
3
100
AcDbLine
 10
37.487185
 20
53.573708
 30
9.567247
 11
37.987185
 21
66.929943
 31
9.567247
  0
ARC
  5
A1
100
AcDbEntity
  8
3
100
AcDbCircle
 10
38.080811
 20
53.788986
 30
9.567247
 40
0.631456
100
AcDbArc
 50
199.933123
 51
256.909042
  0
ARC
  5
A2
100
AcDbEntity
  8
3
100
AcDbCircle
 10
41.80031
 20
66.65337
 30
9.567247
 40
3.823142
100
AcDbArc
 50
171.663378
 51
175.851488
  0
LINE
  5
A3
100
AcDbEntity
  8
3
100
AcDbLine
 10
51.487185
 20
53.573708
 30
9.567247
 11
50.987185
 21
66.929943
 31
9.567247
  0
ARC
  5
A4
100
AcDbEntity
  8
3
100
AcDbCircle
 10
50.893558
 20
53.788986
 30
9.567247
 40
0.631456
100
AcDbArc
 50
283.090958
 51
340.066877
  0
ARC
  5
A5
100
AcDbEntity
  8
3
100
AcDbCircle
 10
47.17406
 20
66.65337
 30
9.567247
 40
3.823142
100
AcDbArc
 50
4.148512
 51
8.336622
  0
ARC
  5
A6
100
AcDbEntity
  8
3
100
AcDbCircle
 10
65.598914
 20
34.740587
 30
9.567247
 40
3.823142
100
AcDbArc
 50
22.61345
 51
55.851488
  0
ARC
  5
A7
100
AcDbEntity
  8
3
100
AcDbCircle
 10
55.817399
 20
72.087905
 30
9.567247
 40
3.089474
100
AcDbArc
 50
77.479087
 51
175.563045
  0
LINE
  5
A8
100
AcDbEntity
  8
3
100
AcDbLine
 10
138.987185
 20
76.373926
 30
9.567247
 11
138.987185
 21
68.714493
 31
9.567247
  0
LWPOLYLINE
  5
A9
100
AcDbEntity
  8
0
100
AcDbPolyline
 90
        3
 70
     1
 43
0.0
 38
9.567247
 10
138.639304
 20
50.950766
 10
136.014304
 20
52.466311
 10
136.014304
 20
49.435222
  0
LINE
  5
AA
100
AcDbEntity
  8
3
100
AcDbLine
 10
136.987185
 20
40.785347
 30
9.567247
 11
136.987185
 21
58.59579
 31
9.567247
  0
LINE
  5
AB
100
AcDbEntity
  8
2
100
AcDbLine
 10
138.987185
 20
42.087844
 30
9.567247
 11
142.737185
 21
44.576913
 31
9.567247
  0
ARC
  5
AC
100
AcDbEntity
  8
2
100
AcDbCircle
 10
146.799685
 20
39.256601
 30
9.567247
 40
6.694
100
AcDbArc
 50
127.364737
 51
168.624497
  0
LINE
  5
AD
100
AcDbEntity
  8
3
100
AcDbLine
 10
131.97285
 20
37.519767
 30
9.567247
 11
138.987185
 21
42.087844
 31
9.567247
  0
ARC
  5
AE
100
AcDbEntity
  8
3
100
AcDbCircle
 10
133.487185
 20
35.076913
 30
9.567247
 40
2.850439
100
AcDbArc
 50
122.749199
 51
142.125016
  0
ARC
  5
AF
100
AcDbEntity
  8
3
100
AcDbCircle
 10
135.996931
 20
33.323664
 30
9.567247
 40
5.952683
100
AcDbArc
 50
157.757554
 51
171.314821
  0
ARC
  5
B0
100
AcDbEntity
  8
3
100
AcDbCircle
 10
135.862185
 20
33.201913
 30
9.567247
 40
5.87633
100
AcDbArc
 50
141.911227
 51
156.16126
  0
ARC
  5
B1
100
AcDbEntity
  8
2
100
AcDbCircle
 10
148.007247
 20
38.66811
 30
9.567247
 40
8.001087
100
AcDbArc
 50
166.19796
 51
204.682704
  0
LWPOLYLINE
  5
B2
100
AcDbEntity
  8
0
100
AcDbPolyline
 90
        3
 70
     1
 43
0.0
 38
9.567247
 10
138.639304
 20
47.919677
 10
136.014304
 20
49.435222
 10
136.014304
 20
46.404133
  0
LINE
  5
B3
100
AcDbEntity
  8
3
100
AcDbLine
 10
126.989113
 20
64.076913
 30
9.567247
 11
132.627303
 21
64.076913
 31
9.567247
  0
LINE
  5
B4
100
AcDbEntity
  8
3
100
AcDbLine
 10
126.989113
 20
64.076913
 30
9.567247
 11
126.504416
 21
64.076913
 31
9.567247
  0
LINE
  5
B5
100
AcDbEntity
  8
3
100
AcDbLine
 10
139.909074
 20
54.922473
 30
9.567247
 11
132.627303
 21
64.076913
 31
9.567247
  0
ARC
  5
B6
100
AcDbEntity
  8
3
100
AcDbCircle
 10
145.104319
 20
70.956181
 30
9.567247
 40
8.17137
100
AcDbArc
 50
128.772319
 51
138.469744
  0
LINE
  5
B7
100
AcDbEntity
  8
3
100
AcDbLine
 10
139.985256
 20
77.485237
 30
9.567247
 11
139.985822
 21
67.605394
 31
9.567247
  0
ARC
  5
B8
100
AcDbEntity
  8
3
100
AcDbCircle
 10
133.237185
 20
77.326913
 30
9.567247
 40
6.75
100
AcDbArc
 50
358.636875
 51
175.905158
  0
LINE
  5
B9
100
AcDbEntity
  8
1
100
AcDbLine
 10
123.487185
 20
72.326913
 30
9.567247
 11
142.987185
 21
72.326913
 31
9.567247
  0
ARC
  5
BA
100
AcDbEntity
  8
3
100
AcDbCircle
 10
143.368642
 20
52.556814
 30
9.567247
 40
20.790156
100
AcDbArc
 50
273.072448
 51
295.723062
  0
ARC
  5
BB
100
AcDbEntity
  8
2
100
AcDbCircle
 10
144.785256
 20
46.459404
 30
9.567247
 40
13.571433
100
AcDbArc
 50
268.723688
 51
299.182099
  0
LINE
  5
BC
100
AcDbEntity
  8
1
100
AcDbLine
 10
144.482966
 20
28.826913
 30
9.567247
 11
144.482966
 21
59.552334
 31
9.567247
  0
TEXT
  5
BD
100
AcDbEntity
  8
0
100
AcDbText
 10
152.865003
 20
69.588905
 30
9.567247
 40
3.43
  1
%%P0.1
 41
0.7
  7
BIGFONT
100
AcDbText
  0
TEXT
  5
BE
100
AcDbEntity
  8
0
100
AcDbText
 10
173.757534
 20
45.81439
 30
9.567247
 40
3.43
  1
-0.1
 50
90.0
 41
0.7
  7
BIGFONT
100
AcDbText
  0
LWPOLYLINE
  5
BF
100
AcDbEntity
  8
0
100
AcDbPolyline
 90
        3
 70
     1
 43
0.0
 38
9.567247
 10
169.941558
 20
52.973151
 10
171.457102
 20
55.598151
 10
168.426013
 20
55.598151
  0
MTEXT
  5
C0
102
{ACAD_REACTORS
330
C1
102
}
100
AcDbEntity
  8
0
100
AcDbMText
 10
177.112185
 20
67.326913
 30
9.567247
 40
4.0
 41
0.0
 71
     4
 72
     1
  1
\A1;R1
  0
LEADER
  5
C1
100
AcDbEntity
  8
0
100
AcDbLeader
  3
STANDARD
 73
     0
 40
4.0
 41
5.333333
 76
     3
 10
162.987185
 20
52.826913
 30
9.567247
 10
175.487185
 20
67.326913
 30
9.567247
 10
177.022185
 20
67.326913
 30
9.567247
 77
   256
340
C0
1001
ACAD
1000
DSTYLE
1002
{
1070
   140
1040
4.0
1070
   272
1070
     1
1070
    77
1070
     0
1070
    40
1040
1.0
1070
   271
1070
     1
1070
   141
1040
0.0
1002
}
  0
DIMENSION
  5
C2
100
AcDbEntity
  8
0
100
AcDbDimension
  2
*D2
 10
176.695661
 20
34.828234
 30
9.567247
 11
176.695661
 21
43.765633
 31
9.567247
 12
-29.012815
 22
-126.673087
 32
9.567247
 70
   128
  1
%%C18
  3
STANDARD
100
AcDbAlignedDimension
 13
162.987185
 23
52.828234
 33
9.567247
 14
162.987185
 24
34.828234
 34
9.567247
 50
90.0
100
AcDbRotatedDimension
1001
ACAD
1000
DSTYLE
1002
{
1070
   140
1040
4.0
1070
   272
1070
     1
1070
    77
1070
     0
1070
    40
1040
1.0
1070
   271
1070
     1
1070
   141
1040
0.0
1002
}
  0
LINE
  5
C3
100
AcDbEntity
  8
3
100
AcDbLine
 10
162.987185
 20
52.828234
 30
9.567247
 11
162.987185
 21
43.828234
 31
9.567247
  0
LINE
  5
C4
100
AcDbEntity
  8
3
100
AcDbLine
 10
162.987185
 20
34.828234
 30
9.567247
 11
152.987185
 21
34.828234
 31
9.567247
  0
ARC
  5
C5
100
AcDbEntity
  8
2
100
AcDbCircle
 10
149.835521
 20
41.519765
 30
9.567247
 40
2.32966
100
AcDbArc
 50
10.343914
 51
51.302641
  0
LINE
  5
C6
100
AcDbEntity
  8
2
100
AcDbLine
 10
152.080557
 20
35.917354
 30
9.567247
 11
152.392022
 21
38.826913
 31
9.567247
  0
LINE
  5
C7
100
AcDbEntity
  8
3
100
AcDbLine
 10
152.987185
 20
34.828234
 30
9.567247
 11
152.987185
 21
33.828234
 31
9.567247
  0
ARC
  5
C8
100
AcDbEntity
  8
2
100
AcDbCircle
 10
150.098326
 20
36.066525
 30
9.567247
 40
1.954689
100
AcDbArc
 50
311.851917
 51
348.01604
  0
LINE
  5
C9
100
AcDbEntity
  8
2
100
AcDbLine
 10
152.080557
 20
35.917354
 30
9.567247
 11
152.010414
 21
35.660658
 31
9.567247
  0
LINE
  5
CA
100
AcDbEntity
  8
3
100
AcDbLine
 10
152.987185
 20
33.826913
 30
9.567247
 11
152.392022
 21
33.826913
 31
9.567247
  0
LINE
  5
CB
100
AcDbEntity
  8
2
100
AcDbLine
 10
152.392022
 20
38.826913
 30
9.567247
 11
152.127318
 21
41.93807
 31
9.567247
  0
ARC
  5
CC
100
AcDbEntity
  8
2
100
AcDbCircle
 10
144.471375
 20
30.312414
 30
9.567247
 40
14.703285
100
AcDbArc
 50
62.361775
 51
89.954831
  0
LINE
  5
CD
100
AcDbEntity
  8
3
100
AcDbLine
 10
162.987185
 20
43.828234
 30
9.567247
 11
162.987185
 21
34.828234
 31
9.567247
  0
TEXT
  5
CE
100
AcDbEntity
  8
0
100
AcDbText
 10
169.641534
 20
45.81439
 30
9.567247
 40
3.43
  1
0
 50
90.0
 41
0.7
  7
BIGFONT
100
AcDbText
  0
DIMENSION
  5
CF
100
AcDbEntity
  8
0
100
AcDbDimension
  2
*D1
 10
162.987185
 20
60.288359
 30
9.567247
 11
158.27415
 21
60.288359
 31
9.567247
 12
-29.012815
 22
-126.673087
 32
9.567247
 70
   128
  3
STANDARD
100
AcDbAlignedDimension
 13
152.987185
 23
53.828234
 33
9.567247
 14
162.987185
 24
52.828234
 34
9.567247
100
AcDbRotatedDimension
1001
ACAD
1000
DSTYLE
1002
{
1070
   140
1040
4.0
1070
   272
1070
     1
1070
    77
1070
     0
1070
    40
1040
1.0
1070
   271
1070
     1
1070
   141
1040
0.0
1002
}
  0
LINE
  5
D0
100
AcDbEntity
  8
3
100
AcDbLine
 10
152.987185
 20
52.828234
 30
9.567247
 11
162.987185
 21
52.828234
 31
9.567247
  0
ARC
  5
D1
100
AcDbEntity
  8
3
100
AcDbCircle
 10
143.368642
 20
35.097012
 30
9.567247
 40
20.790156
100
AcDbArc
 50
64.276938
 51
86.927552
  0
LINE
  5
D2
100
AcDbEntity
  8
3
100
AcDbLine
 10
152.987185
 20
53.828234
 30
9.567247
 11
152.987185
 21
52.828234
 31
9.567247
  0
LINE
  5
D3
100
AcDbEntity
  8
3
100
AcDbLine
 10
152.987185
 20
53.826913
 30
9.567247
 11
152.392022
 21
53.826913
 31
9.567247
  0
LWPOLYLINE
  5
D4
100
AcDbEntity
  8
0
100
AcDbPolyline
 90
        3
 70
     1
 43
0.0
 38
9.567247
 10
172.972647
 20
52.973151
 10
174.488191
 20
55.598151
 10
171.457102
 20
55.598151
  0
LWPOLYLINE
  5
D5
100
AcDbEntity
  8
0
100
AcDbPolyline
 90
        3
 70
     1
 43
0.0
 38
9.567247
 10
163.061701
 20
73.553212
 10
165.686701
 20
72.037668
 10
165.686701
 20
75.068757
  0
LWPOLYLINE
  5
D6
100
AcDbEntity
  8
0
100
AcDbPolyline
 90
        3
 70
     1
 43
0.0
 38
9.567247
 10
163.061701
 20
76.584301
 10
165.686701
 20
75.068757
 10
165.686701
 20
78.099846
  0
TEXT
  5
D7
100
AcDbEntity
  8
0
100
AcDbText
 10
149.884766
 20
125.271376
 30
9.567247
 40
2.8
  1
%%P0.3
 41
0.7
  7
BIGFONT
100
AcDbText
  0
ENDBLK
  5
D9
100
AcDbEntity
  8
0
100
AcDbBlockEnd
  0
BLOCK
  5
1D0
100
AcDbEntity
  8
0
100
AcDbBlockBegin
  2
*D9
 70
     1
 10
0.0
 20
0.0
 30
0.0
  3
*D9
  1

  0
LINE
  5
1C6
100
AcDbEntity
  8
0
  6
BYBLOCK
 62
     0
100
AcDbLine
 10
244.0
 20
225.0
 30
0.0
 11
244.0
 21
232.910558
 31
0.0
  0
LINE
  5
1C7
100
AcDbEntity
  8
0
  6
BYBLOCK
 62
     0
100
AcDbLine
 10
234.0
 20
227.0
 30
0.0
 11
234.0
 21
232.910558
 31
0.0
  0
LINE
  5
1C8
100
AcDbEntity
  8
0
  6
BYBLOCK
 62
     0
100
AcDbLine
 10
242.0
 20
231.910558
 30
0.0
 11
241.375
 21
231.910558
 31
0.0
  0
LINE
  5
1C9
100
AcDbEntity
  8
0
  6
BYBLOCK
 62
     0
100
AcDbLine
 10
236.0
 20
231.910558
 30
0.0
 11
236.625
 21
231.910558
 31
0.0
  0
SOLID
  5
1CA
100
AcDbEntity
  8
0
  6
BYBLOCK
 62
     0
100
AcDbTrace
 10
242.0
 20
232.243892
 30
0.0
 11
242.0
 21
231.577225
 31
0.0
 12
244.0
 22
231.910558
 32
0.0
 13
244.0
 23
231.910558
 33
0.0
  0
SOLID
  5
1CB
100
AcDbEntity
  8
0
  6
BYBLOCK
 62
     0
100
AcDbTrace
 10
236.0
 20
232.243892
 30
0.0
 11
236.0
 21
231.577225
 31
0.0
 12
234.0
 22
231.910558
 32
0.0
 13
234.0
 23
231.910558
 33
0.0
  0
MTEXT
  5
1CC
100
AcDbEntity
  8
0
  6
BYBLOCK
 62
     0
100
AcDbMText
 10
239.216893
 20
231.910558
 30
0.0
 40
4.0
 41
0.0
 71
     5
 72
     1
  1
\A1;10
  0
POINT
  5
1CD
100
AcDbEntity
  8
DEFPOINTS
  6
BYBLOCK
 62
     0
100
AcDbPoint
 10
244.0
 20
224.0
 30
0.0
  0
POINT
  5
1CE
100
AcDbEntity
  8
DEFPOINTS
  6
BYBLOCK
 62
     0
100
AcDbPoint
 10
234.0
 20
226.0
 30
0.0
  0
POINT
  5
1CF
100
AcDbEntity
  8
DEFPOINTS
  6
BYBLOCK
 62
     0
100
AcDbPoint
 10
234.0
 20
231.910558
 30
0.0
  0
ENDBLK
  5
1D1
100
AcDbEntity
  8
0
100
AcDbBlockEnd
  0
BLOCK
  5
1DD
100
AcDbEntity
  8
0
100
AcDbBlockBegin
  2
*D10
 70
     1
 10
0.0
 20
0.0
 30
0.0
  3
*D10
  1

  0
LINE
  5
1D3
100
AcDbEntity
  8
0
  6
BYBLOCK
 62
     0
100
AcDbLine
 10
244.0
 20
225.5
 30
0.0
 11
244.0
 21
241.000094
 31
0.0
  0
LINE
  5
1D4
100
AcDbEntity
  8
0
  6
BYBLOCK
 62
     0
100
AcDbLine
 10
217.0
 20
227.394776
 30
0.0
 11
217.0
 21
241.000094
 31
0.0
  0
LINE
  5
1D5
100
AcDbEntity
  8
0
  6
BYBLOCK
 62
     0
100
AcDbLine
 10
242.0
 20
240.000094
 30
0.0
 11
236.940552
 21
240.000094
 31
0.0
  0
LINE
  5
1D6
100
AcDbEntity
  8
0
  6
BYBLOCK
 62
     0
100
AcDbLine
 10
219.0
 20
240.000094
 30
0.0
 11
229.023885
 21
240.000094
 31
0.0
  0
SOLID
  5
1D7
100
AcDbEntity
  8
0
  6
BYBLOCK
 62
     0
100
AcDbTrace
 10
242.0
 20
240.333428
 30
0.0
 11
242.0
 21
239.666761
 31
0.0
 12
244.0
 22
240.000094
 32
0.0
 13
244.0
 23
240.000094
 33
0.0
  0
SOLID
  5
1D8
100
AcDbEntity
  8
0
  6
BYBLOCK
 62
     0
100
AcDbTrace
 10
219.0
 20
240.333428
 30
0.0
 11
219.0
 21
239.666761
 31
0.0
 12
217.0
 22
240.000094
 32
0.0
 13
217.0
 23
240.000094
 33
0.0
  0
MTEXT
  5
1D9
100
AcDbEntity
  8
0
  6
BYBLOCK
 62
     0
100
AcDbMText
 10
232.982218
 20
240.000094
 30
0.0
 40
4.0
 41
0.0
 71
     5
 72
     1
  1
\A1;27
  0
POINT
  5
1DA
100
AcDbEntity
  8
DEFPOINTS
  6
BYBLOCK
 62
     0
100
AcDbPoint
 10
244.0
 20
224.5
 30
0.0
  0
POINT
  5
1DB
100
AcDbEntity
  8
DEFPOINTS
  6
BYBLOCK
 62
     0
100
AcDbPoint
 10
217.0
 20
226.394776
 30
0.0
  0
POINT
  5
1DC
100
AcDbEntity
  8
DEFPOINTS
  6
BYBLOCK
 62
     0
100
AcDbPoint
 10
217.0
 20
240.000094
 30
0.0
  0
ENDBLK
  5
1DE
100
AcDbEntity
  8
0
100
AcDbBlockEnd
  0
BLOCK
  5
24F
100
AcDbEntity
  8
0
100
AcDbBlockBegin
  2
A$C35F207D7
 70
     0
 10
0.0
 20
0.0
 30
0.0
  3
A$C35F207D7
  1

  0
TEXT
  5
1E0
100
AcDbEntity
  8
0
100
AcDbText
 10
164.368814
 20
88.591307
 30
10.823265
 40
4.9
  1
%%P0.1
 41
0.7
  7
BIGFONT
100
AcDbText
  0
DIMENSION
  5
1E1
100
AcDbEntity
  8
0
100
AcDbDimension
  2
*D10
 10
149.919861
 20
83.000094
 30
10.823265
 11
165.902079
 21
83.000094
 31
10.823265
 12
-67.080139
 22
-157.0
 32
10.823265
 70
   128
  3
STANDARD
100
AcDbAlignedDimension
 13
176.919861
 23
67.5
 33
10.823265
 14
149.919861
 24
69.394776
 34
10.823265
100
AcDbRotatedDimension
1001
ACAD
1000
DSTYLE
1002
{
1070
   140
1040
4.0
1070
    77
1070
     0
1070
    40
1040
1.0
1070
   141
1040
0.0
1070
    41
1040
2.0
1002
}
  0
DIMENSION
  5
1E2
100
AcDbEntity
  8
0
100
AcDbDimension
  2
*D9
 10
166.919861
 20
74.910558
 30
10.823265
 11
172.136754
 21
74.910558
 31
10.823265
 12
-67.080139
 22
-157.0
 32
10.823265
 70
   128
  3
STANDARD
100
AcDbAlignedDimension
 13
176.919861
 23
67.0
 33
10.823265
 14
166.919861
 24
69.0
 34
10.823265
100
AcDbRotatedDimension
1001
ACAD
1000
DSTYLE
1002
{
1070
   140
1040
4.0
1070
    77
1070
     0
1070
    40
1040
1.0
1070
   141
1040
0.0
1070
    41
1040
2.0
1002
}
  0
LINE
  5
1E3
100
AcDbEntity
  8
3
100
AcDbLine
 10
176.919861
 20
42.5
 30
10.823265
 11
166.919861
 21
42.5
 31
10.823265
  0
LINE
  5
1E4
100
AcDbEntity
  8
3
100
AcDbLine
 10
176.919861
 20
67.5
 30
10.823265
 11
166.919861
 21
67.5
 31
10.823265
  0
ARC
  5
1E5
100
AcDbEntity
  8
3
100
AcDbCircle
 10
156.756068
 20
49.612069
 30
10.823265
 40
21.890513
100
AcDbArc
 50
62.334989
 51
90.880016
  0
ARC
  5
1E6
100
AcDbEntity
  8
3
100
AcDbCircle
 10
156.756068
 20
60.387931
 30
10.823265
 40
21.890513
100
AcDbArc
 50
269.119984
 51
297.665011
  0
LINE
  5
1E7
100
AcDbEntity
  8
1
100
AcDbLine
 10
132.669861
 20
55.0
 30
10.823265
 11
180.608007
 21
55.0
 31
10.823265
  0
LINE
  5
1E8
100
AcDbEntity
  8
3
100
AcDbLine
 10
149.919861
 20
40.605224
 30
10.823265
 11
149.919861
 21
69.394776
 31
10.823265
  0
ARC
  5
1E9
100
AcDbEntity
  8
2
100
AcDbCircle
 10
152.501576
 20
47.75
 30
10.823265
 40
12.018309
100
AcDbArc
 50
341.818755
 51
18.181245
  0
LINE
  5
1EA
100
AcDbEntity
  8
3
100
AcDbLine
 10
135.419861
 20
12.5
 30
10.823265
 11
135.419861
 21
97.5
 31
10.823265
  0
LINE
  5
1EB
100
AcDbEntity
  8
3
100
AcDbLine
 10
136.420488
 20
12.811689
 30
10.823265
 11
136.420488
 21
84.25
 31
10.823265
  0
LINE
  5
1EC
100
AcDbEntity
  8
3
100
AcDbLine
 10
140.950276
 20
45.26859
 30
10.823265
 11
149.919861
 21
51.1613
 31
10.823265
  0
ARC
  5
1ED
100
AcDbEntity
  8
2
100
AcDbCircle
 10
167.621543
 20
47.099942
 30
10.823265
 40
16.202215
100
AcDbArc
 50
167.384245
 51
195.144226
  0
LINE
  5
1EE
100
AcDbEntity
  8
1
100
AcDbLine
 10
52.419861
 20
55.0
 30
10.823265
 11
2.959823
 21
26.444234
 31
10.823265
  0
LINE
  5
1EF
100
AcDbEntity
  8
1
100
AcDbLine
 10
52.419861
 20
55.0
 30
10.823265
 11
101.172766
 21
26.852497
 31
10.823265
  0
ARC
  5
1F0
100
AcDbEntity
  8
3
100
AcDbCircle
 10
52.419861
 20
55.0
 30
10.823265
 40
31.0
100
AcDbArc
 50
343.050305
 51
76.949695
  0
ARC
  5
1F1
100
AcDbEntity
  8
3
100
AcDbCircle
 10
43.383372
 20
60.21722
 30
10.823265
 40
25.712172
100
AcDbArc
 50
313.740589
 51
346.259411
  0
LINE
  5
1F2
100
AcDbEntity
  8
3
100
AcDbLine
 10
69.066975
 20
54.626388
 30
10.823265
 11
82.073255
 21
45.962509
 31
10.823265
  0
ARC
  5
1F3
100
AcDbEntity
  8
3
100
AcDbCircle
 10
61.456351
 20
60.21722
 30
10.823265
 40
25.712172
100
AcDbArc
 50
193.740589
 51
226.259411
  0
LINE
  5
1F4
100
AcDbEntity
  8
3
100
AcDbLine
 10
35.772747
 20
54.626388
 30
10.823265
 11
22.766467
 21
45.962509
 31
10.823265
  0
LINE
  5
1F5
100
AcDbEntity
  8
3
100
AcDbLine
 10
147.422118
 20
49.520369
 30
10.823265
 11
147.45898
 21
75.502189
 31
10.823265
  0
ARC
  5
1F6
100
AcDbEntity
  8
3
100
AcDbCircle
 10
52.419861
 20
55.0
 30
10.823265
 40
42.5
100
AcDbArc
 50
106.400686
 51
73.599314
  0
ARC
  5
1F7
100
AcDbEntity
  8
3
100
AcDbCircle
 10
52.419861
 20
55.0
 30
10.823265
 40
31.0
100
AcDbArc
 50
103.050305
 51
196.949695
  0
CIRCLE
  5
1F8
100
AcDbEntity
  8
3
100
AcDbCircle
 10
52.419861
 20
55.0
 30
10.823265
 40
14.277582
  0
CIRCLE
  5
1F9
100
AcDbEntity
  8
3
100
AcDbCircle
 10
52.419861
 20
55.0
 30
10.823265
 40
50.0
  0
LINE
  5
1FA
100
AcDbEntity
  8
1
100
AcDbLine
 10
52.419861
 20
0.0
 30
10.823265
 11
52.419861
 21
109.5
 31
10.823265
  0
LINE
  5
1FB
100
AcDbEntity
  8
1
100
AcDbLine
 10
143.419861
 20
26.222418
 30
10.823265
 11
143.419861
 21
55.0
 31
10.823265
  0
LINE
  5
1FC
100
AcDbEntity
  8
1
100
AcDbLine
 10
156.419861
 20
55.0
 30
10.823265
 11
156.419861
 21
35.426039
 31
10.823265
  0
ARC
  5
1FD
100
AcDbEntity
  8
3
100
AcDbCircle
 10
52.419861
 20
55.0
 30
10.823265
 40
16.651306
100
AcDbArc
 50
238.714325
 51
301.285675
  0
ARC
  5
1FE
100
AcDbEntity
  8
3
100
AcDbCircle
 10
52.419861
 20
55.0
 30
10.823265
 40
31.0
100
AcDbArc
 50
223.050305
 51
316.949695
  0
LINE
  5
1FF
100
AcDbEntity
  8
3
100
AcDbLine
 10
43.772747
 20
40.769982
 30
10.823265
 11
29.766467
 21
33.838153
 31
10.823265
  0
ARC
  5
200
100
AcDbEntity
  8
3
100
AcDbCircle
 10
39.47498
 20
47.526269
 30
10.823265
 40
18.004196
100
AcDbArc
 50
190.679081
 51
229.320919
  0
ARC
  5
201
100
AcDbEntity
  8
3
100
AcDbCircle
 10
28.787999
 20
35.92999
 30
10.823265
 40
2.309368
100
AcDbArc
 50
242.996909
 51
295.068098
  0
ARC
  5
202
100
AcDbEntity
  8
3
100
AcDbCircle
 10
24.088817
 20
44.069212
 30
10.823265
 40
2.309368
100
AcDbArc
 50
124.931902
 51
177.003091
  0
ARC
  5
203
100
AcDbEntity
  8
3
100
AcDbCircle
 10
42.981134
 20
41.125268
 30
10.823265
 40
0.867686
100
AcDbArc
 50
335.828833
 51
36.447878
  0
LINE
  5
204
100
AcDbEntity
  8
3
100
AcDbLine
 10
61.066975
 20
40.769982
 30
10.823265
 11
75.073255
 21
33.838153
 31
10.823265
  0
ARC
  5
205
100
AcDbEntity
  8
3
100
AcDbCircle
 10
61.858588
 20
41.125268
 30
10.823265
 40
0.867686
100
AcDbArc
 50
143.552122
 51
204.171167
  0
ARC
  5
206
100
AcDbEntity
  8
3
100
AcDbCircle
 10
65.364742
 20
47.526269
 30
10.823265
 40
18.004196
100
AcDbArc
 50
310.679081
 51
349.320919
  0
ARC
  5
207
100
AcDbEntity
  8
3
100
AcDbCircle
 10
76.051723
 20
35.92999
 30
10.823265
 40
2.309368
100
AcDbArc
 50
244.931902
 51
297.003091
  0
ARC
  5
208
100
AcDbEntity
  8
3
100
AcDbCircle
 10
80.750905
 20
44.069212
 30
10.823265
 40
2.309368
100
AcDbArc
 50
2.996909
 51
55.068098
  0
LINE
  5
209
100
AcDbEntity
  8
1
100
AcDbLine
 10
143.169861
 20
12.5
 30
10.823265
 11
143.169861
 21
0.057323
 31
10.823265
  0
ARC
  5
20A
100
AcDbEntity
  8
3
100
AcDbCircle
 10
143.169861
 20
12.5
 30
10.823265
 40
7.75
100
AcDbArc
 50
180.0
 51
0.0
  0
ARC
  5
20B
100
AcDbEntity
  8
3
100
AcDbCircle
 10
156.218016
 20
19.774658
 30
10.823265
 40
9.0
100
AcDbArc
 50
166.226174
 51
233.92971
  0
ARC
  5
20C
100
AcDbEntity
  8
3
100
AcDbCircle
 10
154.112601
 20
39.381507
 30
10.823265
 40
14.704411
100
AcDbArc
 50
169.087755
 51
193.303793
  0
ARC
  5
20D
100
AcDbEntity
  8
3
100
AcDbCircle
 10
146.397993
 20
41.140643
 30
10.823265
 40
6.801522
100
AcDbArc
 50
143.518838
 51
171.336782
  0
ARC
  5
20E
100
AcDbEntity
  8
3
100
AcDbCircle
 10
142.876023
 20
37.13385
 30
10.823265
 40
3.276471
100
AcDbArc
 50
200.287161
 51
253.032642
  0
ARC
  5
20F
100
AcDbEntity
  8
3
100
AcDbCircle
 10
143.419861
 20
19.0
 30
10.823265
 40
5.0
100
AcDbArc
 50
90.0
 51
142.434455
  0
ARC
  5
210
100
AcDbEntity
  8
3
100
AcDbCircle
 10
152.419861
 20
12.67
 30
10.823265
 40
16.0
100
AcDbArc
 50
144.115978
 51
179.492608
  0
LINE
  5
211
100
AcDbEntity
  8
3
100
AcDbLine
 10
136.284877
 20
12.624105
 30
10.823265
 11
135.419861
 21
12.5
 31
10.823265
  0
ARC
  5
212
100
AcDbEntity
  8
3
100
AcDbCircle
 10
136.220496
 20
12.81346
 30
10.823265
 40
0.2
100
AcDbArc
 50
288.778033
 51
359.492608
  0
LINE
  5
213
100
AcDbEntity
  8
3
100
AcDbLine
 10
147.476828
 20
21.917466
 30
10.823265
 11
147.476828
 21
35.152598
 31
10.823265
  0
LINE
  5
214
100
AcDbEntity
  8
3
100
AcDbLine
 10
150.919861
 20
36.760554
 30
10.823265
 11
150.919861
 21
27.321123
 31
10.823265
  0
LINE
  5
215
100
AcDbEntity
  8
3
100
AcDbLine
 10
150.919861
 20
12.5
 30
10.823265
 11
150.919861
 21
27.321123
 31
10.823265
  0
LINE
  5
216
100
AcDbEntity
  8
1
100
AcDbLine
 10
143.419861
 20
26.222418
 30
10.823265
 11
143.419861
 21
19.808505
 31
10.823265
  0
ARC
  5
217
100
AcDbEntity
  8
3
100
AcDbCircle
 10
134.419861
 20
12.67
 30
10.823265
 40
16.0
100
AcDbArc
 50
0.507392
 51
0.796963
  0
ARC
  5
218
100
AcDbEntity
  8
3
100
AcDbCircle
 10
143.419861
 20
19.0
 30
10.823265
 40
5.0
100
AcDbArc
 50
37.565545
 51
90.0
  0
ARC
  5
219
100
AcDbEntity
  8
3
100
AcDbCircle
 10
134.419861
 20
12.67
 30
10.823265
 40
16.0
100
AcDbArc
 50
35.307652
 51
35.884022
  0
LINE
  5
21A
100
AcDbEntity
  8
3
100
AcDbLine
 10
146.189169
 20
34.55124
 30
10.823265
 11
154.800887
 21
38.573061
 31
10.823265
  0
ARC
  5
21B
100
AcDbEntity
  8
3
100
AcDbCircle
 10
156.05875
 20
48.472222
 30
10.823265
 40
9.978758
100
AcDbArc
 50
232.033861
 51
272.073871
  0
ARC
  5
21C
100
AcDbEntity
  8
2
100
AcDbCircle
 10
155.96416
 20
45.549794
 30
10.823265
 40
4.801486
100
AcDbArc
 50
213.967165
 51
275.446044
  0
ARC
  5
21D
100
AcDbEntity
  8
3
100
AcDbCircle
 10
143.419861
 20
40.870099
 30
10.823265
 40
7.031946
100
AcDbArc
 50
257.683472
 51
270.0
  0
ARC
  5
21E
100
AcDbEntity
  8
3
100
AcDbCircle
 10
143.963699
 20
37.13385
 30
10.823265
 40
3.276471
100
AcDbArc
 50
286.967358
 51
304.091379
  0
ARC
  5
21F
100
AcDbEntity
  8
3
100
AcDbCircle
 10
143.419861
 20
40.870099
 30
10.823265
 40
7.031946
100
AcDbArc
 50
270.0
 51
282.316528
  0
LINE
  5
220
100
AcDbEntity
  8
2
100
AcDbLine
 10
154.800887
 20
38.573061
 30
10.823265
 11
160.6063
 21
41.243787
 31
10.823265
  0
ARC
  5
221
100
AcDbEntity
  8
2
100
AcDbCircle
 10
157.624408
 20
48.295453
 30
10.823265
 40
7.621263
100
AcDbArc
 50
260.906224
 51
325.693875
  0
LINE
  5
222
100
AcDbEntity
  8
3
100
AcDbLine
 10
166.919861
 20
42.5
 30
10.823265
 11
166.919861
 21
41.0
 31
10.823265
  0
LINE
  5
223
100
AcDbEntity
  8
1
100
AcDbLine
 10
143.419861
 20
86.0
 30
10.823265
 11
156.919861
 21
70.157709
 31
5.340899
  0
ARC
  5
224
100
AcDbEntity
  8
3
100
AcDbCircle
 10
52.419861
 20
92.5
 30
10.823265
 40
8.25
100
AcDbArc
 50
180.0
 51
0.0
  0
ARC
  5
225
100
AcDbEntity
  8
3
100
AcDbCircle
 10
52.419861
 20
44.56556
 30
10.823265
 40
25.712172
100
AcDbArc
 50
73.740589
 51
106.259411
  0
LINE
  5
226
100
AcDbEntity
  8
1
100
AcDbLine
 10
69.000518
 20
92.5
 30
10.823265
 11
36.141191
 21
92.5
 31
10.823265
  0
LINE
  5
227
100
AcDbEntity
  8
1
100
AcDbLine
 10
107.419861
 20
55.0
 30
10.823265
 11
-0.580139
 21
55.0
 31
10.823265
  0
ARC
  5
228
100
AcDbEntity
  8
3
100
AcDbCircle
 10
52.419861
 20
55.0
 30
10.823265
 40
16.651306
100
AcDbArc
 50
118.714325
 51
181.285675
  0
LINE
  5
229
100
AcDbEntity
  8
3
100
AcDbLine
 10
44.419861
 20
69.603629
 30
10.823265
 11
45.419861
 21
85.199338
 31
10.823265
  0
ARC
  5
22A
100
AcDbEntity
  8
3
100
AcDbCircle
 10
35.684627
 20
53.763188
 30
10.823265
 40
0.867686
100
AcDbArc
 50
23.552122
 51
84.171167
  0
ARC
  5
22B
100
AcDbEntity
  8
3
100
AcDbCircle
 10
45.123354
 20
70.111543
 30
10.823265
 40
0.867686
100
AcDbArc
 50
215.828833
 51
276.447878
  0
ARC
  5
22C
100
AcDbEntity
  8
3
100
AcDbCircle
 10
47.720679
 20
85.000797
 30
10.823265
 40
2.309368
100
AcDbArc
 50
125.505483
 51
175.068098
  0
ARC
  5
22D
100
AcDbEntity
  8
3
100
AcDbCircle
 10
40.732166
 20
92.343652
 30
10.823265
 40
3.441248
100
AcDbArc
 50
2.604035
 51
95.206954
  0
ARC
  5
22E
100
AcDbEntity
  8
3
100
AcDbCircle
 10
52.419861
 20
55.0
 30
10.823265
 40
16.651306
100
AcDbArc
 50
358.714325
 51
61.285675
  0
LINE
  5
22F
100
AcDbEntity
  8
3
100
AcDbLine
 10
60.419861
 20
69.603629
 30
10.823265
 11
59.419861
 21
85.199338
 31
10.823265
  0
ARC
  5
230
100
AcDbEntity
  8
3
100
AcDbCircle
 10
69.155095
 20
53.763188
 30
10.823265
 40
0.867686
100
AcDbArc
 50
95.828833
 51
156.447878
  0
ARC
  5
231
100
AcDbEntity
  8
3
100
AcDbCircle
 10
59.716368
 20
70.111543
 30
10.823265
 40
0.867686
100
AcDbArc
 50
263.552122
 51
324.171167
  0
ARC
  5
232
100
AcDbEntity
  8
3
100
AcDbCircle
 10
57.119043
 20
85.000797
 30
10.823265
 40
2.309368
100
AcDbArc
 50
4.931902
 51
54.494517
  0
ARC
  5
233
100
AcDbEntity
  8
3
100
AcDbCircle
 10
64.107556
 20
92.343652
 30
10.823265
 40
3.441248
100
AcDbArc
 50
84.793046
 51
177.395965
  0
LINE
  5
234
100
AcDbEntity
  8
3
100
AcDbLine
 10
149.919861
 20
96.654436
 30
10.823265
 11
149.919861
 21
86.44542
 31
10.823265
  0
LINE
  5
235
100
AcDbEntity
  8
3
100
AcDbLine
 10
150.91902
 20
97.5
 30
10.823265
 11
150.91902
 21
85.349666
 31
10.823265
  0
LINE
  5
236
100
AcDbEntity
  8
3
100
AcDbLine
 10
135.921296
 20
84.25
 30
10.823265
 11
140.839592
 21
84.25
 31
10.823265
  0
LINE
  5
237
100
AcDbEntity
  8
3
100
AcDbLine
 10
135.921296
 20
84.25
 30
10.823265
 11
135.419861
 21
84.25
 31
10.823265
  0
ARC
  5
238
100
AcDbEntity
  8
3
100
AcDbCircle
 10
156.05875
 20
61.527778
 30
10.823265
 40
9.978758
100
AcDbArc
 50
87.926129
 51
127.966139
  0
LINE
  5
239
100
AcDbEntity
  8
1
100
AcDbLine
 10
156.419861
 20
55.0
 30
10.823265
 11
156.419861
 21
83.372651
 31
10.823265
  0
LINE
  5
23A
100
AcDbEntity
  8
2
100
AcDbLine
 10
149.919861
 20
51.1613
 30
10.823265
 11
153.732594
 21
53.666135
 31
10.823265
  0
ARC
  5
23B
100
AcDbEntity
  8
2
100
AcDbCircle
 10
156.893141
 20
49.538318
 30
10.823265
 40
5.20039
100
AcDbArc
 50
109.765508
 51
167.784167
  0
ARC
  5
23C
100
AcDbEntity
  8
2
100
AcDbCircle
 10
157.444076
 20
46.524214
 30
10.823265
 40
8.166654
100
AcDbArc
 50
37.537518
 51
97.204677
  0
ARC
  5
23D
100
AcDbEntity
  8
2
100
AcDbCircle
 10
156.424425
 20
50.242527
 30
10.823265
 40
4.383864
100
AcDbArc
 50
90.059646
 51
107.111956
  0
LINE
  5
23E
100
AcDbEntity
  8
3
100
AcDbLine
 10
166.919861
 20
67.5
 30
10.823265
 11
166.919861
 21
69.0
 31
10.823265
  0
LINE
  5
23F
100
AcDbEntity
  8
3
100
AcDbLine
 10
165.023874
 20
69.881206
 30
10.823265
 11
149.919861
 21
86.44542
 31
10.823265
  0
LWPOLYLINE
  5
240
100
AcDbEntity
  8
0
100
AcDbPolyline
 90
        3
 70
     1
 43
0.0
 38
10.823265
 10
149.79168
 20
78.90256
 10
145.639387
 20
81.299888
 10
145.639387
 20
76.505233
  0
LINE
  5
241
100
AcDbEntity
  8
3
100
AcDbLine
 10
151.419861
 20
70.277733
 30
10.823265
 11
141.143191
 21
83.832801
 31
10.823265
  0
LINE
  5
242
100
AcDbEntity
  8
3
100
AcDbLine
 10
150.919861
 20
69.983151
 30
10.823265
 11
150.919861
 21
70.93724
 31
10.823265
  0
LWPOLYLINE
  5
243
100
AcDbEntity
  8
0
100
AcDbPolyline
 90
        3
 70
     1
 43
0.0
 38
10.823265
 10
149.79168
 20
83.697216
 10
145.639387
 20
86.094544
 10
145.639387
 20
81.299888
  0
ARC
  5
244
100
AcDbEntity
  8
3
100
AcDbCircle
 10
147.456579
 20
88.746163
 30
10.823265
 40
8.0
100
AcDbArc
 50
214.195635
 51
217.891655
  0
ARC
  5
245
100
AcDbEntity
  8
3
100
AcDbCircle
 10
143.169861
 20
97.5
 30
10.823265
 40
7.75
100
AcDbArc
 50
0.0
 51
180.0
  0
LINE
  5
246
100
AcDbEntity
  8
1
100
AcDbLine
 10
132.669861
 20
90.0
 30
10.823265
 11
154.576207
 21
90.0
 31
10.823265
  0
LINE
  5
247
100
AcDbEntity
  8
1
100
AcDbLine
 10
143.419861
 20
97.5
 30
10.823265
 11
143.419861
 21
109.0
 31
10.823265
  0
ARC
  5
248
100
AcDbEntity
  8
3
100
AcDbCircle
 10
156.218016
 20
90.225342
 30
10.823265
 40
9.0
100
AcDbArc
 50
126.07029
 51
134.410558
  0
LINE
  5
249
100
AcDbEntity
  8
3
100
AcDbLine
 10
176.919861
 20
42.5
 30
10.823265
 11
176.919861
 21
55.0
 31
10.823265
  0
LINE
  5
24A
100
AcDbEntity
  8
3
100
AcDbLine
 10
176.919861
 20
55.0
 30
10.823265
 11
176.919861
 21
67.0
 31
10.823265
  0
LINE
  5
24B
100
AcDbEntity
  8
3
100
AcDbLine
 10
176.919861
 20
67.0
 30
10.823265
 11
176.919861
 21
67.5
 31
10.823265
  0
TEXT
  5
24C
100
AcDbEntity
  8
0
100
AcDbText
 10
189.189506
 20
56.610541
 30
10.823265
 40
4.9
  1
0
 50
90.0
 41
0.7
  7
BIGFONT
100
AcDbText
  0
LWPOLYLINE
  5
24D
100
AcDbEntity
  8
0
100
AcDbPolyline
 90
        3
 70
     1
 43
0.0
 38
10.823265
 10
177.024738
 20
105.541948
 10
181.177031
 20
103.144621
 10
181.177031
 20
107.939276
  0
LWPOLYLINE
  5
24E
100
AcDbEntity
  8
0
100
AcDbPolyline
 90
        3
 70
     1
 43
0.0
 38
10.823265
 10
177.024738
 20
100.747293
 10
181.177031
 20
98.349965
 10
181.177031
 20
103.144621
  0
ENDBLK
  5
250
100
AcDbEntity
  8
0
100
AcDbBlockEnd
  0
BLOCK
  5
303
100
AcDbEntity
  8
0
100
AcDbBlockBegin
  2
*D14
 70
     1
 10
0.0
 20
0.0
 30
0.0
  3
*D14
  1

  0
LINE
  5
2F9
100
AcDbEntity
  8
0
  6
BYBLOCK
 62
     0
100
AcDbLine
 10
275.0
 20
247.529123
 30
0.0
 11
275.0
 21
266.5
 31
0.0
  0
LINE
  5
2FA
100
AcDbEntity
  8
0
  6
BYBLOCK
 62
     0
100
AcDbLine
 10
305.0
 20
245.5
 30
0.0
 11
305.0
 21
266.5
 31
0.0
  0
LINE
  5
2FB
100
AcDbEntity
  8
0
  6
BYBLOCK
 62
     0
100
AcDbLine
 10
277.0
 20
265.5
 30
0.0
 11
288.16
 21
265.5
 31
0.0
  0
LINE
  5
2FC
100
AcDbEntity
  8
0
  6
BYBLOCK
 62
     0
100
AcDbLine
 10
303.0
 20
265.5
 30
0.0
 11
295.84
 21
265.5
 31
0.0
  0
SOLID
  5
2FD
100
AcDbEntity
  8
0
  6
BYBLOCK
 62
     0
100
AcDbTrace
 10
277.0
 20
265.833333
 30
0.0
 11
277.0
 21
265.166667
 31
0.0
 12
275.0
 22
265.5
 32
0.0
 13
275.0
 23
265.5
 33
0.0
  0
SOLID
  5
2FE
100
AcDbEntity
  8
0
  6
BYBLOCK
 62
     0
100
AcDbTrace
 10
303.0
 20
265.833333
 30
0.0
 11
303.0
 21
265.166667
 31
0.0
 12
305.0
 22
265.5
 32
0.0
 13
305.0
 23
265.5
 33
0.0
  0
MTEXT
  5
2FF
100
AcDbEntity
  8
0
  6
BYBLOCK
 62
     0
100
AcDbMText
 10
292.0
 20
265.5
 30
0.0
 40
5.0
 41
0.0
 71
     5
 72
     1
  1
\A1;30
  0
POINT
  5
300
100
AcDbEntity
  8
DEFPOINTS
  6
BYBLOCK
 62
     0
100
AcDbPoint
 10
275.0
 20
246.529123
 30
0.0
  0
POINT
  5
301
100
AcDbEntity
  8
DEFPOINTS
  6
BYBLOCK
 62
     0
100
AcDbPoint
 10
305.0
 20
244.5
 30
0.0
  0
POINT
  5
302
100
AcDbEntity
  8
DEFPOINTS
  6
BYBLOCK
 62
     0
100
AcDbPoint
 10
305.0
 20
265.5
 30
0.0
  0
ENDBLK
  5
304
100
AcDbEntity
  8
0
100
AcDbBlockEnd
  0
BLOCK
  5
310
100
AcDbEntity
  8
0
100
AcDbBlockBegin
  2
*D15
 70
     1
 10
0.0
 20
0.0
 30
0.0
  3
*D15
  1

  0
LINE
  5
306
100
AcDbEntity
  8
0
  6
BYBLOCK
 62
     0
100
AcDbLine
 10
293.0
 20
247.0
 30
0.0
 11
293.0
 21
257.0
 31
0.0
  0
LINE
  5
307
100
AcDbEntity
  8
0
  6
BYBLOCK
 62
     0
100
AcDbLine
 10
305.0
 20
245.5
 30
0.0
 11
305.0
 21
257.0
 31
0.0
  0
LINE
  5
308
100
AcDbEntity
  8
0
  6
BYBLOCK
 62
     0
100
AcDbLine
 10
295.0
 20
256.0
 30
0.0
 11
295.576667
 21
256.0
 31
0.0
  0
LINE
  5
309
100
AcDbEntity
  8
0
  6
BYBLOCK
 62
     0
100
AcDbLine
 10
303.0
 20
256.0
 30
0.0
 11
302.423333
 21
256.0
 31
0.0
  0
SOLID
  5
30A
100
AcDbEntity
  8
0
  6
BYBLOCK
 62
     0
100
AcDbTrace
 10
295.0
 20
256.333333
 30
0.0
 11
295.0
 21
255.666667
 31
0.0
 12
293.0
 22
256.0
 32
0.0
 13
293.0
 23
256.0
 33
0.0
  0
SOLID
  5
30B
100
AcDbEntity
  8
0
  6
BYBLOCK
 62
     0
100
AcDbTrace
 10
303.0
 20
256.333333
 30
0.0
 11
303.0
 21
255.666667
 31
0.0
 12
305.0
 22
256.0
 32
0.0
 13
305.0
 23
256.0
 33
0.0
  0
MTEXT
  5
30C
100
AcDbEntity
  8
0
  6
BYBLOCK
 62
     0
100
AcDbMText
 10
299.0
 20
256.0
 30
0.0
 40
5.0
 41
0.0
 71
     5
 72
     1
  1
\A1;12
  0
POINT
  5
30D
100
AcDbEntity
  8
DEFPOINTS
  6
BYBLOCK
 62
     0
100
AcDbPoint
 10
293.0
 20
246.0
 30
0.0
  0
POINT
  5
30E
100
AcDbEntity
  8
DEFPOINTS
  6
BYBLOCK
 62
     0
100
AcDbPoint
 10
305.0
 20
244.5
 30
0.0
  0
POINT
  5
30F
100
AcDbEntity
  8
DEFPOINTS
  6
BYBLOCK
 62
     0
100
AcDbPoint
 10
305.0
 20
256.0
 30
0.0
  0
ENDBLK
  5
311
100
AcDbEntity
  8
0
100
AcDbBlockEnd
  0
BLOCK
  5
31D
100
AcDbEntity
  8
0
100
AcDbBlockBegin
  2
*D16
 70
     1
 10
0.0
 20
0.0
 30
0.0
  3
*D16
  1

  0
LINE
  5
313
100
AcDbEntity
  8
0
  6
BYBLOCK
 62
     0
100
AcDbLine
 10
306.0
 20
244.5
 30
0.0
 11
328.5
 21
244.5
 31
0.0
  0
LINE
  5
314
100
AcDbEntity
  8
0
  6
BYBLOCK
 62
     0
100
AcDbLine
 10
306.0
 20
214.5
 30
0.0
 11
328.5
 21
214.5
 31
0.0
  0
LINE
  5
315
100
AcDbEntity
  8
0
  6
BYBLOCK
 62
     0
100
AcDbLine
 10
327.5
 20
242.5
 30
0.0
 11
327.5
 21
235.84
 31
0.0
  0
LINE
  5
316
100
AcDbEntity
  8
0
  6
BYBLOCK
 62
     0
100
AcDbLine
 10
327.5
 20
216.5
 30
0.0
 11
327.5
 21
223.16
 31
0.0
  0
SOLID
  5
317
100
AcDbEntity
  8
0
  6
BYBLOCK
 62
     0
100
AcDbTrace
 10
327.166667
 20
242.5
 30
0.0
 11
327.833333
 21
242.5
 31
0.0
 12
327.5
 22
244.5
 32
0.0
 13
327.5
 23
244.5
 33
0.0
  0
SOLID
  5
318
100
AcDbEntity
  8
0
  6
BYBLOCK
 62
     0
100
AcDbTrace
 10
327.166667
 20
216.5
 30
0.0
 11
327.833333
 21
216.5
 31
0.0
 12
327.5
 22
214.5
 32
0.0
 13
327.5
 23
214.5
 33
0.0
  0
MTEXT
  5
319
100
AcDbEntity
  8
0
  6
BYBLOCK
 62
     0
100
AcDbMText
 10
327.5
 20
229.5
 30
0.0
 40
5.0
 41
0.0
 71
     5
 72
     1
  1
\A1;\U+220530
 11
0.0
 21
1.0
 31
0.0
  0
POINT
  5
31A
100
AcDbEntity
  8
DEFPOINTS
  6
BYBLOCK
 62
     0
100
AcDbPoint
 10
305.0
 20
244.5
 30
0.0
  0
POINT
  5
31B
100
AcDbEntity
  8
DEFPOINTS
  6
BYBLOCK
 62
     0
100
AcDbPoint
 10
305.0
 20
214.5
 30
0.0
  0
POINT
  5
31C
100
AcDbEntity
  8
DEFPOINTS
  6
BYBLOCK
 62
     0
100
AcDbPoint
 10
327.5
 20
214.5
 30
0.0
  0
ENDBLK
  5
31E
100
AcDbEntity
  8
0
100
AcDbBlockEnd
  0
BLOCK
  5
390
100
AcDbEntity
  8
0
100
AcDbBlockBegin
  2
A$C1AE72FE9
 70
     0
 10
0.0
 20
0.0
 30
0.0
  3
A$C1AE72FE9
  1

  0
DIMENSION
  5
320
100
AcDbEntity
  8
0
100
AcDbDimension
  2
*D14
 10
246.5
 20
104.5
 30
0.0
 11
233.5
 21
104.5
 31
0.0
 12
-58.5
 22
-161.0
 32
0.0
 70
   128
  3
STANDARD
100
AcDbAlignedDimension
 13
216.5
 23
85.529124
 33
0.0
 14
246.5
 24
83.5
 34
0.0
100
AcDbRotatedDimension
1001
ACAD
1000
DSTYLE
1002
{
1070
    78
1070
     8
1070
   288
1070
     1
1070
   284
1070
     8
1070
   140
1040
5.0
1070
    73
1070
     0
1070
   272
1070
     2
1070
    42
1040
1.0
1070
    44
1040
1.0
1070
   271
1070
     2
1070
    41
1040
2.0
1002
}
  0
LINE
  5
321
100
AcDbEntity
  8
2
100
AcDbLine
 10
215.498612
 20
62.901296
 30
0.0
 11
221.711223
 21
68.232644
 31
0.0
  0
LINE
  5
322
100
AcDbEntity
  8
3
100
AcDbLine
 10
212.879649
 20
42.528774
 30
0.0
 11
224.321396
 21
49.504782
 31
0.0
  0
LINE
  5
323
100
AcDbEntity
  8
3
100
AcDbLine
 10
233.921635
 20
85.315989
 30
0.0
 11
214.495713
 21
111.339024
 31
0.0
  0
LINE
  5
324
100
AcDbEntity
  8
1
100
AcDbLine
 10
194.872067
 20
115.5
 30
0.0
 11
218.798036
 21
115.5
 31
0.0
  0
ARC
  5
325
100
AcDbEntity
  8
3
100
AcDbCircle
 10
207.5
 20
14.0
 30
0.0
 40
8.0
100
AcDbArc
 50
270.0
 51
358.932668
  0
LINE
  5
326
100
AcDbEntity
  8
1
100
AcDbLine
 10
196.0
 20
14.0
 30
0.0
 11
218.259056
 21
14.0
 31
0.0
  0
ARC
  5
327
100
AcDbEntity
  8
3
100
AcDbCircle
 10
225.0
 20
68.744701
 30
0.0
 40
19.251883
100
AcDbArc
 50
243.799399
 51
299.568136
  0
LINE
  5
328
100
AcDbEntity
  8
3
100
AcDbLine
 10
216.847727
 20
90.00506
 30
0.0
 11
206.62766
 21
105.5
 31
0.0
  0
ARC
  5
329
100
AcDbEntity
  8
3
100
AcDbCircle
 10
225.0
 20
68.2553
 30
0.0
 40
19.251883
100
AcDbArc
 50
60.431864
 51
116.200601
  0
LINE
  5
32A
100
AcDbEntity
  8
1
100
AcDbLine
 10
193.259056
 20
68.5
 30
0.0
 11
253.5
 21
68.5
 31
0.0
  0
LINE
  5
32B
100
AcDbEntity
  8
1
100
AcDbLine
 10
196.0
 20
123.0
 30
0.0
 11
218.259056
 21
123.0
 31
0.0
  0
ARC
  5
32C
100
AcDbEntity
  8
3
100
AcDbCircle
 10
207.5
 20
123.0
 30
0.0
 40
8.0
100
AcDbArc
 50
1.067332
 51
90.0
  0
LINE
  5
32D
100
AcDbEntity
  8
3
100
AcDbLine
 10
211.93133
 20
23.338614
 30
0.0
 11
211.93133
 21
41.88544
 31
0.0
  0
ARC
  5
32E
100
AcDbEntity
  8
3
100
AcDbCircle
 10
68.5
 20
68.5
 30
0.0
 40
54.5
100
AcDbArc
 50
107.072287
 51
72.927713
  0
ARC
  5
32F
100
AcDbEntity
  8
3
100
AcDbCircle
 10
68.5
 20
68.5
 30
0.0
 40
42.5
100
AcDbArc
 50
221.467525
 51
318.532475
  0
CIRCLE
  5
330
100
AcDbEntity
  8
3
100
AcDbCircle
 10
68.5
 20
68.5
 30
0.0
 40
62.5
  0
LINE
  5
331
100
AcDbEntity
  8
1
100
AcDbLine
 10
68.5
 20
136.0
 30
0.0
 11
68.5
 21
0.0
 31
0.0
  0
LINE
  5
332
100
AcDbEntity
  8
3
100
AcDbLine
 10
199.501388
 20
13.850981
 30
0.0
 11
199.501388
 21
68.5
 31
0.0
  0
LINE
  5
333
100
AcDbEntity
  8
3
100
AcDbLine
 10
215.498612
 20
13.850981
 30
0.0
 11
215.498612
 21
44.12555
 31
0.0
  0
LINE
  5
334
100
AcDbEntity
  8
1
100
AcDbLine
 10
207.5
 20
29.25468
 30
0.0
 11
207.5
 21
2.929739
 31
0.0
  0
LINE
  5
335
100
AcDbEntity
  8
3
100
AcDbLine
 10
199.640074
 20
14.045087
 30
0.0
 11
200.365616
 21
14.278626
 31
0.0
  0
ARC
  5
336
100
AcDbEntity
  8
3
100
AcDbCircle
 10
222.888995
 20
22.173717
 30
0.0
 40
11.01941
100
AcDbArc
 50
173.931744
 51
227.881241
  0
LINE
  5
337
100
AcDbEntity
  8
1
100
AcDbLine
 10
207.5
 20
28.781778
 30
0.0
 11
207.5
 21
2.772103
 31
0.0
  0
ARC
  5
338
100
AcDbEntity
  8
3
100
AcDbCircle
 10
207.5
 20
14.0
 30
0.0
 40
8.0
100
AcDbArc
 50
181.067332
 51
270.0
  0
ARC
  5
339
100
AcDbEntity
  8
3
100
AcDbCircle
 10
199.701354
 20
13.854707
 30
0.0
 40
0.2
100
AcDbArc
 50
107.842417
 51
181.067332
  0
ARC
  5
33A
100
AcDbEntity
  8
3
100
AcDbCircle
 10
207.5
 20
21.0
 30
0.0
 40
5.0
100
AcDbArc
 50
90.0
 51
147.890561
  0
ARC
  5
33B
100
AcDbEntity
  8
3
100
AcDbCircle
 10
218.5
 20
14.071788
 30
0.0
 40
18.0
100
AcDbArc
 50
147.769398
 51
178.749408
  0
ARC
  5
33C
100
AcDbEntity
  8
3
100
AcDbCircle
 10
200.304336
 20
14.469007
 30
0.0
 40
0.2
100
AcDbArc
 50
287.842417
 51
358.749408
  0
ARC
  5
33D
100
AcDbEntity
  8
3
100
AcDbCircle
 10
207.5
 20
21.0
 30
0.0
 40
5.0
100
AcDbArc
 50
32.109439
 51
90.0
  0
ARC
  5
33E
100
AcDbEntity
  8
3
100
AcDbCircle
 10
196.5
 20
14.071788
 30
0.0
 40
18.0
100
AcDbArc
 50
30.985669
 51
32.230602
  0
LINE
  5
33F
100
AcDbEntity
  8
1
100
AcDbLine
 10
68.5
 20
68.5
 30
0.0
 11
9.902568
 21
34.668757
 31
0.0
  0
ARC
  5
340
100
AcDbEntity
  8
3
100
AcDbCircle
 10
68.5
 20
68.5
 30
0.0
 40
42.5
100
AcDbArc
 50
101.467525
 51
198.532475
  0
LINE
  5
341
100
AcDbEntity
  8
3
100
AcDbLine
 10
28.203895
 20
54.991711
 30
0.0
 11
49.508932
 21
69.082507
 31
0.0
  0
LINE
  5
342
100
AcDbEntity
  8
3
100
AcDbLine
 10
36.653426
 20
40.356694
 30
0.0
 11
59.508932
 21
51.761999
 31
0.0
  0
LINE
  5
343
100
AcDbEntity
  8
1
100
AcDbLine
 10
137.0
 20
68.5
 30
0.0
 11
0.0
 21
68.5
 31
0.0
  0
ARC
  5
344
100
AcDbEntity
  8
3
100
AcDbCircle
 10
46.568545
 20
55.837869
 30
0.0
 40
19.504043
100
AcDbArc
 50
187.633426
 51
232.366574
  0
ARC
  5
345
100
AcDbEntity
  8
3
100
AcDbCircle
 10
35.697577
 20
42.706523
 30
0.0
 40
2.536798
100
AcDbArc
 50
245.838376
 51
292.135202
  0
ARC
  5
346
100
AcDbEntity
  8
3
100
AcDbCircle
 10
29.760982
 20
52.989007
 30
0.0
 40
2.536798
100
AcDbArc
 50
127.864798
 51
174.161624
  0
ARC
  5
347
100
AcDbEntity
  8
3
100
AcDbCircle
 10
68.5
 20
68.5
 30
0.0
 40
42.5
100
AcDbArc
 50
341.467525
 51
78.532475
  0
LINE
  5
348
100
AcDbEntity
  8
3
100
AcDbLine
 10
60.050469
 20
110.151596
 30
0.0
 11
58.5
 21
84.655495
 31
0.0
  0
LINE
  5
349
100
AcDbEntity
  8
3
100
AcDbLine
 10
76.949531
 20
110.151596
 30
0.0
 11
78.5
 21
84.655495
 31
0.0
  0
LINE
  5
34A
100
AcDbEntity
  8
1
100
AcDbLine
 10
68.5
 20
68.5
 30
0.0
 11
127.847432
 21
34.235745
 31
0.0
  0
ARC
  5
34B
100
AcDbEntity
  8
3
100
AcDbCircle
 10
68.5
 20
68.5
 30
0.0
 40
19.0
100
AcDbArc
 50
1.756864
 51
58.243136
  0
ARC
  5
34C
100
AcDbEntity
  8
3
100
AcDbCircle
 10
63.28677
 20
71.50986
 30
0.0
 40
23.507973
100
AcDbArc
 50
306.720484
 51
353.279516
  0
LINE
  5
34D
100
AcDbEntity
  8
3
100
AcDbLine
 10
100.346575
 20
40.356694
 30
0.0
 11
77.491069
 21
51.761999
 31
0.0
  0
LINE
  5
34E
100
AcDbEntity
  8
3
100
AcDbLine
 10
108.796106
 20
54.991711
 30
0.0
 11
87.491069
 21
69.082507
 31
0.0
  0
CIRCLE
  5
34F
100
AcDbEntity
  8
3
100
AcDbCircle
 10
68.5
 20
68.5
 30
0.0
 40
17.029123
  0
ARC
  5
350
100
AcDbEntity
  8
3
100
AcDbCircle
 10
73.713231
 20
71.50986
 30
0.0
 40
23.507973
100
AcDbArc
 50
186.720484
 51
233.279516
  0
ARC
  5
351
100
AcDbEntity
  8
3
100
AcDbCircle
 10
68.5
 20
68.5
 30
0.0
 40
19.0
100
AcDbArc
 50
241.756864
 51
298.243136
  0
ARC
  5
352
100
AcDbEntity
  8
3
100
AcDbCircle
 10
59.227528
 20
52.272806
 30
0.0
 40
0.583191
100
AcDbArc
 50
298.850433
 51
42.494728
  0
ARC
  5
353
100
AcDbEntity
  8
3
100
AcDbCircle
 10
77.772473
 20
52.272806
 30
0.0
 40
0.583191
100
AcDbArc
 50
137.505272
 51
241.149567
  0
ARC
  5
354
100
AcDbEntity
  8
3
100
AcDbCircle
 10
68.5
 20
62.48028
 30
0.0
 40
23.507973
100
AcDbArc
 50
66.720484
 51
113.279516
  0
ARC
  5
355
100
AcDbEntity
  8
3
100
AcDbCircle
 10
68.5
 20
68.5
 30
0.0
 40
19.0
100
AcDbArc
 50
121.756864
 51
178.243136
  0
ARC
  5
356
100
AcDbEntity
  8
3
100
AcDbCircle
 10
49.810601
 20
68.583401
 30
0.0
 40
0.583191
100
AcDbArc
 50
17.505272
 51
121.149567
  0
ARC
  5
357
100
AcDbEntity
  8
3
100
AcDbCircle
 10
59.083074
 20
84.643795
 30
0.0
 40
0.583191
100
AcDbArc
 50
178.850433
 51
282.494728
  0
ARC
  5
358
100
AcDbEntity
  8
3
100
AcDbCircle
 10
87.1894
 20
68.583401
 30
0.0
 40
0.583191
100
AcDbArc
 50
58.850433
 51
162.494728
  0
ARC
  5
359
100
AcDbEntity
  8
3
100
AcDbCircle
 10
77.916927
 20
84.643795
 30
0.0
 40
0.583191
100
AcDbArc
 50
257.505272
 51
1.149567
  0
ARC
  5
35A
100
AcDbEntity
  8
3
100
AcDbCircle
 10
107.239018
 20
52.989007
 30
0.0
 40
2.536798
100
AcDbArc
 50
5.838376
 51
52.135202
  0
ARC
  5
35B
100
AcDbEntity
  8
3
100
AcDbCircle
 10
90.431455
 20
55.837869
 30
0.0
 40
19.504043
100
AcDbArc
 50
307.633426
 51
352.366574
  0
ARC
  5
35C
100
AcDbEntity
  8
3
100
AcDbCircle
 10
101.302424
 20
42.706523
 30
0.0
 40
2.536798
100
AcDbArc
 50
247.864798
 51
294.161624
  0
ARC
  5
35D
100
AcDbEntity
  8
3
100
AcDbCircle
 10
83.788971
 20
115.355515
 30
0.0
 40
5.290944
100
AcDbArc
 50
82.276875
 51
178.435171
  0
ARC
  5
35E
100
AcDbEntity
  8
3
100
AcDbCircle
 10
53.21103
 20
115.355515
 30
0.0
 40
5.290944
100
AcDbArc
 50
1.564829
 51
97.723125
  0
ARC
  5
35F
100
AcDbEntity
  8
3
100
AcDbCircle
 10
68.5
 20
115.5
 30
0.0
 40
10.0
100
AcDbArc
 50
180.0
 51
0.0
  0
LINE
  5
360
100
AcDbEntity
  8
1
100
AcDbLine
 10
52.0
 20
115.5
 30
0.0
 11
86.157795
 21
115.5
 31
0.0
  0
LINE
  5
361
100
AcDbEntity
  8
3
100
AcDbLine
 10
215.498612
 20
92.050492
 30
0.0
 11
215.498612
 21
68.5
 31
0.0
  0
LINE
  5
362
100
AcDbEntity
  8
3
100
AcDbLine
 10
211.93133
 20
59.733552
 30
0.0
 11
211.93133
 21
97.458952
 31
0.0
  0
LINE
  5
363
100
AcDbEntity
  8
3
100
AcDbLine
 10
199.501388
 20
123.149019
 30
0.0
 11
199.501388
 21
68.5
 31
0.0
  0
LINE
  5
364
100
AcDbEntity
  8
1
100
AcDbLine
 10
207.5
 20
107.745321
 30
0.0
 11
207.5
 21
68.5
 31
0.0
  0
LINE
  5
365
100
AcDbEntity
  8
3
100
AcDbLine
 10
216.5
 20
51.470877
 30
0.0
 11
216.5
 21
85.529124
 31
0.0
  0
LINE
  5
366
100
AcDbEntity
  8
3
100
AcDbLine
 10
205.905661
 20
54.382763
 30
0.0
 11
215.5
 21
62.902528
 31
0.0
  0
LINE
  5
367
100
AcDbEntity
  8
1
100
AcDbLine
 10
207.5
 20
29.25468
 30
0.0
 11
207.5
 21
68.5
 31
0.0
  0
ARC
  5
368
100
AcDbEntity
  8
3
100
AcDbCircle
 10
212.92804
 20
47.747917
 30
0.0
 40
9.65722
100
AcDbArc
 50
135.326082
 51
223.795418
  0
ARC
  5
369
100
AcDbEntity
  8
3
100
AcDbCircle
 10
206.170087
 20
51.398527
 30
0.0
 40
11.121634
100
AcDbArc
 50
276.867801
 51
307.105834
  0
ARC
  5
36A
100
AcDbEntity
  8
3
100
AcDbCircle
 10
207.609451
 20
42.630782
 30
0.0
 40
2.276721
100
AcDbArc
 50
223.475576
 51
267.244517
  0
LINE
  5
36B
100
AcDbEntity
  8
3
100
AcDbLine
 10
215.5
 20
68.5
 30
0.0
 11
215.5
 21
85.0
 31
0.0
  0
LINE
  5
36C
100
AcDbEntity
  8
3
100
AcDbLine
 10
215.498612
 20
62.901296
 30
0.0
 11
215.498612
 21
68.5
 31
0.0
  0
LINE
  5
36D
100
AcDbEntity
  8
3
100
AcDbLine
 10
215.5
 20
68.5
 30
0.0
 11
215.5
 21
62.902528
 31
0.0
  0
LINE
  5
36E
100
AcDbEntity
  8
3
100
AcDbLine
 10
215.498612
 20
123.149019
 30
0.0
 11
215.498612
 21
109.995536
 31
0.0
  0
LINE
  5
36F
100
AcDbEntity
  8
1
100
AcDbLine
 10
207.5
 20
108.218222
 30
0.0
 11
207.5
 21
134.227897
 31
0.0
  0
LINE
  5
370
100
AcDbEntity
  8
1
100
AcDbLine
 10
207.5
 20
107.745321
 30
0.0
 11
207.5
 21
134.070262
 31
0.0
  0
LWPOLYLINE
  5
371
100
AcDbEntity
  8
0
100
AcDbPolyline
 90
        3
 70
     1
 43
0.0
 10
216.18
 20
105.26
 10
212.085
 20
107.62425
 10
212.085
 20
102.895751
  0
LWPOLYLINE
  5
372
100
AcDbEntity
  8
0
100
AcDbPolyline
 90
        3
 70
     1
 43
0.0
 10
216.18
 20
100.531502
 10
212.085
 20
102.895751
 10
212.085
 20
98.167252
  0
LINE
  5
373
100
AcDbEntity
  8
3
100
AcDbLine
 10
199.501388
 20
105.5
 30
0.0
 11
206.62766
 21
105.5
 31
0.0
  0
LINE
  5
374
100
AcDbEntity
  8
3
100
AcDbLine
 10
214.495713
 20
111.339024
 30
0.0
 11
215.498612
 21
111.590851
 31
0.0
  0
ARC
  5
375
100
AcDbEntity
  8
3
100
AcDbCircle
 10
207.5
 20
123.0
 30
0.0
 40
8.0
100
AcDbArc
 50
90.0
 51
178.932668
  0
MTEXT
  5
376
102
{ACAD_REACTORS
330
377
102
}
100
AcDbEntity
  8
0
100
AcDbMText
 10
263.09
 20
97.5
 30
0.0
 40
5.0
 41
0.0
 71
     4
 72
     1
  1
\A1;R1
  0
LEADER
  5
377
100
AcDbEntity
  8
0
100
AcDbLeader
  3
STANDARD
 73
     0
 40
5.0
 41
6.666667
 76
     3
 10
246.5
 20
83.5
 30
0.0
 10
262.0
 20
97.5
 30
0.0
 10
263.0
 20
97.5
 30
0.0
 77
   256
340
376
1001
ACAD
1000
DSTYLE
1002
{
1070
    78
1070
     8
1070
   288
1070
     1
1070
   284
1070
     8
1070
   140
1040
5.0
1070
    73
1070
     0
1070
   272
1070
     2
1070
    42
1040
1.0
1070
    44
1040
1.0
1070
   271
1070
     2
1070
    41
1040
2.0
1002
}
  0
DIMENSION
  5
378
100
AcDbEntity
  8
0
100
AcDbDimension
  2
*D15
 10
246.5
 20
95.0
 30
0.0
 11
240.5
 21
95.0
 31
0.0
 12
-58.5
 22
-161.0
 32
0.0
 70
   128
  3
STANDARD
100
AcDbAlignedDimension
 13
234.5
 23
85.0
 33
0.0
 14
246.5
 24
83.5
 34
0.0
100
AcDbRotatedDimension
1001
ACAD
1000
DSTYLE
1002
{
1070
    78
1070
     8
1070
   288
1070
     1
1070
   284
1070
     8
1070
   140
1040
5.0
1070
    73
1070
     0
1070
   272
1070
     2
1070
    42
1040
1.0
1070
    44
1040
1.0
1070
   271
1070
     2
1070
    41
1040
2.0
1002
}
  0
ARC
  5
379
100
AcDbEntity
  8
3
100
AcDbCircle
 10
208.5
 20
84.499112
 30
0.0
 40
10.0
100
AcDbArc
 50
10.46885
 51
33.407825
  0
LINE
  5
37A
100
AcDbEntity
  8
1
100
AcDbLine
 10
224.0
 20
68.5
 30
0.0
 11
224.0
 21
99.5
 31
0.0
  0
TEXT
  5
37B
100
AcDbEntity
  8
0
100
AcDbText
 10
260.993958
 20
73.795325
 30
0.0
 40
3.5
  1
0
 50
90.0
 41
0.7
  7
BIGFONT
100
AcDbText
  0
LWPOLYLINE
  5
37C
100
AcDbEntity
  8
0
100
AcDbPolyline
 90
        3
 70
     1
 43
0.0
 10
260.031502
 20
83.32
 10
262.395751
 20
87.415
 10
257.667252
 20
87.415
  0
DIMENSION
  5
37D
100
AcDbEntity
  8
0
100
AcDbDimension
  2
*D16
 10
269.0
 20
53.5
 30
0.0
 11
269.0
 21
68.5
 31
0.0
 12
-58.5
 22
-161.0
 32
0.0
 70
   128
  1
%%C30
  3
STANDARD
100
AcDbAlignedDimension
 13
246.5
 23
83.5
 33
0.0
 14
246.5
 24
53.5
 34
0.0
 50
90.0
100
AcDbRotatedDimension
1001
ACAD
1000
DSTYLE
1002
{
1070
    78
1070
     8
1070
   288
1070
     1
1070
   284
1070
     8
1070
   140
1040
5.0
1070
    73
1070
     0
1070
   272
1070
     2
1070
    42
1040
1.0
1070
    44
1040
1.0
1070
   271
1070
     2
1070
    41
1040
2.0
1002
}
  0
LINE
  5
37E
100
AcDbEntity
  8
3
100
AcDbLine
 10
246.5
 20
83.5
 30
0.0
 11
246.5
 21
53.5
 31
0.0
  0
ARC
  5
37F
100
AcDbEntity
  8
2
100
AcDbCircle
 10
219.196834
 20
60.369283
 30
0.0
 40
14.724243
100
AcDbArc
 50
341.812294
 51
21.6608
  0
ARC
  5
380
100
AcDbEntity
  8
2
100
AcDbCircle
 10
229.297752
 20
60.416931
 30
0.0
 40
10.8735
100
AcDbArc
 50
132.618221
 51
225.755684
  0
LINE
  5
381
100
AcDbEntity
  8
1
100
AcDbLine
 10
224.0
 20
68.5
 30
0.0
 11
224.0
 21
45.5
 31
0.0
  0
LINE
  5
382
100
AcDbEntity
  8
3
100
AcDbLine
 10
246.5
 20
53.5
 30
0.0
 11
234.5
 21
53.5
 31
0.0
  0
LINE
  5
383
100
AcDbEntity
  8
2
100
AcDbLine
 10
224.321396
 20
49.504782
 30
0.0
 11
229.830488
 21
52.922871
 31
0.0
  0
ARC
  5
384
100
AcDbEntity
  8
2
100
AcDbCircle
 10
225.037609
 20
61.908328
 30
0.0
 40
10.199247
100
AcDbArc
 50
264.160979
 51
323.021947
  0
ARC
  5
385
100
AcDbEntity
  8
2
100
AcDbCircle
 10
224.014849
 20
55.260724
 30
0.0
 40
3.498756
100
AcDbArc
 50
228.818364
 51
269.75683
  0
LINE
  5
386
100
AcDbEntity
  8
3
100
AcDbLine
 10
234.5
 20
53.5
 30
0.0
 11
234.5
 21
52.0
 31
0.0
  0
LINE
  5
387
100
AcDbEntity
  8
3
100
AcDbLine
 10
234.5
 20
83.5
 30
0.0
 11
246.5
 21
83.5
 31
0.0
  0
ARC
  5
388
100
AcDbEntity
  8
2
100
AcDbCircle
 10
225.646508
 20
59.873713
 30
0.0
 40
9.354831
100
AcDbArc
 50
39.34179
 51
100.137215
  0
ARC
  5
389
100
AcDbEntity
  8
2
100
AcDbCircle
 10
224.026753
 20
65.456756
 30
0.0
 40
3.62585
100
AcDbArc
 50
90.422752
 51
125.229023
  0
LINE
  5
38A
100
AcDbEntity
  8
3
100
AcDbLine
 10
234.5
 20
85.0
 30
0.0
 11
234.5
 21
83.5
 31
0.0
  0
TEXT
  5
38B
100
AcDbEntity
  8
0
100
AcDbText
 10
265.193958
 20
73.795325
 30
0.0
 40
3.5
  1
-0.1
 50
90.0
 41
0.7
  7
BIGFONT
100
AcDbText
  0
LWPOLYLINE
  5
38C
100
AcDbEntity
  8
0
100
AcDbPolyline
 90
        3
 70
     1
 43
0.0
 10
264.76
 20
83.32
 10
267.12425
 20
87.415
 10
262.395751
 20
87.415
  0
LWPOLYLINE
  5
38D
100
AcDbEntity
  8
0
100
AcDbPolyline
 90
        3
 70
     1
 43
0.0
 10
246.82
 20
117.24
 10
250.915
 20
114.875751
 10
250.915
 20
119.60425
  0
TEXT
  5
38E
100
AcDbEntity
  8
0
100
AcDbText
 10
236.391354
 20
109.247647
 30
0.0
 40
3.5
  1
%%P0.1
 41
0.7
  7
BIGFONT
100
AcDbText
  0
LWPOLYLINE
  5
38F
100
AcDbEntity
  8
0
100
AcDbPolyline
 90
        3
 70
     1
 43
0.0
 10
246.82
 20
121.968499
 10
250.915
 20
119.60425
 10
250.915
 20
124.332748
  0
ENDBLK
  5
391
100
AcDbEntity
  8
0
100
AcDbBlockEnd
  0
BLOCK
  5
461
100
AcDbEntity
  8
0
100
AcDbBlockBegin
  2
*D21
 70
     1
 10
0.0
 20
0.0
 30
0.0
  3
*D21
  1

  0
LINE
  5
457
100
AcDbEntity
  8
0
  6
BYBLOCK
 62
     0
100
AcDbLine
 10
288.5
 20
236.165244
 30
0.0
 11
288.5
 21
265.367737
 31
0.0
  0
LINE
  5
458
100
AcDbEntity
  8
0
  6
BYBLOCK
 62
     0
100
AcDbLine
 10
319.5
 20
233.0
 30
0.0
 11
319.5
 21
265.367737
 31
0.0
  0
LINE
  5
459
100
AcDbEntity
  8
0
  6
BYBLOCK
 62
     0
100
AcDbLine
 10
290.5
 20
264.367737
 30
0.0
 11
300.605098
 21
264.367737
 31
0.0
  0
LINE
  5
45A
100
AcDbEntity
  8
0
  6
BYBLOCK
 62
     0
100
AcDbLine
 10
317.5
 20
264.367737
 30
0.0
 11
307.451765
 21
264.367737
 31
0.0
  0
SOLID
  5
45B
100
AcDbEntity
  8
0
  6
BYBLOCK
 62
     0
100
AcDbTrace
 10
290.5
 20
264.70107
 30
0.0
 11
290.5
 21
264.034403
 31
0.0
 12
288.5
 22
264.367737
 32
0.0
 13
288.5
 23
264.367737
 33
0.0
  0
SOLID
  5
45C
100
AcDbEntity
  8
0
  6
BYBLOCK
 62
     0
100
AcDbTrace
 10
317.5
 20
264.70107
 30
0.0
 11
317.5
 21
264.034403
 31
0.0
 12
319.5
 22
264.367737
 32
0.0
 13
319.5
 23
264.367737
 33
0.0
  0
MTEXT
  5
45D
100
AcDbEntity
  8
0
  6
BYBLOCK
 62
     0
100
AcDbMText
 10
304.028431
 20
264.367737
 30
0.0
 40
5.0
 41
0.0
 71
     5
 72
     1
  1
\A1;31
  0
POINT
  5
45E
100
AcDbEntity
  8
DEFPOINTS
  6
BYBLOCK
 62
     0
100
AcDbPoint
 10
288.5
 20
235.165244
 30
0.0
  0
POINT
  5
45F
100
AcDbEntity
  8
DEFPOINTS
  6
BYBLOCK
 62
     0
100
AcDbPoint
 10
319.5
 20
232.0
 30
0.0
  0
POINT
  5
460
100
AcDbEntity
  8
DEFPOINTS
  6
BYBLOCK
 62
     0
100
AcDbPoint
 10
319.5
 20
264.367737
 30
0.0
  0
ENDBLK
  5
462
100
AcDbEntity
  8
0
100
AcDbBlockEnd
  0
BLOCK
  5
46E
100
AcDbEntity
  8
0
100
AcDbBlockBegin
  2
*D22
 70
     1
 10
0.0
 20
0.0
 30
0.0
  3
*D22
  1

  0
LINE
  5
464
100
AcDbEntity
  8
0
  6
BYBLOCK
 62
     0
100
AcDbLine
 10
305.5
 20
235.0
 30
0.0
 11
305.5
 21
251.612385
 31
0.0
  0
LINE
  5
465
100
AcDbEntity
  8
0
  6
BYBLOCK
 62
     0
100
AcDbLine
 10
319.5
 20
233.0
 30
0.0
 11
319.5
 21
251.612385
 31
0.0
  0
LINE
  5
466
100
AcDbEntity
  8
0
  6
BYBLOCK
 62
     0
100
AcDbLine
 10
307.5
 20
250.612385
 30
0.0
 11
309.338688
 21
250.612385
 31
0.0
  0
LINE
  5
467
100
AcDbEntity
  8
0
  6
BYBLOCK
 62
     0
100
AcDbLine
 10
317.5
 20
250.612385
 30
0.0
 11
316.185354
 21
250.612385
 31
0.0
  0
SOLID
  5
468
100
AcDbEntity
  8
0
  6
BYBLOCK
 62
     0
100
AcDbTrace
 10
307.5
 20
250.945718
 30
0.0
 11
307.5
 21
250.279052
 31
0.0
 12
305.5
 22
250.612385
 32
0.0
 13
305.5
 23
250.612385
 33
0.0
  0
SOLID
  5
469
100
AcDbEntity
  8
0
  6
BYBLOCK
 62
     0
100
AcDbTrace
 10
317.5
 20
250.945718
 30
0.0
 11
317.5
 21
250.279052
 31
0.0
 12
319.5
 22
250.612385
 32
0.0
 13
319.5
 23
250.612385
 33
0.0
  0
MTEXT
  5
46A
100
AcDbEntity
  8
0
  6
BYBLOCK
 62
     0
100
AcDbMText
 10
312.762021
 20
250.612385
 30
0.0
 40
5.0
 41
0.0
 71
     5
 72
     1
  1
\A1;14
  0
POINT
  5
46B
100
AcDbEntity
  8
DEFPOINTS
  6
BYBLOCK
 62
     0
100
AcDbPoint
 10
305.5
 20
234.0
 30
0.0
  0
POINT
  5
46C
100
AcDbEntity
  8
DEFPOINTS
  6
BYBLOCK
 62
     0
100
AcDbPoint
 10
319.5
 20
232.0
 30
0.0
  0
POINT
  5
46D
100
AcDbEntity
  8
DEFPOINTS
  6
BYBLOCK
 62
     0
100
AcDbPoint
 10
319.5
 20
250.612385
 30
0.0
  0
ENDBLK
  5
46F
100
AcDbEntity
  8
0
100
AcDbBlockEnd
  0
BLOCK
  5
4E0
100
AcDbEntity
  8
0
100
AcDbBlockBegin
  2
A$C0CFF4D5E
 70
     0
 10
0.0
 20
0.0
 30
0.0
  3
A$C0CFF4D5E
  1

  0
ARC
  5
471
100
AcDbEntity
  8
3
100
AcDbCircle
 10
222.028118
 20
53.160566
 30
0.0
 40
10.892304
100
AcDbArc
 50
131.572905
 51
165.396871
  0
ARC
  5
472
100
AcDbEntity
  8
3
100
AcDbCircle
 10
215.032821
 20
47.130716
 30
0.0
 40
3.012377
100
AcDbArc
 50
212.774801
 51
269.375725
  0
LINE
  5
473
100
AcDbEntity
  8
1
100
AcDbLine
 10
202.0
 20
131.0
 30
0.0
 11
225.5
 21
131.0
 31
0.0
  0
LINE
  5
474
100
AcDbEntity
  8
3
100
AcDbLine
 10
207.0
 20
121.0
 30
0.0
 11
213.877193
 21
121.0
 31
0.0
  0
ARC
  5
475
100
AcDbEntity
  8
3
100
AcDbCircle
 10
215.0
 20
14.5
 30
5.786942
 40
8.0
100
AcDbArc
 50
181.067332
 51
270.0
  0
LINE
  5
476
100
AcDbEntity
  8
1
100
AcDbLine
 10
203.5
 20
14.5
 30
5.786942
 11
225.759056
 21
14.5
 31
5.786942
  0
ARC
  5
477
100
AcDbEntity
  8
3
100
AcDbCircle
 10
215.0
 20
21.5
 30
5.786942
 40
5.0
100
AcDbArc
 50
90.0
 51
147.890561
  0
LINE
  5
478
100
AcDbEntity
  8
1
100
AcDbLine
 10
202.5
 20
76.5
 30
5.786942
 11
262.0
 21
76.5
 31
5.786942
  0
LINE
  5
479
100
AcDbEntity
  8
1
100
AcDbLine
 10
203.5
 20
138.5
 30
5.786942
 11
225.759056
 21
138.5
 31
5.786942
  0
ARC
  5
47A
100
AcDbEntity
  8
3
100
AcDbCircle
 10
215.0
 20
138.5
 30
5.786942
 40
8.0
100
AcDbArc
 50
90.0
 51
178.932668
  0
LINE
  5
47B
100
AcDbEntity
  8
1
100
AcDbLine
 10
74.5
 20
76.5
 30
0.0
 11
138.52147
 21
39.537187
 31
0.0
  0
LINE
  5
47C
100
AcDbEntity
  8
1
100
AcDbLine
 10
74.5
 20
76.5
 30
0.0
 11
10.695036
 21
39.662187
 31
0.0
  0
ARC
  5
47D
100
AcDbEntity
  8
3
100
AcDbCircle
 10
223.676223
 20
51.839779
 30
0.0
 40
12.849153
100
AcDbArc
 50
161.547568
 51
209.564332
  0
LINE
  5
47E
100
AcDbEntity
  8
3
100
AcDbLine
 10
85.992536
 20
57.740426
 30
0.0
 11
112.594014
 21
44.114106
 31
0.0
  0
ARC
  5
47F
100
AcDbEntity
  8
3
100
AcDbCircle
 10
102.055279
 20
60.590953
 30
0.0
 40
20.679523
100
AcDbArc
 50
307.718156
 51
352.281844
  0
ARC
  5
480
100
AcDbEntity
  8
3
100
AcDbCircle
 10
46.944721
 20
60.590953
 30
0.0
 40
20.679523
100
AcDbArc
 50
187.718156
 51
232.281844
  0
LINE
  5
481
100
AcDbEntity
  8
3
100
AcDbLine
 10
63.007464
 20
57.740426
 30
0.0
 11
36.405986
 21
44.114106
 31
0.0
  0
ARC
  5
482
100
AcDbEntity
  8
3
100
AcDbCircle
 10
74.5
 20
76.5
 30
0.0
 40
62.0
100
AcDbArc
 50
105.647577
 51
74.352423
  0
ARC
  5
483
100
AcDbEntity
  8
3
100
AcDbCircle
 10
74.5
 20
76.5
 30
0.0
 40
62.0
100
AcDbArc
 50
105.647577
 51
74.352423
  0
CIRCLE
  5
484
100
AcDbEntity
  8
3
100
AcDbCircle
 10
74.5
 20
76.5
 30
0.0
 40
70.0
  0
LINE
  5
485
100
AcDbEntity
  8
1
100
AcDbLine
 10
74.5
 20
155.5
 30
0.0
 11
74.5
 21
0.0
 31
0.0
  0
LINE
  5
486
100
AcDbEntity
  8
3
100
AcDbLine
 10
207.0
 20
14.5
 30
0.0
 11
207.0
 21
76.5
 31
0.0
  0
ARC
  5
487
100
AcDbEntity
  8
3
100
AcDbCircle
 10
74.5
 20
76.5
 30
0.0
 40
50.0
100
AcDbArc
 50
220.36976
 51
319.63024
  0
ARC
  5
488
100
AcDbEntity
  8
3
100
AcDbCircle
 10
35.45539
 20
46.053693
 30
0.0
 40
2.160007
100
AcDbArc
 50
237.456905
 51
296.109597
  0
ARC
  5
489
100
AcDbEntity
  8
3
100
AcDbCircle
 10
113.54461
 20
46.053693
 30
0.0
 40
2.160007
100
AcDbArc
 50
243.890403
 51
302.543095
  0
ARC
  5
48A
100
AcDbEntity
  8
3
100
AcDbCircle
 10
226.0
 20
14.571788
 30
5.786942
 40
18.0
100
AcDbArc
 50
147.769398
 51
178.749408
  0
ARC
  5
48B
100
AcDbEntity
  8
3
100
AcDbCircle
 10
207.201353
 20
14.354707
 30
5.786942
 40
0.2
100
AcDbArc
 50
107.842417
 51
181.067332
  0
ARC
  5
48C
100
AcDbEntity
  8
3
100
AcDbCircle
 10
207.804335
 20
14.969007
 30
5.786942
 40
0.2
100
AcDbArc
 50
287.842417
 51
358.749408
  0
LINE
  5
48D
100
AcDbEntity
  8
3
100
AcDbLine
 10
207.140073
 20
14.545087
 30
5.786942
 11
207.865615
 21
14.778626
 31
5.786942
  0
LINE
  5
48E
100
AcDbEntity
  8
3
100
AcDbLine
 10
52.507464
 20
75.92696
 30
0.0
 11
27.405986
 21
59.702564
 31
0.0
  0
ARC
  5
48F
100
AcDbEntity
  8
3
100
AcDbCircle
 10
74.5
 20
76.5
 30
0.0
 40
50.0
100
AcDbArc
 50
100.36976
 51
199.63024
  0
LINE
  5
490
100
AcDbEntity
  8
1
100
AcDbLine
 10
150.0
 20
76.5
 30
5.786942
 11
0.0
 21
76.5
 31
5.786942
  0
ARC
  5
491
100
AcDbEntity
  8
3
100
AcDbCircle
 10
28.610419
 20
57.90953
 30
0.0
 40
2.160007
100
AcDbArc
 50
123.890403
 51
182.543095
  0
ARC
  5
492
100
AcDbEntity
  8
3
100
AcDbCircle
 10
74.5
 20
76.5
 30
0.0
 40
50.0
100
AcDbArc
 50
340.36976
 51
79.63024
  0
LINE
  5
493
100
AcDbEntity
  8
3
100
AcDbLine
 10
64.0
 20
95.832615
 30
0.0
 11
65.5
 21
125.683331
 31
0.0
  0
LINE
  5
494
100
AcDbEntity
  8
3
100
AcDbLine
 10
85.0
 20
95.832615
 30
0.0
 11
83.5
 21
125.683331
 31
0.0
  0
CIRCLE
  5
495
100
AcDbEntity
  8
3
100
AcDbCircle
 10
74.5
 20
76.5
 30
0.0
 40
19.165244
  0
ARC
  5
496
100
AcDbEntity
  8
3
100
AcDbCircle
 10
74.5
 20
76.5
 30
0.0
 40
22.0
100
AcDbArc
 50
238.507431
 51
301.492569
  0
ARC
  5
497
100
AcDbEntity
  8
3
100
AcDbCircle
 10
74.5
 20
69.427207
 30
0.0
 40
27.091534
100
AcDbArc
 50
69.613664
 51
110.386336
  0
ARC
  5
498
100
AcDbEntity
  8
3
100
AcDbCircle
 10
74.5
 20
76.5
 30
0.0
 40
22.0
100
AcDbArc
 50
118.507431
 51
181.492569
  0
ARC
  5
499
100
AcDbEntity
  8
3
100
AcDbCircle
 10
80.625218
 20
80.036397
 30
0.0
 40
27.091534
100
AcDbArc
 50
189.613664
 51
230.386336
  0
ARC
  5
49A
100
AcDbEntity
  8
3
100
AcDbCircle
 10
52.975871
 20
74.92305
 30
0.0
 40
1.107808
100
AcDbArc
 50
32.116331
 51
115.012919
  0
ARC
  5
49B
100
AcDbEntity
  8
3
100
AcDbCircle
 10
62.372256
 20
58.648033
 30
0.0
 40
1.107808
100
AcDbArc
 50
304.987081
 51
27.883669
  0
ARC
  5
49C
100
AcDbEntity
  8
3
100
AcDbCircle
 10
65.103614
 20
95.928918
 30
0.0
 40
1.107808
100
AcDbArc
 50
184.987081
 51
267.883669
  0
ARC
  5
49D
100
AcDbEntity
  8
3
100
AcDbCircle
 10
74.5
 20
76.5
 30
0.0
 40
22.0
100
AcDbArc
 50
358.507431
 51
61.492569
  0
LINE
  5
49E
100
AcDbEntity
  8
3
100
AcDbLine
 10
96.492536
 20
75.92696
 30
0.0
 11
121.594014
 21
59.702564
 31
0.0
  0
ARC
  5
49F
100
AcDbEntity
  8
3
100
AcDbCircle
 10
68.374781
 20
80.036397
 30
0.0
 40
27.091534
100
AcDbArc
 50
309.613664
 51
350.386336
  0
ARC
  5
4A0
100
AcDbEntity
  8
3
100
AcDbCircle
 10
86.627744
 20
58.648033
 30
0.0
 40
1.107808
100
AcDbArc
 50
152.116331
 51
235.012919
  0
ARC
  5
4A1
100
AcDbEntity
  8
3
100
AcDbCircle
 10
96.024129
 20
74.92305
 30
0.0
 40
1.107808
100
AcDbArc
 50
64.987081
 51
147.883669
  0
ARC
  5
4A2
100
AcDbEntity
  8
3
100
AcDbCircle
 10
120.389581
 20
57.90953
 30
0.0
 40
2.160007
100
AcDbArc
 50
357.456905
 51
56.109597
  0
ARC
  5
4A3
100
AcDbEntity
  8
3
100
AcDbCircle
 10
83.896386
 20
95.928918
 30
0.0
 40
1.107808
100
AcDbArc
 50
272.116331
 51
355.012919
  0
ARC
  5
4A4
100
AcDbEntity
  8
3
100
AcDbCircle
 10
89.997724
 20
130.840344
 30
0.0
 40
5.5
100
AcDbArc
 50
77.131949
 51
178.336556
  0
ARC
  5
4A5
100
AcDbEntity
  8
3
100
AcDbCircle
 10
74.5
 20
131.0
 30
0.0
 40
10.0
100
AcDbArc
 50
180.0
 51
0.0
  0
LINE
  5
4A6
100
AcDbEntity
  8
1
100
AcDbLine
 10
56.5
 20
131.0
 30
0.0
 11
93.5
 21
131.0
 31
0.0
  0
ARC
  5
4A7
100
AcDbEntity
  8
3
100
AcDbCircle
 10
59.002276
 20
130.840344
 30
0.0
 40
5.5
100
AcDbArc
 50
1.663444
 51
102.868051
  0
ARC
  5
4A8
100
AcDbEntity
  8
3
100
AcDbCircle
 10
67.65503
 20
125.536778
 30
0.0
 40
2.160007
100
AcDbArc
 50
158.100789
 51
176.109597
  0
ARC
  5
4A9
100
AcDbEntity
  8
3
100
AcDbCircle
 10
81.34497
 20
125.536778
 30
0.0
 40
2.160007
100
AcDbArc
 50
3.890403
 51
21.899211
  0
LINE
  5
4AA
100
AcDbEntity
  8
3
100
AcDbLine
 10
207.0
 20
138.5
 30
0.0
 11
207.0
 21
76.5
 31
0.0
  0
LINE
  5
4AB
100
AcDbEntity
  8
3
100
AcDbLine
 10
219.37945
 20
45.599447
 30
0.0
 11
231.995912
 21
55.005526
 31
0.0
  0
LINE
  5
4AC
100
AcDbEntity
  8
1
100
AcDbLine
 10
215.0
 20
29.75468
 30
5.786942
 11
215.0
 21
76.5
 31
5.786942
  0
LINE
  5
4AD
100
AcDbEntity
  8
3
100
AcDbLine
 10
223.0
 20
48.298712
 30
0.0
 11
223.0
 21
14.5
 31
0.0
  0
ARC
  5
4AE
100
AcDbEntity
  8
3
100
AcDbCircle
 10
214.717517
 20
52.45666
 30
0.0
 40
8.291863
100
AcDbArc
 50
272.207526
 51
304.21015
  0
ARC
  5
4AF
100
AcDbEntity
  8
3
100
AcDbCircle
 10
229.972975
 20
22.742804
 30
5.786942
 40
10.837971
100
AcDbArc
 50
172.446775
 51
229.512589
  0
LINE
  5
4B0
100
AcDbEntity
  8
1
100
AcDbLine
 10
215.0
 20
29.75468
 30
5.786942
 11
215.0
 21
3.429739
 31
5.786942
  0
LINE
  5
4B1
100
AcDbEntity
  8
1
100
AcDbLine
 10
215.0
 20
29.281778
 30
5.786942
 11
215.0
 21
3.272104
 31
5.786942
  0
ARC
  5
4B2
100
AcDbEntity
  8
3
100
AcDbCircle
 10
215.0
 20
14.5
 30
5.786942
 40
8.0
100
AcDbArc
 50
270.0
 51
358.932668
  0
LINE
  5
4B3
100
AcDbEntity
  8
3
100
AcDbLine
 10
219.235172
 20
24.157691
 30
5.786942
 11
219.235172
 21
45.503546
 31
5.786942
  0
ARC
  5
4B4
100
AcDbEntity
  8
3
100
AcDbCircle
 10
215.0
 20
21.5
 30
5.786942
 40
5.0
100
AcDbArc
 50
32.109439
 51
90.0
  0
ARC
  5
4B5
100
AcDbEntity
  8
3
100
AcDbCircle
 10
204.0
 20
14.571788
 30
5.786942
 40
18.0
100
AcDbArc
 50
32.177922
 51
32.230602
  0
DIMENSION
  5
4B6
100
AcDbEntity
  8
0
100
AcDbDimension
  2
*D22
 10
257.0
 20
111.112385
 30
0.0
 11
250.262021
 21
111.112385
 31
0.0
 12
-62.5
 22
-139.5
 32
0.0
 70
   128
  3
STANDARD
100
AcDbAlignedDimension
 13
243.0
 23
94.5
 33
0.0
 14
257.0
 24
92.5
 34
0.0
100
AcDbRotatedDimension
1001
ACAD
1000
DSTYLE
1002
{
1070
    78
1070
     8
1070
   288
1070
     1
1070
   284
1070
     8
1070
   140
1040
5.0
1070
    73
1070
     0
1070
   272
1070
     2
1070
    42
1040
1.0
1070
    44
1040
1.0
1070
   271
1070
     2
1070
    41
1040
2.0
1002
}
  0
DIMENSION
  5
4B7
100
AcDbEntity
  8
0
100
AcDbDimension
  2
*D21
 10
257.0
 20
124.867737
 30
0.0
 11
241.528431
 21
124.867737
 31
0.0
 12
-62.5
 22
-139.5
 32
0.0
 70
   128
  3
STANDARD
100
AcDbAlignedDimension
 13
226.0
 23
95.665245
 33
0.0
 14
257.0
 24
92.5
 34
0.0
100
AcDbRotatedDimension
1001
ACAD
1000
DSTYLE
1002
{
1070
    78
1070
     8
1070
   288
1070
     1
1070
   284
1070
     8
1070
   140
1040
5.0
1070
    73
1070
     0
1070
   272
1070
     2
1070
    42
1040
1.0
1070
    44
1040
1.0
1070
   271
1070
     2
1070
    41
1040
2.0
1002
}
  0
LINE
  5
4B8
100
AcDbEntity
  8
3
100
AcDbLine
 10
241.355062
 20
97.506444
 30
0.0
 11
221.995712
 21
127.328623
 31
0.0
  0
LINE
  5
4B9
100
AcDbEntity
  8
3
100
AcDbLine
 10
226.521712
 20
100.407497
 30
0.0
 11
213.877193
 21
121.0
 31
0.0
  0
LINE
  5
4BA
100
AcDbEntity
  8
1
100
AcDbLine
 10
233.0
 20
76.5
 30
0.0
 11
233.0
 21
111.0
 31
0.0
  0
LINE
  5
4BB
100
AcDbEntity
  8
3
100
AcDbLine
 10
257.0
 20
60.5
 30
0.0
 11
243.0
 21
60.5
 31
0.0
  0
LINE
  5
4BC
100
AcDbEntity
  8
3
100
AcDbLine
 10
243.0
 20
92.5
 30
0.0
 11
257.0
 21
92.5
 31
0.0
  0
LINE
  5
4BD
100
AcDbEntity
  8
3
100
AcDbLine
 10
226.0
 20
57.334756
 30
0.0
 11
226.0
 21
95.665245
 31
0.0
  0
LINE
  5
4BE
100
AcDbEntity
  8
3
100
AcDbLine
 10
223.0
 20
76.5
 30
0.0
 11
223.0
 21
106.142857
 31
0.0
  0
LINE
  5
4BF
100
AcDbEntity
  8
2
100
AcDbLine
 10
231.995912
 20
55.005526
 30
0.0
 11
237.634819
 21
59.169522
 31
0.0
  0
ARC
  5
4C0
100
AcDbEntity
  8
2
100
AcDbCircle
 10
232.030765
 20
68.48721
 30
0.0
 40
10.790402
100
AcDbArc
 50
275.153472
 51
328.779501
  0
ARC
  5
4C1
100
AcDbEntity
  8
2
100
AcDbCircle
 10
233.636613
 20
66.516433
 30
0.0
 40
9.432035
100
AcDbArc
 50
38.205761
 51
93.870108
  0
ARC
  5
4C2
100
AcDbEntity
  8
3
100
AcDbCircle
 10
233.524193
 20
69.266129
 30
0.0
 40
14.342261
100
AcDbArc
 50
253.705001
 51
311.352614
  0
LINE
  5
4C3
100
AcDbEntity
  8
3
100
AcDbLine
 10
214.800285
 20
61.309229
 30
0.0
 11
226.070337
 21
71.182312
 31
0.0
  0
ARC
  5
4C4
100
AcDbEntity
  8
2
100
AcDbCircle
 10
243.006048
 20
66.75
 30
0.0
 40
15.140007
100
AcDbArc
 50
149.210275
 51
210.789725
  0
LINE
  5
4C5
100
AcDbEntity
  8
1
100
AcDbLine
 10
233.0
 20
76.5
 30
0.0
 11
233.0
 21
51.775201
 31
0.0
  0
ARC
  5
4C6
100
AcDbEntity
  8
2
100
AcDbCircle
 10
232.75
 20
61.34741
 30
0.0
 40
3.615637
100
AcDbArc
 50
220.484186
 51
273.964829
  0
ARC
  5
4C7
100
AcDbEntity
  8
3
100
AcDbCircle
 10
231.019348
 20
62.654022
 30
0.0
 40
7.31358
100
AcDbArc
 50
226.661658
 51
258.009858
  0
LINE
  5
4C8
100
AcDbEntity
  8
3
100
AcDbLine
 10
223.0
 20
76.5
 30
0.0
 11
223.0
 21
68.492556
 31
0.0
  0
LINE
  5
4C9
100
AcDbEntity
  8
2
100
AcDbLine
 10
226.070337
 20
71.182312
 30
0.0
 11
230.3564
 21
74.919785
 31
0.0
  0
ARC
  5
4CA
100
AcDbEntity
  8
2
100
AcDbCircle
 10
232.75
 20
72.585514
 30
0.0
 40
3.350785
100
AcDbArc
 50
85.721221
 51
145.155262
  0
ARC
  5
4CB
100
AcDbEntity
  8
2
100
AcDbCircle
 10
228.24715
 20
67.335164
 30
0.0
 40
13.748352
100
AcDbArc
 50
341.154415
 51
21.392882
  0
LINE
  5
4CC
100
AcDbEntity
  8
3
100
AcDbLine
 10
243.0
 20
60.5
 30
0.0
 11
243.0
 21
58.5
 31
0.0
  0
ARC
  5
4CD
100
AcDbEntity
  8
3
100
AcDbCircle
 10
233.524193
 20
83.733871
 30
0.0
 40
14.342261
100
AcDbArc
 50
48.647386
 51
106.294999
  0
ARC
  5
4CE
100
AcDbEntity
  8
3
100
AcDbCircle
 10
231.019348
 20
90.345978
 30
0.0
 40
7.31358
100
AcDbArc
 50
101.990142
 51
133.338342
  0
ARC
  5
4CF
100
AcDbEntity
  8
3
100
AcDbCircle
 10
218.0
 20
95.174867
 30
0.0
 40
10.0
100
AcDbArc
 50
9.053996
 51
31.551385
  0
LINE
  5
4D0
100
AcDbEntity
  8
3
100
AcDbLine
 10
243.0
 20
94.5
 30
0.0
 11
243.0
 21
92.5
 31
0.0
  0
ARC
  5
4D1
100
AcDbEntity
  8
3
100
AcDbCircle
 10
238.0
 20
95.328474
 30
0.0
 40
4.0
100
AcDbArc
 50
360.0
 51
32.99
  0
LINE
  5
4D2
100
AcDbEntity
  8
3
100
AcDbLine
 10
242.0
 20
95.303709
 30
0.0
 11
242.0
 21
95.328474
 31
0.0
  0
LINE
  5
4D3
100
AcDbEntity
  8
3
100
AcDbLine
 10
257.0
 20
92.5
 30
0.0
 11
257.0
 21
60.5
 31
0.0
  0
LWPOLYLINE
  5
4D4
100
AcDbEntity
  8
0
100
AcDbPolyline
 90
        3
 70
     1
 43
0.0
 10
225.8609
 20
112.556012
 10
222.208671
 20
114.664627
 10
222.208671
 20
110.447396
  0
LWPOLYLINE
  5
4D5
100
AcDbEntity
  8
0
100
AcDbPolyline
 90
        3
 70
     1
 43
0.0
 10
225.8609
 20
116.773242
 10
222.208671
 20
118.881857
 10
222.208671
 20
114.664627
  0
LINE
  5
4D6
100
AcDbEntity
  8
3
100
AcDbLine
 10
223.0
 20
125.781565
 30
0.0
 11
223.0
 21
138.5
 31
0.0
  0
LINE
  5
4D7
100
AcDbEntity
  8
3
100
AcDbLine
 10
221.995712
 20
127.328623
 30
0.0
 11
223.0
 21
127.4731
 31
0.0
  0
TEXT
  5
4D8
100
AcDbEntity
  8
0
100
AcDbText
 10
242.422949
 20
128.651328
 30
0.0
 40
5.0
  1
%%P0.1
 41
0.7
  7
BIGFONT
100
AcDbText
  0
LWPOLYLINE
  5
4D9
100
AcDbEntity
  8
0
100
AcDbPolyline
 90
        3
 70
     1
 43
0.0
 10
257.725272
 20
140.353776
 10
261.377501
 20
138.245161
 10
261.377501
 20
142.462391
  0
LWPOLYLINE
  5
4DA
100
AcDbEntity
  8
0
100
AcDbPolyline
 90
        3
 70
     1
 43
0.0
 10
257.725272
 20
136.136546
 10
261.377501
 20
134.02793
 10
261.377501
 20
138.245161
  0
LINE
  5
4DB
100
AcDbEntity
  8
3
100
AcDbLine
 10
219.235172
 20
65.194393
 30
5.786942
 11
219.235172
 21
112.274149
 31
5.786942
  0
LINE
  5
4DC
100
AcDbEntity
  8
1
100
AcDbLine
 10
215.0
 20
123.245321
 30
5.786942
 11
215.0
 21
76.5
 31
5.786942
  0
ARC
  5
4DD
100
AcDbEntity
  8
3
100
AcDbCircle
 10
215.0
 20
138.5
 30
5.786942
 40
8.0
100
AcDbArc
 50
1.067332
 51
90.0
  0
LINE
  5
4DE
100
AcDbEntity
  8
1
100
AcDbLine
 10
215.0
 20
123.718223
 30
5.786942
 11
215.0
 21
149.727897
 31
5.786942
  0
LINE
  5
4DF
100
AcDbEntity
  8
1
100
AcDbLine
 10
215.0
 20
123.245321
 30
5.786942
 11
215.0
 21
149.570262
 31
5.786942
  0
ENDBLK
  5
4E1
100
AcDbEntity
  8
0
100
AcDbBlockEnd
  0
ENDSEC
  0
SECTION
  2
ENTITIES
  0
ARC
  5
4E7
100
AcDbEntity
  8
3
100
AcDbCircle
 10
248.815073
 20
56.585903
 30
5.786942
 40
8.0
100
AcDbArc
 50
181.067332
 51
270.0
  0
LINE
  5
4EA
100
AcDbEntity
  8
1
100
AcDbLine
 10
236.315073
 20
118.585903
 30
5.786942
 11
295.815073
 21
118.585903
 31
5.786942
  0
ARC
  5
4EC
100
AcDbEntity
  8
3
100
AcDbCircle
 10
248.815073
 20
180.585903
 30
5.786942
 40
8.0
100
AcDbArc
 50
90.0
 51
178.932668
  0
LINE
  5
4ED
100
AcDbEntity
  8
1
100
AcDbLine
 10
108.315073
 20
118.585903
 30
0.0
 11
172.336543
 21
81.62309
 31
0.0
  0
LINE
  5
4EE
100
AcDbEntity
  8
1
100
AcDbLine
 10
108.315073
 20
118.585903
 30
0.0
 11
44.51011
 21
81.74809
 31
0.0
  0
LINE
  5
4F0
100
AcDbEntity
  8
3
100
AcDbLine
 10
119.807609
 20
99.826329
 30
0.0
 11
146.409087
 21
86.200009
 31
0.0
  0
ARC
  5
4F1
100
AcDbEntity
  8
3
100
AcDbCircle
 10
135.870353
 20
102.676855
 30
0.0
 40
20.679523
100
AcDbArc
 50
307.718156
 51
352.281844
  0
ARC
  5
4F2
100
AcDbEntity
  8
3
100
AcDbCircle
 10
80.759794
 20
102.676855
 30
0.0
 40
20.679523
100
AcDbArc
 50
187.718156
 51
232.281844
  0
LINE
  5
4F3
100
AcDbEntity
  8
3
100
AcDbLine
 10
96.822538
 20
99.826329
 30
0.0
 11
70.22106
 21
86.200009
 31
0.0
  0
ARC
  5
4F4
100
AcDbEntity
  8
3
100
AcDbCircle
 10
108.315073
 20
118.585903
 30
0.0
 40
62.0
100
AcDbArc
 50
105.647577
 51
74.352423
  0
ARC
  5
4F5
100
AcDbEntity
  8
3
100
AcDbCircle
 10
108.315073
 20
118.585903
 30
0.0
 40
62.0
100
AcDbArc
 50
105.647577
 51
74.352423
  0
CIRCLE
  5
4F6
100
AcDbEntity
  8
3
100
AcDbCircle
 10
108.315073
 20
118.585903
 30
0.0
 40
70.0
  0
LINE
  5
4F7
100
AcDbEntity
  8
1
100
AcDbLine
 10
108.315073
 20
197.585903
 30
0.0
 11
108.315073
 21
42.085903
 31
0.0
  0
LINE
  5
4F8
100
AcDbEntity
  8
3
100
AcDbLine
 10
240.815073
 20
56.585903
 30
0.0
 11
240.815073
 21
118.585903
 31
0.0
  0
ARC
  5
4F9
100
AcDbEntity
  8
3
100
AcDbCircle
 10
108.315073
 20
118.585903
 30
0.0
 40
50.0
100
AcDbArc
 50
220.36976
 51
319.63024
  0
ARC
  5
4FA
100
AcDbEntity
  8
3
100
AcDbCircle
 10
69.270463
 20
88.139596
 30
0.0
 40
2.160007
100
AcDbArc
 50
237.456905
 51
296.109597
  0
ARC
  5
4FB
100
AcDbEntity
  8
3
100
AcDbCircle
 10
147.359684
 20
88.139596
 30
0.0
 40
2.160007
100
AcDbArc
 50
243.890403
 51
302.543095
  0
LINE
  5
500
100
AcDbEntity
  8
3
100
AcDbLine
 10
86.322538
 20
118.012862
 30
0.0
 11
61.22106
 21
101.788467
 31
0.0
  0
ARC
  5
501
100
AcDbEntity
  8
3
100
AcDbCircle
 10
108.315073
 20
118.585903
 30
0.0
 40
50.0
100
AcDbArc
 50
100.36976
 51
199.63024
  0
LINE
  5
502
100
AcDbEntity
  8
1
100
AcDbLine
 10
183.815073
 20
118.585903
 30
5.786942
 11
33.815073
 21
118.585903
 31
5.786942
  0
ARC
  5
503
100
AcDbEntity
  8
3
100
AcDbCircle
 10
62.425493
 20
99.995432
 30
0.0
 40
2.160007
100
AcDbArc
 50
123.890403
 51
182.543095
  0
ARC
  5
504
100
AcDbEntity
  8
3
100
AcDbCircle
 10
108.315073
 20
118.585903
 30
0.0
 40
50.0
100
AcDbArc
 50
340.36976
 51
79.63024
  0
LINE
  5
505
100
AcDbEntity
  8
3
100
AcDbLine
 10
97.815073
 20
137.918518
 30
0.0
 11
99.315073
 21
167.769234
 31
0.0
  0
LINE
  5
506
100
AcDbEntity
  8
3
100
AcDbLine
 10
118.815073
 20
137.918518
 30
0.0
 11
117.315073
 21
167.769234
 31
0.0
  0
CIRCLE
  5
507
100
AcDbEntity
  8
3
100
AcDbCircle
 10
108.315073
 20
118.585903
 30
0.0
 40
19.165244
  0
ARC
  5
508
100
AcDbEntity
  8
3
100
AcDbCircle
 10
108.315073
 20
118.585903
 30
0.0
 40
22.0
100
AcDbArc
 50
238.507431
 51
301.492569
  0
ARC
  5
509
100
AcDbEntity
  8
3
100
AcDbCircle
 10
108.315073
 20
111.51311
 30
0.0
 40
27.091534
100
AcDbArc
 50
69.613664
 51
110.386336
  0
ARC
  5
50A
100
AcDbEntity
  8
3
100
AcDbCircle
 10
108.315073
 20
118.585903
 30
0.0
 40
22.0
100
AcDbArc
 50
118.507431
 51
181.492569
  0
ARC
  5
50B
100
AcDbEntity
  8
3
100
AcDbCircle
 10
114.440292
 20
122.1223
 30
0.0
 40
27.091534
100
AcDbArc
 50
189.613664
 51
230.386336
  0
ARC
  5
50C
100
AcDbEntity
  8
3
100
AcDbCircle
 10
86.790944
 20
117.008953
 30
0.0
 40
1.107808
100
AcDbArc
 50
32.116331
 51
115.012919
  0
ARC
  5
50D
100
AcDbEntity
  8
3
100
AcDbCircle
 10
96.18733
 20
100.733935
 30
0.0
 40
1.107808
100
AcDbArc
 50
304.987081
 51
27.883669
  0
ARC
  5
50E
100
AcDbEntity
  8
3
100
AcDbCircle
 10
98.918688
 20
138.014821
 30
0.0
 40
1.107808
100
AcDbArc
 50
184.987081
 51
267.883669
  0
ARC
  5
50F
100
AcDbEntity
  8
3
100
AcDbCircle
 10
108.315073
 20
118.585903
 30
0.0
 40
22.0
100
AcDbArc
 50
358.507431
 51
61.492569
  0
LINE
  5
510
100
AcDbEntity
  8
3
100
AcDbLine
 10
130.307609
 20
118.012862
 30
0.0
 11
155.409087
 21
101.788467
 31
0.0
  0
ARC
  5
511
100
AcDbEntity
  8
3
100
AcDbCircle
 10
102.189855
 20
122.1223
 30
0.0
 40
27.091534
100
AcDbArc
 50
309.613664
 51
350.386336
  0
ARC
  5
512
100
AcDbEntity
  8
3
100
AcDbCircle
 10
120.442817
 20
100.733935
 30
0.0
 40
1.107808
100
AcDbArc
 50
152.116331
 51
235.012919
  0
ARC
  5
513
100
AcDbEntity
  8
3
100
AcDbCircle
 10
129.839203
 20
117.008953
 30
0.0
 40
1.107808
100
AcDbArc
 50
64.987081
 51
147.883669
  0
ARC
  5
514
100
AcDbEntity
  8
3
100
AcDbCircle
 10
154.204654
 20
99.995432
 30
0.0
 40
2.160007
100
AcDbArc
 50
357.456905
 51
56.109597
  0
ARC
  5
515
100
AcDbEntity
  8
3
100
AcDbCircle
 10
117.711459
 20
138.014821
 30
0.0
 40
1.107808
100
AcDbArc
 50
272.116331
 51
355.012919
  0
ARC
  5
516
100
AcDbEntity
  8
3
100
AcDbCircle
 10
123.812797
 20
172.926246
 30
0.0
 40
5.5
100
AcDbArc
 50
77.131949
 51
178.336556
  0
ARC
  5
517
100
AcDbEntity
  8
3
100
AcDbCircle
 10
108.315073
 20
173.085903
 30
0.0
 40
10.0
100
AcDbArc
 50
180.0
 51
0.0
  0
LINE
  5
518
100
AcDbEntity
  8
1
100
AcDbLine
 10
90.315073
 20
173.085903
 30
0.0
 11
127.315073
 21
173.085903
 31
0.0
  0
ARC
  5
519
100
AcDbEntity
  8
3
100
AcDbCircle
 10
92.81735
 20
172.926246
 30
0.0
 40
5.5
100
AcDbArc
 50
1.663444
 51
102.868051
  0
ARC
  5
51A
100
AcDbEntity
  8
3
100
AcDbCircle
 10
101.470103
 20
167.622681
 30
0.0
 40
2.160007
100
AcDbArc
 50
158.100789
 51
176.109597
  0
ARC
  5
51B
100
AcDbEntity
  8
3
100
AcDbCircle
 10
115.160044
 20
167.622681
 30
0.0
 40
2.160007
100
AcDbArc
 50
3.890403
 51
21.899211
  0
LINE
  5
51C
100
AcDbEntity
  8
3
100
AcDbLine
 10
240.815073
 20
180.585903
 30
0.0
 11
240.815073
 21
118.585903
 31
0.0
  0
LINE
  5
51D
100
AcDbEntity
  8
3
100
AcDbLine
 10
256.815073
 20
90.384615
 30
0.0
 11
265.810986
 21
97.091429
 31
0.0
  0
LINE
  5
51F
100
AcDbEntity
  8
3
100
AcDbLine
 10
256.815073
 20
90.384615
 30
0.0
 11
256.815073
 21
56.585903
 31
0.0
  0
ARC
  5
524
100
AcDbEntity
  8
3
100
AcDbCircle
 10
248.815073
 20
56.585903
 30
5.786942
 40
8.0
100
AcDbArc
 50
270.0
 51
358.932668
  0
LINE
  5
52A
100
AcDbEntity
  8
3
100
AcDbLine
 10
275.170136
 20
139.592347
 30
0.0
 11
256.815073
 21
167.867468
 31
0.0
  0
LINE
  5
52D
100
AcDbEntity
  8
3
100
AcDbLine
 10
289.315073
 20
102.585903
 30
0.0
 11
276.815073
 21
102.585903
 31
0.0
  0
LINE
  5
52E
100
AcDbEntity
  8
3
100
AcDbLine
 10
276.815073
 20
134.585903
 30
0.0
 11
289.315073
 21
134.585903
 31
0.0
  0
LINE
  5
52F
100
AcDbEntity
  8
3
100
AcDbLine
 10
259.815073
 20
99.420659
 30
0.0
 11
259.815073
 21
137.751148
 31
0.0
  0
ARC
  5
534
100
AcDbEntity
  8
3
100
AcDbCircle
 10
267.339267
 20
111.352032
 30
0.0
 40
14.342261
100
AcDbArc
 50
253.705001
 51
311.352614
  0
LINE
  5
535
100
AcDbEntity
  8
3
100
AcDbLine
 10
256.815073
 20
110.578458
 30
0.0
 11
259.88541
 21
113.268215
 31
0.0
  0
ARC
  5
539
100
AcDbEntity
  8
3
100
AcDbCircle
 10
264.834421
 20
104.739925
 30
0.0
 40
7.31358
100
AcDbArc
 50
226.661658
 51
258.009858
  0
LINE
  5
53E
100
AcDbEntity
  8
3
100
AcDbLine
 10
276.815073
 20
102.585903
 30
0.0
 11
276.815073
 21
100.585903
 31
0.0
  0
ARC
  5
53F
100
AcDbEntity
  8
3
100
AcDbCircle
 10
267.339267
 20
125.819774
 30
0.0
 40
14.342261
100
AcDbArc
 50
48.647386
 51
106.294999
  0
ARC
  5
540
100
AcDbEntity
  8
3
100
AcDbCircle
 10
264.834421
 20
132.431881
 30
0.0
 40
7.31358
100
AcDbArc
 50
101.990142
 51
133.338342
  0
ARC
  5
541
100
AcDbEntity
  8
3
100
AcDbCircle
 10
251.815073
 20
137.26077
 30
0.0
 40
10.0
100
AcDbArc
 50
9.053996
 51
31.551385
  0
LINE
  5
542
100
AcDbEntity
  8
3
100
AcDbLine
 10
276.815073
 20
136.585903
 30
0.0
 11
276.815073
 21
134.585903
 31
0.0
  0
ARC
  5
543
100
AcDbEntity
  8
3
100
AcDbCircle
 10
271.815073
 20
137.414377
 30
0.0
 40
4.0
100
AcDbArc
 50
360.0
 51
32.99
  0
LINE
  5
544
100
AcDbEntity
  8
3
100
AcDbLine
 10
275.815073
 20
137.389612
 30
0.0
 11
275.815073
 21
137.414377
 31
0.0
  0
LINE
  5
545
100
AcDbEntity
  8
3
100
AcDbLine
 10
290.815073
 20
133.085903
 30
0.0
 11
290.815073
 21
104.085903
 31
0.0
  0
LINE
  5
548
100
AcDbEntity
  8
3
100
AcDbLine
 10
256.815073
 20
167.867468
 30
0.0
 11
256.815073
 21
180.585903
 31
0.0
  0
ARC
  5
54F
100
AcDbEntity
  8
3
100
AcDbCircle
 10
248.815073
 20
180.585903
 30
5.786942
 40
8.0
100
AcDbArc
 50
1.067332
 51
90.0
  0
ARC
  5
584
100
AcDbEntity
  8
3
100
AcDbCircle
 10
289.315073
 20
133.085903
 30
0.0
 40
1.5
100
AcDbArc
 50
0.0
 51
90.0
  0
ARC
  5
585
100
AcDbEntity
  8
3
100
AcDbCircle
 10
289.315073
 20
104.085903
 30
0.0
 40
1.5
100
AcDbArc
 50
270.0
 51
0.0
  0
LINE
  5
586
100
AcDbEntity
  8
3
100
AcDbLine
 10
256.815073
 20
167.867468
 30
0.0
 11
256.815073
 21
90.384615
 31
0.0
  0
LINE
  5
587
100
AcDbEntity
  8
3
100
AcDbLine
 10
260.336786
 20
142.4934
 30
0.0
 11
256.815073
 21
147.885943
 31
0.0
  0
LINE
  5
588
100
AcDbEntity
  8
3
100
AcDbLine
 10
276.815073
 20
134.585903
 30
0.0
 11
276.815073
 21
102.585903
 31
0.0
  0
ENDSEC
  0
SECTION
  2
OBJECTS
  0
DICTIONARY
  5
C
100
AcDbDictionary
  3
ACAD_GROUP
350
D
  3
ACAD_MLINESTYLE
350
1B
  0
DICTIONARY
  5
5A
100
AcDbDictionary
280
     1
  3
ACAD_XREC_ROUNDTRIP
360
5B
  0
DICTIONARY
  5
D
102
{ACAD_REACTORS
330
C
102
}
100
AcDbDictionary
  0
DICTIONARY
  5
1B
102
{ACAD_REACTORS
330
C
102
}
100
AcDbDictionary
  3
STANDARD
350
1C
  0
XRECORD
  5
5B
102
{ACAD_REACTORS
330
5A
102
}
100
AcDbXrecord
102
PLOTBIT
280
     0
  0
MLINESTYLE
  5
1C
102
{ACAD_REACTORS
330
1B
102
}
100
AcDbMlineStyle
  2
STANDARD
 70
     0
  3

 62
   256
 51
90.0
 52
90.0
 71
     2
 49
0.5
 62
   256
  6
BYLAYER
 49
-0.5
 62
   256
  6
BYLAYER
  0
ENDSEC
  0
EOF
