  0
SECTION
  2
HEADER
  9
$ACADVER
  1
AC1014
  9
$ACADMAINTVER
 70
     0
  9
$DWGCODEPAGE
  3
ANSI_932
  9
$INSBASE
 10
0.0
 20
0.0
 30
0.0
  9
$EXTMIN
 10
24.63569
 20
33.769486
 30
0.0
  9
$EXTMAX
 10
78.63569
 20
55.769486
 30
0.0
  9
$LIMMIN
 10
0.0
 20
0.0
  9
$LIMMAX
 10
100.0
 20
70.0
  9
$ORTHOMODE
 70
     1
  9
$REGENMODE
 70
     1
  9
$FILLMODE
 70
     1
  9
$QTEXTMODE
 70
     0
  9
$MIRRTEXT
 70
     1
  9
$DRAGMODE
 70
     0
  9
$LTSCALE
 40
5.0
  9
$OSMODE
 70
    33
  9
$ATTMODE
 70
     2
  9
$TEXTSIZE
 40
3.0
  9
$TRACEWID
 40
0.05
  9
$TEXTSTYLE
  7
BIGFONT
  9
$CLAYER
  8
0
  9
$CELTYPE
  6
BYLAYER
  9
$CECOLOR
 62
   256
  9
$CELTSCALE
 40
1.0
  9
$DELOBJ
 70
     1
  9
$DISPSILH
 70
     0
  9
$DIMSCALE
 40
0.5
  9
$DIMASZ
 40
3.0
  9
$DIMEXO
 40
2.0
  9
$DIMDLI
 40
0.38
  9
$DIMRND
 40
0.0
  9
$DIMDLE
 40
0.0
  9
$DIMEXE
 40
2.0
  9
$DIMTP
 40
0.0
  9
$DIMTM
 40
0.0
  9
$DIMTXT
 40
3.2
  9
$DIMCEN
 40
0.09
  9
$DIMTSZ
 40
0.0
  9
$DIMTOL
 70
     0
  9
$DIMLIM
 70
     0
  9
$DIMTIH
 70
     0
  9
$DIMTOH
 70
     0
  9
$DIMSE1
 70
     0
  9
$DIMSE2
 70
     0
  9
$DIMTAD
 70
     1
  9
$DIMZIN
 70
     0
  9
$DIMBLK
  1

  9
$DIMASO
 70
     0
  9
$DIMSHO
 70
     0
  9
$DIMPOST
  1

  9
$DIMAPOST
  1

  9
$DIMALT
 70
     0
  9
$DIMALTD
 70
     2
  9
$DIMALTF
 40
25.4
  9
$DIMLFAC
 40
1.0
  9
$DIMTOFL
 70
     0
  9
$DIMTVP
 40
0.0
  9
$DIMTIX
 70
     0
  9
$DIMSOXD
 70
     0
  9
$DIMSAH
 70
     0
  9
$DIMBLK1
  1

  9
$DIMBLK2
  1

  9
$DIMSTYLE
  2
STANDARD
  9
$DIMCLRD
 70
     0
  9
$DIMCLRE
 70
     0
  9
$DIMCLRT
 70
     0
  9
$DIMTFAC
 40
1.0
  9
$DIMGAP
 40
0.09
  9
$DIMJUST
 70
     0
  9
$DIMSD1
 70
     0
  9
$DIMSD2
 70
     0
  9
$DIMTOLJ
 70
     1
  9
$DIMTZIN
 70
     0
  9
$DIMALTZ
 70
     0
  9
$DIMALTTZ
 70
     0
  9
$DIMFIT
 70
     5
  9
$DIMUPT
 70
     0
  9
$DIMUNIT
 70
     2
  9
$DIMDEC
 70
     4
  9
$DIMTDEC
 70
     4
  9
$DIMALTU
 70
     2
  9
$DIMALTTD
 70
     2
  9
$DIMTXSTY
  7
BIGFONT
  9
$DIMAUNIT
 70
     0
  9
$LUNITS
 70
     2
  9
$LUPREC
 70
     4
  9
$SKETCHINC
 40
0.1
  9
$FILLETRAD
 40
0.0
  9
$AUNITS
 70
     0
  9
$AUPREC
 70
     0
  9
$MENU
  1
ACAD
  9
$ELEVATION
 40
0.0
  9
$PELEVATION
 40
0.0
  9
$THICKNESS
 40
0.0
  9
$LIMCHECK
 70
     0
  9
$BLIPMODE
 70
     0
  9
$CHAMFERA
 40
0.0
  9
$CHAMFERB
 40
0.0
  9
$CHAMFERC
 40
0.0
  9
$CHAMFERD
 40
0.0
  9
$SKPOLY
 70
     0
  9
$TDCREATE
 40
2450868.796797569
  9
$TDUPDATE
 40
2453594.646231366
  9
$TDINDWG
 40
0.0025826389
  9
$TDUSRTIMER
 40
0.0025826389
  9
$USRTIMER
 70
     1
  9
$ANGBASE
 50
0.0
  9
$ANGDIR
 70
     0
  9
$PDMODE
 70
     0
  9
$PDSIZE
 40
0.0
  9
$PLINEWID
 40
0.0
  9
$COORDS
 70
     0
  9
$SPLFRAME
 70
     0
  9
$SPLINETYPE
 70
     6
  9
$SPLINESEGS
 70
     8
  9
$ATTDIA
 70
     0
  9
$ATTREQ
 70
     1
  9
$HANDLING
 70
     1
  9
$HANDSEED
  5
407
  9
$SURFTAB1
 70
     6
  9
$SURFTAB2
 70
     6
  9
$SURFTYPE
 70
     6
  9
$SURFU
 70
     6
  9
$SURFV
 70
     6
  9
$UCSNAME
  2

  9
$UCSORG
 10
0.0
 20
0.0
 30
0.0
  9
$UCSXDIR
 10
1.0
 20
0.0
 30
0.0
  9
$UCSYDIR
 10
0.0
 20
1.0
 30
0.0
  9
$PUCSNAME
  2

  9
$PUCSORG
 10
0.0
 20
0.0
 30
0.0
  9
$PUCSXDIR
 10
1.0
 20
0.0
 30
0.0
  9
$PUCSYDIR
 10
0.0
 20
1.0
 30
0.0
  9
$USERI1
 70
     0
  9
$USERI2
 70
     0
  9
$USERI3
 70
     0
  9
$USERI4
 70
     0
  9
$USERI5
 70
     0
  9
$USERR1
 40
0.0
  9
$USERR2
 40
0.0
  9
$USERR3
 40
0.0
  9
$USERR4
 40
0.0
  9
$USERR5
 40
0.0
  9
$WORLDVIEW
 70
     1
  9
$SHADEDGE
 70
     3
  9
$SHADEDIF
 70
    70
  9
$TILEMODE
 70
     1
  9
$MAXACTVP
 70
    16
  9
$PINSBASE
 10
0.0
 20
0.0
 30
0.0
  9
$PLIMCHECK
 70
     0
  9
$PEXTMIN
 10
1.000000E+20
 20
1.000000E+20
 30
1.000000E+20
  9
$PEXTMAX
 10
-1.000000E+20
 20
-1.000000E+20
 30
-1.000000E+20
  9
$PLIMMIN
 10
0.0
 20
0.0
  9
$PLIMMAX
 10
12.0
 20
9.0
  9
$UNITMODE
 70
     0
  9
$VISRETAIN
 70
     0
  9
$PLINEGEN
 70
     1
  9
$PSLTSCALE
 70
     0
  9
$TREEDEPTH
 70
  3020
  9
$PICKSTYLE
 70
     1
  9
$CMLSTYLE
  2
STANDARD
  9
$CMLJUST
 70
     0
  9
$CMLSCALE
 40
1.0
  9
$PROXYGRAPHICS
 70
     1
  9
$MEASUREMENT
 70
     0
  0
ENDSEC
  0
SECTION
  2
CLASSES
  0
CLASS
  1
DICTIONARYVAR
  2
AcDbDictionaryVar
  3
"AutoCAD"
 90
        0
280
     0
281
     0
  0
CLASS
  1
LWPOLYLINE
  2
AcDbPolyline
  3
"AutoCAD"
 90
        0
280
     0
281
     1
  0
ENDSEC
  0
SECTION
  2
TABLES
  0
TABLE
  2
VPORT
  5
15A
100
AcDbSymbolTable
 70
     2
  0
VPORT
  5
406
100
AcDbSymbolTableRecord
100
AcDbViewportTableRecord
  2
*ACTIVE
 70
     0
 10
0.0
 20
0.0
 11
1.0
 21
1.0
 12
62.076772
 22
43.260755
 13
0.0
 23
0.0
 14
5.0
 24
5.0
 15
10.0
 25
10.0
 16
0.0
 26
0.0
 36
1.0
 17
0.0
 27
0.0
 37
0.0
 40
86.521511
 41
1.434944
 42
50.0
 43
0.0
 44
0.0
 50
0.0
 51
0.0
 71
     0
 72
   500
 73
     1
 74
     1
 75
     0
 76
     0
 77
     0
 78
     1
  0
ENDTAB
  0
TABLE
  2
LTYPE
  5
157
100
AcDbSymbolTable
 70
     4
  0
LTYPE
  5
163
100
AcDbSymbolTableRecord
100
AcDbLinetypeTableRecord
  2
BYBLOCK
 70
     0
  3

 72
    65
 73
     0
 40
0.0
  0
LTYPE
  5
164
100
AcDbSymbolTableRecord
100
AcDbLinetypeTableRecord
  2
BYLAYER
 70
     0
  3

 72
    65
 73
     0
 40
0.0
  0
LTYPE
  5
165
100
AcDbSymbolTableRecord
100
AcDbLinetypeTableRecord
  2
CONTINUOUS
 70
     0
  3
Solid line
 72
    65
 73
     0
 40
0.0
  0
LTYPE
  5
171
100
AcDbSymbolTableRecord
100
AcDbLinetypeTableRecord
  2
CENTER
 70
     0
  3
____ _ ____ _ ____ _ ____ _ ____ _ ____ _ ____
 72
    65
 73
     4
 40
2.0
 49
1.25
 74
     0
 49
-0.25
 74
     0
 49
0.25
 74
     0
 49
-0.25
 74
     0
  0
LTYPE
  5
1A9
100
AcDbSymbolTableRecord
100
AcDbLinetypeTableRecord
  2
TENSEN
 70
     0
  3

 72
    65
 73
     2
 40
3.0
 49
2.0
 74
     0
 49
-1.0
 74
     0
  0
LTYPE
  5
1AA
100
AcDbSymbolTableRecord
100
AcDbLinetypeTableRecord
  2
ITTEN
 70
     0
  3

 72
    65
 73
     4
 40
5.5
 49
2.5
 74
     0
 49
-1.0
 74
     0
 49
1.0
 74
     0
 49
-1.0
 74
     0
  0
ENDTAB
  0
TABLE
  2
LAYER
  5
154
100
AcDbSymbolTable
 70
     7
  0
LAYER
  5
160
100
AcDbSymbolTableRecord
100
AcDbLayerTableRecord
  2
0
 70
     0
 62
     7
  6
CONTINUOUS
  0
LAYER
  5
176
100
AcDbSymbolTableRecord
100
AcDbLayerTableRecord
  2
1
 70
     0
 62
     1
  6
CENTER
  0
LAYER
  5
177
100
AcDbSymbolTableRecord
100
AcDbLayerTableRecord
  2
3
 70
     0
 62
     3
  6
CONTINUOUS
  0
LAYER
  5
178
100
AcDbSymbolTableRecord
100
AcDbLayerTableRecord
  2
10
 70
     0
 62
     7
  6
CONTINUOUS
  0
LAYER
  5
179
100
AcDbSymbolTableRecord
100
AcDbLayerTableRecord
  2
11
 70
     0
 62
     3
  6
CONTINUOUS
  0
LAYER
  5
1AB
100
AcDbSymbolTableRecord
100
AcDbLayerTableRecord
  2
2
 70
     0
 62
     2
  6
TENSEN
  0
LAYER
  5
1AC
100
AcDbSymbolTableRecord
100
AcDbLayerTableRecord
  2
DEFPOINTS
 70
     0
 62
     7
  6
CONTINUOUS
  0
ENDTAB
  0
TABLE
  2
STYLE
  5
155
100
AcDbSymbolTable
 70
     3
  0
STYLE
  5
161
100
AcDbSymbolTableRecord
100
AcDbTextStyleTableRecord
  2
STANDARD
 70
     0
 40
0.0
 41
1.0
 50
0.0
 71
     0
 42
0.2
  3
TXT
  4
BIGFONT
  0
STYLE
  5
16F
100
AcDbSymbolTableRecord
100
AcDbTextStyleTableRecord
  2
07500
 70
     0
 40
0.0
 41
0.75
 50
0.0
 71
     0
 42
6.0
  3
TXT
  4
BIGFONT
  0
STYLE
  5
170
100
AcDbSymbolTableRecord
100
AcDbTextStyleTableRecord
  2
BIGFONT
 70
     0
 40
3.0
 41
0.8
 50
0.0
 71
     0
 42
3.0
  3
txt.shx
  4
bigfont
  0
ENDTAB
  0
TABLE
  2
VIEW
  5
158
100
AcDbSymbolTable
 70
     1
  0
VIEW
  5
172
100
AcDbSymbolTableRecord
100
AcDbViewTableRecord
  2
ALL
 70
     0
 40
135.0
 10
110.495798
 20
67.5
 41
0.0
 11
0.0
 21
0.0
 31
1.0
 12
0.0
 22
0.0
 32
0.0
 42
0.0
 43
0.0
 44
0.0
 50
0.0
 71
     0
  0
ENDTAB
  0
TABLE
  2
UCS
  5
159
100
AcDbSymbolTable
 70
     0
  0
ENDTAB
  0
TABLE
  2
APPID
  5
15B
100
AcDbSymbolTable
 70
     1
  0
APPID
  5
162
100
AcDbSymbolTableRecord
100
AcDbRegAppTableRecord
  2
ACAD
 70
     0
  0
ENDTAB
  0
TABLE
  2
DIMSTYLE
  5
15C
100
AcDbSymbolTable
 70
     1
  0
DIMSTYLE
105
175
100
AcDbSymbolTableRecord
100
AcDbDimStyleTableRecord
  2
STANDARD
 70
     0
  3

  4

  5

  6

  7

 40
1.0
 41
0.18
 42
0.0625
 43
0.38
 44
0.18
 45
0.0
 46
0.0
 47
0.0
 48
0.0
140
0.18
141
0.09
142
0.0
143
25.4
144
1.0
145
0.0
146
1.0
147
0.09
 71
     0
 72
     0
 73
     1
 74
     1
 75
     0
 76
     0
 77
     0
 78
     0
170
     0
171
     2
172
     0
173
     0
174
     0
175
     0
176
     0
177
     0
178
     0
270
     2
271
     4
272
     4
273
     2
274
     2
340
170
275
     0
280
     0
281
     0
282
     0
283
     1
284
     0
285
     0
286
     0
287
     5
288
     0
  0
ENDTAB
  0
TABLE
  2
BLOCK_RECORD
  5
153
100
AcDbSymbolTable
 70
    17
  0
BLOCK_RECORD
  5
169
100
AcDbSymbolTableRecord
100
AcDbBlockTableRecord
  2
*MODEL_SPACE
  0
BLOCK_RECORD
  5
166
100
AcDbSymbolTableRecord
100
AcDbBlockTableRecord
  2
*PAPER_SPACE
  0
BLOCK_RECORD
  5
16E
100
AcDbSymbolTableRecord
100
AcDbBlockTableRecord
  2
QQ
  0
BLOCK_RECORD
  5
184
100
AcDbSymbolTableRecord
100
AcDbBlockTableRecord
  2
*D1
  0
BLOCK_RECORD
  5
18F
100
AcDbSymbolTableRecord
100
AcDbBlockTableRecord
  2
*D2
  0
BLOCK_RECORD
  5
19C
100
AcDbSymbolTableRecord
100
AcDbBlockTableRecord
  2
*D3
  0
BLOCK_RECORD
  5
1AD
100
AcDbSymbolTableRecord
100
AcDbBlockTableRecord
  2
A$C6CD96F62
  0
BLOCK_RECORD
  5
2CF
100
AcDbSymbolTableRecord
100
AcDbBlockTableRecord
  2
*D8
  0
BLOCK_RECORD
  5
2DA
100
AcDbSymbolTableRecord
100
AcDbBlockTableRecord
  2
*D9
  0
BLOCK_RECORD
  5
2E7
100
AcDbSymbolTableRecord
100
AcDbBlockTableRecord
  2
*D10
  0
BLOCK_RECORD
  5
2F4
100
AcDbSymbolTableRecord
100
AcDbBlockTableRecord
  2
*D11
  0
BLOCK_RECORD
  5
301
100
AcDbSymbolTableRecord
100
AcDbBlockTableRecord
  2
A$C00CA64FC
  0
ENDTAB
  0
ENDSEC
  0
SECTION
  2
BLOCKS
  0
BLOCK
  5
17C
100
AcDbEntity
  8
0
100
AcDbBlockBegin
  2
*MODEL_SPACE
 70
     0
 10
0.0
 20
0.0
 30
0.0
  3
*MODEL_SPACE
  1

  0
ENDBLK
  5
17D
100
AcDbEntity
  8
0
100
AcDbBlockEnd
  0
BLOCK
  5
17A
100
AcDbEntity
 67
     1
  8
0
100
AcDbBlockBegin
  2
*PAPER_SPACE
 70
     0
 10
0.0
 20
0.0
 30
0.0
  3
*PAPER_SPACE
  1

  0
ENDBLK
  5
17B
100
AcDbEntity
 67
     1
  8
0
100
AcDbBlockEnd
  0
BLOCK
  5
2B
100
AcDbEntity
  8
0
100
AcDbBlockBegin
  2
QQ
 70
     0
 10
270.0
 20
0.0
 30
0.0
  3
QQ
  1

  0
LINE
  5
2C
100
AcDbEntity
  8
11
100
AcDbLine
 10
173.0
 20
36.0
 30
0.0
 11
270.0
 21
36.0
 31
0.0
  0
TEXT
  5
2D
100
AcDbEntity
  8
11
100
AcDbText
 10
175.0
 20
32.5
 30
0.0
 40
2.5
  1
部品名称
100
AcDbText
  0
LINE
  5
2E
100
AcDbEntity
  8
11
100
AcDbLine
 10
173.0
 20
36.0
 30
0.0
 11
173.0
 21
0.0
 31
0.0
  0
LINE
  5
2F
100
AcDbEntity
  8
11
100
AcDbLine
 10
173.0
 20
24.0
 30
0.0
 11
270.0
 21
24.0
 31
0.0
  0
TEXT
  5
30
100
AcDbEntity
  8
11
100
AcDbText
 10
175.0
 20
20.5
 30
0.0
 40
2.5
  1
品番
100
AcDbText
  0
LINE
  5
31
100
AcDbEntity
  8
11
100
AcDbLine
 10
173.0
 20
12.0
 30
0.0
 11
270.0
 21
12.0
 31
0.0
  0
TEXT
  5
32
100
AcDbEntity
  8
11
100
AcDbText
 10
175.0
 20
8.5
 30
0.0
 40
2.5
  1
尺度
100
AcDbText
  0
TEXT
  5
33
100
AcDbEntity
  8
11
100
AcDbText
 10
200.0
 20
8.5
 30
0.0
 40
2.5
  1
図番
100
AcDbText
  0
LINE
  5
34
100
AcDbEntity
  8
11
100
AcDbLine
 10
198.0
 20
0.0
 30
0.0
 11
198.0
 21
12.0
 31
0.0
  0
ENDBLK
  5
35
100
AcDbEntity
  8
0
100
AcDbBlockEnd
  0
BLOCK
  5
18D
100
AcDbEntity
  8
0
100
AcDbBlockBegin
  2
*D1
 70
     1
 10
0.0
 20
0.0
 30
0.0
  3
*D1
  1

  0
LINE
  5
185
100
AcDbEntity
  8
0
  6
BYBLOCK
 62
     0
100
AcDbLine
 10
97.5
 20
164.5
 30
0.0
 11
99.5
 21
164.5
 31
0.0
  0
LINE
  5
186
100
AcDbEntity
  8
0
  6
BYBLOCK
 62
     0
100
AcDbLine
 10
99.5
 20
164.5
 30
0.0
 11
104.229435
 21
159.35931
 31
0.0
  0
MTEXT
  5
187
100
AcDbEntity
  8
0
  6
BYBLOCK
 62
     0
100
AcDbMText
 10
94.75
 20
164.5
 30
0.0
 40
3.5
 41
0.0
 71
     5
 72
     1
  1
\A1;\U+220516
  0
SOLID
  5
188
100
AcDbEntity
  8
0
  6
BYBLOCK
 62
     0
100
AcDbTrace
 10
104.474745
 20
159.584996
 30
0.0
 11
103.984124
 21
159.133625
 31
0.0
 12
105.583548
 22
157.887448
 32
0.0
 13
105.583548
 23
157.887448
 33
0.0
  0
LINE
  5
189
100
AcDbEntity
  8
0
  6
BYBLOCK
 62
     0
100
AcDbLine
 10
110.9
 20
152.0
 30
0.0
 11
111.1
 21
152.0
 31
0.0
  0
LINE
  5
18A
100
AcDbEntity
  8
0
  6
BYBLOCK
 62
     0
100
AcDbLine
 10
111.0
 20
151.9
 30
0.0
 11
111.0
 21
152.1
 31
0.0
  0
POINT
  5
18B
100
AcDbEntity
  8
DEFPOINTS
  6
BYBLOCK
 62
     0
100
AcDbPoint
 10
105.583548
 20
157.887448
 30
0.0
  0
POINT
  5
18C
100
AcDbEntity
  8
DEFPOINTS
  6
BYBLOCK
 62
     0
100
AcDbPoint
 10
116.416452
 20
146.112552
 30
0.0
  0
ENDBLK
  5
18E
100
AcDbEntity
  8
0
100
AcDbBlockEnd
  0
BLOCK
  5
19A
100
AcDbEntity
  8
0
100
AcDbBlockBegin
  2
*D2
 70
     1
 10
0.0
 20
0.0
 30
0.0
  3
*D2
  1

  0
LINE
  5
190
100
AcDbEntity
  8
0
  6
BYBLOCK
 62
     0
100
AcDbLine
 10
131.0
 20
159.6
 30
0.0
 11
131.0
 21
174.031337
 31
0.0
  0
LINE
  5
191
100
AcDbEntity
  8
0
  6
BYBLOCK
 62
     0
100
AcDbLine
 10
133.5
 20
159.6
 30
0.0
 11
133.5
 21
174.031337
 31
0.0
  0
LINE
  5
192
100
AcDbEntity
  8
0
  6
BYBLOCK
 62
     0
100
AcDbLine
 10
135.5
 20
173.831337
 30
0.0
 11
137.5
 21
173.831337
 31
0.0
  0
LINE
  5
193
100
AcDbEntity
  8
0
  6
BYBLOCK
 62
     0
100
AcDbLine
 10
129.0
 20
173.831337
 30
0.0
 11
126.154419
 21
173.831337
 31
0.0
  0
SOLID
  5
194
100
AcDbEntity
  8
0
  6
BYBLOCK
 62
     0
100
AcDbTrace
 10
135.5
 20
174.16467
 30
0.0
 11
135.5
 21
173.498003
 31
0.0
 12
133.5
 22
173.831337
 32
0.0
 13
133.5
 23
173.831337
 33
0.0
  0
SOLID
  5
195
100
AcDbEntity
  8
0
  6
BYBLOCK
 62
     0
100
AcDbTrace
 10
129.0
 20
174.16467
 30
0.0
 11
129.0
 21
173.498003
 31
0.0
 12
131.0
 22
173.831337
 32
0.0
 13
131.0
 23
173.831337
 33
0.0
  0
MTEXT
  5
196
100
AcDbEntity
  8
0
  6
BYBLOCK
 62
     0
100
AcDbMText
 10
123.854419
 20
173.831337
 30
0.0
 40
3.5
 41
0.0
 71
     5
 72
     1
  1
\A1;2.5
  0
POINT
  5
197
100
AcDbEntity
  8
DEFPOINTS
  6
BYBLOCK
 62
     0
100
AcDbPoint
 10
131.0
 20
159.5
 30
0.0
  0
POINT
  5
198
100
AcDbEntity
  8
DEFPOINTS
  6
BYBLOCK
 62
     0
100
AcDbPoint
 10
133.5
 20
159.5
 30
0.0
  0
POINT
  5
199
100
AcDbEntity
  8
DEFPOINTS
  6
BYBLOCK
 62
     0
100
AcDbPoint
 10
133.5
 20
173.831337
 30
0.0
  0
ENDBLK
  5
19B
100
AcDbEntity
  8
0
100
AcDbBlockEnd
  0
BLOCK
  5
1A7
100
AcDbEntity
  8
0
100
AcDbBlockBegin
  2
*D3
 70
     1
 10
0.0
 20
0.0
 30
0.0
  3
*D3
  1

  0
LINE
  5
19D
100
AcDbEntity
  8
0
  6
BYBLOCK
 62
     0
100
AcDbLine
 10
133.5
 20
159.6
 30
0.0
 11
133.5
 21
169.498064
 31
0.0
  0
LINE
  5
19E
100
AcDbEntity
  8
0
  6
BYBLOCK
 62
     0
100
AcDbLine
 10
139.5
 20
155.6
 30
0.0
 11
139.5
 21
169.498064
 31
0.0
  0
LINE
  5
19F
100
AcDbEntity
  8
0
  6
BYBLOCK
 62
     0
100
AcDbLine
 10
135.5
 20
169.298064
 30
0.0
 11
135.916793
 21
169.298064
 31
0.0
  0
LINE
  5
1A0
100
AcDbEntity
  8
0
  6
BYBLOCK
 62
     0
100
AcDbLine
 10
137.5
 20
169.298064
 30
0.0
 11
137.4
 21
169.298064
 31
0.0
  0
SOLID
  5
1A1
100
AcDbEntity
  8
0
  6
BYBLOCK
 62
     0
100
AcDbTrace
 10
135.5
 20
169.631397
 30
0.0
 11
135.5
 21
168.964731
 31
0.0
 12
133.5
 22
169.298064
 32
0.0
 13
133.5
 23
169.298064
 33
0.0
  0
SOLID
  5
1A2
100
AcDbEntity
  8
0
  6
BYBLOCK
 62
     0
100
AcDbTrace
 10
137.5
 20
169.631397
 30
0.0
 11
137.5
 21
168.964731
 31
0.0
 12
139.5
 22
169.298064
 32
0.0
 13
139.5
 23
169.298064
 33
0.0
  0
MTEXT
  5
1A3
100
AcDbEntity
  8
0
  6
BYBLOCK
 62
     0
100
AcDbMText
 10
136.666793
 20
169.298064
 30
0.0
 40
3.5
 41
0.0
 71
     5
 72
     1
  1
\A1;6
  0
POINT
  5
1A4
100
AcDbEntity
  8
DEFPOINTS
  6
BYBLOCK
 62
     0
100
AcDbPoint
 10
133.5
 20
159.5
 30
0.0
  0
POINT
  5
1A5
100
AcDbEntity
  8
DEFPOINTS
  6
BYBLOCK
 62
     0
100
AcDbPoint
 10
139.5
 20
155.5
 30
0.0
  0
POINT
  5
1A6
100
AcDbEntity
  8
DEFPOINTS
  6
BYBLOCK
 62
     0
100
AcDbPoint
 10
139.5
 20
169.298064
 30
0.0
  0
ENDBLK
  5
1A8
100
AcDbEntity
  8
0
100
AcDbBlockEnd
  0
BLOCK
  5
1F4
100
AcDbEntity
  8
0
100
AcDbBlockBegin
  2
A$C6CD96F62
 70
     0
 10
0.0
 20
0.0
 30
0.0
  3
A$C6CD96F62
  1

  0
LWPOLYLINE
  5
1AE
100
AcDbEntity
  8
0
100
AcDbPolyline
 90
        3
 70
     1
 43
0.0
 10
41.35
 20
24.968209
 10
42.475
 20
24.31869
 10
42.475
 20
25.617728
  0
LWPOLYLINE
  5
1AF
100
AcDbEntity
  8
0
100
AcDbPolyline
 90
        3
 70
     1
 43
0.0
 10
38.55
 20
25.570133
 10
37.425
 20
26.219652
 10
37.425
 20
24.920614
  0
DIMENSION
  5
1B0
100
AcDbEntity
  8
0
100
AcDbDimension
  2
*D2
 10
41.3
 20
35.249546
 30
0.0
 11
31.654419
 21
35.249546
 31
0.0
 12
-92.2
 22
-138.581791
 32
0.0
 70
   128
  3
STANDARD
100
AcDbAlignedDimension
 13
38.8
 23
20.918209
 33
0.0
 14
41.3
 24
20.918209
 34
0.0
100
AcDbRotatedDimension
1001
ACAD
1000
DSTYLE
1002
{
1070
    78
1070
     8
1070
   288
1070
     1
1070
   284
1070
     8
1070
   140
1040
2.0
1070
    73
1070
     0
1070
   272
1070
     2
1070
   147
1040
0.1
1070
    42
1040
0.1
1070
    44
1040
0.2
1070
    43
1040
0.4
1070
   271
1070
     2
1070
   141
1040
0.1
1070
    41
1040
2.0
1002
}
  0
DIMENSION
  5
1B1
100
AcDbEntity
  8
0
100
AcDbDimension
  2
*D1
 10
24.216452
 20
7.530761
 30
0.0
 11
2.55
 21
25.918209
 31
0.0
 12
-92.2
 22
-138.581791
 32
0.0
 70
   131
  3
STANDARD
100
AcDbDiametricDimension
 15
13.383547
 25
19.305657
 35
0.0
 40
0.0
1001
ACAD
1000
DSTYLE
1002
{
1070
    78
1070
     8
1070
   288
1070
     1
1070
   284
1070
     8
1070
   140
1040
2.0
1070
    73
1070
     0
1070
   272
1070
     2
1070
   147
1040
0.1
1070
    42
1040
0.1
1070
    44
1040
0.2
1070
    43
1040
0.4
1070
   271
1070
     2
1070
   141
1040
0.1
1070
    41
1040
2.0
1002
}
  0
DIMENSION
  5
1B2
100
AcDbEntity
  8
0
100
AcDbDimension
  2
*D3
 10
47.3
 20
30.716273
 30
0.0
 11
44.466793
 21
30.716273
 31
0.0
 12
-92.2
 22
-138.581791
 32
0.0
 70
   128
  3
STANDARD
100
AcDbAlignedDimension
 13
41.3
 23
20.918209
 33
0.0
 14
47.3
 24
16.918209
 34
0.0
100
AcDbRotatedDimension
1001
ACAD
1000
DSTYLE
1002
{
1070
    78
1070
     8
1070
   288
1070
     1
1070
   284
1070
     8
1070
   140
1040
2.0
1070
    73
1070
     0
1070
   272
1070
     2
1070
   147
1040
0.1
1070
    42
1040
0.1
1070
    44
1040
0.2
1070
    43
1040
0.4
1070
   271
1070
     2
1070
   141
1040
0.1
1070
    41
1040
2.0
1002
}
  0
LINE
  5
1B3
100
AcDbEntity
  8
2
100
AcDbLine
 10
47.3
 20
11.418209
 30
0.0
 11
38.8
 21
11.418209
 31
0.0
  0
LINE
  5
1B4
100
AcDbEntity
  8
2
100
AcDbLine
 10
47.3
 20
11.918209
 30
0.0
 11
38.8
 21
11.918209
 31
0.0
  0
LINE
  5
1B5
100
AcDbEntity
  8
2
100
AcDbLine
 10
47.3
 20
14.918209
 30
0.0
 11
38.8
 21
14.918209
 31
0.0
  0
LINE
  5
1B6
100
AcDbEntity
  8
2
100
AcDbLine
 10
47.3
 20
15.418209
 30
0.0
 11
38.8
 21
15.418209
 31
0.0
  0
LINE
  5
1B7
100
AcDbEntity
  8
3
100
AcDbLine
 10
40.8
 20
21.418209
 30
0.0
 11
41.3
 21
20.918209
 31
0.0
  0
LINE
  5
1B8
100
AcDbEntity
  8
3
100
AcDbLine
 10
40.8
 20
5.418209
 30
0.0
 11
41.3
 21
5.918209
 31
0.0
  0
LINE
  5
1B9
100
AcDbEntity
  8
1
100
AcDbLine
 10
35.3
 20
13.418209
 30
0.0
 11
50.8
 21
13.418209
 31
0.0
  0
CIRCLE
  5
1BA
100
AcDbEntity
  8
3
100
AcDbCircle
 10
18.8
 20
13.418209
 30
0.0
 40
2.0
  0
CIRCLE
  5
1BB
100
AcDbEntity
  8
0
100
AcDbCircle
 10
18.8
 20
13.418209
 30
0.0
 40
1.5
  0
MTEXT
  5
1BC
102
{ACAD_REACTORS
330
1BD
102
}
100
AcDbEntity
  8
0
100
AcDbMText
 10
22.472096
 20
1.75
 30
0.0
 40
3.5
 41
0.0
 71
     4
 72
     1
  1
\A1;M4-P0.7
  0
LEADER
  5
1BD
100
AcDbEntity
  8
0
100
AcDbLeader
  3
STANDARD
 73
     0
 40
3.5
 41
20.416667
 76
     3
 10
17.836742
 20
11.949864
 30
0.0
 10
21.578409
 20
1.75
 30
0.0
 10
22.372096
 20
1.75
 30
0.0
 77
   256
340
1BC
1001
ACAD
1000
DSTYLE
1002
{
1070
    78
1070
     8
1070
   288
1070
     1
1070
   284
1070
     8
1070
   140
1040
2.0
1070
    73
1070
     0
1070
   272
1070
     2
1070
   147
1040
0.1
1070
    42
1040
0.1
1070
    44
1040
0.2
1070
    43
1040
0.4
1070
   271
1070
     2
1070
   141
1040
0.1
1070
    41
1040
2.0
1002
}
  0
LINE
  5
1BE
100
AcDbEntity
  8
1
100
AcDbLine
 10
6.8
 20
13.418209
 30
0.0
 11
29.8
 21
13.418209
 31
0.0
  0
CIRCLE
  5
1BF
100
AcDbEntity
  8
3
100
AcDbCircle
 10
18.8
 20
13.418209
 30
0.0
 40
8.0
  0
LINE
  5
1C0
100
AcDbEntity
  8
3
100
AcDbLine
 10
38.8
 20
13.418209
 30
0.0
 11
38.8
 21
5.918209
 31
0.0
  0
LINE
  5
1C1
100
AcDbEntity
  8
1
100
AcDbLine
 10
18.8
 20
24.418209
 30
0.0
 11
18.8
 21
2.418209
 31
0.0
  0
LINE
  5
1C2
100
AcDbEntity
  8
3
100
AcDbLine
 10
39.3
 20
5.418209
 30
0.0
 11
40.8
 21
5.418209
 31
0.0
  0
LINE
  5
1C3
100
AcDbEntity
  8
3
100
AcDbLine
 10
39.3
 20
5.918209
 30
0.0
 11
40.8
 21
5.918209
 31
0.0
  0
LINE
  5
1C4
100
AcDbEntity
  8
3
100
AcDbLine
 10
39.3
 20
6.418209
 30
0.0
 11
40.8
 21
6.418209
 31
0.0
  0
LINE
  5
1C5
100
AcDbEntity
  8
3
100
AcDbLine
 10
39.3
 20
6.918209
 30
0.0
 11
40.8
 21
6.918209
 31
0.0
  0
LINE
  5
1C6
100
AcDbEntity
  8
3
100
AcDbLine
 10
39.3
 20
7.418209
 30
0.0
 11
40.8
 21
7.418209
 31
0.0
  0
LINE
  5
1C7
100
AcDbEntity
  8
3
100
AcDbLine
 10
39.3
 20
7.918209
 30
0.0
 11
40.8
 21
7.918209
 31
0.0
  0
LINE
  5
1C8
100
AcDbEntity
  8
3
100
AcDbLine
 10
39.3
 20
8.418209
 30
0.0
 11
40.8
 21
8.418209
 31
0.0
  0
LINE
  5
1C9
100
AcDbEntity
  8
3
100
AcDbLine
 10
39.3
 20
5.418209
 30
0.0
 11
38.8
 21
5.918209
 31
0.0
  0
LINE
  5
1CA
100
AcDbEntity
  8
3
100
AcDbLine
 10
38.8
 20
13.418209
 30
0.0
 11
38.8
 21
20.918209
 31
0.0
  0
LINE
  5
1CB
100
AcDbEntity
  8
3
100
AcDbLine
 10
39.3
 20
12.418209
 30
0.0
 11
40.8
 21
12.418209
 31
0.0
  0
LINE
  5
1CC
100
AcDbEntity
  8
3
100
AcDbLine
 10
39.3
 20
8.918209
 30
0.0
 11
40.8
 21
8.918209
 31
0.0
  0
LINE
  5
1CD
100
AcDbEntity
  8
3
100
AcDbLine
 10
39.3
 20
9.418209
 30
0.0
 11
40.8
 21
9.418209
 31
0.0
  0
LINE
  5
1CE
100
AcDbEntity
  8
3
100
AcDbLine
 10
39.3
 20
9.918209
 30
0.0
 11
40.8
 21
9.918209
 31
0.0
  0
LINE
  5
1CF
100
AcDbEntity
  8
3
100
AcDbLine
 10
39.3
 20
10.418209
 30
0.0
 11
40.8
 21
10.418209
 31
0.0
  0
LINE
  5
1D0
100
AcDbEntity
  8
3
100
AcDbLine
 10
39.3
 20
10.918209
 30
0.0
 11
40.8
 21
10.918209
 31
0.0
  0
LINE
  5
1D1
100
AcDbEntity
  8
3
100
AcDbLine
 10
39.3
 20
11.418209
 30
0.0
 11
40.8
 21
11.418209
 31
0.0
  0
LINE
  5
1D2
100
AcDbEntity
  8
3
100
AcDbLine
 10
39.3
 20
11.918209
 30
0.0
 11
40.8
 21
11.918209
 31
0.0
  0
LINE
  5
1D3
100
AcDbEntity
  8
3
100
AcDbLine
 10
39.3
 20
16.418209
 30
0.0
 11
40.8
 21
16.418209
 31
0.0
  0
LINE
  5
1D4
100
AcDbEntity
  8
3
100
AcDbLine
 10
39.3
 20
16.918209
 30
0.0
 11
40.8
 21
16.918209
 31
0.0
  0
LINE
  5
1D5
100
AcDbEntity
  8
3
100
AcDbLine
 10
39.3
 20
12.918209
 30
0.0
 11
40.8
 21
12.918209
 31
0.0
  0
LINE
  5
1D6
100
AcDbEntity
  8
3
100
AcDbLine
 10
39.3
 20
13.918209
 30
0.0
 11
40.8
 21
13.918209
 31
0.0
  0
LINE
  5
1D7
100
AcDbEntity
  8
3
100
AcDbLine
 10
39.3
 20
14.418209
 30
0.0
 11
40.8
 21
14.418209
 31
0.0
  0
LINE
  5
1D8
100
AcDbEntity
  8
3
100
AcDbLine
 10
39.3
 20
14.918209
 30
0.0
 11
40.8
 21
14.918209
 31
0.0
  0
LINE
  5
1D9
100
AcDbEntity
  8
3
100
AcDbLine
 10
39.3
 20
15.418209
 30
0.0
 11
40.8
 21
15.418209
 31
0.0
  0
LINE
  5
1DA
100
AcDbEntity
  8
3
100
AcDbLine
 10
39.3
 20
15.918209
 30
0.0
 11
40.8
 21
15.918209
 31
0.0
  0
LINE
  5
1DB
100
AcDbEntity
  8
3
100
AcDbLine
 10
39.3
 20
21.418209
 30
0.0
 11
38.8
 21
20.918209
 31
0.0
  0
LINE
  5
1DC
100
AcDbEntity
  8
3
100
AcDbLine
 10
39.3
 20
19.918209
 30
0.0
 11
40.8
 21
19.918209
 31
0.0
  0
LINE
  5
1DD
100
AcDbEntity
  8
3
100
AcDbLine
 10
39.3
 20
20.418209
 30
0.0
 11
40.8
 21
20.418209
 31
0.0
  0
LINE
  5
1DE
100
AcDbEntity
  8
3
100
AcDbLine
 10
39.3
 20
20.918209
 30
0.0
 11
40.8
 21
20.918209
 31
0.0
  0
LINE
  5
1DF
100
AcDbEntity
  8
3
100
AcDbLine
 10
39.3
 20
17.418209
 30
0.0
 11
40.8
 21
17.418209
 31
0.0
  0
LINE
  5
1E0
100
AcDbEntity
  8
3
100
AcDbLine
 10
39.3
 20
17.918209
 30
0.0
 11
40.8
 21
17.918209
 31
0.0
  0
LINE
  5
1E1
100
AcDbEntity
  8
3
100
AcDbLine
 10
39.3
 20
18.418209
 30
0.0
 11
40.8
 21
18.418209
 31
0.0
  0
LINE
  5
1E2
100
AcDbEntity
  8
3
100
AcDbLine
 10
39.3
 20
18.918209
 30
0.0
 11
40.8
 21
18.918209
 31
0.0
  0
LINE
  5
1E3
100
AcDbEntity
  8
3
100
AcDbLine
 10
39.3
 20
19.418209
 30
0.0
 11
40.8
 21
19.418209
 31
0.0
  0
LINE
  5
1E4
100
AcDbEntity
  8
3
100
AcDbLine
 10
39.3
 20
21.418209
 30
0.0
 11
40.8
 21
21.418209
 31
0.0
  0
LINE
  5
1E5
100
AcDbEntity
  8
3
100
AcDbLine
 10
41.3
 20
5.918209
 30
0.0
 11
41.3
 21
13.418209
 31
0.0
  0
LINE
  5
1E6
100
AcDbEntity
  8
3
100
AcDbLine
 10
46.8
 20
17.418209
 30
0.0
 11
47.3
 21
16.918209
 31
0.0
  0
LINE
  5
1E7
100
AcDbEntity
  8
3
100
AcDbLine
 10
41.3
 20
20.918209
 30
0.0
 11
41.3
 21
13.418209
 31
0.0
  0
LINE
  5
1E8
100
AcDbEntity
  8
3
100
AcDbLine
 10
41.3
 20
9.418209
 30
0.0
 11
46.8
 21
9.418209
 31
0.0
  0
LINE
  5
1E9
100
AcDbEntity
  8
3
100
AcDbLine
 10
47.3
 20
9.918209
 30
0.0
 11
47.3
 21
13.418209
 31
0.0
  0
LINE
  5
1EA
100
AcDbEntity
  8
3
100
AcDbLine
 10
46.8
 20
9.418209
 30
0.0
 11
47.3
 21
9.918209
 31
0.0
  0
LINE
  5
1EB
100
AcDbEntity
  8
3
100
AcDbLine
 10
47.3
 20
16.918209
 30
0.0
 11
47.3
 21
13.418209
 31
0.0
  0
LINE
  5
1EC
100
AcDbEntity
  8
3
100
AcDbLine
 10
41.3
 20
17.418209
 30
0.0
 11
46.8
 21
17.418209
 31
0.0
  0
LWPOLYLINE
  5
1ED
100
AcDbEntity
  8
0
100
AcDbPolyline
 90
        3
 70
     1
 43
0.0
 10
43.950961
 20
17.468209
 10
44.600481
 20
18.593209
 10
43.301442
 20
18.593209
  0
LWPOLYLINE
  5
1EE
100
AcDbEntity
  8
0
100
AcDbPolyline
 90
        3
 70
     1
 43
0.0
 10
45.25
 20
17.468209
 10
45.899519
 20
18.593209
 10
44.600481
 20
18.593209
  0
LWPOLYLINE
  5
1EF
100
AcDbEntity
  8
0
100
AcDbPolyline
 90
        3
 70
     1
 43
0.0
 10
47.35
 20
22.968209
 10
48.475
 20
22.31869
 10
48.475
 20
23.617728
  0
LWPOLYLINE
  5
1F0
100
AcDbEntity
  8
0
100
AcDbPolyline
 90
        3
 70
     1
 43
0.0
 10
47.35
 20
24.267247
 10
48.475
 20
23.617728
 10
48.475
 20
24.916767
  0
LWPOLYLINE
  5
1F1
100
AcDbEntity
  8
0
100
AcDbPolyline
 90
        3
 70
     1
 43
0.0
 10
38.55
 20
26.869171
 10
37.425
 20
27.51869
 10
37.425
 20
26.219652
  0
LWPOLYLINE
  5
1F2
100
AcDbEntity
  8
0
100
AcDbPolyline
 90
        3
 70
     1
 43
0.0
 10
38.55
 20
28.168209
 10
37.425
 20
28.817728
 10
37.425
 20
27.51869
  0
LWPOLYLINE
  5
1F3
100
AcDbEntity
  8
0
100
AcDbPolyline
 90
        3
 70
     1
 43
0.0
 10
41.35
 20
26.267247
 10
42.475
 20
25.617728
 10
42.475
 20
26.916767
  0
ENDBLK
  5
1F5
100
AcDbEntity
  8
0
100
AcDbBlockEnd
  0
BLOCK
  5
2D8
100
AcDbEntity
  8
0
100
AcDbBlockBegin
  2
*D8
 70
     1
 10
0.0
 20
0.0
 30
0.0
  3
*D8
  1

  0
LINE
  5
2D0
100
AcDbEntity
  8
0
  6
BYBLOCK
 62
     0
100
AcDbLine
 10
97.5
 20
134.5
 30
0.0
 11
99.5
 21
134.5
 31
0.0
  0
LINE
  5
2D1
100
AcDbEntity
  8
0
  6
BYBLOCK
 62
     0
100
AcDbLine
 10
99.5
 20
134.5
 30
0.0
 11
104.229435
 21
129.35931
 31
0.0
  0
MTEXT
  5
2D2
100
AcDbEntity
  8
0
  6
BYBLOCK
 62
     0
100
AcDbMText
 10
94.75
 20
134.5
 30
0.0
 40
3.5
 41
0.0
 71
     5
 72
     1
  1
\A1;\U+220516
  0
SOLID
  5
2D3
100
AcDbEntity
  8
0
  6
BYBLOCK
 62
     0
100
AcDbTrace
 10
104.474745
 20
129.584996
 30
0.0
 11
103.984124
 21
129.133625
 31
0.0
 12
105.583548
 22
127.887448
 32
0.0
 13
105.583548
 23
127.887448
 33
0.0
  0
LINE
  5
2D4
100
AcDbEntity
  8
0
  6
BYBLOCK
 62
     0
100
AcDbLine
 10
110.9
 20
122.0
 30
0.0
 11
111.1
 21
122.0
 31
0.0
  0
LINE
  5
2D5
100
AcDbEntity
  8
0
  6
BYBLOCK
 62
     0
100
AcDbLine
 10
111.0
 20
121.9
 30
0.0
 11
111.0
 21
122.1
 31
0.0
  0
POINT
  5
2D6
100
AcDbEntity
  8
DEFPOINTS
  6
BYBLOCK
 62
     0
100
AcDbPoint
 10
105.583548
 20
127.887448
 30
0.0
  0
POINT
  5
2D7
100
AcDbEntity
  8
DEFPOINTS
  6
BYBLOCK
 62
     0
100
AcDbPoint
 10
116.416452
 20
116.112552
 30
0.0
  0
ENDBLK
  5
2D9
100
AcDbEntity
  8
0
100
AcDbBlockEnd
  0
BLOCK
  5
2E5
100
AcDbEntity
  8
0
100
AcDbBlockBegin
  2
*D9
 70
     1
 10
0.0
 20
0.0
 30
0.0
  3
*D9
  1

  0
LINE
  5
2DB
100
AcDbEntity
  8
0
  6
BYBLOCK
 62
     0
100
AcDbLine
 10
131.0
 20
129.6
 30
0.0
 11
131.0
 21
144.031337
 31
0.0
  0
LINE
  5
2DC
100
AcDbEntity
  8
0
  6
BYBLOCK
 62
     0
100
AcDbLine
 10
133.5
 20
129.6
 30
0.0
 11
133.5
 21
144.031337
 31
0.0
  0
LINE
  5
2DD
100
AcDbEntity
  8
0
  6
BYBLOCK
 62
     0
100
AcDbLine
 10
135.5
 20
143.831337
 30
0.0
 11
137.5
 21
143.831337
 31
0.0
  0
LINE
  5
2DE
100
AcDbEntity
  8
0
  6
BYBLOCK
 62
     0
100
AcDbLine
 10
129.0
 20
143.831337
 30
0.0
 11
126.154419
 21
143.831337
 31
0.0
  0
SOLID
  5
2DF
100
AcDbEntity
  8
0
  6
BYBLOCK
 62
     0
100
AcDbTrace
 10
135.5
 20
144.16467
 30
0.0
 11
135.5
 21
143.498003
 31
0.0
 12
133.5
 22
143.831337
 32
0.0
 13
133.5
 23
143.831337
 33
0.0
  0
SOLID
  5
2E0
100
AcDbEntity
  8
0
  6
BYBLOCK
 62
     0
100
AcDbTrace
 10
129.0
 20
144.16467
 30
0.0
 11
129.0
 21
143.498003
 31
0.0
 12
131.0
 22
143.831337
 32
0.0
 13
131.0
 23
143.831337
 33
0.0
  0
MTEXT
  5
2E1
100
AcDbEntity
  8
0
  6
BYBLOCK
 62
     0
100
AcDbMText
 10
123.854419
 20
143.831337
 30
0.0
 40
3.5
 41
0.0
 71
     5
 72
     1
  1
\A1;2.5
  0
POINT
  5
2E2
100
AcDbEntity
  8
DEFPOINTS
  6
BYBLOCK
 62
     0
100
AcDbPoint
 10
131.0
 20
129.5
 30
0.0
  0
POINT
  5
2E3
100
AcDbEntity
  8
DEFPOINTS
  6
BYBLOCK
 62
     0
100
AcDbPoint
 10
133.5
 20
129.5
 30
0.0
  0
POINT
  5
2E4
100
AcDbEntity
  8
DEFPOINTS
  6
BYBLOCK
 62
     0
100
AcDbPoint
 10
133.5
 20
143.831337
 30
0.0
  0
ENDBLK
  5
2E6
100
AcDbEntity
  8
0
100
AcDbBlockEnd
  0
BLOCK
  5
2F2
100
AcDbEntity
  8
0
100
AcDbBlockBegin
  2
*D10
 70
     1
 10
0.0
 20
0.0
 30
0.0
  3
*D10
  1

  0
LINE
  5
2E8
100
AcDbEntity
  8
0
  6
BYBLOCK
 62
     0
100
AcDbLine
 10
133.5
 20
129.6
 30
0.0
 11
133.5
 21
139.498064
 31
0.0
  0
LINE
  5
2E9
100
AcDbEntity
  8
0
  6
BYBLOCK
 62
     0
100
AcDbLine
 10
139.5
 20
125.6
 30
0.0
 11
139.5
 21
139.498064
 31
0.0
  0
LINE
  5
2EA
100
AcDbEntity
  8
0
  6
BYBLOCK
 62
     0
100
AcDbLine
 10
135.5
 20
139.298064
 30
0.0
 11
135.916793
 21
139.298064
 31
0.0
  0
LINE
  5
2EB
100
AcDbEntity
  8
0
  6
BYBLOCK
 62
     0
100
AcDbLine
 10
137.5
 20
139.298064
 30
0.0
 11
137.4
 21
139.298064
 31
0.0
  0
SOLID
  5
2EC
100
AcDbEntity
  8
0
  6
BYBLOCK
 62
     0
100
AcDbTrace
 10
135.5
 20
139.631397
 30
0.0
 11
135.5
 21
138.964731
 31
0.0
 12
133.5
 22
139.298064
 32
0.0
 13
133.5
 23
139.298064
 33
0.0
  0
SOLID
  5
2ED
100
AcDbEntity
  8
0
  6
BYBLOCK
 62
     0
100
AcDbTrace
 10
137.5
 20
139.631397
 30
0.0
 11
137.5
 21
138.964731
 31
0.0
 12
139.5
 22
139.298064
 32
0.0
 13
139.5
 23
139.298064
 33
0.0
  0
MTEXT
  5
2EE
100
AcDbEntity
  8
0
  6
BYBLOCK
 62
     0
100
AcDbMText
 10
136.666793
 20
139.298064
 30
0.0
 40
3.5
 41
0.0
 71
     5
 72
     1
  1
\A1;6
  0
POINT
  5
2EF
100
AcDbEntity
  8
DEFPOINTS
  6
BYBLOCK
 62
     0
100
AcDbPoint
 10
133.5
 20
129.5
 30
0.0
  0
POINT
  5
2F0
100
AcDbEntity
  8
DEFPOINTS
  6
BYBLOCK
 62
     0
100
AcDbPoint
 10
139.5
 20
125.5
 30
0.0
  0
POINT
  5
2F1
100
AcDbEntity
  8
DEFPOINTS
  6
BYBLOCK
 62
     0
100
AcDbPoint
 10
139.5
 20
139.298064
 30
0.0
  0
ENDBLK
  5
2F3
100
AcDbEntity
  8
0
100
AcDbBlockEnd
  0
BLOCK
  5
2FF
100
AcDbEntity
  8
0
100
AcDbBlockBegin
  2
*D11
 70
     1
 10
0.0
 20
0.0
 30
0.0
  3
*D11
  1

  0
LINE
  5
2F5
100
AcDbEntity
  8
0
  6
BYBLOCK
 62
     0
100
AcDbLine
 10
139.5
 20
125.6
 30
0.0
 11
139.5
 21
136.211441
 31
0.0
  0
LINE
  5
2F6
100
AcDbEntity
  8
0
  6
BYBLOCK
 62
     0
100
AcDbLine
 10
149.5
 20
123.6
 30
0.0
 11
149.5
 21
136.211441
 31
0.0
  0
LINE
  5
2F7
100
AcDbEntity
  8
0
  6
BYBLOCK
 62
     0
100
AcDbLine
 10
141.5
 20
136.011441
 30
0.0
 11
144.017046
 21
136.011441
 31
0.0
  0
LINE
  5
2F8
100
AcDbEntity
  8
0
  6
BYBLOCK
 62
     0
100
AcDbLine
 10
147.5
 20
136.011441
 30
0.0
 11
145.417046
 21
136.011441
 31
0.0
  0
SOLID
  5
2F9
100
AcDbEntity
  8
0
  6
BYBLOCK
 62
     0
100
AcDbTrace
 10
141.5
 20
136.344775
 30
0.0
 11
141.5
 21
135.678108
 31
0.0
 12
139.5
 22
136.011441
 32
0.0
 13
139.5
 23
136.011441
 33
0.0
  0
SOLID
  5
2FA
100
AcDbEntity
  8
0
  6
BYBLOCK
 62
     0
100
AcDbTrace
 10
147.5
 20
136.344775
 30
0.0
 11
147.5
 21
135.678108
 31
0.0
 12
149.5
 22
136.011441
 32
0.0
 13
149.5
 23
136.011441
 33
0.0
  0
MTEXT
  5
2FB
100
AcDbEntity
  8
0
  6
BYBLOCK
 62
     0
100
AcDbMText
 10
144.717046
 20
136.011441
 30
0.0
 40
3.5
 41
0.0
 71
     5
 72
     1
  1
\A1;L
  0
POINT
  5
2FC
100
AcDbEntity
  8
DEFPOINTS
  6
BYBLOCK
 62
     0
100
AcDbPoint
 10
139.5
 20
125.5
 30
0.0
  0
POINT
  5
2FD
100
AcDbEntity
  8
DEFPOINTS
  6
BYBLOCK
 62
     0
100
AcDbPoint
 10
149.5
 20
123.5
 30
0.0
  0
POINT
  5
2FE
100
AcDbEntity
  8
DEFPOINTS
  6
BYBLOCK
 62
     0
100
AcDbPoint
 10
149.5
 20
136.011441
 30
0.0
  0
ENDBLK
  5
300
100
AcDbEntity
  8
0
100
AcDbBlockEnd
  0
BLOCK
  5
351
100
AcDbEntity
  8
0
100
AcDbBlockBegin
  2
A$C00CA64FC
 70
     0
 10
0.0
 20
0.0
 30
0.0
  3
A$C00CA64FC
  1

  0
DIMENSION
  5
302
100
AcDbEntity
  8
0
100
AcDbDimension
  2
*D11
 10
57.3
 20
37.739496
 30
0.0
 11
52.517045
 21
37.739496
 31
0.0
 12
-92.2
 22
-98.271946
 32
0.0
 70
   128
  1
L
  3
STANDARD
100
AcDbAlignedDimension
 13
47.3
 23
27.228054
 33
0.0
 14
57.3
 24
25.228054
 34
0.0
100
AcDbRotatedDimension
1001
ACAD
1000
DSTYLE
1002
{
1070
    78
1070
     8
1070
   288
1070
     1
1070
   284
1070
     8
1070
   140
1040
2.0
1070
    73
1070
     0
1070
   272
1070
     2
1070
   147
1040
0.1
1070
    42
1040
0.1
1070
    44
1040
0.2
1070
    43
1040
0.4
1070
   271
1070
     2
1070
   141
1040
0.1
1070
    41
1040
2.0
1002
}
  0
DIMENSION
  5
303
100
AcDbEntity
  8
0
100
AcDbDimension
  2
*D8
 10
24.216452
 20
17.840606
 30
0.0
 11
2.55
 21
36.228054
 31
0.0
 12
-92.2
 22
-98.271946
 32
0.0
 70
   131
  3
STANDARD
100
AcDbDiametricDimension
 15
13.383547
 25
29.615503
 35
0.0
 40
0.0
1001
ACAD
1000
DSTYLE
1002
{
1070
    78
1070
     8
1070
   288
1070
     1
1070
   284
1070
     8
1070
   140
1040
2.0
1070
    73
1070
     0
1070
   272
1070
     2
1070
   147
1040
0.1
1070
    42
1040
0.1
1070
    44
1040
0.2
1070
    43
1040
0.4
1070
   271
1070
     2
1070
   141
1040
0.1
1070
    41
1040
2.0
1002
}
  0
LINE
  5
304
100
AcDbEntity
  8
3
100
AcDbLine
 10
47.3
 20
27.228054
 30
0.0
 11
47.3
 21
23.728054
 31
0.0
  0
LINE
  5
305
100
AcDbEntity
  8
3
100
AcDbLine
 10
41.3
 20
31.228054
 30
0.0
 11
41.3
 21
23.728054
 31
0.0
  0
LINE
  5
306
100
AcDbEntity
  8
3
100
AcDbLine
 10
38.8
 20
23.728054
 30
0.0
 11
38.8
 21
31.228054
 31
0.0
  0
CIRCLE
  5
307
100
AcDbEntity
  8
3
100
AcDbCircle
 10
18.8
 20
23.728054
 30
0.0
 40
8.0
  0
LINE
  5
308
100
AcDbEntity
  8
1
100
AcDbLine
 10
18.8
 20
34.728054
 30
0.0
 11
18.8
 21
12.728054
 31
0.0
  0
TEXT
  5
309
100
AcDbEntity
  8
0
100
AcDbText
 10
32.561489
 20
0.0
 30
0.0
 40
3.5
  1
縦目ローレット
 41
0.6
100
AcDbText
  0
LINE
  5
30A
100
AcDbEntity
  8
3
100
AcDbLine
 10
40.8
 20
15.728054
 30
0.0
 11
41.3
 21
16.228054
 31
0.0
  0
LINE
  5
30B
100
AcDbEntity
  8
1
100
AcDbLine
 10
35.3
 20
23.728054
 30
0.0
 11
60.8
 21
23.728054
 31
0.0
  0
LINE
  5
30C
100
AcDbEntity
  8
1
100
AcDbLine
 10
6.8
 20
23.728054
 30
0.0
 11
29.8
 21
23.728054
 31
0.0
  0
LEADER
  5
30D
100
AcDbEntity
  8
0
100
AcDbLeader
  3
STANDARD
 76
     3
 10
39.931439
 20
15.639791
 30
0.0
 10
29.159974
 20
1.24665
 30
0.0
 10
31.541035
 20
1.24665
 30
0.0
 77
   256
1001
ACAD
1000
DSTYLE
1002
{
1070
    78
1070
     8
1070
   288
1070
     1
1070
   284
1070
     8
1070
   140
1040
2.0
1070
    73
1070
     0
1070
   272
1070
     2
1070
   147
1040
0.1
1070
    42
1040
0.1
1070
    44
1040
0.2
1070
    43
1040
0.4
1070
   271
1070
     2
1070
   141
1040
0.1
1070
    41
1040
2.0
1002
}
  0
LINE
  5
30E
100
AcDbEntity
  8
3
100
AcDbLine
 10
38.8
 20
23.728054
 30
0.0
 11
38.8
 21
16.228054
 31
0.0
  0
LINE
  5
30F
100
AcDbEntity
  8
3
100
AcDbLine
 10
39.3
 20
15.728054
 30
0.0
 11
40.8
 21
15.728054
 31
0.0
  0
LINE
  5
310
100
AcDbEntity
  8
3
100
AcDbLine
 10
39.3
 20
16.228054
 30
0.0
 11
40.8
 21
16.228054
 31
0.0
  0
LINE
  5
311
100
AcDbEntity
  8
3
100
AcDbLine
 10
39.3
 20
16.728054
 30
0.0
 11
40.8
 21
16.728054
 31
0.0
  0
LINE
  5
312
100
AcDbEntity
  8
3
100
AcDbLine
 10
39.3
 20
17.228054
 30
0.0
 11
40.8
 21
17.228054
 31
0.0
  0
LINE
  5
313
100
AcDbEntity
  8
3
100
AcDbLine
 10
39.3
 20
17.728054
 30
0.0
 11
40.8
 21
17.728054
 31
0.0
  0
LINE
  5
314
100
AcDbEntity
  8
3
100
AcDbLine
 10
39.3
 20
15.728054
 30
0.0
 11
38.8
 21
16.228054
 31
0.0
  0
LINE
  5
315
100
AcDbEntity
  8
3
100
AcDbLine
 10
39.3
 20
18.228054
 30
0.0
 11
40.8
 21
18.228054
 31
0.0
  0
LINE
  5
316
100
AcDbEntity
  8
3
100
AcDbLine
 10
39.3
 20
18.728054
 30
0.0
 11
40.8
 21
18.728054
 31
0.0
  0
LINE
  5
317
100
AcDbEntity
  8
3
100
AcDbLine
 10
39.3
 20
19.228054
 30
0.0
 11
40.8
 21
19.228054
 31
0.0
  0
LINE
  5
318
100
AcDbEntity
  8
3
100
AcDbLine
 10
39.3
 20
19.728054
 30
0.0
 11
40.8
 21
19.728054
 31
0.0
  0
LINE
  5
319
100
AcDbEntity
  8
3
100
AcDbLine
 10
39.3
 20
20.228054
 30
0.0
 11
40.8
 21
20.228054
 31
0.0
  0
LINE
  5
31A
100
AcDbEntity
  8
3
100
AcDbLine
 10
39.3
 20
20.728054
 30
0.0
 11
40.8
 21
20.728054
 31
0.0
  0
LINE
  5
31B
100
AcDbEntity
  8
3
100
AcDbLine
 10
39.3
 20
21.228054
 30
0.0
 11
40.8
 21
21.228054
 31
0.0
  0
LINE
  5
31C
100
AcDbEntity
  8
3
100
AcDbLine
 10
39.3
 20
21.728054
 30
0.0
 11
40.8
 21
21.728054
 31
0.0
  0
LINE
  5
31D
100
AcDbEntity
  8
3
100
AcDbLine
 10
39.3
 20
22.228054
 30
0.0
 11
40.8
 21
22.228054
 31
0.0
  0
LINE
  5
31E
100
AcDbEntity
  8
3
100
AcDbLine
 10
39.3
 20
22.728054
 30
0.0
 11
40.8
 21
22.728054
 31
0.0
  0
LINE
  5
31F
100
AcDbEntity
  8
3
100
AcDbLine
 10
39.3
 20
23.228054
 30
0.0
 11
40.8
 21
23.228054
 31
0.0
  0
LINE
  5
320
100
AcDbEntity
  8
3
100
AcDbLine
 10
39.3
 20
24.228054
 30
0.0
 11
40.8
 21
24.228054
 31
0.0
  0
LINE
  5
321
100
AcDbEntity
  8
3
100
AcDbLine
 10
39.3
 20
24.728054
 30
0.0
 11
40.8
 21
24.728054
 31
0.0
  0
LINE
  5
322
100
AcDbEntity
  8
3
100
AcDbLine
 10
39.3
 20
25.228054
 30
0.0
 11
40.8
 21
25.228054
 31
0.0
  0
LINE
  5
323
100
AcDbEntity
  8
3
100
AcDbLine
 10
39.3
 20
25.728054
 30
0.0
 11
40.8
 21
25.728054
 31
0.0
  0
LINE
  5
324
100
AcDbEntity
  8
3
100
AcDbLine
 10
39.3
 20
26.228054
 30
0.0
 11
40.8
 21
26.228054
 31
0.0
  0
LINE
  5
325
100
AcDbEntity
  8
3
100
AcDbLine
 10
39.3
 20
26.728054
 30
0.0
 11
40.8
 21
26.728054
 31
0.0
  0
MTEXT
  5
326
102
{ACAD_REACTORS
330
327
102
}
100
AcDbEntity
  8
0
100
AcDbMText
 10
56.472096
 20
11.559845
 30
0.0
 40
3.5
 41
0.0
 71
     4
 72
     1
  1
\A1;M4-P0.7
  0
LEADER
  5
327
100
AcDbEntity
  8
0
100
AcDbLeader
  3
STANDARD
 73
     0
 40
3.5
 41
20.416667
 76
     3
 10
51.836742
 20
21.759709
 30
0.0
 10
55.578409
 20
11.559845
 30
0.0
 10
56.372096
 20
11.559845
 30
0.0
 77
   256
340
326
1001
ACAD
1000
DSTYLE
1002
{
1070
    78
1070
     8
1070
   288
1070
     1
1070
   284
1070
     8
1070
   140
1040
2.0
1070
    73
1070
     0
1070
   272
1070
     2
1070
   147
1040
0.1
1070
    42
1040
0.1
1070
    44
1040
0.2
1070
    43
1040
0.4
1070
   271
1070
     2
1070
   141
1040
0.1
1070
    41
1040
2.0
1002
}
  0
LINE
  5
328
100
AcDbEntity
  8
3
100
AcDbLine
 10
47.3
 20
21.728054
 30
0.0
 11
56.8
 21
21.728054
 31
0.0
  0
LINE
  5
329
100
AcDbEntity
  8
0
100
AcDbLine
 10
57.3
 20
22.228054
 30
0.0
 11
47.8
 21
22.228054
 31
0.0
  0
LINE
  5
32A
100
AcDbEntity
  8
0
100
AcDbLine
 10
57.3
 20
25.228054
 30
0.0
 11
47.8
 21
25.228054
 31
0.0
  0
LINE
  5
32B
100
AcDbEntity
  8
3
100
AcDbLine
 10
47.3
 20
25.728054
 30
0.0
 11
56.8
 21
25.728054
 31
0.0
  0
LINE
  5
32C
100
AcDbEntity
  8
3
100
AcDbLine
 10
41.3
 20
16.228054
 30
0.0
 11
41.3
 21
23.728054
 31
0.0
  0
LINE
  5
32D
100
AcDbEntity
  8
3
100
AcDbLine
 10
41.3
 20
19.728054
 30
0.0
 11
46.8
 21
19.728054
 31
0.0
  0
LINE
  5
32E
100
AcDbEntity
  8
0
100
AcDbLine
 10
47.8
 20
21.728054
 30
0.0
 11
47.8
 21
23.728054
 31
0.0
  0
LINE
  5
32F
100
AcDbEntity
  8
3
100
AcDbLine
 10
47.3
 20
20.228054
 30
0.0
 11
47.3
 21
23.728054
 31
0.0
  0
LINE
  5
330
100
AcDbEntity
  8
3
100
AcDbLine
 10
46.8
 20
19.728054
 30
0.0
 11
47.3
 21
20.228054
 31
0.0
  0
LINE
  5
331
100
AcDbEntity
  8
0
100
AcDbLine
 10
47.8
 20
25.728054
 30
0.0
 11
47.8
 21
23.728054
 31
0.0
  0
LINE
  5
332
100
AcDbEntity
  8
3
100
AcDbLine
 10
57.3
 20
22.228054
 30
0.0
 11
57.3
 21
23.728054
 31
0.0
  0
LINE
  5
333
100
AcDbEntity
  8
0
100
AcDbLine
 10
56.8
 20
21.728054
 30
0.0
 11
56.8
 21
23.728054
 31
0.0
  0
LINE
  5
334
100
AcDbEntity
  8
3
100
AcDbLine
 10
56.8
 20
21.728054
 30
0.0
 11
57.3
 21
22.228054
 31
0.0
  0
LINE
  5
335
100
AcDbEntity
  8
0
100
AcDbLine
 10
56.8
 20
25.728054
 30
0.0
 11
56.8
 21
23.728054
 31
0.0
  0
LINE
  5
336
100
AcDbEntity
  8
3
100
AcDbLine
 10
56.8
 20
25.728054
 30
0.0
 11
57.3
 21
25.228054
 31
0.0
  0
LINE
  5
337
100
AcDbEntity
  8
3
100
AcDbLine
 10
57.3
 20
25.228054
 30
0.0
 11
57.3
 21
23.728054
 31
0.0
  0
DIMENSION
  5
338
100
AcDbEntity
  8
0
100
AcDbDimension
  2
*D9
 10
41.3
 20
45.559391
 30
0.0
 11
31.654419
 21
45.559391
 31
0.0
 12
-92.2
 22
-98.271946
 32
0.0
 70
   128
  3
STANDARD
100
AcDbAlignedDimension
 13
38.8
 23
31.228054
 33
0.0
 14
41.3
 24
31.228054
 34
0.0
100
AcDbRotatedDimension
1001
ACAD
1000
DSTYLE
1002
{
1070
    78
1070
     8
1070
   288
1070
     1
1070
   284
1070
     8
1070
   140
1040
2.0
1070
    73
1070
     0
1070
   272
1070
     2
1070
   147
1040
0.1
1070
    42
1040
0.1
1070
    44
1040
0.2
1070
    43
1040
0.4
1070
   271
1070
     2
1070
   141
1040
0.1
1070
    41
1040
2.0
1002
}
  0
LINE
  5
339
100
AcDbEntity
  8
3
100
AcDbLine
 10
40.8
 20
31.728054
 30
0.0
 11
41.3
 21
31.228054
 31
0.0
  0
LINE
  5
33A
100
AcDbEntity
  8
3
100
AcDbLine
 10
39.3
 20
27.228054
 30
0.0
 11
40.8
 21
27.228054
 31
0.0
  0
LINE
  5
33B
100
AcDbEntity
  8
3
100
AcDbLine
 10
39.3
 20
27.728054
 30
0.0
 11
40.8
 21
27.728054
 31
0.0
  0
LINE
  5
33C
100
AcDbEntity
  8
3
100
AcDbLine
 10
39.3
 20
28.228054
 30
0.0
 11
40.8
 21
28.228054
 31
0.0
  0
LINE
  5
33D
100
AcDbEntity
  8
3
100
AcDbLine
 10
39.3
 20
28.728054
 30
0.0
 11
40.8
 21
28.728054
 31
0.0
  0
LINE
  5
33E
100
AcDbEntity
  8
3
100
AcDbLine
 10
39.3
 20
29.228054
 30
0.0
 11
40.8
 21
29.228054
 31
0.0
  0
LINE
  5
33F
100
AcDbEntity
  8
3
100
AcDbLine
 10
39.3
 20
29.728054
 30
0.0
 11
40.8
 21
29.728054
 31
0.0
  0
LINE
  5
340
100
AcDbEntity
  8
3
100
AcDbLine
 10
39.3
 20
30.228054
 30
0.0
 11
40.8
 21
30.228054
 31
0.0
  0
LINE
  5
341
100
AcDbEntity
  8
3
100
AcDbLine
 10
39.3
 20
30.728054
 30
0.0
 11
40.8
 21
30.728054
 31
0.0
  0
LINE
  5
342
100
AcDbEntity
  8
3
100
AcDbLine
 10
39.3
 20
31.228054
 30
0.0
 11
40.8
 21
31.228054
 31
0.0
  0
LINE
  5
343
100
AcDbEntity
  8
3
100
AcDbLine
 10
39.3
 20
31.728054
 30
0.0
 11
38.8
 21
31.228054
 31
0.0
  0
LINE
  5
344
100
AcDbEntity
  8
3
100
AcDbLine
 10
39.3
 20
31.728054
 30
0.0
 11
40.8
 21
31.728054
 31
0.0
  0
LWPOLYLINE
  5
345
100
AcDbEntity
  8
0
100
AcDbPolyline
 90
        3
 70
     1
 43
0.0
 10
38.55
 20
35.879978
 10
37.425
 20
36.529497
 10
37.425
 20
35.230459
  0
LWPOLYLINE
  5
346
100
AcDbEntity
  8
0
100
AcDbPolyline
 90
        3
 70
     1
 43
0.0
 10
38.55
 20
37.179016
 10
37.425
 20
37.828535
 10
37.425
 20
36.529497
  0
LWPOLYLINE
  5
347
100
AcDbEntity
  8
0
100
AcDbPolyline
 90
        3
 70
     1
 43
0.0
 10
38.55
 20
38.478054
 10
37.425
 20
39.127573
 10
37.425
 20
37.828535
  0
LWPOLYLINE
  5
348
100
AcDbEntity
  8
0
100
AcDbPolyline
 90
        3
 70
     1
 43
0.0
 10
47.85
 20
34.577093
 10
48.975
 20
33.927573
 10
48.975
 20
35.226612
  0
LWPOLYLINE
  5
349
100
AcDbEntity
  8
0
100
AcDbPolyline
 90
        3
 70
     1
 43
0.0
 10
41.35
 20
34.778054
 10
42.475
 20
34.128535
 10
42.475
 20
35.427573
  0
DIMENSION
  5
34A
100
AcDbEntity
  8
0
100
AcDbDimension
  2
*D10
 10
47.3
 20
41.026118
 30
0.0
 11
44.466793
 21
41.026118
 31
0.0
 12
-92.2
 22
-98.271946
 32
0.0
 70
   128
  3
STANDARD
100
AcDbAlignedDimension
 13
41.3
 23
31.228054
 33
0.0
 14
47.3
 24
27.228054
 34
0.0
100
AcDbRotatedDimension
1001
ACAD
1000
DSTYLE
1002
{
1070
    78
1070
     8
1070
   288
1070
     1
1070
   284
1070
     8
1070
   140
1040
2.0
1070
    73
1070
     0
1070
   272
1070
     2
1070
   147
1040
0.1
1070
    42
1040
0.1
1070
    44
1040
0.2
1070
    43
1040
0.4
1070
   271
1070
     2
1070
   141
1040
0.1
1070
    41
1040
2.0
1002
}
  0
LINE
  5
34B
100
AcDbEntity
  8
3
100
AcDbLine
 10
41.3
 20
27.728054
 30
0.0
 11
46.8
 21
27.728054
 31
0.0
  0
LWPOLYLINE
  5
34C
100
AcDbEntity
  8
0
100
AcDbPolyline
 90
        3
 70
     1
 43
0.0
 10
43.450961
 20
28.278054
 10
44.100481
 20
29.403054
 10
42.801442
 20
29.403054
  0
LWPOLYLINE
  5
34D
100
AcDbEntity
  8
0
100
AcDbPolyline
 90
        3
 70
     1
 43
0.0
 10
44.75
 20
28.278054
 10
45.399519
 20
29.403054
 10
44.100481
 20
29.403054
  0
LINE
  5
34E
100
AcDbEntity
  8
3
100
AcDbLine
 10
46.8
 20
27.728054
 30
0.0
 11
47.3
 21
27.228054
 31
0.0
  0
LWPOLYLINE
  5
34F
100
AcDbEntity
  8
0
100
AcDbPolyline
 90
        3
 70
     1
 43
0.0
 10
47.85
 20
33.278054
 10
48.975
 20
32.628535
 10
48.975
 20
33.927573
  0
LWPOLYLINE
  5
350
100
AcDbEntity
  8
0
100
AcDbPolyline
 90
        3
 70
     1
 43
0.0
 10
41.35
 20
36.077093
 10
42.475
 20
35.427573
 10
42.475
 20
36.726612
  0
ENDBLK
  5
352
100
AcDbEntity
  8
0
100
AcDbBlockEnd
  0
ENDSEC
  0
SECTION
  2
ENTITIES
  0
LINE
  5
356
100
AcDbEntity
  8
3
100
AcDbLine
 10
65.13569
 20
48.269486
 30
0.0
 11
65.13569
 21
44.769486
 31
0.0
  0
LINE
  5
357
100
AcDbEntity
  8
3
100
AcDbLine
 10
59.13569
 20
52.269486
 30
0.0
 11
59.13569
 21
44.769486
 31
0.0
  0
LINE
  5
358
100
AcDbEntity
  8
3
100
AcDbLine
 10
56.63569
 20
44.769486
 30
0.0
 11
56.63569
 21
52.269486
 31
0.0
  0
CIRCLE
  5
359
100
AcDbEntity
  8
3
100
AcDbCircle
 10
36.63569
 20
44.769486
 30
0.0
 40
8.0
  0
LINE
  5
35A
100
AcDbEntity
  8
1
100
AcDbLine
 10
36.63569
 20
55.769486
 30
0.0
 11
36.63569
 21
33.769486
 31
0.0
  0
LINE
  5
35C
100
AcDbEntity
  8
3
100
AcDbLine
 10
58.63569
 20
36.769486
 30
0.0
 11
59.13569
 21
37.269486
 31
0.0
  0
LINE
  5
35D
100
AcDbEntity
  8
1
100
AcDbLine
 10
53.13569
 20
44.769486
 30
0.0
 11
78.63569
 21
44.769486
 31
0.0
  0
LINE
  5
35E
100
AcDbEntity
  8
1
100
AcDbLine
 10
24.63569
 20
44.769486
 30
0.0
 11
47.63569
 21
44.769486
 31
0.0
  0
LINE
  5
360
100
AcDbEntity
  8
3
100
AcDbLine
 10
56.63569
 20
44.769486
 30
0.0
 11
56.63569
 21
37.269486
 31
0.0
  0
LINE
  5
361
100
AcDbEntity
  8
3
100
AcDbLine
 10
57.13569
 20
36.769486
 30
0.0
 11
58.63569
 21
36.769486
 31
0.0
  0
LINE
  5
362
100
AcDbEntity
  8
3
100
AcDbLine
 10
57.13569
 20
37.269486
 30
0.0
 11
58.63569
 21
37.269486
 31
0.0
  0
LINE
  5
363
100
AcDbEntity
  8
3
100
AcDbLine
 10
57.13569
 20
37.769486
 30
0.0
 11
58.63569
 21
37.769486
 31
0.0
  0
LINE
  5
364
100
AcDbEntity
  8
3
100
AcDbLine
 10
57.13569
 20
38.269486
 30
0.0
 11
58.63569
 21
38.269486
 31
0.0
  0
LINE
  5
365
100
AcDbEntity
  8
3
100
AcDbLine
 10
57.13569
 20
38.769486
 30
0.0
 11
58.63569
 21
38.769486
 31
0.0
  0
LINE
  5
366
100
AcDbEntity
  8
3
100
AcDbLine
 10
57.13569
 20
36.769486
 30
0.0
 11
56.63569
 21
37.269486
 31
0.0
  0
LINE
  5
367
100
AcDbEntity
  8
3
100
AcDbLine
 10
57.13569
 20
39.269486
 30
0.0
 11
58.63569
 21
39.269486
 31
0.0
  0
LINE
  5
368
100
AcDbEntity
  8
3
100
AcDbLine
 10
57.13569
 20
39.769486
 30
0.0
 11
58.63569
 21
39.769486
 31
0.0
  0
LINE
  5
369
100
AcDbEntity
  8
3
100
AcDbLine
 10
57.13569
 20
40.269486
 30
0.0
 11
58.63569
 21
40.269486
 31
0.0
  0
LINE
  5
36A
100
AcDbEntity
  8
3
100
AcDbLine
 10
57.13569
 20
40.769486
 30
0.0
 11
58.63569
 21
40.769486
 31
0.0
  0
LINE
  5
36B
100
AcDbEntity
  8
3
100
AcDbLine
 10
57.13569
 20
41.269486
 30
0.0
 11
58.63569
 21
41.269486
 31
0.0
  0
LINE
  5
36C
100
AcDbEntity
  8
3
100
AcDbLine
 10
57.13569
 20
41.769486
 30
0.0
 11
58.63569
 21
41.769486
 31
0.0
  0
LINE
  5
36D
100
AcDbEntity
  8
3
100
AcDbLine
 10
57.13569
 20
42.269486
 30
0.0
 11
58.63569
 21
42.269486
 31
0.0
  0
LINE
  5
36E
100
AcDbEntity
  8
3
100
AcDbLine
 10
57.13569
 20
42.769486
 30
0.0
 11
58.63569
 21
42.769486
 31
0.0
  0
LINE
  5
36F
100
AcDbEntity
  8
3
100
AcDbLine
 10
57.13569
 20
43.269486
 30
0.0
 11
58.63569
 21
43.269486
 31
0.0
  0
LINE
  5
370
100
AcDbEntity
  8
3
100
AcDbLine
 10
57.13569
 20
43.769486
 30
0.0
 11
58.63569
 21
43.769486
 31
0.0
  0
LINE
  5
371
100
AcDbEntity
  8
3
100
AcDbLine
 10
57.13569
 20
44.269486
 30
0.0
 11
58.63569
 21
44.269486
 31
0.0
  0
LINE
  5
372
100
AcDbEntity
  8
3
100
AcDbLine
 10
57.13569
 20
45.269486
 30
0.0
 11
58.63569
 21
45.269486
 31
0.0
  0
LINE
  5
373
100
AcDbEntity
  8
3
100
AcDbLine
 10
57.13569
 20
45.769486
 30
0.0
 11
58.63569
 21
45.769486
 31
0.0
  0
LINE
  5
374
100
AcDbEntity
  8
3
100
AcDbLine
 10
57.13569
 20
46.269486
 30
0.0
 11
58.63569
 21
46.269486
 31
0.0
  0
LINE
  5
375
100
AcDbEntity
  8
3
100
AcDbLine
 10
57.13569
 20
46.769486
 30
0.0
 11
58.63569
 21
46.769486
 31
0.0
  0
LINE
  5
376
100
AcDbEntity
  8
3
100
AcDbLine
 10
57.13569
 20
47.269486
 30
0.0
 11
58.63569
 21
47.269486
 31
0.0
  0
LINE
  5
377
100
AcDbEntity
  8
3
100
AcDbLine
 10
57.13569
 20
47.769486
 30
0.0
 11
58.63569
 21
47.769486
 31
0.0
  0
LINE
  5
37A
100
AcDbEntity
  8
3
100
AcDbLine
 10
65.13569
 20
42.769486
 30
0.0
 11
74.63569
 21
42.769486
 31
0.0
  0
LINE
  5
37B
100
AcDbEntity
  8
0
100
AcDbLine
 10
75.13569
 20
43.269486
 30
0.0
 11
65.63569
 21
43.269486
 31
0.0
  0
LINE
  5
37C
100
AcDbEntity
  8
0
100
AcDbLine
 10
75.13569
 20
46.269486
 30
0.0
 11
65.63569
 21
46.269486
 31
0.0
  0
LINE
  5
37D
100
AcDbEntity
  8
3
100
AcDbLine
 10
65.13569
 20
46.769486
 30
0.0
 11
74.63569
 21
46.769486
 31
0.0
  0
LINE
  5
37E
100
AcDbEntity
  8
3
100
AcDbLine
 10
59.13569
 20
37.269486
 30
0.0
 11
59.13569
 21
44.769486
 31
0.0
  0
LINE
  5
37F
100
AcDbEntity
  8
3
100
AcDbLine
 10
59.13569
 20
40.769486
 30
0.0
 11
64.63569
 21
40.769486
 31
0.0
  0
LINE
  5
380
100
AcDbEntity
  8
0
100
AcDbLine
 10
65.63569
 20
42.769486
 30
0.0
 11
65.63569
 21
44.769486
 31
0.0
  0
LINE
  5
381
100
AcDbEntity
  8
3
100
AcDbLine
 10
65.13569
 20
41.269486
 30
0.0
 11
65.13569
 21
44.769486
 31
0.0
  0
LINE
  5
382
100
AcDbEntity
  8
3
100
AcDbLine
 10
64.63569
 20
40.769486
 30
0.0
 11
65.13569
 21
41.269486
 31
0.0
  0
LINE
  5
383
100
AcDbEntity
  8
0
100
AcDbLine
 10
65.63569
 20
46.769486
 30
0.0
 11
65.63569
 21
44.769486
 31
0.0
  0
LINE
  5
384
100
AcDbEntity
  8
3
100
AcDbLine
 10
75.13569
 20
43.269486
 30
0.0
 11
75.13569
 21
44.769486
 31
0.0
  0
LINE
  5
385
100
AcDbEntity
  8
0
100
AcDbLine
 10
74.63569
 20
42.769486
 30
0.0
 11
74.63569
 21
44.769486
 31
0.0
  0
LINE
  5
386
100
AcDbEntity
  8
3
100
AcDbLine
 10
74.63569
 20
42.769486
 30
0.0
 11
75.13569
 21
43.269486
 31
0.0
  0
LINE
  5
387
100
AcDbEntity
  8
0
100
AcDbLine
 10
74.63569
 20
46.769486
 30
0.0
 11
74.63569
 21
44.769486
 31
0.0
  0
LINE
  5
388
100
AcDbEntity
  8
3
100
AcDbLine
 10
74.63569
 20
46.769486
 30
0.0
 11
75.13569
 21
46.269486
 31
0.0
  0
LINE
  5
389
100
AcDbEntity
  8
3
100
AcDbLine
 10
75.13569
 20
46.269486
 30
0.0
 11
75.13569
 21
44.769486
 31
0.0
  0
LINE
  5
38B
100
AcDbEntity
  8
3
100
AcDbLine
 10
58.63569
 20
52.769486
 30
0.0
 11
59.13569
 21
52.269486
 31
0.0
  0
LINE
  5
38C
100
AcDbEntity
  8
3
100
AcDbLine
 10
57.13569
 20
48.269486
 30
0.0
 11
58.63569
 21
48.269486
 31
0.0
  0
LINE
  5
38D
100
AcDbEntity
  8
3
100
AcDbLine
 10
57.13569
 20
48.769486
 30
0.0
 11
58.63569
 21
48.769486
 31
0.0
  0
LINE
  5
38E
100
AcDbEntity
  8
3
100
AcDbLine
 10
57.13569
 20
49.269486
 30
0.0
 11
58.63569
 21
49.269486
 31
0.0
  0
LINE
  5
38F
100
AcDbEntity
  8
3
100
AcDbLine
 10
57.13569
 20
49.769486
 30
0.0
 11
58.63569
 21
49.769486
 31
0.0
  0
LINE
  5
390
100
AcDbEntity
  8
3
100
AcDbLine
 10
57.13569
 20
50.269486
 30
0.0
 11
58.63569
 21
50.269486
 31
0.0
  0
LINE
  5
391
100
AcDbEntity
  8
3
100
AcDbLine
 10
57.13569
 20
50.769486
 30
0.0
 11
58.63569
 21
50.769486
 31
0.0
  0
LINE
  5
392
100
AcDbEntity
  8
3
100
AcDbLine
 10
57.13569
 20
51.269486
 30
0.0
 11
58.63569
 21
51.269486
 31
0.0
  0
LINE
  5
393
100
AcDbEntity
  8
3
100
AcDbLine
 10
57.13569
 20
51.769486
 30
0.0
 11
58.63569
 21
51.769486
 31
0.0
  0
LINE
  5
394
100
AcDbEntity
  8
3
100
AcDbLine
 10
57.13569
 20
52.269486
 30
0.0
 11
58.63569
 21
52.269486
 31
0.0
  0
LINE
  5
395
100
AcDbEntity
  8
3
100
AcDbLine
 10
57.13569
 20
52.769486
 30
0.0
 11
56.63569
 21
52.269486
 31
0.0
  0
LINE
  5
396
100
AcDbEntity
  8
3
100
AcDbLine
 10
57.13569
 20
52.769486
 30
0.0
 11
58.63569
 21
52.769486
 31
0.0
  0
LINE
  5
39D
100
AcDbEntity
  8
3
100
AcDbLine
 10
59.13569
 20
48.769486
 30
0.0
 11
64.63569
 21
48.769486
 31
0.0
  0
LINE
  5
3A0
100
AcDbEntity
  8
3
100
AcDbLine
 10
64.63569
 20
48.769486
 30
0.0
 11
65.13569
 21
48.269486
 31
0.0
  0
ENDSEC
  0
SECTION
  2
OBJECTS
  0
DICTIONARY
  5
15E
100
AcDbDictionary
  3
ACAD_GROUP
350
15F
  3
ACAD_MLINESTYLE
350
16C
  3
ACDBVARIABLEDICTIONARY
350
17E
  0
DICTIONARY
  5
15F
102
{ACAD_REACTORS
330
15E
102
}
100
AcDbDictionary
  0
DICTIONARY
  5
16C
102
{ACAD_REACTORS
330
15E
102
}
100
AcDbDictionary
  3
STANDARD
350
16D
  0
DICTIONARY
  5
17E
102
{ACAD_REACTORS
330
15E
102
}
100
AcDbDictionary
  3
DIMADEC
350
17F
  0
MLINESTYLE
  5
16D
102
{ACAD_REACTORS
330
16C
102
}
100
AcDbMlineStyle
  2
STANDARD
 70
     0
  3

 62
   256
 51
90.0
 52
90.0
 71
     2
 49
0.5
 62
   256
  6
BYLAYER
 49
-0.5
 62
   256
  6
BYLAYER
  0
DICTIONARYVAR
  5
17F
102
{ACAD_REACTORS
330
17E
102
}
100
DictionaryVariables
280
     0
  1
0
  0
ENDSEC
  0
EOF
