  0
SECTION
  2
HEADER
  9
$ACADVER
  1
AC1015
  9
$ACADMAINTVER
 70
    13
  9
$DWGCODEPAGE
  3
ANSI_932
  9
$INSBASE
 10
0.0
 20
0.0
 30
0.0
  9
$EXTMIN
 10
32.455542
 20
30.098668
 30
0.0
  9
$EXTMAX
 10
76.45554200000001
 20
52.098668
 30
0.0
  9
$LIMMIN
 10
0.0
 20
0.0
  9
$LIMMAX
 10
100.0
 20
70.0
  9
$ORTHOMODE
 70
     0
  9
$REGENMODE
 70
     1
  9
$FILLMODE
 70
     1
  9
$QTEXTMODE
 70
     0
  9
$MIRRTEXT
 70
     1
  9
$LTSCALE
 40
5.0
  9
$ATTMODE
 70
     2
  9
$TEXTSIZE
 40
3.0
  9
$TRACEWID
 40
0.05
  9
$TEXTSTYLE
  7
BIGFONT
  9
$CLAYER
  8
0
  9
$CELTYPE
  6
BYLAYER
  9
$CECOLOR
 62
   256
  9
$CELTSCALE
 40
1.0
  9
$DISPSILH
 70
     0
  9
$DIMSCALE
 40
0.5
  9
$DIMASZ
 40
3.0
  9
$DIMEXO
 40
2.0
  9
$DIMDLI
 40
0.38
  9
$DIMRND
 40
0.0
  9
$DIMDLE
 40
0.0
  9
$DIMEXE
 40
2.0
  9
$DIMTP
 40
0.0
  9
$DIMTM
 40
0.0
  9
$DIMTXT
 40
3.2
  9
$DIMCEN
 40
0.09
  9
$DIMTSZ
 40
0.0
  9
$DIMTOL
 70
     0
  9
$DIMLIM
 70
     0
  9
$DIMTIH
 70
     0
  9
$DIMTOH
 70
     0
  9
$DIMSE1
 70
     0
  9
$DIMSE2
 70
     0
  9
$DIMTAD
 70
     1
  9
$DIMZIN
 70
     0
  9
$DIMBLK
  1

  9
$DIMASO
 70
     0
  9
$DIMSHO
 70
     0
  9
$DIMPOST
  1

  9
$DIMAPOST
  1

  9
$DIMALT
 70
     0
  9
$DIMALTD
 70
     2
  9
$DIMALTF
 40
25.4
  9
$DIMLFAC
 40
1.0
  9
$DIMTOFL
 70
     0
  9
$DIMTVP
 40
0.0
  9
$DIMTIX
 70
     0
  9
$DIMSOXD
 70
     0
  9
$DIMSAH
 70
     0
  9
$DIMBLK1
  1

  9
$DIMBLK2
  1

  9
$DIMSTYLE
  2
STANDARD
  9
$DIMCLRD
 70
     0
  9
$DIMCLRE
 70
     0
  9
$DIMCLRT
 70
     0
  9
$DIMTFAC
 40
1.0
  9
$DIMGAP
 40
0.09
  9
$DIMJUST
 70
     0
  9
$DIMSD1
 70
     0
  9
$DIMSD2
 70
     0
  9
$DIMTOLJ
 70
     1
  9
$DIMTZIN
 70
     0
  9
$DIMALTZ
 70
     0
  9
$DIMALTTZ
 70
     0
  9
$DIMUPT
 70
     0
  9
$DIMDEC
 70
     4
  9
$DIMTDEC
 70
     4
  9
$DIMALTU
 70
     2
  9
$DIMALTTD
 70
     2
  9
$DIMTXSTY
  7
BIGFONT
  9
$DIMAUNIT
 70
     0
  9
$DIMADEC
 70
     0
  9
$DIMALTRND
 40
0.0
  9
$DIMAZIN
 70
     0
  9
$DIMDSEP
 70
    46
  9
$DIMATFIT
 70
     3
  9
$DIMFRAC
 70
     0
  9
$DIMLDRBLK
  1

  9
$DIMLUNIT
 70
     2
  9
$DIMLWD
 70
    -2
  9
$DIMLWE
 70
    -2
  9
$DIMTMOVE
 70
     0
  9
$LUNITS
 70
     2
  9
$LUPREC
 70
     4
  9
$SKETCHINC
 40
0.1
  9
$FILLETRAD
 40
0.0
  9
$AUNITS
 70
     0
  9
$AUPREC
 70
     0
  9
$MENU
  1
ACAD
  9
$ELEVATION
 40
0.0
  9
$PELEVATION
 40
0.0
  9
$THICKNESS
 40
0.0
  9
$LIMCHECK
 70
     0
  9
$CHAMFERA
 40
0.0
  9
$CHAMFERB
 40
0.0
  9
$CHAMFERC
 40
0.0
  9
$CHAMFERD
 40
0.0
  9
$SKPOLY
 70
     0
  9
$TDCREATE
 40
2450868.796797569
  9
$TDUCREATE
 40
2450868.421797569
  9
$TDUPDATE
 40
2454700.622374490
  9
$TDUUPDATE
 40
2454700.247374490
  9
$TDINDWG
 40
0.0019344907
  9
$TDUSRTIMER
 40
0.0019343171
  9
$USRTIMER
 70
     1
  9
$ANGBASE
 50
0.0
  9
$ANGDIR
 70
     0
  9
$PDMODE
 70
     0
  9
$PDSIZE
 40
0.0
  9
$PLINEWID
 40
0.0
  9
$SPLFRAME
 70
     0
  9
$SPLINETYPE
 70
     6
  9
$SPLINESEGS
 70
     8
  9
$HANDSEED
  5
3E1
  9
$SURFTAB1
 70
     6
  9
$SURFTAB2
 70
     6
  9
$SURFTYPE
 70
     6
  9
$SURFU
 70
     6
  9
$SURFV
 70
     6
  9
$UCSBASE
  2

  9
$UCSNAME
  2

  9
$UCSORG
 10
0.0
 20
0.0
 30
0.0
  9
$UCSXDIR
 10
1.0
 20
0.0
 30
0.0
  9
$UCSYDIR
 10
0.0
 20
1.0
 30
0.0
  9
$UCSORTHOREF
  2

  9
$UCSORTHOVIEW
 70
     0
  9
$UCSORGTOP
 10
0.0
 20
0.0
 30
0.0
  9
$UCSORGBOTTOM
 10
0.0
 20
0.0
 30
0.0
  9
$UCSORGLEFT
 10
0.0
 20
0.0
 30
0.0
  9
$UCSORGRIGHT
 10
0.0
 20
0.0
 30
0.0
  9
$UCSORGFRONT
 10
0.0
 20
0.0
 30
0.0
  9
$UCSORGBACK
 10
0.0
 20
0.0
 30
0.0
  9
$PUCSBASE
  2

  9
$PUCSNAME
  2

  9
$PUCSORG
 10
0.0
 20
0.0
 30
0.0
  9
$PUCSXDIR
 10
1.0
 20
0.0
 30
0.0
  9
$PUCSYDIR
 10
0.0
 20
1.0
 30
0.0
  9
$PUCSORTHOREF
  2

  9
$PUCSORTHOVIEW
 70
     0
  9
$PUCSORGTOP
 10
0.0
 20
0.0
 30
0.0
  9
$PUCSORGBOTTOM
 10
0.0
 20
0.0
 30
0.0
  9
$PUCSORGLEFT
 10
0.0
 20
0.0
 30
0.0
  9
$PUCSORGRIGHT
 10
0.0
 20
0.0
 30
0.0
  9
$PUCSORGFRONT
 10
0.0
 20
0.0
 30
0.0
  9
$PUCSORGBACK
 10
0.0
 20
0.0
 30
0.0
  9
$USERI1
 70
     0
  9
$USERI2
 70
     0
  9
$USERI3
 70
     0
  9
$USERI4
 70
     0
  9
$USERI5
 70
     0
  9
$USERR1
 40
0.0
  9
$USERR2
 40
0.0
  9
$USERR3
 40
0.0
  9
$USERR4
 40
0.0
  9
$USERR5
 40
0.0
  9
$WORLDVIEW
 70
     1
  9
$SHADEDGE
 70
     3
  9
$SHADEDIF
 70
    70
  9
$TILEMODE
 70
     1
  9
$MAXACTVP
 70
    16
  9
$PINSBASE
 10
0.0
 20
0.0
 30
0.0
  9
$PLIMCHECK
 70
     0
  9
$PEXTMIN
 10
1.000000000000000E+20
 20
1.000000000000000E+20
 30
1.000000000000000E+20
  9
$PEXTMAX
 10
-1.000000000000000E+20
 20
-1.000000000000000E+20
 30
-1.000000000000000E+20
  9
$PLIMMIN
 10
0.0
 20
0.0
  9
$PLIMMAX
 10
12.0
 20
9.0
  9
$UNITMODE
 70
     0
  9
$VISRETAIN
 70
     0
  9
$PLINEGEN
 70
     1
  9
$PSLTSCALE
 70
     0
  9
$TREEDEPTH
 70
  3020
  9
$CMLSTYLE
  2
STANDARD
  9
$CMLJUST
 70
     0
  9
$CMLSCALE
 40
1.0
  9
$PROXYGRAPHICS
 70
     1
  9
$MEASUREMENT
 70
     0
  9
$CELWEIGHT
370
    -1
  9
$ENDCAPS
280
     0
  9
$JOINSTYLE
280
     0
  9
$LWDISPLAY
290
     0
  9
$INSUNITS
 70
     0
  9
$HYPERLINKBASE
  1

  9
$STYLESHEET
  1

  9
$XEDIT
290
     1
  9
$CEPSNTYPE
380
     0
  9
$PSTYLEMODE
290
     1
  9
$FINGERPRINTGUID
  2
{EC5AEEBE-9E9E-42F9-B370-93D00152F9D7}
  9
$VERSIONGUID
  2
{E7D465C5-5E2D-41CA-91FD-2028F664EC84}
  9
$EXTNAMES
290
     1
  9
$PSVPSCALE
 40
0.0
  9
$OLESTARTUP
290
     0
  0
ENDSEC
  0
SECTION
  2
CLASSES
  0
CLASS
  1
DICTIONARYVAR
  2
AcDbDictionaryVar
  3
AutoCAD 2000
 90
        0
280
     0
281
     0
  0
CLASS
  1
LWPOLYLINE
  2
AcDbPolyline
  3
AutoCAD 2000
 90
    32768
280
     0
281
     1
  0
CLASS
  1
ACDBDICTIONARYWDFLT
  2
AcDbDictionaryWithDefault
  3
AutoCAD 2000
 90
        0
280
     0
281
     0
  0
CLASS
  1
ACDBPLACEHOLDER
  2
AcDbPlaceHolder
  3
AutoCAD 2000
 90
        0
280
     0
281
     0
  0
CLASS
  1
LAYOUT
  2
AcDbLayout
  3
AutoCAD 2000
 90
        0
280
     0
281
     0
  0
CLASS
  1
AMGSETTINGSOBJ
  2
AmgSettingsObj
  3
"AcadM|Product Description: AutoCAD Mechanical 2000|Company: Autodesk"
 90
        0
280
     0
281
     0
  0
CLASS
  1
ACME_DOCUMENT
  2
AcMeDbDoc
  3
AcMeServices
 90
        0
280
     0
281
     0
  0
CLASS
  1
ACMESCOPE
  2
AcMeScope
  3
AcMeServices
 90
        0
280
     0
281
     0
  0
CLASS
  1
ACMECOMMANDHISTORY
  2
AcMeCommandHistory
  3
AcMeServices
 90
        0
280
     0
281
     0
  0
CLASS
  1
ACIMSYSVARMAN
  2
AcImSysVarManager
  3
AcMeServices
 90
        0
280
     0
281
     0
  0
CLASS
  1
ACIMREALSYSVAR
  2
AcImRealSysVar
  3
AcMeServices
 90
        0
280
     0
281
     0
  0
CLASS
  1
ACIMINTSYSVAR
  2
AcImIntSysVar
  3
AcMeServices
 90
        0
280
     0
281
     0
  0
CLASS
  1
ACMEDRAWINGMAN
  2
AcMeDrawingMan
  3
AcMeServices
 90
        0
280
     0
281
     0
  0
CLASS
  1
ACMEVIEW
  2
AcMeView
  3
AcMeServices
 90
        0
280
     0
281
     0
  0
CLASS
  1
ACDBENTITYCACHE
  2
AcMeEntityCache
  3
AcMeServices
 90
        0
280
     0
281
     0
  0
CLASS
  1
GSMANAGER
  2
AcMeGSManager
  3
AcMeServices
 90
        0
280
     0
281
     0
  0
CLASS
  1
AMDTINTERNALREACTOR
  2
AmdtInternalReactor
  3
AcMeServices
 90
        0
280
     0
281
     0
  0
CLASS
  1
ACMESTATEMGR
  2
AcMeStateMgr
  3
AcMeServices
 90
        0
280
     0
281
     0
  0
CLASS
  1
ACGREFMASTER
  2
AcGrefMaster
  3
AcAttribServices
 90
        0
280
     0
281
     0
  0
CLASS
  1
AM_DRAWING_MGR
  2
AcDmDwgMgr
  3
AcMechDwgViewMgmt
 90
        0
280
     0
281
     0
  0
CLASS
  1
AM_DWG_DOCUMENT
  2
AcDmDwgDocument
  3
AcMechDwgViewMgmt
 90
        0
280
     0
281
     0
  0
CLASS
  1
AM_DWG_SHEET
  2
AcDmSheet
  3
AcMechDwgViewMgmt
 90
        0
280
     0
281
     0
  0
CLASS
  1
AM_VIEWDIMPARMAP
  2
AcDmViewDimParMap
  3
AcMechDwgViewMgmt
 90
        0
280
     0
281
     0
  0
CLASS
  1
AM_DWGMGR_NAME
  2
AcDmDwgMgrName
  3
AcMechDwgViewMgmt
 90
        0
280
     0
281
     0
  0
CLASS
  1
ACME_DATABASE
  2
AcMeDbDatabase
  3
AcMeServices
 90
        0
280
     0
281
     0
  0
CLASS
  1
ACRFINSADJUSTERMGR
  2
AcRfInsAdjusterMgr
  3
AcMeServices
 90
        0
280
     0
281
     0
  0
CLASS
  1
ACGREFACADMASTER
  2
AcGrefacadMaster
  3
AcGrefServices
 90
        0
280
     0
281
     0
  0
CLASS
  1
AMDTMENUSTATEMGR
  2
AmdtMenuStateMgr
  3
McadcomServices
 90
        0
280
     0
281
     0
  0
CLASS
  1
AMDTMCOMMENUSTATE
  2
AmdtMcomMenuState
  3
McadcomServices
 90
        0
280
     0
281
     0
  0
CLASS
  1
AMIMASTER
  2
AmiMaster
  3
AmiServices
 90
        0
280
     0
281
     0
  0
CLASS
  1
ASAPP
  2
AcAsAppObject
  3
AutoSurfServices
 90
        0
280
     0
281
     0
  0
CLASS
  1
IM_STATIC_MAN
  2
AcImStaticVarManager
  3
AcMeServices
 90
        0
280
     0
281
     0
  0
CLASS
  1
ACIMSTRSYSVAR
  2
AcImStrSysVar
  3
AcMeServices
 90
        0
280
     0
281
     0
  0
CLASS
  1
ACIMDBLSTATICVAR
  2
AcImDblStaticVar
  3
AcMeServices
 90
        0
280
     0
281
     0
  0
CLASS
  1
ACIMSTRSTATICVAR
  2
AcImStrStaticVar
  3
AcMeServices
 90
        0
280
     0
281
     0
  0
CLASS
  1
ACIMINTSTATICVAR
  2
AcImIntStaticVar
  3
AcMeServices
 90
        0
280
     0
281
     0
  0
CLASS
  1
ACASGREFMASTER
  2
AcAsGrefMaster
  3
AutoSurfResolverServices
 90
        0
280
     0
281
     0
  0
CLASS
  1
ACADGREFMODULE
  2
AcAdGrefModule
  3
AdGrefServices
 90
        0
280
     0
281
     0
  0
CLASS
  1
AMDTMAPISURFMOUDULE
  2
AmdtMApiSurfModule
  3
MApiSurfServices
 90
        0
280
     0
281
     0
  0
CLASS
  1
MAPIAMMOUDLE
  2
MApiAmModule
  3
MApiAmServices
 90
        0
280
     0
281
     0
  0
CLASS
  1
AMDTADMENUSTATE
  2
AmdtAdMenuState
  3
DesignerServices
 90
        0
280
     0
281
     0
  0
CLASS
  1
ADAPPL
  2
AcAdAppl
  3
DesignerServices
 90
        0
280
     0
281
     0
  0
CLASS
  1
DEPMGR
  2
AcAdDepMgr
  3
DesignerServices
 90
        0
280
     0
281
     0
  0
CLASS
  1
PARAMMGR
  2
AcAdParamMgr
  3
DesignerServices
 90
        0
280
     0
281
     0
  0
CLASS
  1
PARAMSCOPE
  2
AcAdParamScope
  3
DesignerServices
 90
        0
280
     0
281
     0
  0
CLASS
  1
NAMEDAPPL
  2
AcAdNamedAppl
  3
DesignerServices
 90
        0
280
     0
281
     0
  0
CLASS
  1
AMDTDMMENUSTATE
  2
AmdtDmMenuState
  3
AcMechDwgViewMgmt
 90
        0
280
     0
281
     0
  0
CLASS
  1
MAPIADMODULE
  2
MApiAdModule
  3
MApiAdServices
 90
        0
280
     0
281
     0
  0
CLASS
  1
AMDTAMMENUSTATE
  2
AmdtAmMenuState
  3
DesignerAssemblies
 90
        0
280
     0
281
     0
  0
CLASS
  1
ACAMPROJECT
  2
AcAmProject
  3
DesignerAssemblies
 90
        0
280
     0
281
     0
  0
CLASS
  1
ACAMGRCOMPDEF
  2
AcAmGrCompDef
  3
DesignerAssemblies
 90
        0
280
     0
281
     0
  0
CLASS
  1
ACCMCONTEXT
  2
AcCmContext
  3
DesignerAssemblies
 90
        0
280
     0
281
     0
  0
CLASS
  1
ACAMCOMPDEF
  2
AcAmCompDef
  3
DesignerAssemblies
 90
        0
280
     0
281
     0
  0
CLASS
  1
ACAMCOMPDEFMGR
  2
AcAmCompDefMgr
  3
DesignerAssemblies
 90
        0
280
     0
281
     0
  0
CLASS
  1
AMCONTEXTMGR
  2
AcAmContextMgr
  3
DesignerAssemblies
 90
        0
280
     0
281
     0
  0
CLASS
  1
ACAMCONTEXTMODELER
  2
AcAmContextModeler
  3
DesignerAssemblies
 90
        0
280
     0
281
     0
  0
CLASS
  1
ACMDATADICTIONARY
  2
AcmDataDictionary
  3
"AcmSymBB|Product Description: AutoCAD Mechanical 2000|Company: Autodesk"
 90
        0
280
     0
281
     0
  0
CLASS
  1
ACMDATAENTRYBLOCK
  2
AcmDataEntryBlock
  3
"AcmSymBB|Product Description: AutoCAD Mechanical 2000|Company: Autodesk"
 90
        0
280
     0
281
     0
  0
CLASS
  1
CATALOGSTATE
  2
AcAmCatalogState
  3
DesignerAssemblies
 90
        0
280
     0
281
     0
  0
CLASS
  1
ACAMGRCOMPDEFSET
  2
AcAmGrCompDefSet
  3
DesignerAssemblies
 90
        0
280
     0
281
     0
  0
CLASS
  1
AMDTBROWSERDBTAB
  2
AmdtBrowserDbTab
  3
McadcomServices
 90
        0
280
     0
281
     0
  0
CLASS
  1
CBROWSERAPPOBJECT
  2
CBrowserAppObject
  3
McadcomServices
 90
        0
280
     0
281
     0
  0
CLASS
  1
DM_PLACEHOLDER
  2
AcDmSelsetPlaceholder
  3
AcMechDwgViewMgmt
 90
        0
280
     0
281
     0
  0
CLASS
  1
ACMSTANDARDANSI
  2
AcmStandardANSI
  3
"Amdt_StdImp|Product Description: AutoCAD Mechanical 2000|Company: Autodesk"
 90
        0
280
     0
281
     0
  0
CLASS
  1
AMGOBJPROPCFG
  2
AmgObjPropCfg
  3
"AmgLay|Product Description: AutoCAD Mechanical 2000|Company: Autodesk"
 90
        1
280
     0
281
     0
  0
CLASS
  1
ACMSURFSTANDARDANSI
  2
AcmSurfTextStdANSI
  3
"Amdt_StdImp|Product Description: AutoCAD Mechanical 2000|Company: Autodesk"
 90
        0
280
     0
281
     0
  0
CLASS
  1
ACMFCFSTANDARDANSI
  2
AcmFCFStdANSI
  3
"Amdt_StdImp|Product Description: AutoCAD Mechanical 2000|Company: Autodesk"
 90
        0
280
     0
281
     0
  0
CLASS
  1
ACMWELDSTANDARDANSI
  2
AcmWeldingStdANSI
  3
"Amdt_StdImp|Product Description: AutoCAD Mechanical 2000|Company: Autodesk"
 90
        0
280
     0
281
     0
  0
CLASS
  1
ACMIDSTANDARDANSI
  2
AcmIdStdANSI
  3
"Amdt_StdImp|Product Description: AutoCAD Mechanical 2000|Company: Autodesk"
 90
        0
280
     0
281
     0
  0
CLASS
  1
ACMDATUMSTANDARDANSI
  2
AcmDatumStdANSI
  3
"Amdt_StdImp|Product Description: AutoCAD Mechanical 2000|Company: Autodesk"
 90
        0
280
     0
281
     0
  0
CLASS
  1
ACMBOMSTANDARDANSI
  2
AcmBOMStdANSI
  3
"Amdt_StdImp|Product Description: AutoCAD Mechanical 2000|Company: Autodesk"
 90
        0
280
     0
281
     0
  0
CLASS
  1
ACMDETAILSTANDARDANSI
  2
AmdtDetailSymStdANSI
  3
"Amdt_StdImp|Product Description: AutoCAD Mechanical 2000|Company: Autodesk"
 90
        0
280
     0
281
     0
  0
CLASS
  1
ACMSECTIONSTANDARDANSI
  2
AmdtSectionSymStdANSI
  3
"Amdt_StdImp|Product Description: AutoCAD Mechanical 2000|Company: Autodesk"
 90
        0
280
     0
281
     0
  0
CLASS
  1
ACMCENTERLINESTANDARDANSI
  2
AmdtCenterLineStdANSI
  3
"Amdt_StdImp|Product Description: AutoCAD Mechanical 2000|Company: Autodesk"
 90
        0
280
     0
281
     0
  0
CLASS
  1
ACMTHREADLINESTANDARDANSI
  2
AmdtThreadLineStdANSI
  3
"Amdt_StdImp|Product Description: AutoCAD Mechanical 2000|Company: Autodesk"
 90
        0
280
     0
281
     0
  0
CLASS
  1
ACMNOTESTANDARDANSI
  2
AmdtNoteStdANSI
  3
"Amdt_StdImp|Product Description: AutoCAD Mechanical 2000|Company: Autodesk"
 90
        0
280
     0
281
     0
  0
CLASS
  1
ACAMGLAYSTD
  2
AcAmgLayStd
  3
"AcAmgLayStd|Product Description: AutoCAD Mechanical 2000|Company: Autodesk"
 90
        0
280
     0
281
     0
  0
CLASS
  1
ACAMGDIMSTD
  2
AcAmgDimStd
  3
"AcAmgDimStd|Product Description: AutoCAD Mechanical 2000|Company: Autodesk"
 90
        0
280
     0
281
     0
  0
CLASS
  1
ACAMGHOLECHARTSTDANSI
  2
AcAmgHoleChartStdANSI
  3
ACMSYMBB_MODULE_NAME
 90
        0
280
     0
281
     0
  0
CLASS
  1
ACAMGTITLESTD
  2
AcAmgTitleStd
  3
"TITLEAPP"
 90
        0
280
     0
281
     0
  0
CLASS
  1
LAYER_INDEX
  2
AcDbLayerIndex
  3
AutoCAD 2000
 90
        0
280
     0
281
     0
  0
CLASS
  1
IDBUFFER
  2
AcDbIdBuffer
  3
AutoCAD 2000
 90
        0
280
     0
281
     0
  0
ENDSEC
  0
SECTION
  2
TABLES
  0
TABLE
  2
VPORT
  5
15A
330
0
100
AcDbSymbolTable
 70
     5
  0
VPORT
  5
3E0
330
15A
100
AcDbSymbolTableRecord
100
AcDbViewportTableRecord
  2
*Active
 70
     0
 10
0.0
 20
0.0
 11
1.0
 21
1.0
 12
0.0
 22
0.0
 13
0.0
 23
0.0
 14
5.0
 24
5.0
 15
10.0
 25
10.0
 16
0.0
 26
0.0
 36
1.0
 17
65.62576031263819
 27
43.26075499999999
 37
0.0
 40
86.52151100000001
 41
1.516981132075471
 42
50.0
 43
0.0
 44
0.0
 50
0.0
 51
0.0
 71
     0
 72
   500
 73
     1
 74
     1
 75
     0
 76
     0
 77
     0
 78
     1
281
     0
 65
     0
110
0.0
120
0.0
130
0.0
111
1.0
121
0.0
131
0.0
112
0.0
122
1.0
132
0.0
 79
     0
146
0.0
  0
ENDTAB
  0
TABLE
  2
LTYPE
  5
157
330
0
100
AcDbSymbolTable
 70
    20
  0
LTYPE
  5
163
330
157
100
AcDbSymbolTableRecord
100
AcDbLinetypeTableRecord
  2
BYBLOCK
 70
     0
  3

 72
    65
 73
     0
 40
0.0
  0
LTYPE
  5
164
330
157
100
AcDbSymbolTableRecord
100
AcDbLinetypeTableRecord
  2
BYLAYER
 70
     0
  3

 72
    65
 73
     0
 40
0.0
  0
LTYPE
  5
165
330
157
100
AcDbSymbolTableRecord
100
AcDbLinetypeTableRecord
  2
CONTINUOUS
 70
     0
  3
Solid line
 72
    65
 73
     0
 40
0.0
  0
LTYPE
  5
171
330
157
100
AcDbSymbolTableRecord
100
AcDbLinetypeTableRecord
  2
CENTER
 70
     0
  3
____ _ ____ _ ____ _ ____ _ ____ _ ____ _ ____
 72
    65
 73
     4
 40
2.0
 49
1.25
 74
     0
 49
-0.25
 74
     0
 49
0.25
 74
     0
 49
-0.25
 74
     0
  0
LTYPE
  5
1A9
330
157
100
AcDbSymbolTableRecord
100
AcDbLinetypeTableRecord
  2
TENSEN
 70
     0
  3

 72
    65
 73
     2
 40
3.0
 49
2.0
 74
     0
 49
-1.0
 74
     0
  0
LTYPE
  5
1AA
330
157
100
AcDbSymbolTableRecord
100
AcDbLinetypeTableRecord
  2
ITTEN
 70
     0
  3

 72
    65
 73
     4
 40
5.5
 49
2.5
 74
     0
 49
-1.0
 74
     0
 49
1.0
 74
     0
 49
-1.0
 74
     0
  0
LTYPE
  5
2FE
330
157
100
AcDbSymbolTableRecord
100
AcDbLinetypeTableRecord
  2
HIDDEN
 70
     0
  3
Hidden __ __ __ __ __ __ __ __ __ __ __ __ __ _
 72
    65
 73
     2
 40
0.375
 49
0.25
 74
     0
 49
-0.125
 74
     0
  0
LTYPE
  5
2FF
330
157
100
AcDbSymbolTableRecord
100
AcDbLinetypeTableRecord
  2
PHANTOM2
 70
     0
  3
Phantom (.5x) ___ _ _ ___ _ _ ___ _ _ ___ _ _
 72
    65
 73
     6
 40
1.25
 49
0.625
 74
     0
 49
-0.125
 74
     0
 49
0.125
 74
     0
 49
-0.125
 74
     0
 49
0.125
 74
     0
 49
-0.125
 74
     0
  0
LTYPE
  5
361
330
157
100
AcDbSymbolTableRecord
100
AcDbLinetypeTableRecord
  2
ASULTYPE
 70
     0
  3
実線
 72
    65
 73
     2
 40
3.0
 49
2.5
 74
     0
 49
0.5
 74
     0
  0
LTYPE
  5
362
330
157
100
AcDbSymbolTableRecord
100
AcDbLinetypeTableRecord
  2
ASVLTYPE
 70
     0
  3
__ __ __ __ __ __ __ __ __ __ __ __ __ __ __ __ __ __ __ __ __
 72
    65
 73
     2
 40
0.75
 49
0.5
 74
     0
 49
-0.25
 74
     0
  0
LTYPE
  5
3A6
330
157
100
AcDbSymbolTableRecord
100
AcDbLinetypeTableRecord
  2
AM_ISO02W050
 70
     0
  3
__ __ __ __ __ __ __ __ __ __ __ __ __ __ __
 72
    65
 73
     2
 40
7.5
 49
6.0
 74
     0
 49
-1.5
 74
     0
  0
LTYPE
  5
3A7
330
157
100
AcDbSymbolTableRecord
100
AcDbLinetypeTableRecord
  2
AM_ISO08W050
 70
     0
  3
____ . ____ . ____ . ____ . ____ . ____ . ____
 72
    65
 73
     4
 40
18.0
 49
12.0
 74
     0
 49
-1.5
 74
     0
 49
3.0
 74
     0
 49
-1.5
 74
     0
  0
LTYPE
  5
3A8
330
157
100
AcDbSymbolTableRecord
100
AcDbLinetypeTableRecord
  2
AM_ISO09W050
 70
     0
  3
_____ . . _____ . . _____ . . ____ .. ____
 72
    65
 73
     6
 40
22.5
 49
12.0
 74
     0
 49
-1.5
 74
     0
 49
3.0
 74
     0
 49
-1.5
 74
     0
 49
3.0
 74
     0
 49
-1.5
 74
     0
  0
LTYPE
  5
3A9
330
157
100
AcDbSymbolTableRecord
100
AcDbLinetypeTableRecord
  2
Amconstr
 70
     0
  3
_______________________
 72
    65
 73
     2
 40
9999.0
 49
9999.0
 74
     0
 49
0.0
 74
     0
  0
LTYPE
  5
3AA
330
157
100
AcDbSymbolTableRecord
100
AcDbLinetypeTableRecord
  2
AM_ISO08W050x2
 70
     0
  3
__ . __ . __ . __ . __ . __
 72
    65
 73
     4
 40
9.0
 49
6.0
 74
     0
 49
-0.75
 74
     0
 49
1.5
 74
     0
 49
-0.75
 74
     0
  0
LTYPE
  5
3AB
330
157
100
AcDbSymbolTableRecord
100
AcDbLinetypeTableRecord
  2
AM_ISO02W050x2
 70
     0
  3
 _ _ _ _ _ _ _ _ _ _ _ _
 72
    65
 73
     2
 40
3.75
 49
3.0
 74
     0
 49
-0.75
 74
     0
  0
LTYPE
  5
3AE
330
157
100
AcDbSymbolTableRecord
100
AcDbLinetypeTableRecord
  2
Amzigzag
 70
     0
  3
/\/-/\/-/\/-/\/-/\/-/\/
 72
    65
 73
     2
 40
11.00009999999999
 49
0.0001
 74
     4
 75
   135
340
3AD
 46
0.04
 50
0.0
 44
0.0
 45
0.0
 49
-11.0
 74
     0
  0
LTYPE
  5
3AF
330
157
100
AcDbSymbolTableRecord
100
AcDbLinetypeTableRecord
  2
CENTER2
 70
     0
  3
Center (.5x) ___ _ ___ _ ___ _ ___ _ ___ _ ___
 72
    65
 73
     4
 40
1.125
 49
0.75
 74
     0
 49
-0.125
 74
     0
 49
0.125
 74
     0
 49
-0.125
 74
     0
  0
LTYPE
  5
3B0
330
157
100
AcDbSymbolTableRecord
100
AcDbLinetypeTableRecord
  2
HIDDEN2
 70
     0
  3
Hidden (.5x) _ _ _ _ _ _ _ _ _ _ _ _ _ _ _ _ _
 72
    65
 73
     2
 40
0.1875
 49
0.125
 74
     0
 49
-0.0625
 74
     0
  0
LTYPE
  5
3B1
330
157
100
AcDbSymbolTableRecord
100
AcDbLinetypeTableRecord
  2
Amzigzag2
 70
     0
  3
/\/-/\/-/\/-/\/-/\/-/\/
 72
    65
 73
     2
 40
0.4401
 49
0.0001
 74
     4
 75
   135
340
3AD
 46
0.0016
 50
0.0
 44
0.0
 45
0.0
 49
-0.4400000000000001
 74
     0
  0
LTYPE
  5
3BF
330
157
100
AcDbSymbolTableRecord
100
AcDbLinetypeTableRecord
  2
ACANSTGB
 70
     0
  3
__ . . __ . .
 72
    65
 73
     6
 40
0.35433070866
 49
0.15748031496
 74
     0
 49
-0.03937007874
 74
     0
 49
0.03937007874
 74
     0
 49
-0.03937007874
 74
     0
 49
0.03937007874
 74
     0
 49
-0.03937007874
 74
     0
  0
LTYPE
  5
3C0
330
157
100
AcDbSymbolTableRecord
100
AcDbLinetypeTableRecord
  2
ACANSTGL
 70
     0
  3
_ _ _ _ _
 72
    65
 73
     2
 40
0.11811023622
 49
0.07874015748
 74
     0
 49
-0.03937007874
 74
     0
  0
ENDTAB
  0
TABLE
  2
LAYER
  5
154
330
0
100
AcDbSymbolTable
 70
     7
  0
LAYER
  5
160
330
154
100
AcDbSymbolTableRecord
100
AcDbLayerTableRecord
  2
0
 70
     0
 62
     7
  6
CONTINUOUS
370
    -3
390
2D3
  0
LAYER
  5
176
330
154
100
AcDbSymbolTableRecord
100
AcDbLayerTableRecord
  2
1
 70
     0
 62
     1
  6
CENTER
370
    -3
390
2D3
  0
LAYER
  5
177
330
154
100
AcDbSymbolTableRecord
100
AcDbLayerTableRecord
  2
3
 70
     0
 62
     3
  6
CONTINUOUS
370
    -3
390
2D3
  0
LAYER
  5
178
330
154
100
AcDbSymbolTableRecord
100
AcDbLayerTableRecord
  2
10
 70
     0
 62
     7
  6
CONTINUOUS
370
    -3
390
2D3
  0
LAYER
  5
179
330
154
100
AcDbSymbolTableRecord
100
AcDbLayerTableRecord
  2
11
 70
     0
 62
     3
  6
CONTINUOUS
370
    -3
390
2D3
  0
LAYER
  5
1AB
330
154
100
AcDbSymbolTableRecord
100
AcDbLayerTableRecord
  2
2
 70
     0
 62
     2
  6
TENSEN
370
    -3
390
2D3
  0
LAYER
  5
1AC
330
154
100
AcDbSymbolTableRecord
100
AcDbLayerTableRecord
  2
DEFPOINTS
 70
     0
 62
     7
  6
CONTINUOUS
290
     0
370
    -3
390
2D3
  0
ENDTAB
  0
TABLE
  2
STYLE
  5
155
330
0
100
AcDbSymbolTable
 70
     6
  0
STYLE
  5
161
330
155
100
AcDbSymbolTableRecord
100
AcDbTextStyleTableRecord
  2
STANDARD
 70
     0
 40
0.0
 41
1.0
 50
0.0
 71
     0
 42
0.2
  3
TXT
  4
BIGFONT
  0
STYLE
  5
16F
330
155
100
AcDbSymbolTableRecord
100
AcDbTextStyleTableRecord
  2
07500
 70
     0
 40
0.0
 41
0.75
 50
0.0
 71
     0
 42
6.0
  3
TXT
  4
BIGFONT
  0
STYLE
  5
170
330
155
100
AcDbSymbolTableRecord
100
AcDbTextStyleTableRecord
  2
BIGFONT
 70
     0
 40
3.0
 41
0.8
 50
0.0
 71
     0
 42
3.0
  3

  4
bigfont
  0
STYLE
  5
3AD
330
155
100
AcDbSymbolTableRecord
100
AcDbTextStyleTableRecord
  2

 70
     1
 40
0.0
 41
1.0
 50
0.0
 71
     0
 42
3.0
  3
ltypeshp.shx
  4

  0
STYLE
  5
3B2
330
155
100
AcDbSymbolTableRecord
100
AcDbTextStyleTableRecord
  2
ACANSTS
 70
     0
 40
1.0
 41
1.0
 50
0.0
 71
     0
 42
3.0
  3
romans.shx
  4
extfont.shx
  0
STYLE
  5
3BE
330
155
100
AcDbSymbolTableRecord
100
AcDbTextStyleTableRecord
  2
ACANSGDT
 70
     0
 40
0.0
 41
1.0
 50
0.0
 71
     0
 42
3.0
  3
amgdtans.shx
  4

  0
ENDTAB
  0
TABLE
  2
VIEW
  5
158
330
0
100
AcDbSymbolTable
 70
     1
  0
VIEW
  5
172
330
158
100
AcDbSymbolTableRecord
100
AcDbViewTableRecord
  2
ALL
 70
     0
 40
135.0
 10
110.495798
 20
67.5
 41
0.0
 11
0.0
 21
0.0
 31
1.0
 12
0.0
 22
0.0
 32
0.0
 42
50.0
 43
0.0
 44
0.0
 50
0.0
 71
     0
281
     0
 72
     0
  0
ENDTAB
  0
TABLE
  2
UCS
  5
159
330
0
100
AcDbSymbolTable
 70
     0
  0
ENDTAB
  0
TABLE
  2
APPID
  5
15B
330
0
100
AcDbSymbolTable
 70
    13
  0
APPID
  5
162
330
15B
100
AcDbSymbolTableRecord
100
AcDbRegAppTableRecord
  2
ACAD
 70
     0
  0
APPID
  5
2DC
330
15B
100
AcDbSymbolTableRecord
100
AcDbRegAppTableRecord
  2
GENIUS_GENDIM_13
 70
     0
  0
APPID
  5
2DD
330
15B
100
AcDbSymbolTableRecord
100
AcDbRegAppTableRecord
  2
GENIUS_GENDTOL_13
 70
     0
  0
APPID
  5
2DE
330
15B
100
AcDbSymbolTableRecord
100
AcDbRegAppTableRecord
  2
GENIUS_GE3DTOL_13
 70
     0
  0
APPID
  5
2E1
330
15B
100
AcDbSymbolTableRecord
100
AcDbRegAppTableRecord
  2
MCAD_NO_VIS
 70
     0
  0
APPID
  5
2E2
330
15B
100
AcDbSymbolTableRecord
100
AcDbRegAppTableRecord
  2
ACAD_TEMP_GRAPHIC
 70
     0
  0
APPID
  5
314
330
15B
100
AcDbSymbolTableRecord
100
AcDbRegAppTableRecord
  2
AD_DRAW
 70
     0
  0
APPID
  5
317
330
15B
100
AcDbSymbolTableRecord
100
AcDbRegAppTableRecord
  2
ACATTRIBSERVICES
 70
     0
  0
APPID
  5
363
330
15B
100
AcDbSymbolTableRecord
100
AcDbRegAppTableRecord
  2
ASURF_PCURVE_APPNAME
 70
     0
  0
APPID
  5
368
330
15B
100
AcDbSymbolTableRecord
100
AcDbRegAppTableRecord
  2
AMG_3D2D_5.0
 70
     0
  0
APPID
  5
393
330
15B
100
AcDbSymbolTableRecord
100
AcDbRegAppTableRecord
  2
DESIGNERASSEMBLIES
 70
     0
  0
APPID
  5
39B
330
15B
100
AcDbSymbolTableRecord
100
AcDbRegAppTableRecord
  2
ACADM_DIM_EDIT
 70
     0
  0
APPID
  5
39C
330
15B
100
AcDbSymbolTableRecord
100
AcDbRegAppTableRecord
  2
AMDT_DM_ADJ
 70
     0
  0
ENDTAB
  0
TABLE
  2
DIMSTYLE
  5
15C
330
0
100
AcDbSymbolTable
 70
     7
100
AcDbDimStyleTable
 71
     0
  0
DIMSTYLE
105
175
102
{ACAD_REACTORS
330
1B0
330
1B1
330
1B2
102
}
330
15C
100
AcDbSymbolTableRecord
100
AcDbDimStyleTableRecord
  2
STANDARD
 70
     0
340
170
  0
DIMSTYLE
105
3C5
330
15C
100
AcDbSymbolTableRecord
100
AcDbDimStyleTableRecord
  2
AM_ANSI
 70
     0
  4
mm
 41
0.1
 42
0.05
 43
0.5
 44
0.1
 47
0.1
 48
0.1
 78
     7
 79
     2
140
0.12
141
0.0
146
0.71
147
0.06
176
   256
177
   256
178
     2
274
     4
284
     7
340
161
371
    -1
372
    -1
  0
DIMSTYLE
105
3C6
330
15C
100
AcDbSymbolTableRecord
100
AcDbDimStyleTableRecord
  2
AM_ANSI$3
 70
     0
  4
mm
 41
0.1
 42
0.05
 43
0.5
 44
0.1
 47
0.1
 48
0.1
 78
     7
 79
     2
140
0.12
141
0.0
146
0.71
147
0.06
176
   256
177
   256
178
     2
274
     4
284
     7
288
     1
289
     0
340
161
371
    -1
372
    -1
  0
DIMSTYLE
105
3C7
330
15C
100
AcDbSymbolTableRecord
100
AcDbDimStyleTableRecord
  2
AM_ANSI$4
 70
     0
  4
mm
 41
0.1
 42
0.05
 43
0.5
 44
0.1
 47
0.1
 48
0.1
 78
     7
 79
     2
140
0.12
141
0.0
146
0.71
147
0.06
176
   256
177
   256
178
     2
274
     4
284
     7
288
     1
289
     0
340
161
371
    -1
372
    -1
  0
DIMSTYLE
105
3C8
330
15C
100
AcDbSymbolTableRecord
100
AcDbDimStyleTableRecord
  2
AM_ANSI$7
 70
     0
  4
mm
 41
0.1
 42
0.05
 43
0.5
 44
0.1
 47
0.1
 48
0.1
 78
     7
 79
     2
140
0.24
141
0.0
146
0.71
147
0.06
176
   256
177
   256
178
     2
274
     4
284
     7
340
161
371
    -1
372
    -1
  0
DIMSTYLE
105
3C9
330
15C
100
AcDbSymbolTableRecord
100
AcDbDimStyleTableRecord
  2
AM_ANSI$SF
 70
     0
  4
mm
 41
0.1
 42
0.05
 43
0.5
 44
0.1
 47
0.1
 48
0.1
 75
     1
 76
     1
 78
     7
 79
     2
140
0.12
141
0.0
146
0.71
147
0.06
176
   256
177
   256
178
     2
274
     4
284
     7
340
161
371
    -1
372
    -1
  0
DIMSTYLE
105
3CE
330
15C
100
AcDbSymbolTableRecord
100
AcDbDimStyleTableRecord
  2
AM_ANSI$SH
 70
     0
  4
mm
 41
0.1
 42
0.05
 43
0.5
 44
0.1
 47
0.1
 48
0.1
 75
     1
 76
     1
 78
     7
 79
     2
140
0.12
141
0.0
146
0.71
147
0.06
173
     1
176
   256
177
   256
178
     2
274
     4
284
     7
340
161
343
3CA
371
    -1
372
    -1
  0
ENDTAB
  0
TABLE
  2
BLOCK_RECORD
  5
153
330
0
100
AcDbSymbolTable
 70
    10
  0
BLOCK_RECORD
  5
169
102
{ACAD_XDICTIONARY
360
3D2
102
}
330
153
100
AcDbSymbolTableRecord
100
AcDbBlockTableRecord
  2
*MODEL_SPACE
340
2D6
  0
BLOCK_RECORD
  5
166
330
153
100
AcDbSymbolTableRecord
100
AcDbBlockTableRecord
  2
*PAPER_SPACE
340
2D7
  0
BLOCK_RECORD
  5
16E
330
153
100
AcDbSymbolTableRecord
100
AcDbBlockTableRecord
  2
QQ
340
0
  0
BLOCK_RECORD
  5
184
330
153
100
AcDbSymbolTableRecord
100
AcDbBlockTableRecord
  2
*D1
340
0
  0
BLOCK_RECORD
  5
18F
330
153
100
AcDbSymbolTableRecord
100
AcDbBlockTableRecord
  2
*D2
340
0
  0
BLOCK_RECORD
  5
19C
330
153
100
AcDbSymbolTableRecord
100
AcDbBlockTableRecord
  2
*D3
340
0
  0
BLOCK_RECORD
  5
1AD
330
153
100
AcDbSymbolTableRecord
100
AcDbBlockTableRecord
  2
A$C6CD96F62
340
0
  0
BLOCK_RECORD
  5
23D
330
153
100
AcDbSymbolTableRecord
100
AcDbBlockTableRecord
  2
*D5
340
0
  0
BLOCK_RECORD
  5
258
330
153
100
AcDbSymbolTableRecord
100
AcDbBlockTableRecord
  2
*D6
340
0
  0
BLOCK_RECORD
  5
261
330
153
100
AcDbSymbolTableRecord
100
AcDbBlockTableRecord
  2
*D7
340
0
  0
BLOCK_RECORD
  5
38A
330
153
100
AcDbSymbolTableRecord
100
AcDbBlockTableRecord
  2
*U8
340
0
  0
BLOCK_RECORD
  5
3CA
330
153
100
AcDbSymbolTableRecord
100
AcDbBlockTableRecord
  2
GENAXEH
340
0
  0
ENDTAB
  0
ENDSEC
  0
SECTION
  2
BLOCKS
  0
BLOCK
  5
17C
330
169
100
AcDbEntity
  8
0
100
AcDbBlockBegin
  2
*MODEL_SPACE
 70
     0
 10
0.0
 20
0.0
 30
0.0
  3
*MODEL_SPACE
  1

  0
ENDBLK
  5
17D
330
169
100
AcDbEntity
  8
0
100
AcDbBlockEnd
  0
BLOCK
  5
17A
330
166
100
AcDbEntity
 67
     1
  8
0
100
AcDbBlockBegin
  2
*PAPER_SPACE
 70
     0
 10
0.0
 20
0.0
 30
0.0
  3
*PAPER_SPACE
  1

  0
ENDBLK
  5
17B
330
166
100
AcDbEntity
 67
     1
  8
0
100
AcDbBlockEnd
  0
BLOCK
  5
2B
330
16E
100
AcDbEntity
  8
0
100
AcDbBlockBegin
  2
QQ
 70
     0
 10
270.0
 20
0.0
 30
0.0
  3
QQ
  1

  0
LINE
  5
2C
330
16E
100
AcDbEntity
  8
11
100
AcDbLine
 10
173.0
 20
36.0
 30
0.0
 11
270.0
 21
36.0
 31
0.0
  0
TEXT
  5
2D
330
16E
100
AcDbEntity
  8
11
100
AcDbText
 10
175.0
 20
32.5
 30
0.0
 40
2.5
  1
部品名称
100
AcDbText
  0
LINE
  5
2E
330
16E
100
AcDbEntity
  8
11
100
AcDbLine
 10
173.0
 20
36.0
 30
0.0
 11
173.0
 21
0.0
 31
0.0
  0
LINE
  5
2F
330
16E
100
AcDbEntity
  8
11
100
AcDbLine
 10
173.0
 20
24.0
 30
0.0
 11
270.0
 21
24.0
 31
0.0
  0
TEXT
  5
30
330
16E
100
AcDbEntity
  8
11
100
AcDbText
 10
175.0
 20
20.5
 30
0.0
 40
2.5
  1
品番
100
AcDbText
  0
LINE
  5
31
330
16E
100
AcDbEntity
  8
11
100
AcDbLine
 10
173.0
 20
12.0
 30
0.0
 11
270.0
 21
12.0
 31
0.0
  0
TEXT
  5
32
330
16E
100
AcDbEntity
  8
11
100
AcDbText
 10
175.0
 20
8.5
 30
0.0
 40
2.5
  1
尺度
100
AcDbText
  0
TEXT
  5
33
330
16E
100
AcDbEntity
  8
11
100
AcDbText
 10
200.0
 20
8.5
 30
0.0
 40
2.5
  1
図番
100
AcDbText
  0
LINE
  5
34
330
16E
100
AcDbEntity
  8
11
100
AcDbLine
 10
198.0
 20
0.0
 30
0.0
 11
198.0
 21
12.0
 31
0.0
  0
ENDBLK
  5
35
330
16E
100
AcDbEntity
  8
0
100
AcDbBlockEnd
  0
BLOCK
  5
18D
330
184
100
AcDbEntity
  8
0
100
AcDbBlockBegin
  2
*D1
 70
     1
 10
0.0
 20
0.0
 30
0.0
  3
*D1
  1

  0
LINE
  5
185
330
184
100
AcDbEntity
  8
0
  6
ByBlock
 62
     0
100
AcDbLine
 10
97.5
 20
164.5
 30
0.0
 11
99.50000000000001
 21
164.5
 31
0.0
  0
LINE
  5
186
330
184
100
AcDbEntity
  8
0
  6
ByBlock
 62
     0
100
AcDbLine
 10
99.50000000000001
 20
164.5
 30
0.0
 11
104.2294349999999
 21
159.35931
 31
0.0
  0
MTEXT
  5
187
330
184
100
AcDbEntity
  8
0
  6
ByBlock
 62
     0
100
AcDbMText
 10
94.74999999999999
 20
164.5
 30
0.0
 40
3.5
 41
0.0
 71
     5
 72
     1
  1
\A1;\U+220516
 73
     1
 44
1.0
  0
SOLID
  5
188
330
184
100
AcDbEntity
  8
0
  6
ByBlock
 62
     0
100
AcDbTrace
 10
104.474745
 20
159.5849959999999
 30
0.0
 11
103.9841239999999
 21
159.1336249999999
 31
0.0
 12
105.583548
 22
157.887448
 32
0.0
 13
105.583548
 23
157.887448
 33
0.0
  0
LINE
  5
189
330
184
100
AcDbEntity
  8
0
  6
ByBlock
 62
     0
100
AcDbLine
 10
110.8999999999999
 20
152.0
 30
0.0
 11
111.0999999999999
 21
152.0
 31
0.0
  0
LINE
  5
18A
330
184
100
AcDbEntity
  8
0
  6
ByBlock
 62
     0
100
AcDbLine
 10
111.0
 20
151.9
 30
0.0
 11
111.0
 21
152.0999999999999
 31
0.0
  0
POINT
  5
18B
330
184
100
AcDbEntity
  8
DEFPOINTS
  6
ByBlock
 62
     0
100
AcDbPoint
 10
105.583548
 20
157.887448
 30
0.0
  0
POINT
  5
18C
330
184
100
AcDbEntity
  8
DEFPOINTS
  6
ByBlock
 62
     0
100
AcDbPoint
 10
116.416452
 20
146.1125519999999
 30
0.0
  0
ENDBLK
  5
18E
330
184
100
AcDbEntity
  8
0
100
AcDbBlockEnd
  0
BLOCK
  5
19A
330
18F
100
AcDbEntity
  8
0
100
AcDbBlockBegin
  2
*D2
 70
     1
 10
0.0
 20
0.0
 30
0.0
  3
*D2
  1

  0
LINE
  5
190
330
18F
100
AcDbEntity
  8
0
  6
ByBlock
 62
     0
100
AcDbLine
 10
131.0
 20
159.6
 30
0.0
 11
131.0
 21
174.031337
 31
0.0
  0
LINE
  5
191
330
18F
100
AcDbEntity
  8
0
  6
ByBlock
 62
     0
100
AcDbLine
 10
133.4999999999999
 20
159.6
 30
0.0
 11
133.4999999999999
 21
174.031337
 31
0.0
  0
LINE
  5
192
330
18F
100
AcDbEntity
  8
0
  6
ByBlock
 62
     0
100
AcDbLine
 10
135.4999999999999
 20
173.831337
 30
0.0
 11
137.5
 21
173.831337
 31
0.0
  0
LINE
  5
193
330
18F
100
AcDbEntity
  8
0
  6
ByBlock
 62
     0
100
AcDbLine
 10
129.0
 20
173.831337
 30
0.0
 11
126.1544189999999
 21
173.831337
 31
0.0
  0
SOLID
  5
194
330
18F
100
AcDbEntity
  8
0
  6
ByBlock
 62
     0
100
AcDbTrace
 10
135.4999999999999
 20
174.1646699999999
 30
0.0
 11
135.4999999999999
 21
173.498003
 31
0.0
 12
133.4999999999999
 22
173.831337
 32
0.0
 13
133.4999999999999
 23
173.831337
 33
0.0
  0
SOLID
  5
195
330
18F
100
AcDbEntity
  8
0
  6
ByBlock
 62
     0
100
AcDbTrace
 10
129.0
 20
174.1646699999999
 30
0.0
 11
129.0
 21
173.498003
 31
0.0
 12
131.0
 22
173.831337
 32
0.0
 13
131.0
 23
173.831337
 33
0.0
  0
MTEXT
  5
196
330
18F
100
AcDbEntity
  8
0
  6
ByBlock
 62
     0
100
AcDbMText
 10
123.854419
 20
173.831337
 30
0.0
 40
3.5
 41
0.0
 71
     5
 72
     1
  1
\A1;2.5
 73
     1
 44
1.0
  0
POINT
  5
197
330
18F
100
AcDbEntity
  8
DEFPOINTS
  6
ByBlock
 62
     0
100
AcDbPoint
 10
131.0
 20
159.4999999999999
 30
0.0
  0
POINT
  5
198
330
18F
100
AcDbEntity
  8
DEFPOINTS
  6
ByBlock
 62
     0
100
AcDbPoint
 10
133.4999999999999
 20
159.4999999999999
 30
0.0
  0
POINT
  5
199
330
18F
100
AcDbEntity
  8
DEFPOINTS
  6
ByBlock
 62
     0
100
AcDbPoint
 10
133.4999999999999
 20
173.831337
 30
0.0
  0
ENDBLK
  5
19B
330
18F
100
AcDbEntity
  8
0
100
AcDbBlockEnd
  0
BLOCK
  5
1A7
330
19C
100
AcDbEntity
  8
0
100
AcDbBlockBegin
  2
*D3
 70
     1
 10
0.0
 20
0.0
 30
0.0
  3
*D3
  1

  0
LINE
  5
19D
330
19C
100
AcDbEntity
  8
0
  6
ByBlock
 62
     0
100
AcDbLine
 10
133.4999999999999
 20
159.6
 30
0.0
 11
133.4999999999999
 21
169.4980639999999
 31
0.0
  0
LINE
  5
19E
330
19C
100
AcDbEntity
  8
0
  6
ByBlock
 62
     0
100
AcDbLine
 10
139.5
 20
155.6
 30
0.0
 11
139.5
 21
169.4980639999999
 31
0.0
  0
LINE
  5
19F
330
19C
100
AcDbEntity
  8
0
  6
ByBlock
 62
     0
100
AcDbLine
 10
135.4999999999999
 20
169.2980639999999
 30
0.0
 11
135.9167929999999
 21
169.2980639999999
 31
0.0
  0
LINE
  5
1A0
330
19C
100
AcDbEntity
  8
0
  6
ByBlock
 62
     0
100
AcDbLine
 10
137.5
 20
169.2980639999999
 30
0.0
 11
137.4
 21
169.2980639999999
 31
0.0
  0
SOLID
  5
1A1
330
19C
100
AcDbEntity
  8
0
  6
ByBlock
 62
     0
100
AcDbTrace
 10
135.4999999999999
 20
169.631397
 30
0.0
 11
135.4999999999999
 21
168.9647309999999
 31
0.0
 12
133.4999999999999
 22
169.2980639999999
 32
0.0
 13
133.4999999999999
 23
169.2980639999999
 33
0.0
  0
SOLID
  5
1A2
330
19C
100
AcDbEntity
  8
0
  6
ByBlock
 62
     0
100
AcDbTrace
 10
137.5
 20
169.631397
 30
0.0
 11
137.5
 21
168.9647309999999
 31
0.0
 12
139.5
 22
169.2980639999999
 32
0.0
 13
139.5
 23
169.2980639999999
 33
0.0
  0
MTEXT
  5
1A3
330
19C
100
AcDbEntity
  8
0
  6
ByBlock
 62
     0
100
AcDbMText
 10
136.6667929999999
 20
169.2980639999999
 30
0.0
 40
3.5
 41
0.0
 71
     5
 72
     1
  1
\A1;6
 73
     1
 44
1.0
  0
POINT
  5
1A4
330
19C
100
AcDbEntity
  8
DEFPOINTS
  6
ByBlock
 62
     0
100
AcDbPoint
 10
133.4999999999999
 20
159.4999999999999
 30
0.0
  0
POINT
  5
1A5
330
19C
100
AcDbEntity
  8
DEFPOINTS
  6
ByBlock
 62
     0
100
AcDbPoint
 10
139.5
 20
155.4999999999999
 30
0.0
  0
POINT
  5
1A6
330
19C
100
AcDbEntity
  8
DEFPOINTS
  6
ByBlock
 62
     0
100
AcDbPoint
 10
139.5
 20
169.2980639999999
 30
0.0
  0
ENDBLK
  5
1A8
330
19C
100
AcDbEntity
  8
0
100
AcDbBlockEnd
  0
BLOCK
  5
1F4
330
1AD
100
AcDbEntity
  8
0
100
AcDbBlockBegin
  2
A$C6CD96F62
 70
     0
 10
0.0
 20
0.0
 30
0.0
  3
A$C6CD96F62
  1

  0
LWPOLYLINE
  5
1AE
330
1AD
100
AcDbEntity
  8
0
100
AcDbPolyline
 90
        3
 70
     1
 43
0.0
 10
41.35
 20
24.96820899999999
 10
42.475
 20
24.31869
 10
42.475
 20
25.61772799999999
  0
LWPOLYLINE
  5
1AF
330
1AD
100
AcDbEntity
  8
0
100
AcDbPolyline
 90
        3
 70
     1
 43
0.0
 10
38.55
 20
25.57013299999999
 10
37.42499999999999
 20
26.219652
 10
37.42499999999999
 20
24.920614
  0
DIMENSION
  5
1B0
330
1AD
100
AcDbEntity
  8
0
100
AcDbDimension
  2
*D2
 10
41.29999999999999
 20
35.249546
 30
0.0
 11
31.654419
 21
35.249546
 31
0.0
 12
-92.2
 22
-138.5817909999999
 32
0.0
 70
   128
 71
     5
 42
-1.0
  3
STANDARD
100
AcDbAlignedDimension
 13
38.79999999999999
 23
20.918209
 33
0.0
 14
41.29999999999999
 24
20.918209
 34
0.0
100
AcDbRotatedDimension
1001
ACAD
1000
DSTYLE
1002
{
1070
    78
1070
     8
1070
   288
1070
     1
1070
   284
1070
     8
1070
   140
1040
2.0
1070
    73
1070
     0
1070
   272
1070
     2
1070
   147
1040
0.1
1070
    42
1040
0.1
1070
    44
1040
0.2
1070
    43
1040
0.4
1070
   271
1070
     2
1070
   141
1040
0.1
1070
    41
1040
2.0
1002
}
  0
DIMENSION
  5
1B1
330
1AD
100
AcDbEntity
  8
0
100
AcDbDimension
  2
*D1
 10
24.216452
 20
7.530761
 30
0.0
 11
2.549999999999999
 21
25.918209
 31
0.0
 12
-92.2
 22
-138.5817909999999
 32
0.0
 70
   131
 71
     5
 42
-1.0
  3
STANDARD
100
AcDbDiametricDimension
 15
13.383547
 25
19.305657
 35
0.0
 40
0.0
1001
ACAD
1000
DSTYLE
1002
{
1070
    78
1070
     8
1070
   288
1070
     1
1070
   284
1070
     8
1070
   140
1040
2.0
1070
    73
1070
     0
1070
   272
1070
     2
1070
   147
1040
0.1
1070
    42
1040
0.1
1070
    44
1040
0.2
1070
    43
1040
0.4
1070
   271
1070
     2
1070
   141
1040
0.1
1070
    41
1040
2.0
1002
}
  0
DIMENSION
  5
1B2
330
1AD
100
AcDbEntity
  8
0
100
AcDbDimension
  2
*D3
 10
47.29999999999999
 20
30.71627299999999
 30
0.0
 11
44.466793
 21
30.71627299999999
 31
0.0
 12
-92.2
 22
-138.5817909999999
 32
0.0
 70
   128
 71
     5
 42
-1.0
  3
STANDARD
100
AcDbAlignedDimension
 13
41.29999999999999
 23
20.918209
 33
0.0
 14
47.29999999999999
 24
16.918209
 34
0.0
100
AcDbRotatedDimension
1001
ACAD
1000
DSTYLE
1002
{
1070
    78
1070
     8
1070
   288
1070
     1
1070
   284
1070
     8
1070
   140
1040
2.0
1070
    73
1070
     0
1070
   272
1070
     2
1070
   147
1040
0.1
1070
    42
1040
0.1
1070
    44
1040
0.2
1070
    43
1040
0.4
1070
   271
1070
     2
1070
   141
1040
0.1
1070
    41
1040
2.0
1002
}
  0
LINE
  5
1B3
330
1AD
100
AcDbEntity
  8
2
100
AcDbLine
 10
47.29999999999999
 20
11.41820899999999
 30
0.0
 11
38.79999999999999
 21
11.41820899999999
 31
0.0
  0
LINE
  5
1B4
330
1AD
100
AcDbEntity
  8
2
100
AcDbLine
 10
47.29999999999999
 20
11.91820899999999
 30
0.0
 11
38.79999999999999
 21
11.91820899999999
 31
0.0
  0
LINE
  5
1B5
330
1AD
100
AcDbEntity
  8
2
100
AcDbLine
 10
47.29999999999999
 20
14.918209
 30
0.0
 11
38.79999999999999
 21
14.918209
 31
0.0
  0
LINE
  5
1B6
330
1AD
100
AcDbEntity
  8
2
100
AcDbLine
 10
47.29999999999999
 20
15.418209
 30
0.0
 11
38.79999999999999
 21
15.418209
 31
0.0
  0
LINE
  5
1B7
330
1AD
100
AcDbEntity
  8
3
100
AcDbLine
 10
40.8
 20
21.418209
 30
0.0
 11
41.29999999999999
 21
20.918209
 31
0.0
  0
LINE
  5
1B8
330
1AD
100
AcDbEntity
  8
3
100
AcDbLine
 10
40.8
 20
5.418209
 30
0.0
 11
41.29999999999999
 21
5.918209
 31
0.0
  0
LINE
  5
1B9
330
1AD
100
AcDbEntity
  8
1
100
AcDbLine
 10
35.29999999999999
 20
13.418209
 30
0.0
 11
50.8
 21
13.418209
 31
0.0
  0
CIRCLE
  5
1BA
330
1AD
100
AcDbEntity
  8
3
100
AcDbCircle
 10
18.8
 20
13.418209
 30
0.0
 40
2.0
  0
CIRCLE
  5
1BB
330
1AD
100
AcDbEntity
  8
0
100
AcDbCircle
 10
18.8
 20
13.418209
 30
0.0
 40
1.5
  0
MTEXT
  5
1BC
102
{ACAD_REACTORS
330
1BD
102
}
330
1AD
100
AcDbEntity
  8
0
100
AcDbMText
 10
22.472096
 20
1.75
 30
0.0
 40
3.5
 41
0.0
 71
     4
 72
     1
  1
\A1;M4-P0.7
 73
     1
 44
1.0
  0
LEADER
  5
1BD
330
1AD
100
AcDbEntity
  8
0
100
AcDbLeader
  3
STANDARD
 73
     0
 40
3.5
 41
20.41666699999999
 76
     3
 10
17.836742
 20
11.949864
 30
0.0
 10
21.578409
 20
1.75
 30
0.0
 10
22.37209599999999
 20
1.75
 30
0.0
340
1BC
1001
ACAD
1000
DSTYLE
1002
{
1070
    78
1070
     8
1070
   288
1070
     1
1070
   284
1070
     8
1070
   140
1040
2.0
1070
    73
1070
     0
1070
   272
1070
     2
1070
   147
1040
0.1
1070
    42
1040
0.1
1070
    44
1040
0.2
1070
    43
1040
0.4
1070
   271
1070
     2
1070
   141
1040
0.1
1070
    41
1040
2.0
1002
}
  0
LINE
  5
1BE
330
1AD
100
AcDbEntity
  8
1
100
AcDbLine
 10
6.799999999999999
 20
13.418209
 30
0.0
 11
29.8
 21
13.418209
 31
0.0
  0
CIRCLE
  5
1BF
330
1AD
100
AcDbEntity
  8
3
100
AcDbCircle
 10
18.8
 20
13.418209
 30
0.0
 40
8.0
  0
LINE
  5
1C0
330
1AD
100
AcDbEntity
  8
3
100
AcDbLine
 10
38.79999999999999
 20
13.418209
 30
0.0
 11
38.79999999999999
 21
5.918209
 31
0.0
  0
LINE
  5
1C1
330
1AD
100
AcDbEntity
  8
1
100
AcDbLine
 10
18.8
 20
24.418209
 30
0.0
 11
18.8
 21
2.418209
 31
0.0
  0
LINE
  5
1C2
330
1AD
100
AcDbEntity
  8
3
100
AcDbLine
 10
39.29999999999999
 20
5.418209
 30
0.0
 11
40.8
 21
5.418209
 31
0.0
  0
LINE
  5
1C3
330
1AD
100
AcDbEntity
  8
3
100
AcDbLine
 10
39.29999999999999
 20
5.918209
 30
0.0
 11
40.8
 21
5.918209
 31
0.0
  0
LINE
  5
1C4
330
1AD
100
AcDbEntity
  8
3
100
AcDbLine
 10
39.29999999999999
 20
6.418209
 30
0.0
 11
40.8
 21
6.418209
 31
0.0
  0
LINE
  5
1C5
330
1AD
100
AcDbEntity
  8
3
100
AcDbLine
 10
39.29999999999999
 20
6.918209
 30
0.0
 11
40.8
 21
6.918209
 31
0.0
  0
LINE
  5
1C6
330
1AD
100
AcDbEntity
  8
3
100
AcDbLine
 10
39.29999999999999
 20
7.418209
 30
0.0
 11
40.8
 21
7.418209
 31
0.0
  0
LINE
  5
1C7
330
1AD
100
AcDbEntity
  8
3
100
AcDbLine
 10
39.29999999999999
 20
7.918209
 30
0.0
 11
40.8
 21
7.918209
 31
0.0
  0
LINE
  5
1C8
330
1AD
100
AcDbEntity
  8
3
100
AcDbLine
 10
39.29999999999999
 20
8.418208999999999
 30
0.0
 11
40.8
 21
8.418208999999999
 31
0.0
  0
LINE
  5
1C9
330
1AD
100
AcDbEntity
  8
3
100
AcDbLine
 10
39.29999999999999
 20
5.418209
 30
0.0
 11
38.79999999999999
 21
5.918209
 31
0.0
  0
LINE
  5
1CA
330
1AD
100
AcDbEntity
  8
3
100
AcDbLine
 10
38.79999999999999
 20
13.418209
 30
0.0
 11
38.79999999999999
 21
20.918209
 31
0.0
  0
LINE
  5
1CB
330
1AD
100
AcDbEntity
  8
3
100
AcDbLine
 10
39.29999999999999
 20
12.418209
 30
0.0
 11
40.8
 21
12.418209
 31
0.0
  0
LINE
  5
1CC
330
1AD
100
AcDbEntity
  8
3
100
AcDbLine
 10
39.29999999999999
 20
8.918208999999999
 30
0.0
 11
40.8
 21
8.918208999999999
 31
0.0
  0
LINE
  5
1CD
330
1AD
100
AcDbEntity
  8
3
100
AcDbLine
 10
39.29999999999999
 20
9.418208999999999
 30
0.0
 11
40.8
 21
9.418208999999999
 31
0.0
  0
LINE
  5
1CE
330
1AD
100
AcDbEntity
  8
3
100
AcDbLine
 10
39.29999999999999
 20
9.918208999999999
 30
0.0
 11
40.8
 21
9.918208999999999
 31
0.0
  0
LINE
  5
1CF
330
1AD
100
AcDbEntity
  8
3
100
AcDbLine
 10
39.29999999999999
 20
10.418209
 30
0.0
 11
40.8
 21
10.418209
 31
0.0
  0
LINE
  5
1D0
330
1AD
100
AcDbEntity
  8
3
100
AcDbLine
 10
39.29999999999999
 20
10.91820899999999
 30
0.0
 11
40.8
 21
10.91820899999999
 31
0.0
  0
LINE
  5
1D1
330
1AD
100
AcDbEntity
  8
3
100
AcDbLine
 10
39.29999999999999
 20
11.41820899999999
 30
0.0
 11
40.8
 21
11.41820899999999
 31
0.0
  0
LINE
  5
1D2
330
1AD
100
AcDbEntity
  8
3
100
AcDbLine
 10
39.29999999999999
 20
11.91820899999999
 30
0.0
 11
40.8
 21
11.91820899999999
 31
0.0
  0
LINE
  5
1D3
330
1AD
100
AcDbEntity
  8
3
100
AcDbLine
 10
39.29999999999999
 20
16.418209
 30
0.0
 11
40.8
 21
16.418209
 31
0.0
  0
LINE
  5
1D4
330
1AD
100
AcDbEntity
  8
3
100
AcDbLine
 10
39.29999999999999
 20
16.918209
 30
0.0
 11
40.8
 21
16.918209
 31
0.0
  0
LINE
  5
1D5
330
1AD
100
AcDbEntity
  8
3
100
AcDbLine
 10
39.29999999999999
 20
12.918209
 30
0.0
 11
40.8
 21
12.918209
 31
0.0
  0
LINE
  5
1D6
330
1AD
100
AcDbEntity
  8
3
100
AcDbLine
 10
39.29999999999999
 20
13.91820899999999
 30
0.0
 11
40.8
 21
13.91820899999999
 31
0.0
  0
LINE
  5
1D7
330
1AD
100
AcDbEntity
  8
3
100
AcDbLine
 10
39.29999999999999
 20
14.41820899999999
 30
0.0
 11
40.8
 21
14.41820899999999
 31
0.0
  0
LINE
  5
1D8
330
1AD
100
AcDbEntity
  8
3
100
AcDbLine
 10
39.29999999999999
 20
14.918209
 30
0.0
 11
40.8
 21
14.918209
 31
0.0
  0
LINE
  5
1D9
330
1AD
100
AcDbEntity
  8
3
100
AcDbLine
 10
39.29999999999999
 20
15.418209
 30
0.0
 11
40.8
 21
15.418209
 31
0.0
  0
LINE
  5
1DA
330
1AD
100
AcDbEntity
  8
3
100
AcDbLine
 10
39.29999999999999
 20
15.918209
 30
0.0
 11
40.8
 21
15.918209
 31
0.0
  0
LINE
  5
1DB
330
1AD
100
AcDbEntity
  8
3
100
AcDbLine
 10
39.29999999999999
 20
21.418209
 30
0.0
 11
38.79999999999999
 21
20.918209
 31
0.0
  0
LINE
  5
1DC
330
1AD
100
AcDbEntity
  8
3
100
AcDbLine
 10
39.29999999999999
 20
19.918209
 30
0.0
 11
40.8
 21
19.918209
 31
0.0
  0
LINE
  5
1DD
330
1AD
100
AcDbEntity
  8
3
100
AcDbLine
 10
39.29999999999999
 20
20.418209
 30
0.0
 11
40.8
 21
20.418209
 31
0.0
  0
LINE
  5
1DE
330
1AD
100
AcDbEntity
  8
3
100
AcDbLine
 10
39.29999999999999
 20
20.918209
 30
0.0
 11
40.8
 21
20.918209
 31
0.0
  0
LINE
  5
1DF
330
1AD
100
AcDbEntity
  8
3
100
AcDbLine
 10
39.29999999999999
 20
17.418209
 30
0.0
 11
40.8
 21
17.418209
 31
0.0
  0
LINE
  5
1E0
330
1AD
100
AcDbEntity
  8
3
100
AcDbLine
 10
39.29999999999999
 20
17.918209
 30
0.0
 11
40.8
 21
17.918209
 31
0.0
  0
LINE
  5
1E1
330
1AD
100
AcDbEntity
  8
3
100
AcDbLine
 10
39.29999999999999
 20
18.418209
 30
0.0
 11
40.8
 21
18.418209
 31
0.0
  0
LINE
  5
1E2
330
1AD
100
AcDbEntity
  8
3
100
AcDbLine
 10
39.29999999999999
 20
18.918209
 30
0.0
 11
40.8
 21
18.918209
 31
0.0
  0
LINE
  5
1E3
330
1AD
100
AcDbEntity
  8
3
100
AcDbLine
 10
39.29999999999999
 20
19.418209
 30
0.0
 11
40.8
 21
19.418209
 31
0.0
  0
LINE
  5
1E4
330
1AD
100
AcDbEntity
  8
3
100
AcDbLine
 10
39.29999999999999
 20
21.418209
 30
0.0
 11
40.8
 21
21.418209
 31
0.0
  0
LINE
  5
1E5
330
1AD
100
AcDbEntity
  8
3
100
AcDbLine
 10
41.29999999999999
 20
5.918209
 30
0.0
 11
41.29999999999999
 21
13.418209
 31
0.0
  0
LINE
  5
1E6
330
1AD
100
AcDbEntity
  8
3
100
AcDbLine
 10
46.79999999999999
 20
17.418209
 30
0.0
 11
47.29999999999999
 21
16.918209
 31
0.0
  0
LINE
  5
1E7
330
1AD
100
AcDbEntity
  8
3
100
AcDbLine
 10
41.29999999999999
 20
20.918209
 30
0.0
 11
41.29999999999999
 21
13.418209
 31
0.0
  0
LINE
  5
1E8
330
1AD
100
AcDbEntity
  8
3
100
AcDbLine
 10
41.29999999999999
 20
9.418208999999999
 30
0.0
 11
46.79999999999999
 21
9.418208999999999
 31
0.0
  0
LINE
  5
1E9
330
1AD
100
AcDbEntity
  8
3
100
AcDbLine
 10
47.29999999999999
 20
9.918208999999999
 30
0.0
 11
47.29999999999999
 21
13.418209
 31
0.0
  0
LINE
  5
1EA
330
1AD
100
AcDbEntity
  8
3
100
AcDbLine
 10
46.79999999999999
 20
9.418208999999999
 30
0.0
 11
47.29999999999999
 21
9.918208999999999
 31
0.0
  0
LINE
  5
1EB
330
1AD
100
AcDbEntity
  8
3
100
AcDbLine
 10
47.29999999999999
 20
16.918209
 30
0.0
 11
47.29999999999999
 21
13.418209
 31
0.0
  0
LINE
  5
1EC
330
1AD
100
AcDbEntity
  8
3
100
AcDbLine
 10
41.29999999999999
 20
17.418209
 30
0.0
 11
46.79999999999999
 21
17.418209
 31
0.0
  0
LWPOLYLINE
  5
1ED
330
1AD
100
AcDbEntity
  8
0
100
AcDbPolyline
 90
        3
 70
     1
 43
0.0
 10
43.95096099999999
 20
17.46820899999999
 10
44.600481
 20
18.59320899999999
 10
43.301442
 20
18.59320899999999
  0
LWPOLYLINE
  5
1EE
330
1AD
100
AcDbEntity
  8
0
100
AcDbPolyline
 90
        3
 70
     1
 43
0.0
 10
45.25
 20
17.46820899999999
 10
45.89951899999999
 20
18.59320899999999
 10
44.600481
 20
18.59320899999999
  0
LWPOLYLINE
  5
1EF
330
1AD
100
AcDbEntity
  8
0
100
AcDbPolyline
 90
        3
 70
     1
 43
0.0
 10
47.35
 20
22.96820899999999
 10
48.475
 20
22.31869
 10
48.475
 20
23.617728
  0
LWPOLYLINE
  5
1F0
330
1AD
100
AcDbEntity
  8
0
100
AcDbPolyline
 90
        3
 70
     1
 43
0.0
 10
47.35
 20
24.267247
 10
48.475
 20
23.617728
 10
48.475
 20
24.916767
  0
LWPOLYLINE
  5
1F1
330
1AD
100
AcDbEntity
  8
0
100
AcDbPolyline
 90
        3
 70
     1
 43
0.0
 10
38.55
 20
26.869171
 10
37.42499999999999
 20
27.51869
 10
37.42499999999999
 20
26.219652
  0
LWPOLYLINE
  5
1F2
330
1AD
100
AcDbEntity
  8
0
100
AcDbPolyline
 90
        3
 70
     1
 43
0.0
 10
38.55
 20
28.168209
 10
37.42499999999999
 20
28.817728
 10
37.42499999999999
 20
27.51869
  0
LWPOLYLINE
  5
1F3
330
1AD
100
AcDbEntity
  8
0
100
AcDbPolyline
 90
        3
 70
     1
 43
0.0
 10
41.35
 20
26.267247
 10
42.475
 20
25.61772799999999
 10
42.475
 20
26.916767
  0
ENDBLK
  5
1F5
330
1AD
100
AcDbEntity
  8
0
100
AcDbBlockEnd
  0
BLOCK
  5
26E
330
23D
100
AcDbEntity
  8
0
100
AcDbBlockBegin
  2
*D5
 70
     1
 10
0.0
 20
0.0
 30
0.0
  3
*D5
  1

  0
LINE
  5
26F
330
23D
100
AcDbEntity
  8
0
  6
ByBlock
 62
     0
100
AcDbLine
 10
64.45554200000001
 20
48.698668
 30
0.0
 11
64.45554200000001
 21
63.13000500000001
 31
0.0
  0
LINE
  5
270
330
23D
100
AcDbEntity
  8
0
  6
ByBlock
 62
     0
100
AcDbLine
 10
66.95554200000001
 20
48.698668
 30
0.0
 11
66.95554200000001
 21
63.13000500000001
 31
0.0
  0
LINE
  5
271
330
23D
100
AcDbEntity
  8
0
  6
ByBlock
 62
     0
100
AcDbLine
 10
62.455542
 20
62.930005
 30
0.0
 11
60.455542
 21
62.930005
 31
0.0
  0
LINE
  5
272
330
23D
100
AcDbEntity
  8
0
  6
ByBlock
 62
     0
100
AcDbLine
 10
68.95554200000001
 20
62.930005
 30
0.0
 11
70.95554200000001
 21
62.930005
 31
0.0
  0
MTEXT
  5
273
330
23D
100
AcDbEntity
  8
0
  6
ByBlock
 62
     0
100
AcDbMText
 10
57.309961
 20
62.930005
 30
0.0
 40
3.0
 41
0.0
 71
     5
 72
     1
  1
\A1;2.5
  7
BIGFONT
 73
     1
 44
1.0
  0
LINE
  5
274
330
23D
100
AcDbEntity
  8
0
  6
ByBlock
 62
     0
100
AcDbLine
 10
64.45554200000001
 20
62.930005
 30
0.0
 11
66.95554200000001
 21
62.930005
 31
0.0
  0
SOLID
  5
275
330
23D
100
AcDbEntity
  8
0
  6
ByBlock
 62
     0
100
AcDbTrace
 10
62.455542
 20
63.263338
 30
0.0
 11
62.455542
 21
62.59667099999999
 31
0.0
 12
64.45554200000001
 22
62.930005
 32
0.0
 13
64.45554200000001
 23
62.930005
 33
0.0
  0
SOLID
  5
276
330
23D
100
AcDbEntity
  8
0
  6
ByBlock
 62
     0
100
AcDbTrace
 10
68.95554200000001
 20
63.263338
 30
0.0
 11
68.95554200000001
 21
62.59667099999999
 31
0.0
 12
66.95554200000001
 22
62.930005
 32
0.0
 13
66.95554200000001
 23
62.930005
 33
0.0
  0
POINT
  5
277
330
23D
100
AcDbEntity
  8
DEFPOINTS
  6
ByBlock
 62
     0
100
AcDbPoint
 10
64.45554200000001
 20
48.59866799999999
 30
0.0
  0
POINT
  5
278
330
23D
100
AcDbEntity
  8
DEFPOINTS
  6
ByBlock
 62
     0
100
AcDbPoint
 10
66.95554200000001
 20
48.59866799999999
 30
0.0
  0
POINT
  5
279
330
23D
100
AcDbEntity
  8
DEFPOINTS
  6
ByBlock
 62
     0
100
AcDbPoint
 10
66.95554200000001
 20
62.930005
 30
0.0
  0
ENDBLK
  5
27A
330
23D
100
AcDbEntity
  8
0
100
AcDbBlockEnd
  0
BLOCK
  5
27B
330
258
100
AcDbEntity
  8
0
100
AcDbBlockBegin
  2
*D6
 70
     1
 10
0.0
 20
0.0
 30
0.0
  3
*D6
  1

  0
LINE
  5
27C
330
258
100
AcDbEntity
  8
0
  6
ByBlock
 62
     0
100
AcDbLine
 10
48.517881
 20
36.683082
 30
0.0
 11
40.39320299999999
 21
45.514254
 31
0.0
  0
MTEXT
  5
27D
330
258
100
AcDbEntity
  8
0
  6
ByBlock
 62
     0
100
AcDbMText
 10
28.205542
 20
53.598668
 30
0.0
 40
3.0
 41
0.0
 71
     5
 72
     1
  1
\A1;\U+220516
  7
BIGFONT
 73
     1
 44
1.0
  0
SOLID
  5
27E
330
258
100
AcDbEntity
  8
0
  6
ByBlock
 62
     0
100
AcDbTrace
 10
48.76319099999999
 20
36.908767
 30
0.0
 11
48.272571
 21
36.457396
 31
0.0
 12
49.871994
 22
35.21122
 32
0.0
 13
49.871994
 23
35.21122
 33
0.0
  0
SOLID
  5
27F
330
258
100
AcDbEntity
  8
0
  6
ByBlock
 62
     0
100
AcDbTrace
 10
40.638513
 20
45.73994
 30
0.0
 11
40.147892
 21
45.288569
 31
0.0
 12
39.03909
 22
46.98611599999999
 32
0.0
 13
39.03909
 23
46.98611599999999
 33
0.0
  0
POINT
  5
280
330
258
100
AcDbEntity
  8
DEFPOINTS
  6
ByBlock
 62
     0
100
AcDbPoint
 10
39.03909
 20
46.98611599999999
 30
0.0
  0
POINT
  5
281
330
258
100
AcDbEntity
  8
DEFPOINTS
  6
ByBlock
 62
     0
100
AcDbPoint
 10
49.871994
 20
35.21122
 30
0.0
  0
ENDBLK
  5
282
330
258
100
AcDbEntity
  8
0
100
AcDbBlockEnd
  0
BLOCK
  5
283
330
261
100
AcDbEntity
  8
0
100
AcDbBlockBegin
  2
*D7
 70
     1
 10
0.0
 20
0.0
 30
0.0
  3
*D7
  1

  0
LINE
  5
284
330
261
100
AcDbEntity
  8
0
  6
ByBlock
 62
     0
100
AcDbLine
 10
66.95554200000001
 20
48.698668
 30
0.0
 11
66.95554200000001
 21
58.59673199999999
 31
0.0
  0
LINE
  5
285
330
261
100
AcDbEntity
  8
0
  6
ByBlock
 62
     0
100
AcDbLine
 10
72.95554200000001
 20
44.698668
 30
0.0
 11
72.95554200000001
 21
58.59673199999999
 31
0.0
  0
LINE
  5
286
330
261
100
AcDbEntity
  8
0
  6
ByBlock
 62
     0
100
AcDbLine
 10
68.95554200000001
 20
58.396732
 30
0.0
 11
69.222335
 21
58.396732
 31
0.0
  0
LINE
  5
287
330
261
100
AcDbEntity
  8
0
  6
ByBlock
 62
     0
100
AcDbLine
 10
70.95554200000001
 20
58.396732
 30
0.0
 11
70.855542
 21
58.396732
 31
0.0
  0
MTEXT
  5
288
330
261
100
AcDbEntity
  8
0
  6
ByBlock
 62
     0
100
AcDbMText
 10
70.12233499999999
 20
58.396732
 30
0.0
 40
3.0
 41
0.0
 71
     5
 72
     1
  1
\A1;6
  7
BIGFONT
 73
     1
 44
1.0
  0
SOLID
  5
289
330
261
100
AcDbEntity
  8
0
  6
ByBlock
 62
     0
100
AcDbTrace
 10
68.95554200000001
 20
58.730065
 30
0.0
 11
68.95554200000001
 21
58.06339799999999
 31
0.0
 12
66.95554200000001
 22
58.396732
 32
0.0
 13
66.95554200000001
 23
58.396732
 33
0.0
  0
SOLID
  5
28A
330
261
100
AcDbEntity
  8
0
  6
ByBlock
 62
     0
100
AcDbTrace
 10
70.95554200000001
 20
58.730065
 30
0.0
 11
70.95554200000001
 21
58.06339799999999
 31
0.0
 12
72.95554200000001
 22
58.396732
 32
0.0
 13
72.95554200000001
 23
58.396732
 33
0.0
  0
POINT
  5
28B
330
261
100
AcDbEntity
  8
DEFPOINTS
  6
ByBlock
 62
     0
100
AcDbPoint
 10
66.95554200000001
 20
48.59866799999999
 30
0.0
  0
POINT
  5
28C
330
261
100
AcDbEntity
  8
DEFPOINTS
  6
ByBlock
 62
     0
100
AcDbPoint
 10
72.95554200000001
 20
44.59866799999999
 30
0.0
  0
POINT
  5
28D
330
261
100
AcDbEntity
  8
DEFPOINTS
  6
ByBlock
 62
     0
100
AcDbPoint
 10
72.95554200000001
 20
58.396732
 30
0.0
  0
ENDBLK
  5
28E
330
261
100
AcDbEntity
  8
0
100
AcDbBlockEnd
  0
BLOCK
  5
38B
330
38A
100
AcDbEntity
  8
0
100
AcDbBlockBegin
  2
*U8
 70
     1
 10
0.0
 20
0.0
 30
0.0
  3
*U8
  1

  0
ENDBLK
  5
38C
330
38A
100
AcDbEntity
  8
0
100
AcDbBlockEnd
  0
BLOCK
  5
3CC
330
3CA
100
AcDbEntity
  8
0
100
AcDbBlockBegin
  2
GENAXEH
 70
     0
 10
0.0
 20
0.0
 30
0.0
  3
GENAXEH
  1

  0
LINE
  5
3CB
330
3CA
100
AcDbEntity
  8
0
100
AcDbLine
 10
-1.0
 20
0.0
 30
0.0
 11
1.0
 21
0.0
 31
0.0
  0
ENDBLK
  5
3CD
330
3CA
100
AcDbEntity
  8
0
100
AcDbBlockEnd
  0
ENDSEC
  0
SECTION
  2
ENTITIES
  0
LINE
  5
1FC
330
169
100
AcDbEntity
  8
2
100
AcDbLine
 10
72.95554200000001
 20
39.09866799999999
 30
0.0
 11
64.45554200000001
 21
39.09866799999999
 31
0.0
  0
LINE
  5
1FD
330
169
100
AcDbEntity
  8
2
100
AcDbLine
 10
72.95554200000001
 20
39.59866799999999
 30
0.0
 11
64.45554200000001
 21
39.59866799999999
 31
0.0
  0
LINE
  5
1FE
330
169
100
AcDbEntity
  8
2
100
AcDbLine
 10
72.95554200000001
 20
42.598668
 30
0.0
 11
64.45554200000001
 21
42.598668
 31
0.0
  0
LINE
  5
1FF
330
169
100
AcDbEntity
  8
2
100
AcDbLine
 10
72.95554200000001
 20
43.09866799999999
 30
0.0
 11
64.45554200000001
 21
43.09866799999999
 31
0.0
  0
LINE
  5
200
330
169
100
AcDbEntity
  8
3
100
AcDbLine
 10
66.45554200000001
 20
49.09866799999999
 30
0.0
 11
66.95554200000001
 21
48.59866799999999
 31
0.0
  0
LINE
  5
201
330
169
100
AcDbEntity
  8
3
100
AcDbLine
 10
66.45554200000001
 20
33.09866799999999
 30
0.0
 11
66.95554200000001
 21
33.59866799999999
 31
0.0
  0
LINE
  5
202
330
169
100
AcDbEntity
  8
1
100
AcDbLine
 10
60.955542
 20
41.09866799999999
 30
0.0
 11
76.45554200000001
 21
41.09866799999999
 31
0.0
  0
CIRCLE
  5
203
330
169
100
AcDbEntity
  8
3
100
AcDbCircle
 10
44.455542
 20
41.09866799999999
 30
0.0
 40
2.0
  0
CIRCLE
  5
204
330
169
100
AcDbEntity
  8
0
100
AcDbCircle
 10
44.455542
 20
41.09866799999999
 30
0.0
 40
1.5
  0
LINE
  5
207
330
169
100
AcDbEntity
  8
1
100
AcDbLine
 10
32.455542
 20
41.09866799999999
 30
0.0
 11
55.455542
 21
41.09866799999999
 31
0.0
  0
CIRCLE
  5
208
330
169
100
AcDbEntity
  8
3
100
AcDbCircle
 10
44.455542
 20
41.09866799999999
 30
0.0
 40
8.0
  0
LINE
  5
209
330
169
100
AcDbEntity
  8
3
100
AcDbLine
 10
64.45554200000001
 20
41.09866799999999
 30
0.0
 11
64.45554200000001
 21
33.59866799999999
 31
0.0
  0
LINE
  5
20A
330
169
100
AcDbEntity
  8
1
100
AcDbLine
 10
44.455542
 20
52.098668
 30
0.0
 11
44.455542
 21
30.098668
 31
0.0
  0
LINE
  5
20B
330
169
100
AcDbEntity
  8
3
100
AcDbLine
 10
64.955542
 20
33.09866799999999
 30
0.0
 11
66.45554200000001
 21
33.09866799999999
 31
0.0
  0
LINE
  5
20C
330
169
100
AcDbEntity
  8
3
100
AcDbLine
 10
64.955542
 20
33.59866799999999
 30
0.0
 11
66.45554200000001
 21
33.59866799999999
 31
0.0
  0
LINE
  5
20D
330
169
100
AcDbEntity
  8
3
100
AcDbLine
 10
64.955542
 20
34.09866799999999
 30
0.0
 11
66.45554200000001
 21
34.09866799999999
 31
0.0
  0
LINE
  5
20E
330
169
100
AcDbEntity
  8
3
100
AcDbLine
 10
64.955542
 20
34.59866799999999
 30
0.0
 11
66.45554200000001
 21
34.59866799999999
 31
0.0
  0
LINE
  5
20F
330
169
100
AcDbEntity
  8
3
100
AcDbLine
 10
64.955542
 20
35.09866799999999
 30
0.0
 11
66.45554200000001
 21
35.09866799999999
 31
0.0
  0
LINE
  5
210
330
169
100
AcDbEntity
  8
3
100
AcDbLine
 10
64.955542
 20
35.59866799999999
 30
0.0
 11
66.45554200000001
 21
35.59866799999999
 31
0.0
  0
LINE
  5
211
330
169
100
AcDbEntity
  8
3
100
AcDbLine
 10
64.955542
 20
36.09866799999999
 30
0.0
 11
66.45554200000001
 21
36.09866799999999
 31
0.0
  0
LINE
  5
212
330
169
100
AcDbEntity
  8
3
100
AcDbLine
 10
64.955542
 20
33.09866799999999
 30
0.0
 11
64.45554200000001
 21
33.59866799999999
 31
0.0
  0
LINE
  5
213
330
169
100
AcDbEntity
  8
3
100
AcDbLine
 10
64.45554200000001
 20
41.09866799999999
 30
0.0
 11
64.45554200000001
 21
48.59866799999999
 31
0.0
  0
LINE
  5
214
330
169
100
AcDbEntity
  8
3
100
AcDbLine
 10
64.955542
 20
40.098668
 30
0.0
 11
66.45554200000001
 21
40.098668
 31
0.0
  0
LINE
  5
215
330
169
100
AcDbEntity
  8
3
100
AcDbLine
 10
64.955542
 20
36.59866799999999
 30
0.0
 11
66.45554200000001
 21
36.59866799999999
 31
0.0
  0
LINE
  5
216
330
169
100
AcDbEntity
  8
3
100
AcDbLine
 10
64.955542
 20
37.09866799999999
 30
0.0
 11
66.45554200000001
 21
37.09866799999999
 31
0.0
  0
LINE
  5
217
330
169
100
AcDbEntity
  8
3
100
AcDbLine
 10
64.955542
 20
37.59866799999999
 30
0.0
 11
66.45554200000001
 21
37.59866799999999
 31
0.0
  0
LINE
  5
218
330
169
100
AcDbEntity
  8
3
100
AcDbLine
 10
64.955542
 20
38.09866799999999
 30
0.0
 11
66.45554200000001
 21
38.09866799999999
 31
0.0
  0
LINE
  5
219
330
169
100
AcDbEntity
  8
3
100
AcDbLine
 10
64.955542
 20
38.59866799999999
 30
0.0
 11
66.45554200000001
 21
38.59866799999999
 31
0.0
  0
LINE
  5
21A
330
169
100
AcDbEntity
  8
3
100
AcDbLine
 10
64.955542
 20
39.09866799999999
 30
0.0
 11
66.45554200000001
 21
39.09866799999999
 31
0.0
  0
LINE
  5
21B
330
169
100
AcDbEntity
  8
3
100
AcDbLine
 10
64.955542
 20
39.59866799999999
 30
0.0
 11
66.45554200000001
 21
39.59866799999999
 31
0.0
  0
LINE
  5
21C
330
169
100
AcDbEntity
  8
3
100
AcDbLine
 10
64.955542
 20
44.09866799999999
 30
0.0
 11
66.45554200000001
 21
44.09866799999999
 31
0.0
  0
LINE
  5
21D
330
169
100
AcDbEntity
  8
3
100
AcDbLine
 10
64.955542
 20
44.59866799999999
 30
0.0
 11
66.45554200000001
 21
44.59866799999999
 31
0.0
  0
LINE
  5
21E
330
169
100
AcDbEntity
  8
3
100
AcDbLine
 10
64.955542
 20
40.59866799999999
 30
0.0
 11
66.45554200000001
 21
40.59866799999999
 31
0.0
  0
LINE
  5
21F
330
169
100
AcDbEntity
  8
3
100
AcDbLine
 10
64.955542
 20
41.59866799999999
 30
0.0
 11
66.45554200000001
 21
41.59866799999999
 31
0.0
  0
LINE
  5
220
330
169
100
AcDbEntity
  8
3
100
AcDbLine
 10
64.955542
 20
42.09866799999999
 30
0.0
 11
66.45554200000001
 21
42.09866799999999
 31
0.0
  0
LINE
  5
221
330
169
100
AcDbEntity
  8
3
100
AcDbLine
 10
64.955542
 20
42.598668
 30
0.0
 11
66.45554200000001
 21
42.598668
 31
0.0
  0
LINE
  5
222
330
169
100
AcDbEntity
  8
3
100
AcDbLine
 10
64.955542
 20
43.09866799999999
 30
0.0
 11
66.45554200000001
 21
43.09866799999999
 31
0.0
  0
LINE
  5
223
330
169
100
AcDbEntity
  8
3
100
AcDbLine
 10
64.955542
 20
43.59866799999999
 30
0.0
 11
66.45554200000001
 21
43.59866799999999
 31
0.0
  0
LINE
  5
224
330
169
100
AcDbEntity
  8
3
100
AcDbLine
 10
64.955542
 20
49.09866799999999
 30
0.0
 11
64.45554200000001
 21
48.59866799999999
 31
0.0
  0
LINE
  5
225
330
169
100
AcDbEntity
  8
3
100
AcDbLine
 10
64.955542
 20
47.598668
 30
0.0
 11
66.45554200000001
 21
47.598668
 31
0.0
  0
LINE
  5
226
330
169
100
AcDbEntity
  8
3
100
AcDbLine
 10
64.955542
 20
48.09866799999999
 30
0.0
 11
66.45554200000001
 21
48.09866799999999
 31
0.0
  0
LINE
  5
227
330
169
100
AcDbEntity
  8
3
100
AcDbLine
 10
64.955542
 20
48.59866799999999
 30
0.0
 11
66.45554200000001
 21
48.59866799999999
 31
0.0
  0
LINE
  5
228
330
169
100
AcDbEntity
  8
3
100
AcDbLine
 10
64.955542
 20
45.098668
 30
0.0
 11
66.45554200000001
 21
45.098668
 31
0.0
  0
LINE
  5
229
330
169
100
AcDbEntity
  8
3
100
AcDbLine
 10
64.955542
 20
45.59866799999999
 30
0.0
 11
66.45554200000001
 21
45.59866799999999
 31
0.0
  0
LINE
  5
22A
330
169
100
AcDbEntity
  8
3
100
AcDbLine
 10
64.955542
 20
46.09866799999999
 30
0.0
 11
66.45554200000001
 21
46.09866799999999
 31
0.0
  0
LINE
  5
22B
330
169
100
AcDbEntity
  8
3
100
AcDbLine
 10
64.955542
 20
46.59866799999999
 30
0.0
 11
66.45554200000001
 21
46.59866799999999
 31
0.0
  0
LINE
  5
22C
330
169
100
AcDbEntity
  8
3
100
AcDbLine
 10
64.955542
 20
47.09866799999999
 30
0.0
 11
66.45554200000001
 21
47.09866799999999
 31
0.0
  0
LINE
  5
22D
330
169
100
AcDbEntity
  8
3
100
AcDbLine
 10
64.955542
 20
49.09866799999999
 30
0.0
 11
66.45554200000001
 21
49.09866799999999
 31
0.0
  0
LINE
  5
22E
330
169
100
AcDbEntity
  8
3
100
AcDbLine
 10
66.95554200000001
 20
33.59866799999999
 30
0.0
 11
66.95554200000001
 21
41.09866799999999
 31
0.0
  0
LINE
  5
22F
330
169
100
AcDbEntity
  8
3
100
AcDbLine
 10
72.455542
 20
45.098668
 30
0.0
 11
72.95554200000001
 21
44.59866799999999
 31
0.0
  0
LINE
  5
230
330
169
100
AcDbEntity
  8
3
100
AcDbLine
 10
66.95554200000001
 20
48.59866799999999
 30
0.0
 11
66.95554200000001
 21
41.09866799999999
 31
0.0
  0
LINE
  5
231
330
169
100
AcDbEntity
  8
3
100
AcDbLine
 10
66.95554200000001
 20
37.09866799999999
 30
0.0
 11
72.455542
 21
37.09866799999999
 31
0.0
  0
LINE
  5
232
330
169
100
AcDbEntity
  8
3
100
AcDbLine
 10
72.95554200000001
 20
37.59866799999999
 30
0.0
 11
72.95554200000001
 21
41.09866799999999
 31
0.0
  0
LINE
  5
233
330
169
100
AcDbEntity
  8
3
100
AcDbLine
 10
72.455542
 20
37.09866799999999
 30
0.0
 11
72.95554200000001
 21
37.59866799999999
 31
0.0
  0
LINE
  5
234
330
169
100
AcDbEntity
  8
3
100
AcDbLine
 10
72.95554200000001
 20
44.59866799999999
 30
0.0
 11
72.95554200000001
 21
41.09866799999999
 31
0.0
  0
LINE
  5
235
330
169
100
AcDbEntity
  8
3
100
AcDbLine
 10
66.95554200000001
 20
45.098668
 30
0.0
 11
72.455542
 21
45.098668
 31
0.0
  0
POINT
  5
296
330
169
100
AcDbEntity
  8
DEFPOINTS
  6
ByBlock
 62
     0
100
AcDbPoint
 10
39.03909
 20
46.98611599999999
 30
0.0
  0
POINT
  5
297
330
169
100
AcDbEntity
  8
DEFPOINTS
  6
ByBlock
 62
     0
100
AcDbPoint
 10
49.871994
 20
35.21122
 30
0.0
  0
POINT
  5
29F
330
169
100
AcDbEntity
  8
DEFPOINTS
  6
ByBlock
 62
     0
100
AcDbPoint
 10
66.95554200000001
 20
48.59866799999999
 30
0.0
  0
POINT
  5
2A0
330
169
100
AcDbEntity
  8
DEFPOINTS
  6
ByBlock
 62
     0
100
AcDbPoint
 10
72.95554200000001
 20
44.59866799999999
 30
0.0
  0
POINT
  5
2AA
330
169
100
AcDbEntity
  8
DEFPOINTS
  6
ByBlock
 62
     0
100
AcDbPoint
 10
64.45554200000001
 20
48.59866799999999
 30
0.0
  0
POINT
  5
2AB
330
169
100
AcDbEntity
  8
DEFPOINTS
  6
ByBlock
 62
     0
100
AcDbPoint
 10
66.95554200000001
 20
48.59866799999999
 30
0.0
  0
ENDSEC
  0
SECTION
  2
OBJECTS
  0
DICTIONARY
  5
15E
330
0
100
AcDbDictionary
281
     1
  3
ACAD_GROUP
350
15F
  3
ACAD_LAYOUT
350
2D4
  3
ACAD_MLINESTYLE
350
16C
  3
ACAD_PLOTSETTINGS
350
2D5
  3
ACAD_PLOTSTYLENAME
350
2D2
  3
ACDBVARIABLEDICTIONARY
350
17E
  3
AcmDictionary
350
394
  3
AMG
350
2D9
  3
DWGPROPS
350
397
  3
MAPISURF_MODULE
350
366
  0
DICTIONARY
  5
3D2
330
169
100
AcDbDictionary
280
     1
281
     1
  3
ACAD_INDEX
360
3D3
  0
DICTIONARY
  5
15F
102
{ACAD_REACTORS
330
15E
102
}
330
15E
100
AcDbDictionary
281
     1
  0
DICTIONARY
  5
2D4
102
{ACAD_REACTORS
330
15E
102
}
330
15E
100
AcDbDictionary
281
     1
  3
Model
350
2D6
  3
ﾚｲｱｳﾄ1
350
2D7
  0
DICTIONARY
  5
16C
102
{ACAD_REACTORS
330
15E
102
}
330
15E
100
AcDbDictionary
281
     1
  3
STANDARD
350
16D
  0
DICTIONARY
  5
2D5
102
{ACAD_REACTORS
330
15E
102
}
330
15E
100
AcDbDictionary
281
     1
  0
ACDBDICTIONARYWDFLT
  5
2D2
102
{ACAD_REACTORS
330
15E
102
}
330
15E
100
AcDbDictionary
281
     1
  3
Normal
350
2D3
100
AcDbDictionaryWithDefault
340
2D3
  0
DICTIONARY
  5
17E
102
{ACAD_REACTORS
330
15E
102
}
330
15E
100
AcDbDictionary
281
     1
  3
DIMADEC
350
17F
  3
DIMASSOC
350
3DE
  3
INDEXCTL
350
3DD
  0
DICTIONARY
  5
394
102
{ACAD_REACTORS
330
15E
102
}
330
15E
100
AcDbDictionary
281
     1
  3
AcmBOMDATA
350
395
  3
AcmStdDictionary
350
3A3
  0
DICTIONARY
  5
2D9
102
{ACAD_REACTORS
330
15E
102
}
330
15E
100
AcDbDictionary
281
     1
  3
AcMgSettings
350
2DA
  3
AMGLAYCFG
350
3A5
  0
XRECORD
  5
397
102
{ACAD_REACTORS
330
15E
102
}
330
15E
100
AcDbXrecord
280
     1
  1
DWGPROPS COOKIE
  2

  3

  4

  6

  7

  8

  9

300
AmdtFileType=84
301
=
302
=
303
=
304
=
305
=
306
=
307
=
308
=
309
=
 40
0.001238599537037
 41
2450868.796797569
 42
2453594.643508923
  1

 90
        1
  0
DICTIONARY
  5
3D3
102
{ACAD_REACTORS
330
3D2
102
}
330
3D2
100
AcDbDictionary
281
     1
  3
*A1
350
3D4
  0
LAYOUT
  5
2D6
102
{ACAD_REACTORS
330
2D4
102
}
330
2D4
100
AcDbPlotSettings
  1

  2
EPSON PM-3700C
  4

  6

 40
0.0
 41
0.0
 42
0.0
 43
0.0
 44
0.0
 45
0.0
 46
0.0
 47
0.0
 48
0.0
 49
0.0
140
0.0
141
0.0
142
1.0
143
1.0
 70
  1712
 72
     0
 73
     0
 74
     0
  7

 75
     0
147
1.0
148
0.0
149
0.0
100
AcDbLayout
  1
Model
 70
     1
 71
     0
 10
0.0
 20
0.0
 11
12.0
 21
9.0
 12
0.0
 22
0.0
 32
0.0
 14
0.0
 24
0.0
 34
0.0
 15
0.0
 25
0.0
 35
0.0
146
0.0
 13
0.0
 23
0.0
 33
0.0
 16
1.0
 26
0.0
 36
0.0
 17
0.0
 27
1.0
 37
0.0
 76
     0
330
169
  0
LAYOUT
  5
2D7
102
{ACAD_REACTORS
330
2D4
102
}
330
2D4
100
AcDbPlotSettings
  1

  2
EPSON PM-3700C
  4

  6

 40
0.0
 41
0.0
 42
0.0
 43
0.0
 44
0.0
 45
0.0
 46
0.0
 47
0.0
 48
0.0
 49
0.0
140
0.0
141
0.0
142
1.0
143
1.0
 70
   688
 72
     0
 73
     0
 74
     5
  7

 75
    16
147
1.0
148
0.0
149
0.0
100
AcDbLayout
  1
ﾚｲｱｳﾄ1
 70
     0
 71
     1
 10
0.0
 20
0.0
 11
12.0
 21
9.0
 12
0.0
 22
0.0
 32
0.0
 14
1.000000000000000E+20
 24
1.000000000000000E+20
 34
1.000000000000000E+20
 15
-1.000000000000000E+20
 25
-1.000000000000000E+20
 35
-1.000000000000000E+20
146
0.0
 13
0.0
 23
0.0
 33
0.0
 16
1.0
 26
0.0
 36
0.0
 17
0.0
 27
1.0
 37
0.0
 76
     0
330
166
  0
MLINESTYLE
  5
16D
102
{ACAD_REACTORS
330
16C
102
}
330
16C
100
AcDbMlineStyle
  2
STANDARD
 70
     0
  3

 62
   256
 51
90.0
 52
90.0
 71
     2
 49
0.5
 62
   256
  6
BYLAYER
 49
-0.5
 62
   256
  6
BYLAYER
  0
ACDBPLACEHOLDER
  5
2D3
102
{ACAD_REACTORS
330
2D2
102
}
330
2D2
  0
DICTIONARYVAR
  5
17F
102
{ACAD_REACTORS
330
17E
102
}
330
17E
100
DictionaryVariables
280
     0
  1
0
  0
DICTIONARYVAR
  5
3DE
102
{ACAD_REACTORS
330
17E
102
}
330
17E
100
DictionaryVariables
280
     0
  1
0
  0
DICTIONARYVAR
  5
3DD
102
{ACAD_REACTORS
330
17E
102
}
330
17E
100
DictionaryVariables
280
     0
  1
1
  0
ACMDATADICTIONARY
  5
395
102
{ACAD_REACTORS
330
394
102
}
330
394
100
AcDbDictionary
281
     1
  3
*A1
350
396
100
AcmDataDictionary
  0
DICTIONARY
  5
3A3
102
{ACAD_REACTORS
330
394
102
}
330
394
100
AcDbDictionary
281
     1
  3
ANSI
350
3A4
  0
DICTIONARY
  5
2DA
102
{ACAD_REACTORS
330
2D9
102
}
330
2D9
100
AcDbDictionary
281
     1
  3
DWGSETTINGS
350
2DB
  3
TRANSSETTINGS
350
2DF
  0
LAYER_INDEX
  5
3D4
102
{ACAD_REACTORS
330
3D3
102
}
330
3D3
100
AcDbIndex
 40
2454700.62237449
100
AcDbLayerIndex
  8
0
360
3D5
 90
        1
  8
1
360
3D6
 90
        3
  8
3
360
3D7
 90
       48
  8
10
360
3D8
 90
        0
  8
11
360
3D9
 90
        0
  8
2
360
3DA
 90
        4
  8
DEFPOINTS
360
3DB
 90
        6
  0
ACMDATAENTRYBLOCK
  5
396
102
{ACAD_REACTORS
330
395
102
}
330
395
100
AcmDataEntry
100
AcmDataEntryBlock
  0
IDBUFFER
  5
3D5
330
0
100
AcDbIdBuffer
330
204
  0
IDBUFFER
  5
3D6
330
0
100
AcDbIdBuffer
330
202
330
207
330
20A
  0
IDBUFFER
  5
3D7
330
0
100
AcDbIdBuffer
330
216
330
217
330
218
330
219
330
21A
330
21B
330
21C
330
21D
330
21E
330
21F
330
220
330
221
330
222
330
223
330
224
330
225
330
226
330
227
330
228
330
229
330
22A
330
22B
330
22C
330
22D
330
22E
330
22F
330
230
330
231
330
232
330
233
330
234
330
235
330
200
330
201
330
203
330
208
330
209
330
20B
330
20C
330
20D
330
20E
330
20F
330
210
330
211
330
212
330
213
330
214
330
215
  0
IDBUFFER
  5
3D8
330
0
100
AcDbIdBuffer
  0
IDBUFFER
  5
3D9
330
0
100
AcDbIdBuffer
  0
IDBUFFER
  5
3DA
330
0
100
AcDbIdBuffer
330
1FC
330
1FD
330
1FE
330
1FF
  0
IDBUFFER
  5
3DB
330
0
100
AcDbIdBuffer
330
296
330
297
330
29F
330
2A0
330
2AA
330
2AB
  0
ENDSEC
  0
EOF
