  0
SECTION
  2
HEADER
  9
$ACADVER
  1
AC1014
  9
$ACADMAINTVER
 70
     0
  9
$DWGCODEPAGE
  3
ANSI_932
  9
$INSBASE
 10
0.0
 20
0.0
 30
0.0
  9
$EXTMIN
 10
26.77891
 20
37.480566
 30
0.0
  9
$EXTMAX
 10
178.848514
 20
144.393003
 30
0.0
  9
$LIMMIN
 10
0.0
 20
0.0
  9
$LIMMAX
 10
280.0
 20
195.0
  9
$ORTHOMODE
 70
     1
  9
$REGENMODE
 70
     1
  9
$FILLMODE
 70
     1
  9
$QTEXTMODE
 70
     0
  9
$MIRRTEXT
 70
     1
  9
$DRAGMODE
 70
     2
  9
$LTSCALE
 40
1.0
  9
$OSMODE
 70
    33
  9
$ATTMODE
 70
     1
  9
$TEXTSIZE
 40
4.0
  9
$TRACEWID
 40
1.0
  9
$TEXTSTYLE
  7
BIGFONT
  9
$CLAYER
  8
0
  9
$CELTYPE
  6
BYLAYER
  9
$CECOLOR
 62
   256
  9
$CELTSCALE
 40
1.0
  9
$DELOBJ
 70
     1
  9
$DISPSILH
 70
     0
  9
$DIMSCALE
 40
0.0
  9
$DIMASZ
 40
1.0
  9
$DIMEXO
 40
0.5
  9
$DIMDLI
 40
3.75
  9
$DIMRND
 40
0.0
  9
$DIMDLE
 40
0.0
  9
$DIMEXE
 40
0.5
  9
$DIMTP
 40
0.0
  9
$DIMTM
 40
0.0
  9
$DIMTXT
 40
4.0
  9
$DIMCEN
 40
0.0
  9
$DIMTSZ
 40
0.0
  9
$DIMTOL
 70
     0
  9
$DIMLIM
 70
     0
  9
$DIMTIH
 70
     0
  9
$DIMTOH
 70
     1
  9
$DIMSE1
 70
     0
  9
$DIMSE2
 70
     0
  9
$DIMTAD
 70
     1
  9
$DIMZIN
 70
     8
  9
$DIMBLK
  1

  9
$DIMASO
 70
     1
  9
$DIMSHO
 70
     1
  9
$DIMPOST
  1

  9
$DIMAPOST
  1

  9
$DIMALT
 70
     0
  9
$DIMALTD
 70
     4
  9
$DIMALTF
 40
0.0394
  9
$DIMLFAC
 40
1.0
  9
$DIMTOFL
 70
     0
  9
$DIMTVP
 40
0.0
  9
$DIMTIX
 70
     0
  9
$DIMSOXD
 70
     0
  9
$DIMSAH
 70
     0
  9
$DIMBLK1
  1

  9
$DIMBLK2
  1

  9
$DIMSTYLE
  2
STANDARD
  9
$DIMCLRD
 70
     0
  9
$DIMCLRE
 70
     0
  9
$DIMCLRT
 70
     0
  9
$DIMTFAC
 40
1.0
  9
$DIMGAP
 40
0.625
  9
$DIMJUST
 70
     0
  9
$DIMSD1
 70
     0
  9
$DIMSD2
 70
     0
  9
$DIMTOLJ
 70
     1
  9
$DIMTZIN
 70
     8
  9
$DIMALTZ
 70
     0
  9
$DIMALTTZ
 70
     0
  9
$DIMFIT
 70
     3
  9
$DIMUPT
 70
     1
  9
$DIMUNIT
 70
     2
  9
$DIMDEC
 70
     2
  9
$DIMTDEC
 70
     2
  9
$DIMALTU
 70
     8
  9
$DIMALTTD
 70
     4
  9
$DIMTXSTY
  7
STANDARD
  9
$DIMAUNIT
 70
     0
  9
$LUNITS
 70
     2
  9
$LUPREC
 70
     4
  9
$SKETCHINC
 40
1.0
  9
$FILLETRAD
 40
3.0
  9
$AUNITS
 70
     0
  9
$AUPREC
 70
     0
  9
$MENU
  1
.
  9
$ELEVATION
 40
0.0
  9
$PELEVATION
 40
0.0
  9
$THICKNESS
 40
0.0
  9
$LIMCHECK
 70
     0
  9
$BLIPMODE
 70
     0
  9
$CHAMFERA
 40
1.0
  9
$CHAMFERB
 40
1.0
  9
$CHAMFERC
 40
20.0
  9
$CHAMFERD
 40
0.0
  9
$SKPOLY
 70
     0
  9
$TDCREATE
 40
2453182.407910879
  9
$TDUPDATE
 40
2453594.729854409
  9
$TDINDWG
 40
1.7569872222
  9
$TDUSRTIMER
 40
1.7569872222
  9
$USRTIMER
 70
     1
  9
$ANGBASE
 50
0.0
  9
$ANGDIR
 70
     0
  9
$PDMODE
 70
     2
  9
$PDSIZE
 40
-0.1
  9
$PLINEWID
 40
0.0
  9
$COORDS
 70
     2
  9
$SPLFRAME
 70
     0
  9
$SPLINETYPE
 70
     6
  9
$SPLINESEGS
 70
     8
  9
$ATTDIA
 70
     0
  9
$ATTREQ
 70
     1
  9
$HANDLING
 70
     1
  9
$HANDSEED
  5
1CA2
  9
$SURFTAB1
 70
     6
  9
$SURFTAB2
 70
     6
  9
$SURFTYPE
 70
     6
  9
$SURFU
 70
     6
  9
$SURFV
 70
     6
  9
$UCSNAME
  2

  9
$UCSORG
 10
0.0
 20
0.0
 30
0.0
  9
$UCSXDIR
 10
1.0
 20
0.0
 30
0.0
  9
$UCSYDIR
 10
0.0
 20
1.0
 30
0.0
  9
$PUCSNAME
  2

  9
$PUCSORG
 10
0.0
 20
0.0
 30
0.0
  9
$PUCSXDIR
 10
1.0
 20
0.0
 30
0.0
  9
$PUCSYDIR
 10
0.0
 20
1.0
 30
0.0
  9
$USERI1
 70
     0
  9
$USERI2
 70
     0
  9
$USERI3
 70
     0
  9
$USERI4
 70
     0
  9
$USERI5
 70
     0
  9
$USERR1
 40
0.0
  9
$USERR2
 40
0.0
  9
$USERR3
 40
0.0
  9
$USERR4
 40
0.0
  9
$USERR5
 40
0.0
  9
$WORLDVIEW
 70
     1
  9
$SHADEDGE
 70
     3
  9
$SHADEDIF
 70
    70
  9
$TILEMODE
 70
     1
  9
$MAXACTVP
 70
    48
  9
$PINSBASE
 10
0.0
 20
0.0
 30
0.0
  9
$PLIMCHECK
 70
     0
  9
$PEXTMIN
 10
1.000000E+20
 20
1.000000E+20
 30
1.000000E+20
  9
$PEXTMAX
 10
-1.000000E+20
 20
-1.000000E+20
 30
-1.000000E+20
  9
$PLIMMIN
 10
0.0
 20
0.0
  9
$PLIMMAX
 10
420.0
 20
297.0
  9
$UNITMODE
 70
     0
  9
$VISRETAIN
 70
     1
  9
$PLINEGEN
 70
     0
  9
$PSLTSCALE
 70
     1
  9
$TREEDEPTH
 70
  3020
  9
$PICKSTYLE
 70
     1
  9
$CMLSTYLE
  2
STANDARD
  9
$CMLJUST
 70
     0
  9
$CMLSCALE
 40
20.0
  9
$PROXYGRAPHICS
 70
     1
  9
$MEASUREMENT
 70
     1
  0
ENDSEC
  0
SECTION
  2
CLASSES
  0
CLASS
  1
LWPOLYLINE
  2
AcDbPolyline
  3
"AutoCAD"
 90
        0
280
     0
281
     1
  0
CLASS
  1
DICTIONARYVAR
  2
AcDbDictionaryVar
  3
"AutoCAD"
 90
        0
280
     0
281
     0
  0
CLASS
  1
HATCH
  2
AcDbHatch
  3
"ACAD_SEDONA"
 90
        0
280
     0
281
     1
  0
ENDSEC
  0
SECTION
  2
TABLES
  0
TABLE
  2
VPORT
  5
8
100
AcDbSymbolTable
 70
     2
  0
VPORT
  5
1CA1
100
AcDbSymbolTableRecord
100
AcDbViewportTableRecord
  2
*ACTIVE
 70
     0
 10
0.0
 20
0.0
 11
1.0
 21
1.0
 12
140.0
 22
97.564767
 13
0.0
 23
0.0
 14
0.25
 24
0.25
 15
1.0
 25
1.0
 16
0.0
 26
0.0
 36
1.0
 17
0.0
 27
0.0
 37
0.0
 40
195.129534
 41
1.434944
 42
50.0
 43
0.0
 44
0.0
 50
0.0
 51
0.0
 71
     0
 72
 20000
 73
     1
 74
     1
 75
     0
 76
     0
 77
     0
 78
     0
  0
ENDTAB
  0
TABLE
  2
LTYPE
  5
5
100
AcDbSymbolTable
 70
    12
  0
LTYPE
  5
12
100
AcDbSymbolTableRecord
100
AcDbLinetypeTableRecord
  2
BYBLOCK
 70
     0
  3

 72
    65
 73
     0
 40
0.0
  0
LTYPE
  5
13
100
AcDbSymbolTableRecord
100
AcDbLinetypeTableRecord
  2
BYLAYER
 70
     0
  3

 72
    65
 73
     0
 40
0.0
  0
LTYPE
  5
14
100
AcDbSymbolTableRecord
100
AcDbLinetypeTableRecord
  2
CONTINUOUS
 70
     0
  3
Solid line
 72
    65
 73
     0
 40
0.0
  0
LTYPE
  5
9D
100
AcDbSymbolTableRecord
100
AcDbLinetypeTableRecord
  2
CENTER
 70
     0
  3
Center ____ _ ____ _ ____ _ ____ _ ____ _ ____
 72
    65
 73
     4
 40
50.8
 49
31.75
 74
     0
 49
-6.35
 74
     0
 49
6.35
 74
     0
 49
-6.35
 74
     0
  0
LTYPE
  5
A0
100
AcDbSymbolTableRecord
100
AcDbLinetypeTableRecord
  2
HIDDEN
 70
     0
  3
Hidden __ __ __ __ __ __ __ __ __ __ __ __ __ _
 72
    65
 73
     2
 40
9.525
 49
6.35
 74
     0
 49
-3.175
 74
     0
  0
LTYPE
  5
C2
100
AcDbSymbolTableRecord
100
AcDbLinetypeTableRecord
  2
CENTER2
 70
     0
  3
Center (.5x) ___ _ ___ _ ___ _ ___ _ ___ _ ___
 72
    65
 73
     4
 40
28.575
 49
19.05
 74
     0
 49
-3.175
 74
     0
 49
3.175
 74
     0
 49
-3.175
 74
     0
  0
LTYPE
  5
C3
100
AcDbSymbolTableRecord
100
AcDbLinetypeTableRecord
  2
HIDDEN2
 70
     0
  3
Hidden (.5x) _ _ _ _ _ _ _ _ _ _ _ _ _ _ _ _ _
 72
    65
 73
     2
 40
4.7625
 49
3.175
 74
     0
 49
-1.5875
 74
     0
  0
LTYPE
  5
371
100
AcDbSymbolTableRecord
100
AcDbLinetypeTableRecord
  2
TENSEN
 70
     0
  3

 72
    65
 73
     2
 40
4.0
 49
3.0
 74
     0
 49
-1.0
 74
     0
  0
LTYPE
  5
372
100
AcDbSymbolTableRecord
100
AcDbLinetypeTableRecord
  2
ITTEN1
 70
     0
  3

 72
    65
 73
     4
 40
8.2
 49
5.0
 74
     0
 49
-1.0
 74
     0
 49
1.2
 74
     0
 49
-1.0
 74
     0
  0
LTYPE
  5
5FB
100
AcDbSymbolTableRecord
100
AcDbLinetypeTableRecord
  2
ITTEN
 70
     0
  3

 72
    65
 73
     4
 40
5.5
 49
2.5
 74
     0
 49
-1.0
 74
     0
 49
1.0
 74
     0
 49
-1.0
 74
     0
  0
LTYPE
  5
11E7
100
AcDbSymbolTableRecord
100
AcDbLinetypeTableRecord
  2
TENSEN3
 70
     0
  3

 72
    65
 73
     2
 40
4.0
 49
3.0
 74
     0
 49
-1.0
 74
     0
  0
LTYPE
  5
1A37
100
AcDbSymbolTableRecord
100
AcDbLinetypeTableRecord
  2
DASHED2
 70
     0
  3
Dashed (.5x) _ _ _ _ _ _ _ _ _ _ _ _ _ _ _ _ _
 72
    65
 73
     2
 40
9.525
 49
6.35
 74
     0
 49
-3.175
 74
     0
  0
LTYPE
  5
1A3B
100
AcDbSymbolTableRecord
100
AcDbLinetypeTableRecord
  2
ACAD_ISO02W100
 70
     0
  3
ISO dash __ __ __ __ __ __ __ __ __ __ __ __ __
 72
    65
 73
     2
 40
15.0
 49
12.0
 74
     0
 49
-3.0
 74
     0
  0
LTYPE
  5
1A3D
100
AcDbSymbolTableRecord
100
AcDbLinetypeTableRecord
  2
DOT2
 70
     0
  3
Dot (.5x) .....................................
 72
    65
 73
     2
 40
3.175
 49
0.0
 74
     0
 49
-3.175
 74
     0
  0
ENDTAB
  0
TABLE
  2
LAYER
  5
2
100
AcDbSymbolTable
 70
     7
  0
LAYER
  5
E
100
AcDbSymbolTableRecord
100
AcDbLayerTableRecord
  2
0
 70
     0
 62
     7
  6
CONTINUOUS
  0
LAYER
  5
21
100
AcDbSymbolTableRecord
100
AcDbLayerTableRecord
  2
3
 70
     0
 62
     3
  6
CONTINUOUS
  0
LAYER
  5
9E
100
AcDbSymbolTableRecord
100
AcDbLayerTableRecord
  2
1
 70
     0
 62
     1
  6
ITTEN1
  0
LAYER
  5
9F
100
AcDbSymbolTableRecord
100
AcDbLayerTableRecord
  2
2
 70
     0
 62
     2
  6
HIDDEN
  0
LAYER
  5
13A
100
AcDbSymbolTableRecord
100
AcDbLayerTableRecord
  2
DEFPOINTS
 70
     0
 62
     7
  6
CONTINUOUS
  0
LAYER
  5
11E8
100
AcDbSymbolTableRecord
100
AcDbLayerTableRecord
  2
4
 70
     0
 62
     6
  6
CONTINUOUS
  0
LAYER
  5
1A38
100
AcDbSymbolTableRecord
100
AcDbLayerTableRecord
  2
5
 70
     0
 62
     2
  6
TENSEN
  0
ENDTAB
  0
TABLE
  2
STYLE
  5
3
100
AcDbSymbolTable
 70
     6
  0
STYLE
  5
F
100
AcDbSymbolTableRecord
100
AcDbTextStyleTableRecord
  2
STANDARD
 70
     0
 40
4.0
 41
1.0
 50
0.0
 71
     0
 42
2.5
  3
txt.shx
  4

  0
STYLE
  5
22
100
AcDbSymbolTableRecord
100
AcDbTextStyleTableRecord
  2
EXTFONT
 70
     0
 40
5.0
 41
0.75
 50
0.0
 71
     0
 42
5.0
  3
simplex.shx
  4
bigfont.shx
  0
STYLE
  5
23
100
AcDbSymbolTableRecord
100
AcDbTextStyleTableRecord
  2
BIGFONT
 70
     0
 40
4.0
 41
0.7
 50
0.0
 71
     0
 42
4.0
  3
txt.shx
  4
extfont.shx
  0
STYLE
  5
24
100
AcDbSymbolTableRecord
100
AcDbTextStyleTableRecord
  2
ROMAND
 70
     0
 40
4.0
 41
0.6
 50
0.0
 71
     0
 42
4.0
  3
romand
  4

  0
STYLE
  5
9C
100
AcDbSymbolTableRecord
100
AcDbTextStyleTableRecord
  2

 70
     1
 40
0.0
 41
1.0
 50
0.0
 71
     0
 42
2.5
  3
ltypeshp.shx
  4

  0
STYLE
  5
11E9
100
AcDbSymbolTableRecord
100
AcDbTextStyleTableRecord
  2
ROMANS
 70
     0
 40
0.0
 41
1.0
 50
0.0
 71
     0
 42
0.0
  3
ROMANS
  4

  0
ENDTAB
  0
TABLE
  2
VIEW
  5
6
100
AcDbSymbolTable
 70
     0
  0
ENDTAB
  0
TABLE
  2
UCS
  5
7
100
AcDbSymbolTable
 70
     0
  0
ENDTAB
  0
TABLE
  2
APPID
  5
9
100
AcDbSymbolTable
 70
     1
  0
APPID
  5
10
100
AcDbSymbolTableRecord
100
AcDbRegAppTableRecord
  2
ACAD
 70
     0
  0
ENDTAB
  0
TABLE
  2
DIMSTYLE
  5
A
100
AcDbSymbolTable
 70
     1
  0
DIMSTYLE
105
1D
100
AcDbSymbolTableRecord
100
AcDbDimStyleTableRecord
  2
STANDARD
 70
     0
  3

  4

  5

  6

  7

 40
1.0
 41
0.18
 42
0.0625
 43
0.38
 44
0.18
 45
0.0
 46
0.0
 47
0.0
 48
0.0
140
0.18
141
0.09
142
0.0
143
25.4
144
1.0
145
0.0
146
1.0
147
0.09
 71
     0
 72
     0
 73
     1
 74
     1
 75
     0
 76
     0
 77
     0
 78
     0
170
     0
171
     2
172
     0
173
     0
174
     0
175
     0
176
     0
177
     0
178
     0
270
     2
271
     4
272
     4
273
     2
274
     2
340
F
275
     0
280
     0
281
     0
282
     0
283
     1
284
     0
285
     0
286
     0
287
     3
288
     0
  0
ENDTAB
  0
TABLE
  2
BLOCK_RECORD
  5
1
100
AcDbSymbolTable
 70
    76
  0
BLOCK_RECORD
  5
18
100
AcDbSymbolTableRecord
100
AcDbBlockTableRecord
  2
*MODEL_SPACE
  0
BLOCK_RECORD
  5
15
100
AcDbSymbolTableRecord
100
AcDbBlockTableRecord
  2
*PAPER_SPACE
  0
BLOCK_RECORD
  5
25
100
AcDbSymbolTableRecord
100
AcDbBlockTableRecord
  2
A$C23A01D60
  0
BLOCK_RECORD
  5
283
100
AcDbSymbolTableRecord
100
AcDbBlockTableRecord
  2
*D1
  0
BLOCK_RECORD
  5
290
100
AcDbSymbolTableRecord
100
AcDbBlockTableRecord
  2
*D2
  0
BLOCK_RECORD
  5
29D
100
AcDbSymbolTableRecord
100
AcDbBlockTableRecord
  2
*D3
  0
BLOCK_RECORD
  5
2AA
100
AcDbSymbolTableRecord
100
AcDbBlockTableRecord
  2
*D4
  0
BLOCK_RECORD
  5
2B7
100
AcDbSymbolTableRecord
100
AcDbBlockTableRecord
  2
*D5
  0
BLOCK_RECORD
  5
2C4
100
AcDbSymbolTableRecord
100
AcDbBlockTableRecord
  2
*D6
  0
BLOCK_RECORD
  5
2D1
100
AcDbSymbolTableRecord
100
AcDbBlockTableRecord
  2
*D7
  0
BLOCK_RECORD
  5
2DE
100
AcDbSymbolTableRecord
100
AcDbBlockTableRecord
  2
*D8
  0
BLOCK_RECORD
  5
2EB
100
AcDbSymbolTableRecord
100
AcDbBlockTableRecord
  2
*D9
  0
BLOCK_RECORD
  5
2F8
100
AcDbSymbolTableRecord
100
AcDbBlockTableRecord
  2
*D10
  0
BLOCK_RECORD
  5
305
100
AcDbSymbolTableRecord
100
AcDbBlockTableRecord
  2
*D11
  0
BLOCK_RECORD
  5
312
100
AcDbSymbolTableRecord
100
AcDbBlockTableRecord
  2
*D12
  0
BLOCK_RECORD
  5
31B
100
AcDbSymbolTableRecord
100
AcDbBlockTableRecord
  2
*D13
  0
BLOCK_RECORD
  5
324
100
AcDbSymbolTableRecord
100
AcDbBlockTableRecord
  2
*D14
  0
BLOCK_RECORD
  5
32D
100
AcDbSymbolTableRecord
100
AcDbBlockTableRecord
  2
*D15
  0
BLOCK_RECORD
  5
336
100
AcDbSymbolTableRecord
100
AcDbBlockTableRecord
  2
*D16
  0
BLOCK_RECORD
  5
343
100
AcDbSymbolTableRecord
100
AcDbBlockTableRecord
  2
*D17
  0
BLOCK_RECORD
  5
34C
100
AcDbSymbolTableRecord
100
AcDbBlockTableRecord
  2
*D18
  0
BLOCK_RECORD
  5
35A
100
AcDbSymbolTableRecord
100
AcDbBlockTableRecord
  2
*D19
  0
BLOCK_RECORD
  5
363
100
AcDbSymbolTableRecord
100
AcDbBlockTableRecord
  2
*D20
  0
BLOCK_RECORD
  5
373
100
AcDbSymbolTableRecord
100
AcDbBlockTableRecord
  2
A$C2290175C
  0
BLOCK_RECORD
  5
5EF
100
AcDbSymbolTableRecord
100
AcDbBlockTableRecord
  2
*D22
  0
BLOCK_RECORD
  5
5FC
100
AcDbSymbolTableRecord
100
AcDbBlockTableRecord
  2
A$C78F16135
  0
BLOCK_RECORD
  5
C78
100
AcDbSymbolTableRecord
100
AcDbBlockTableRecord
  2
*D24
  0
BLOCK_RECORD
  5
C85
100
AcDbSymbolTableRecord
100
AcDbBlockTableRecord
  2
*D25
  0
BLOCK_RECORD
  5
C92
100
AcDbSymbolTableRecord
100
AcDbBlockTableRecord
  2
*D26
  0
BLOCK_RECORD
  5
C9F
100
AcDbSymbolTableRecord
100
AcDbBlockTableRecord
  2
*D27
  0
BLOCK_RECORD
  5
CAC
100
AcDbSymbolTableRecord
100
AcDbBlockTableRecord
  2
*D28
  0
BLOCK_RECORD
  5
CB9
100
AcDbSymbolTableRecord
100
AcDbBlockTableRecord
  2
*D29
  0
BLOCK_RECORD
  5
CC6
100
AcDbSymbolTableRecord
100
AcDbBlockTableRecord
  2
*D30
  0
BLOCK_RECORD
  5
CD3
100
AcDbSymbolTableRecord
100
AcDbBlockTableRecord
  2
*D31
  0
BLOCK_RECORD
  5
CE0
100
AcDbSymbolTableRecord
100
AcDbBlockTableRecord
  2
*D32
  0
BLOCK_RECORD
  5
CED
100
AcDbSymbolTableRecord
100
AcDbBlockTableRecord
  2
A$C375C091B
  0
BLOCK_RECORD
  5
EB5
100
AcDbSymbolTableRecord
100
AcDbBlockTableRecord
  2
*D34
  0
BLOCK_RECORD
  5
EC2
100
AcDbSymbolTableRecord
100
AcDbBlockTableRecord
  2
*D35
  0
BLOCK_RECORD
  5
ECF
100
AcDbSymbolTableRecord
100
AcDbBlockTableRecord
  2
*D36
  0
BLOCK_RECORD
  5
ED8
100
AcDbSymbolTableRecord
100
AcDbBlockTableRecord
  2
*D37
  0
BLOCK_RECORD
  5
EE5
100
AcDbSymbolTableRecord
100
AcDbBlockTableRecord
  2
*D38
  0
BLOCK_RECORD
  5
EF2
100
AcDbSymbolTableRecord
100
AcDbBlockTableRecord
  2
*D39
  0
BLOCK_RECORD
  5
EFF
100
AcDbSymbolTableRecord
100
AcDbBlockTableRecord
  2
*D40
  0
BLOCK_RECORD
  5
F0C
100
AcDbSymbolTableRecord
100
AcDbBlockTableRecord
  2
*D41
  0
BLOCK_RECORD
  5
F19
100
AcDbSymbolTableRecord
100
AcDbBlockTableRecord
  2
*D42
  0
BLOCK_RECORD
  5
F27
100
AcDbSymbolTableRecord
100
AcDbBlockTableRecord
  2
*D43
  0
BLOCK_RECORD
  5
F35
100
AcDbSymbolTableRecord
100
AcDbBlockTableRecord
  2
A$C43FD107B
  0
BLOCK_RECORD
  5
F3A
100
AcDbSymbolTableRecord
100
AcDbBlockTableRecord
  2
A$C72AD58F5
  0
BLOCK_RECORD
  5
1135
100
AcDbSymbolTableRecord
100
AcDbBlockTableRecord
  2
*D46
  0
BLOCK_RECORD
  5
1142
100
AcDbSymbolTableRecord
100
AcDbBlockTableRecord
  2
*D47
  0
BLOCK_RECORD
  5
114F
100
AcDbSymbolTableRecord
100
AcDbBlockTableRecord
  2
*D48
  0
BLOCK_RECORD
  5
115C
100
AcDbSymbolTableRecord
100
AcDbBlockTableRecord
  2
*D49
  0
BLOCK_RECORD
  5
1167
100
AcDbSymbolTableRecord
100
AcDbBlockTableRecord
  2
*D50
  0
BLOCK_RECORD
  5
1172
100
AcDbSymbolTableRecord
100
AcDbBlockTableRecord
  2
*D51
  0
BLOCK_RECORD
  5
117F
100
AcDbSymbolTableRecord
100
AcDbBlockTableRecord
  2
*D52
  0
BLOCK_RECORD
  5
118C
100
AcDbSymbolTableRecord
100
AcDbBlockTableRecord
  2
*D53
  0
BLOCK_RECORD
  5
1199
100
AcDbSymbolTableRecord
100
AcDbBlockTableRecord
  2
*D54
  0
BLOCK_RECORD
  5
11A6
100
AcDbSymbolTableRecord
100
AcDbBlockTableRecord
  2
*D55
  0
BLOCK_RECORD
  5
11B3
100
AcDbSymbolTableRecord
100
AcDbBlockTableRecord
  2
*D56
  0
BLOCK_RECORD
  5
11C0
100
AcDbSymbolTableRecord
100
AcDbBlockTableRecord
  2
*D57
  0
BLOCK_RECORD
  5
11CD
100
AcDbSymbolTableRecord
100
AcDbBlockTableRecord
  2
*D58
  0
BLOCK_RECORD
  5
11DA
100
AcDbSymbolTableRecord
100
AcDbBlockTableRecord
  2
*D59
  0
BLOCK_RECORD
  5
11EA
100
AcDbSymbolTableRecord
100
AcDbBlockTableRecord
  2
A$C2EAC175B
  0
BLOCK_RECORD
  5
14B0
100
AcDbSymbolTableRecord
100
AcDbBlockTableRecord
  2
*D61
  0
BLOCK_RECORD
  5
14BA
100
AcDbSymbolTableRecord
100
AcDbBlockTableRecord
  2
*D62
  0
BLOCK_RECORD
  5
14C4
100
AcDbSymbolTableRecord
100
AcDbBlockTableRecord
  2
*D63
  0
BLOCK_RECORD
  5
14CE
100
AcDbSymbolTableRecord
100
AcDbBlockTableRecord
  2
*D64
  0
BLOCK_RECORD
  5
14DB
100
AcDbSymbolTableRecord
100
AcDbBlockTableRecord
  2
*D65
  0
BLOCK_RECORD
  5
14E8
100
AcDbSymbolTableRecord
100
AcDbBlockTableRecord
  2
*D66
  0
BLOCK_RECORD
  5
14F5
100
AcDbSymbolTableRecord
100
AcDbBlockTableRecord
  2
*D67
  0
BLOCK_RECORD
  5
1502
100
AcDbSymbolTableRecord
100
AcDbBlockTableRecord
  2
*D68
  0
BLOCK_RECORD
  5
150F
100
AcDbSymbolTableRecord
100
AcDbBlockTableRecord
  2
*D69
  0
BLOCK_RECORD
  5
151C
100
AcDbSymbolTableRecord
100
AcDbBlockTableRecord
  2
A$C2B8D5F0E
  0
BLOCK_RECORD
  5
1520
100
AcDbSymbolTableRecord
100
AcDbBlockTableRecord
  2
A$C28A03580
  0
BLOCK_RECORD
  5
1BF7
100
AcDbSymbolTableRecord
100
AcDbBlockTableRecord
  2
A$C51075B6D
  0
ENDTAB
  0
ENDSEC
  0
SECTION
  2
BLOCKS
  0
BLOCK
  5
19
100
AcDbEntity
  8
0
100
AcDbBlockBegin
  2
*MODEL_SPACE
 70
     0
 10
0.0
 20
0.0
 30
0.0
  3
*MODEL_SPACE
  1

  0
ENDBLK
  5
1A
100
AcDbEntity
  8
0
100
AcDbBlockEnd
  0
BLOCK
  5
16
100
AcDbEntity
 67
     1
  8
0
100
AcDbBlockBegin
  2
*PAPER_SPACE
 70
     0
 10
0.0
 20
0.0
 30
0.0
  3
*PAPER_SPACE
  1

  0
ENDBLK
  5
17
100
AcDbEntity
 67
     1
  8
0
100
AcDbBlockEnd
  0
BLOCK
  5
5D
100
AcDbEntity
  8
0
100
AcDbBlockBegin
  2
A$C23A01D60
 70
     0
 10
0.0
 20
0.0
 30
0.0
  3
A$C23A01D60
  1

  0
LINE
  5
26
100
AcDbEntity
  8
0
100
AcDbLine
 10
98.328815
 20
35.394448
 30
0.0
 11
279.457374
 21
35.394448
 31
0.0
  0
LWPOLYLINE
  5
27
100
AcDbEntity
  8
0
100
AcDbPolyline
 90
        4
 70
     1
 43
0.0
 10
0.0
 20
195.0
 10
280.0
 20
195.0
 10
280.0
 20
0.0
 10
0.0
 20
0.0
  0
LINE
  5
28
100
AcDbEntity
  8
0
100
AcDbLine
 10
98.328815
 20
0.0
 30
0.0
 11
280.0
 21
0.0
 31
0.0
  0
TEXT
  5
29
100
AcDbEntity
  8
0
100
AcDbText
 10
134.116561
 20
7.100852
 30
0.0
 40
2.116241
  1
DATE （作成日）
 41
0.55
  7
BIGFONT
100
AcDbText
  0
LINE
  5
2A
100
AcDbEntity
  8
0
100
AcDbLine
 10
98.328815
 20
29.394448
 30
0.0
 11
279.457374
 21
29.394448
 31
0.0
  0
LINE
  5
2B
100
AcDbEntity
  8
0
100
AcDbLine
 10
98.31091
 20
24.345016
 30
0.0
 11
279.457374
 21
24.345016
 31
0.0
  0
LINE
  5
2C
100
AcDbEntity
  8
0
100
AcDbLine
 10
98.328815
 20
19.295584
 30
0.0
 11
279.457374
 21
19.295584
 31
0.0
  0
LINE
  5
2D
100
AcDbEntity
  8
0
100
AcDbLine
 10
279.457374
 20
9.528316
 30
0.0
 11
98.328815
 21
9.528316
 31
0.0
  0
LINE
  5
2E
100
AcDbEntity
  8
0
100
AcDbLine
 10
133.430637
 20
9.528316
 30
0.0
 11
133.430637
 21
0.0
 31
0.0
  0
LINE
  5
2F
100
AcDbEntity
  8
0
100
AcDbLine
 10
98.328815
 20
9.528316
 30
0.0
 11
98.328815
 21
0.0
 31
0.0
  0
TEXT
  5
30
100
AcDbEntity
  8
0
100
AcDbText
 10
102.16846
 20
20.964959
 30
0.0
 40
1.953454
  1
No,
 41
0.4
  7
BIGFONT
100
AcDbText
  0
LINE
  5
31
100
AcDbEntity
  8
0
100
AcDbLine
 10
108.795541
 20
29.394448
 30
0.0
 11
108.795541
 21
19.295584
 31
0.0
  0
LINE
  5
32
100
AcDbEntity
  8
0
100
AcDbLine
 10
98.328815
 20
19.295584
 30
0.0
 11
98.328815
 21
29.394448
 31
0.0
  0
TEXT
  5
33
100
AcDbEntity
  8
0
100
AcDbText
 10
99.380527
 20
7.034473
 30
0.0
 40
2.116241
  1
CODE NO. （製番）
 41
0.55
  7
BIGFONT
100
AcDbText
  0
TEXT
  5
34
100
AcDbEntity
  8
0
100
AcDbText
 10
99.381424
 20
16.259394
 30
0.0
 40
2.116241
  1
TITLE (品名）
 41
0.55
  7
BIGFONT
100
AcDbText
  0
LINE
  5
35
100
AcDbEntity
  8
0
100
AcDbLine
 10
98.328815
 20
9.528316
 30
0.0
 11
98.328815
 21
19.295584
 31
0.0
  0
LINE
  5
36
100
AcDbEntity
  8
0
100
AcDbLine
 10
98.328815
 20
25.295584
 30
0.0
 11
98.328815
 21
35.394448
 31
0.0
  0
CIRCLE
  5
37
100
AcDbEntity
  8
0
100
AcDbCircle
 10
103.694833
 20
26.775338
 30
0.0
 40
2.217546
  0
TEXT
  5
38
100
AcDbEntity
  8
0
100
AcDbText
 10
102.462863
 20
25.464593
 30
0.0
 40
3.0
  1
1
 41
0.7
100
AcDbText
  0
CIRCLE
  5
39
100
AcDbEntity
  8
0
100
AcDbCircle
 10
103.5
 20
32.0
 30
0.0
 40
2.236068
  0
TEXT
  5
3A
100
AcDbEntity
  8
0
100
AcDbText
 10
102.5
 20
30.5
 30
0.0
 40
3.0
  1
2
 41
0.7
100
AcDbText
  0
LINE
  5
3B
100
AcDbEntity
  8
0
100
AcDbLine
 10
108.795541
 20
35.394448
 30
0.0
 11
108.795541
 21
25.295584
 31
0.0
  0
TEXT
  5
3C
100
AcDbEntity
  8
0
100
AcDbText
 10
119.232093
 20
20.705559
 30
0.0
 40
1.953454
  1
NAME
 41
0.4
  7
BIGFONT
100
AcDbText
  0
TEXT
  5
3D
100
AcDbEntity
  8
0
100
AcDbText
 10
122.930263
 20
20.680829
 30
0.0
 40
1.953454
  1
（名称）
 41
0.7
  7
BIGFONT
100
AcDbText
  0
TEXT
  5
3E
100
AcDbEntity
  8
0
100
AcDbText
 10
226.15
 20
20.76
 30
0.0
 40
2.1
  1
HARDNESS
 41
0.6
100
AcDbText
  0
TEXT
  5
3F
100
AcDbEntity
  8
0
100
AcDbText
 10
214.492246
 20
1.981734
 30
0.0
 40
5.078979
  1
KONISHI MFG CO,.LTD
 41
0.6
  7
ROMAND
100
AcDbText
  0
TEXT
  5
40
100
AcDbEntity
  8
0
100
AcDbText
 10
174.719486
 20
6.629288
 30
0.0
 40
2.116241
  1
APPROVAL （承認）
 41
0.55
  7
BIGFONT
100
AcDbText
  0
LINE
  5
41
100
AcDbEntity
  8
0
100
AcDbLine
 10
159.537028
 20
9.528316
 30
0.0
 11
159.537028
 21
0.0
 31
0.0
  0
LINE
  5
42
100
AcDbEntity
  8
0
100
AcDbLine
 10
173.862355
 20
9.528316
 30
0.0
 11
173.862355
 21
0.0
 31
0.0
  0
TEXT
  5
43
100
AcDbEntity
  8
0
100
AcDbText
 10
159.892402
 20
7.033607
 30
0.0
 40
2.116241
  1
DNS/INS （製図）
 41
0.55
  7
BIGFONT
100
AcDbText
  0
TEXT
  5
44
100
AcDbEntity
  8
0
100
AcDbText
 10
148.756438
 20
16.464396
 30
0.0
 40
2.116241
  1
（品番）
 41
0.55
  7
BIGFONT
100
AcDbText
  0
LINE
  5
45
100
AcDbEntity
  8
0
100
AcDbLine
 10
141.062529
 20
19.295584
 30
0.0
 11
141.062529
 21
9.528316
 31
0.0
  0
TEXT
  5
46
100
AcDbEntity
  8
0
100
AcDbText
 10
142.035056
 20
16.403741
 30
0.0
 40
2.116241
  1
MODEL
 41
0.55
  7
BIGFONT
100
AcDbText
  0
LINE
  5
47
100
AcDbEntity
  8
0
100
AcDbLine
 10
173.736373
 20
29.144448
 30
0.0
 11
173.736373
 21
19.045584
 31
0.0
  0
LINE
  5
48
100
AcDbEntity
  8
0
100
AcDbLine
 10
172.525462
 20
19.295584
 30
0.0
 11
172.525462
 21
9.528316
 31
0.0
  0
TEXT
  5
49
100
AcDbEntity
  8
0
100
AcDbText
 10
173.810771
 20
16.089572
 30
0.0
 40
1.953454
  1
FINISH　(仕上)
 41
0.4
  7
BIGFONT
100
AcDbText
  0
LINE
  5
4A
100
AcDbEntity
  8
0
100
AcDbLine
 10
173.736373
 20
35.144448
 30
0.0
 11
173.736373
 21
25.045584
 31
0.0
  0
TEXT
  5
4B
100
AcDbEntity
  8
0
100
AcDbText
 10
192.483335
 20
4.456108
 30
0.0
 40
3.385986
  1
:MILLIMETERS
 41
0.55
  7
BIGFONT
100
AcDbText
  0
LINE
  5
4C
100
AcDbEntity
  8
0
100
AcDbLine
 10
212.931427
 20
9.528316
 30
0.0
 11
212.931427
 21
0.0
 31
0.0
  0
LINE
  5
4D
100
AcDbEntity
  8
0
100
AcDbLine
 10
191.443437
 20
9.528316
 30
0.0
 11
191.443437
 21
0.0
 31
0.0
  0
TEXT
  5
4E
100
AcDbEntity
  8
0
100
AcDbText
 10
200.948301
 20
1.070122
 30
0.0
 40
2.116241
  1
（単位：ミリ）
 41
0.55
  7
BIGFONT
100
AcDbText
  0
TEXT
  5
4F
100
AcDbEntity
  8
0
100
AcDbText
 10
184.196187
 20
20.537815
 30
0.0
 40
2.116241
  1
MATERIAL （材質）
 41
0.55
  7
BIGFONT
 11
184.196187
 21
20.537815
 31
0.0
100
AcDbText
 73
     1
  0
LINE
  5
50
100
AcDbEntity
  8
0
100
AcDbLine
 10
216.114382
 20
29.394448
 30
0.0
 11
216.114382
 21
19.295584
 31
0.0
  0
LINE
  5
51
100
AcDbEntity
  8
0
100
AcDbLine
 10
216.114382
 20
35.394448
 30
0.0
 11
216.114382
 21
25.295584
 31
0.0
  0
TEXT
  5
52
100
AcDbEntity
  8
0
100
AcDbText
 10
153.354003
 20
40.854204
 30
0.0
 40
5.0
  1
各角はバリ無きこと。
 41
0.5
  7
BIGFONT
100
AcDbText
  0
TEXT
  5
53
100
AcDbEntity
  8
0
100
AcDbText
 10
266.32944
 20
16.686154
 30
0.0
 40
2.116241
  1
SCALE （尺度）
 41
0.55
  7
BIGFONT
100
AcDbText
  0
TEXT
  5
54
100
AcDbEntity
  8
0
100
AcDbText
 10
264.565773
 20
0.965938
 30
0.0
 40
2.962738
  1
    JAPAN
 41
0.5
  7
EXTFONT
100
AcDbText
  0
TEXT
  5
55
100
AcDbEntity
  8
0
100
AcDbText
 10
267.170378
 20
5.563065
 30
0.0
 40
2.962738
  1
IN NAGOYA
 41
0.5
  7
EXTFONT
100
AcDbText
  0
TEXT
  5
56
100
AcDbEntity
  8
0
100
AcDbText
 10
235.387457
 20
16.142488
 30
0.0
 40
2.116241
  1
WEIGHT （質量）
 41
0.55
  7
BIGFONT
100
AcDbText
  0
LINE
  5
57
100
AcDbEntity
  8
0
100
AcDbLine
 10
230.364382
 20
19.295584
 30
0.0
 11
230.364382
 21
9.528316
 31
0.0
  0
LINE
  5
58
100
AcDbEntity
  8
0
100
AcDbLine
 10
250.070568
 20
29.394448
 30
0.0
 11
250.070568
 21
19.295584
 31
0.0
  0
TEXT
  5
59
100
AcDbEntity
  8
0
100
AcDbText
 10
257.223054
 20
16.625499
 30
0.0
 40
2.116241
  1
DRAWING
 41
0.55
  7
BIGFONT
100
AcDbText
  0
LINE
  5
5A
100
AcDbEntity
  8
0
100
AcDbLine
 10
256.070568
 20
19.295584
 30
0.0
 11
256.070568
 21
9.528316
 31
0.0
  0
TEXT
  5
5B
100
AcDbEntity
  8
0
100
AcDbText
 10
260.031717
 20
21.592312
 30
0.0
 40
1.953454
  1
REMARKS　（備考）
 41
0.4
  7
BIGFONT
100
AcDbText
  0
LINE
  5
5C
100
AcDbEntity
  8
0
100
AcDbLine
 10
250.070568
 20
35.394448
 30
0.0
 11
250.070568
 21
25.295584
 31
0.0
  0
ENDBLK
  5
5E
100
AcDbEntity
  8
0
100
AcDbBlockEnd
  0
BLOCK
  5
28E
100
AcDbEntity
  8
0
100
AcDbBlockBegin
  2
*D1
 70
     1
 10
0.0
 20
0.0
 30
0.0
  3
*D1
  1

  0
LINE
  5
284
100
AcDbEntity
  8
0
  6
BYBLOCK
 62
     0
100
AcDbLine
 10
150.526685
 20
153.427264
 30
0.0
 11
150.526685
 21
164.287755
 31
0.0
  0
LINE
  5
285
100
AcDbEntity
  8
0
  6
BYBLOCK
 62
     0
100
AcDbLine
 10
125.63151
 20
163.248
 30
0.0
 11
125.63151
 21
162.287755
 31
0.0
  0
LINE
  5
286
100
AcDbEntity
  8
0
  6
BYBLOCK
 62
     0
100
AcDbLine
 10
148.526685
 20
163.287755
 30
0.0
 11
144.746022
 21
163.287755
 31
0.0
  0
LINE
  5
287
100
AcDbEntity
  8
0
  6
BYBLOCK
 62
     0
100
AcDbLine
 10
127.63151
 20
163.287755
 30
0.0
 11
136.829356
 21
163.287755
 31
0.0
  0
SOLID
  5
288
100
AcDbEntity
  8
0
  6
BYBLOCK
 62
     0
100
AcDbTrace
 10
148.526685
 20
163.621088
 30
0.0
 11
148.526685
 21
162.954422
 31
0.0
 12
150.526685
 22
163.287755
 32
0.0
 13
150.526685
 23
163.287755
 33
0.0
  0
SOLID
  5
289
100
AcDbEntity
  8
0
  6
BYBLOCK
 62
     0
100
AcDbTrace
 10
127.63151
 20
163.621088
 30
0.0
 11
127.63151
 21
162.954422
 31
0.0
 12
125.63151
 22
163.287755
 32
0.0
 13
125.63151
 23
163.287755
 33
0.0
  0
MTEXT
  5
28A
100
AcDbEntity
  8
0
  6
BYBLOCK
 62
     0
100
AcDbMText
 10
140.787689
 20
163.287755
 30
0.0
 40
4.0
 41
0.0
 71
     5
 72
     1
  1
\A1;25
  0
POINT
  5
28B
100
AcDbEntity
  8
DEFPOINTS
  6
BYBLOCK
 62
     0
100
AcDbPoint
 10
150.526685
 20
152.427264
 30
0.0
  0
POINT
  5
28C
100
AcDbEntity
  8
DEFPOINTS
  6
BYBLOCK
 62
     0
100
AcDbPoint
 10
125.63151
 20
164.248
 30
0.0
  0
POINT
  5
28D
100
AcDbEntity
  8
DEFPOINTS
  6
BYBLOCK
 62
     0
100
AcDbPoint
 10
125.63151
 20
163.287755
 30
0.0
  0
ENDBLK
  5
28F
100
AcDbEntity
  8
0
100
AcDbBlockEnd
  0
BLOCK
  5
29B
100
AcDbEntity
  8
0
100
AcDbBlockBegin
  2
*D2
 70
     1
 10
0.0
 20
0.0
 30
0.0
  3
*D2
  1

  0
LINE
  5
291
100
AcDbEntity
  8
0
  6
BYBLOCK
 62
     0
100
AcDbLine
 10
125.63151
 20
165.748
 30
0.0
 11
125.63151
 21
168.534497
 31
0.0
  0
LINE
  5
292
100
AcDbEntity
  8
0
  6
BYBLOCK
 62
     0
100
AcDbLine
 10
135.154742
 20
155.700508
 30
0.0
 11
135.154742
 21
168.534497
 31
0.0
  0
LINE
  5
293
100
AcDbEntity
  8
0
  6
BYBLOCK
 62
     0
100
AcDbLine
 10
127.63151
 20
167.534497
 30
0.0
 11
133.154742
 21
167.534497
 31
0.0
  0
LINE
  5
294
100
AcDbEntity
  8
0
  6
BYBLOCK
 62
     0
100
AcDbLine
 10
135.154742
 20
167.534497
 30
0.0
 11
137.356774
 21
167.534497
 31
0.0
  0
SOLID
  5
295
100
AcDbEntity
  8
0
  6
BYBLOCK
 62
     0
100
AcDbTrace
 10
127.63151
 20
167.867831
 30
0.0
 11
127.63151
 21
167.201164
 31
0.0
 12
125.63151
 22
167.534497
 32
0.0
 13
125.63151
 23
167.534497
 33
0.0
  0
SOLID
  5
296
100
AcDbEntity
  8
0
  6
BYBLOCK
 62
     0
100
AcDbTrace
 10
133.154742
 20
167.867831
 30
0.0
 11
133.154742
 21
167.201164
 31
0.0
 12
135.154742
 22
167.534497
 32
0.0
 13
135.154742
 23
167.534497
 33
0.0
  0
MTEXT
  5
297
100
AcDbEntity
  8
0
  6
BYBLOCK
 62
     0
100
AcDbMText
 10
143.981774
 20
167.534497
 30
0.0
 40
4.0
 41
0.0
 71
     5
 72
     1
  1
\A1;9.52
  0
POINT
  5
298
100
AcDbEntity
  8
DEFPOINTS
  6
BYBLOCK
 62
     0
100
AcDbPoint
 10
125.63151
 20
164.748
 30
0.0
  0
POINT
  5
299
100
AcDbEntity
  8
DEFPOINTS
  6
BYBLOCK
 62
     0
100
AcDbPoint
 10
135.154742
 20
154.700508
 30
0.0
  0
POINT
  5
29A
100
AcDbEntity
  8
DEFPOINTS
  6
BYBLOCK
 62
     0
100
AcDbPoint
 10
135.154742
 20
167.534497
 30
0.0
  0
ENDBLK
  5
29C
100
AcDbEntity
  8
0
100
AcDbBlockEnd
  0
BLOCK
  5
2A8
100
AcDbEntity
  8
0
100
AcDbBlockBegin
  2
*D3
 70
     1
 10
0.0
 20
0.0
 30
0.0
  3
*D3
  1

  0
LINE
  5
29E
100
AcDbEntity
  8
0
  6
BYBLOCK
 62
     0
100
AcDbLine
 10
116.13151
 20
219.498
 30
0.0
 11
116.13151
 21
198.196012
 31
0.0
  0
LINE
  5
29F
100
AcDbEntity
  8
0
  6
BYBLOCK
 62
     0
100
AcDbLine
 10
190.63151
 20
215.931731
 30
0.0
 11
190.63151
 21
198.196012
 31
0.0
  0
LINE
  5
2A0
100
AcDbEntity
  8
0
  6
BYBLOCK
 62
     0
100
AcDbLine
 10
118.13151
 20
199.196012
 30
0.0
 11
145.918513
 21
199.196012
 31
0.0
  0
LINE
  5
2A1
100
AcDbEntity
  8
0
  6
BYBLOCK
 62
     0
100
AcDbLine
 10
188.63151
 20
199.196012
 30
0.0
 11
159.168513
 21
199.196012
 31
0.0
  0
SOLID
  5
2A2
100
AcDbEntity
  8
0
  6
BYBLOCK
 62
     0
100
AcDbTrace
 10
118.13151
 20
199.529346
 30
0.0
 11
118.13151
 21
198.862679
 31
0.0
 12
116.13151
 22
199.196012
 32
0.0
 13
116.13151
 23
199.196012
 33
0.0
  0
SOLID
  5
2A3
100
AcDbEntity
  8
0
  6
BYBLOCK
 62
     0
100
AcDbTrace
 10
188.63151
 20
199.529346
 30
0.0
 11
188.63151
 21
198.862679
 31
0.0
 12
190.63151
 22
199.196012
 32
0.0
 13
190.63151
 23
199.196012
 33
0.0
  0
MTEXT
  5
2A4
100
AcDbEntity
  8
0
  6
BYBLOCK
 62
     0
100
AcDbMText
 10
152.543513
 20
199.196012
 30
0.0
 40
4.0
 41
0.0
 71
     5
 72
     1
  1
\A1;74.5
  0
POINT
  5
2A5
100
AcDbEntity
  8
DEFPOINTS
  6
BYBLOCK
 62
     0
100
AcDbPoint
 10
116.13151
 20
220.498
 30
0.0
  0
POINT
  5
2A6
100
AcDbEntity
  8
DEFPOINTS
  6
BYBLOCK
 62
     0
100
AcDbPoint
 10
190.63151
 20
216.931731
 30
0.0
  0
POINT
  5
2A7
100
AcDbEntity
  8
DEFPOINTS
  6
BYBLOCK
 62
     0
100
AcDbPoint
 10
190.63151
 20
199.196012
 30
0.0
  0
ENDBLK
  5
2A9
100
AcDbEntity
  8
0
100
AcDbBlockEnd
  0
BLOCK
  5
2B5
100
AcDbEntity
  8
0
100
AcDbBlockBegin
  2
*D4
 70
     1
 10
0.0
 20
0.0
 30
0.0
  3
*D4
  1

  0
LINE
  5
2AB
100
AcDbEntity
  8
0
  6
BYBLOCK
 62
     0
100
AcDbLine
 10
136.154742
 20
154.200508
 30
0.0
 11
170.872396
 21
154.200508
 31
0.0
  0
LINE
  5
2AC
100
AcDbEntity
  8
0
  6
BYBLOCK
 62
     0
100
AcDbLine
 10
117.63151
 20
132.748
 30
0.0
 11
170.872396
 21
132.748
 31
0.0
  0
LINE
  5
2AD
100
AcDbEntity
  8
0
  6
BYBLOCK
 62
     0
100
AcDbLine
 10
169.872396
 20
152.200508
 30
0.0
 11
169.872396
 21
151.575508
 31
0.0
  0
LINE
  5
2AE
100
AcDbEntity
  8
0
  6
BYBLOCK
 62
     0
100
AcDbLine
 10
169.872396
 20
134.748
 30
0.0
 11
169.872396
 21
135.658842
 31
0.0
  0
SOLID
  5
2AF
100
AcDbEntity
  8
0
  6
BYBLOCK
 62
     0
100
AcDbTrace
 10
169.539062
 20
152.200508
 30
0.0
 11
170.205729
 21
152.200508
 31
0.0
 12
169.872396
 22
154.200508
 32
0.0
 13
169.872396
 23
154.200508
 33
0.0
  0
SOLID
  5
2B0
100
AcDbEntity
  8
0
  6
BYBLOCK
 62
     0
100
AcDbTrace
 10
169.539062
 20
134.748
 30
0.0
 11
170.205729
 21
134.748
 31
0.0
 12
169.872396
 22
132.748
 32
0.0
 13
169.872396
 23
132.748
 33
0.0
  0
MTEXT
  5
2B1
100
AcDbEntity
  8
0
  6
BYBLOCK
 62
     0
100
AcDbMText
 10
169.872396
 20
143.617175
 30
0.0
 40
4.0
 41
0.0
 71
     5
 72
     1
  1
\A1;21.45
 11
0.0
 21
1.0
 31
0.0
  0
POINT
  5
2B2
100
AcDbEntity
  8
DEFPOINTS
  6
BYBLOCK
 62
     0
100
AcDbPoint
 10
135.154742
 20
154.200508
 30
0.0
  0
POINT
  5
2B3
100
AcDbEntity
  8
DEFPOINTS
  6
BYBLOCK
 62
     0
100
AcDbPoint
 10
116.63151
 20
132.748
 30
0.0
  0
POINT
  5
2B4
100
AcDbEntity
  8
DEFPOINTS
  6
BYBLOCK
 62
     0
100
AcDbPoint
 10
169.872396
 20
132.748
 30
0.0
  0
ENDBLK
  5
2B6
100
AcDbEntity
  8
0
100
AcDbBlockEnd
  0
BLOCK
  5
2C2
100
AcDbEntity
  8
0
100
AcDbBlockBegin
  2
*D5
 70
     1
 10
0.0
 20
0.0
 30
0.0
  3
*D5
  1

  0
LINE
  5
2B8
100
AcDbEntity
  8
0
  6
BYBLOCK
 62
     0
100
AcDbLine
 10
184.097878
 20
158.302535
 30
0.0
 11
206.123472
 21
158.302535
 31
0.0
  0
LINE
  5
2B9
100
AcDbEntity
  8
0
  6
BYBLOCK
 62
     0
100
AcDbLine
 10
117.63151
 20
132.748
 30
0.0
 11
206.123472
 21
132.748
 31
0.0
  0
LINE
  5
2BA
100
AcDbEntity
  8
0
  6
BYBLOCK
 62
     0
100
AcDbLine
 10
205.123472
 20
156.302535
 30
0.0
 11
205.123472
 21
155.089161
 31
0.0
  0
LINE
  5
2BB
100
AcDbEntity
  8
0
  6
BYBLOCK
 62
     0
100
AcDbLine
 10
205.123472
 20
134.748
 30
0.0
 11
205.123472
 21
137.839161
 31
0.0
  0
SOLID
  5
2BC
100
AcDbEntity
  8
0
  6
BYBLOCK
 62
     0
100
AcDbTrace
 10
204.790138
 20
156.302535
 30
0.0
 11
205.456805
 21
156.302535
 31
0.0
 12
205.123472
 22
158.302535
 32
0.0
 13
205.123472
 23
158.302535
 33
0.0
  0
SOLID
  5
2BD
100
AcDbEntity
  8
0
  6
BYBLOCK
 62
     0
100
AcDbTrace
 10
204.790138
 20
134.748
 30
0.0
 11
205.456805
 21
134.748
 31
0.0
 12
205.123472
 22
132.748
 32
0.0
 13
205.123472
 23
132.748
 33
0.0
  0
MTEXT
  5
2BE
100
AcDbEntity
  8
0
  6
BYBLOCK
 62
     0
100
AcDbMText
 10
205.123472
 20
146.464161
 30
0.0
 40
4.0
 41
0.0
 71
     5
 72
     1
  1
\A1;25.56
 11
0.0
 21
1.0
 31
0.0
  0
POINT
  5
2BF
100
AcDbEntity
  8
DEFPOINTS
  6
BYBLOCK
 62
     0
100
AcDbPoint
 10
183.097878
 20
158.302535
 30
0.0
  0
POINT
  5
2C0
100
AcDbEntity
  8
DEFPOINTS
  6
BYBLOCK
 62
     0
100
AcDbPoint
 10
116.63151
 20
132.748
 30
0.0
  0
POINT
  5
2C1
100
AcDbEntity
  8
DEFPOINTS
  6
BYBLOCK
 62
     0
100
AcDbPoint
 10
205.123472
 20
132.748
 30
0.0
  0
ENDBLK
  5
2C3
100
AcDbEntity
  8
0
100
AcDbBlockEnd
  0
BLOCK
  5
2CF
100
AcDbEntity
  8
0
100
AcDbBlockBegin
  2
*D6
 70
     1
 10
0.0
 20
0.0
 30
0.0
  3
*D6
  1

  0
LINE
  5
2C5
100
AcDbEntity
  8
0
  6
BYBLOCK
 62
     0
100
AcDbLine
 10
125.63151
 20
165.248
 30
0.0
 11
125.63151
 21
180.858657
 31
0.0
  0
LINE
  5
2C6
100
AcDbEntity
  8
0
  6
BYBLOCK
 62
     0
100
AcDbLine
 10
190.63151
 20
168.748
 30
0.0
 11
190.63151
 21
180.858657
 31
0.0
  0
LINE
  5
2C7
100
AcDbEntity
  8
0
  6
BYBLOCK
 62
     0
100
AcDbLine
 10
127.63151
 20
179.858657
 30
0.0
 11
153.566228
 21
179.858657
 31
0.0
  0
LINE
  5
2C8
100
AcDbEntity
  8
0
  6
BYBLOCK
 62
     0
100
AcDbLine
 10
188.63151
 20
179.858657
 30
0.0
 11
161.482894
 21
179.858657
 31
0.0
  0
SOLID
  5
2C9
100
AcDbEntity
  8
0
  6
BYBLOCK
 62
     0
100
AcDbTrace
 10
127.63151
 20
180.19199
 30
0.0
 11
127.63151
 21
179.525323
 31
0.0
 12
125.63151
 22
179.858657
 32
0.0
 13
125.63151
 23
179.858657
 33
0.0
  0
SOLID
  5
2CA
100
AcDbEntity
  8
0
  6
BYBLOCK
 62
     0
100
AcDbTrace
 10
188.63151
 20
180.19199
 30
0.0
 11
188.63151
 21
179.525323
 31
0.0
 12
190.63151
 22
179.858657
 32
0.0
 13
190.63151
 23
179.858657
 33
0.0
  0
MTEXT
  5
2CB
100
AcDbEntity
  8
0
  6
BYBLOCK
 62
     0
100
AcDbMText
 10
157.524561
 20
179.858657
 30
0.0
 40
4.0
 41
0.0
 71
     5
 72
     1
  1
\A1;65
  0
POINT
  5
2CC
100
AcDbEntity
  8
DEFPOINTS
  6
BYBLOCK
 62
     0
100
AcDbPoint
 10
125.63151
 20
164.248
 30
0.0
  0
POINT
  5
2CD
100
AcDbEntity
  8
DEFPOINTS
  6
BYBLOCK
 62
     0
100
AcDbPoint
 10
190.63151
 20
167.748
 30
0.0
  0
POINT
  5
2CE
100
AcDbEntity
  8
DEFPOINTS
  6
BYBLOCK
 62
     0
100
AcDbPoint
 10
190.63151
 20
179.858657
 30
0.0
  0
ENDBLK
  5
2D0
100
AcDbEntity
  8
0
100
AcDbBlockEnd
  0
BLOCK
  5
2DC
100
AcDbEntity
  8
0
100
AcDbBlockBegin
  2
*D7
 70
     1
 10
0.0
 20
0.0
 30
0.0
  3
*D7
  1

  0
LINE
  5
2D2
100
AcDbEntity
  8
0
  6
BYBLOCK
 62
     0
100
AcDbLine
 10
167.886253
 20
161.571071
 30
0.0
 11
167.886253
 21
175.094131
 31
0.0
  0
LINE
  5
2D3
100
AcDbEntity
  8
0
  6
BYBLOCK
 62
     0
100
AcDbLine
 10
125.63151
 20
165.748
 30
0.0
 11
125.63151
 21
175.094131
 31
0.0
  0
LINE
  5
2D4
100
AcDbEntity
  8
0
  6
BYBLOCK
 62
     0
100
AcDbLine
 10
165.886253
 20
174.094131
 30
0.0
 11
155.195836
 21
174.094131
 31
0.0
  0
LINE
  5
2D5
100
AcDbEntity
  8
0
  6
BYBLOCK
 62
     0
100
AcDbLine
 10
127.63151
 20
174.094131
 30
0.0
 11
137.945836
 21
174.094131
 31
0.0
  0
SOLID
  5
2D6
100
AcDbEntity
  8
0
  6
BYBLOCK
 62
     0
100
AcDbTrace
 10
165.886253
 20
174.427464
 30
0.0
 11
165.886253
 21
173.760797
 31
0.0
 12
167.886253
 22
174.094131
 32
0.0
 13
167.886253
 23
174.094131
 33
0.0
  0
SOLID
  5
2D7
100
AcDbEntity
  8
0
  6
BYBLOCK
 62
     0
100
AcDbTrace
 10
127.63151
 20
174.427464
 30
0.0
 11
127.63151
 21
173.760797
 31
0.0
 12
125.63151
 22
174.094131
 32
0.0
 13
125.63151
 23
174.094131
 33
0.0
  0
MTEXT
  5
2D8
100
AcDbEntity
  8
0
  6
BYBLOCK
 62
     0
100
AcDbMText
 10
146.570836
 20
174.094131
 30
0.0
 40
4.0
 41
0.0
 71
     5
 72
     1
  1
\A1;42.26
  0
POINT
  5
2D9
100
AcDbEntity
  8
DEFPOINTS
  6
BYBLOCK
 62
     0
100
AcDbPoint
 10
167.886253
 20
160.571071
 30
0.0
  0
POINT
  5
2DA
100
AcDbEntity
  8
DEFPOINTS
  6
BYBLOCK
 62
     0
100
AcDbPoint
 10
125.63151
 20
164.748
 30
0.0
  0
POINT
  5
2DB
100
AcDbEntity
  8
DEFPOINTS
  6
BYBLOCK
 62
     0
100
AcDbPoint
 10
125.63151
 20
174.094131
 30
0.0
  0
ENDBLK
  5
2DD
100
AcDbEntity
  8
0
100
AcDbBlockEnd
  0
BLOCK
  5
2E9
100
AcDbEntity
  8
0
100
AcDbBlockBegin
  2
*D8
 70
     1
 10
0.0
 20
0.0
 30
0.0
  3
*D8
  1

  0
LINE
  5
2DF
100
AcDbEntity
  8
0
  6
BYBLOCK
 62
     0
100
AcDbLine
 10
117.58151
 20
148.248
 30
0.0
 11
100.560988
 21
148.248
 31
0.0
  0
LINE
  5
2E0
100
AcDbEntity
  8
0
  6
BYBLOCK
 62
     0
100
AcDbLine
 10
115.63151
 20
132.748
 30
0.0
 11
100.560988
 21
132.748
 31
0.0
  0
LINE
  5
2E1
100
AcDbEntity
  8
0
  6
BYBLOCK
 62
     0
100
AcDbLine
 10
101.560988
 20
146.248
 30
0.0
 11
101.560988
 21
145.623
 31
0.0
  0
LINE
  5
2E2
100
AcDbEntity
  8
0
  6
BYBLOCK
 62
     0
100
AcDbLine
 10
101.560988
 20
134.748
 30
0.0
 11
101.560988
 21
135.373
 31
0.0
  0
SOLID
  5
2E3
100
AcDbEntity
  8
0
  6
BYBLOCK
 62
     0
100
AcDbTrace
 10
101.227654
 20
146.248
 30
0.0
 11
101.894321
 21
146.248
 31
0.0
 12
101.560988
 22
148.248
 32
0.0
 13
101.560988
 23
148.248
 33
0.0
  0
SOLID
  5
2E4
100
AcDbEntity
  8
0
  6
BYBLOCK
 62
     0
100
AcDbTrace
 10
101.227654
 20
134.748
 30
0.0
 11
101.894321
 21
134.748
 31
0.0
 12
101.560988
 22
132.748
 32
0.0
 13
101.560988
 23
132.748
 33
0.0
  0
MTEXT
  5
2E5
100
AcDbEntity
  8
0
  6
BYBLOCK
 62
     0
100
AcDbMText
 10
101.560988
 20
140.699636
 30
0.0
 40
4.0
 41
0.0
 71
     5
 72
     1
  1
\A1;15.5
 11
0.0
 21
1.0
 31
0.0
  0
POINT
  5
2E6
100
AcDbEntity
  8
DEFPOINTS
  6
BYBLOCK
 62
     0
100
AcDbPoint
 10
118.58151
 20
148.248
 30
0.0
  0
POINT
  5
2E7
100
AcDbEntity
  8
DEFPOINTS
  6
BYBLOCK
 62
     0
100
AcDbPoint
 10
116.63151
 20
132.748
 30
0.0
  0
POINT
  5
2E8
100
AcDbEntity
  8
DEFPOINTS
  6
BYBLOCK
 62
     0
100
AcDbPoint
 10
101.560988
 20
132.748
 30
0.0
  0
ENDBLK
  5
2EA
100
AcDbEntity
  8
0
100
AcDbBlockEnd
  0
BLOCK
  5
2F6
100
AcDbEntity
  8
0
100
AcDbBlockBegin
  2
*D9
 70
     1
 10
0.0
 20
0.0
 30
0.0
  3
*D9
  1

  0
LINE
  5
2EC
100
AcDbEntity
  8
0
  6
BYBLOCK
 62
     0
100
AcDbLine
 10
119.13151
 20
145.748
 30
0.0
 11
107.531539
 21
145.748
 31
0.0
  0
LINE
  5
2ED
100
AcDbEntity
  8
0
  6
BYBLOCK
 62
     0
100
AcDbLine
 10
115.63151
 20
132.748
 30
0.0
 11
107.531539
 21
132.748
 31
0.0
  0
LINE
  5
2EE
100
AcDbEntity
  8
0
  6
BYBLOCK
 62
     0
100
AcDbLine
 10
108.531539
 20
143.748
 30
0.0
 11
108.531539
 21
142.798642
 31
0.0
  0
LINE
  5
2EF
100
AcDbEntity
  8
0
  6
BYBLOCK
 62
     0
100
AcDbLine
 10
108.531539
 20
134.748
 30
0.0
 11
108.531539
 21
136.215308
 31
0.0
  0
SOLID
  5
2F0
100
AcDbEntity
  8
0
  6
BYBLOCK
 62
     0
100
AcDbTrace
 10
108.198206
 20
143.748
 30
0.0
 11
108.864872
 21
143.748
 31
0.0
 12
108.531539
 22
145.748
 32
0.0
 13
108.531539
 23
145.748
 33
0.0
  0
SOLID
  5
2F1
100
AcDbEntity
  8
0
  6
BYBLOCK
 62
     0
100
AcDbTrace
 10
108.198206
 20
134.748
 30
0.0
 11
108.864872
 21
134.748
 31
0.0
 12
108.531539
 22
132.748
 32
0.0
 13
108.531539
 23
132.748
 33
0.0
  0
MTEXT
  5
2F2
100
AcDbEntity
  8
0
  6
BYBLOCK
 62
     0
100
AcDbMText
 10
108.531539
 20
139.506975
 30
0.0
 40
4.0
 41
0.0
 71
     5
 72
     1
  1
\A1;13
 11
0.0
 21
1.0
 31
0.0
  0
POINT
  5
2F3
100
AcDbEntity
  8
DEFPOINTS
  6
BYBLOCK
 62
     0
100
AcDbPoint
 10
120.13151
 20
145.748
 30
0.0
  0
POINT
  5
2F4
100
AcDbEntity
  8
DEFPOINTS
  6
BYBLOCK
 62
     0
100
AcDbPoint
 10
116.63151
 20
132.748
 30
0.0
  0
POINT
  5
2F5
100
AcDbEntity
  8
DEFPOINTS
  6
BYBLOCK
 62
     0
100
AcDbPoint
 10
108.531539
 20
132.748
 30
0.0
  0
ENDBLK
  5
2F7
100
AcDbEntity
  8
0
100
AcDbBlockEnd
  0
BLOCK
  5
303
100
AcDbEntity
  8
0
100
AcDbBlockBegin
  2
*D10
 70
     1
 10
0.0
 20
0.0
 30
0.0
  3
*D10
  1

  0
LINE
  5
2F9
100
AcDbEntity
  8
0
  6
BYBLOCK
 62
     0
100
AcDbLine
 10
116.63151
 20
131.748
 30
0.0
 11
116.63151
 21
118.828076
 31
0.0
  0
LINE
  5
2FA
100
AcDbEntity
  8
0
  6
BYBLOCK
 62
     0
100
AcDbLine
 10
134.538058
 20
131.27454
 30
0.0
 11
134.538058
 21
118.828076
 31
0.0
  0
LINE
  5
2FB
100
AcDbEntity
  8
0
  6
BYBLOCK
 62
     0
100
AcDbLine
 10
118.63151
 20
119.828076
 30
0.0
 11
122.168356
 21
119.828076
 31
0.0
  0
LINE
  5
2FC
100
AcDbEntity
  8
0
  6
BYBLOCK
 62
     0
100
AcDbLine
 10
132.538058
 20
119.828076
 30
0.0
 11
128.751689
 21
119.828076
 31
0.0
  0
SOLID
  5
2FD
100
AcDbEntity
  8
0
  6
BYBLOCK
 62
     0
100
AcDbTrace
 10
118.63151
 20
120.161409
 30
0.0
 11
118.63151
 21
119.494742
 31
0.0
 12
116.63151
 22
119.828076
 32
0.0
 13
116.63151
 23
119.828076
 33
0.0
  0
SOLID
  5
2FE
100
AcDbEntity
  8
0
  6
BYBLOCK
 62
     0
100
AcDbTrace
 10
132.538058
 20
120.161409
 30
0.0
 11
132.538058
 21
119.494742
 31
0.0
 12
134.538058
 22
119.828076
 32
0.0
 13
134.538058
 23
119.828076
 33
0.0
  0
MTEXT
  5
2FF
100
AcDbEntity
  8
0
  6
BYBLOCK
 62
     0
100
AcDbMText
 10
125.460023
 20
119.828076
 30
0.0
 40
4.0
 41
0.0
 71
     5
 72
     1
  1
\A1;18
  0
POINT
  5
300
100
AcDbEntity
  8
DEFPOINTS
  6
BYBLOCK
 62
     0
100
AcDbPoint
 10
116.63151
 20
132.748
 30
0.0
  0
POINT
  5
301
100
AcDbEntity
  8
DEFPOINTS
  6
BYBLOCK
 62
     0
100
AcDbPoint
 10
134.538058
 20
132.27454
 30
0.0
  0
POINT
  5
302
100
AcDbEntity
  8
DEFPOINTS
  6
BYBLOCK
 62
     0
100
AcDbPoint
 10
134.538058
 20
119.828076
 30
0.0
  0
ENDBLK
  5
304
100
AcDbEntity
  8
0
100
AcDbBlockEnd
  0
BLOCK
  5
310
100
AcDbEntity
  8
0
100
AcDbBlockBegin
  2
*D11
 70
     1
 10
0.0
 20
0.0
 30
0.0
  3
*D11
  1

  0
LINE
  5
306
100
AcDbEntity
  8
0
  6
BYBLOCK
 62
     0
100
AcDbLine
 10
118.58151
 20
132.12753
 30
0.0
 11
118.58151
 21
124.592602
 31
0.0
  0
LINE
  5
307
100
AcDbEntity
  8
0
  6
BYBLOCK
 62
     0
100
AcDbLine
 10
132.626146
 20
131.248
 30
0.0
 11
132.626146
 21
124.592602
 31
0.0
  0
LINE
  5
308
100
AcDbEntity
  8
0
  6
BYBLOCK
 62
     0
100
AcDbLine
 10
120.58151
 20
125.592602
 30
0.0
 11
121.20651
 21
125.592602
 31
0.0
  0
LINE
  5
309
100
AcDbEntity
  8
0
  6
BYBLOCK
 62
     0
100
AcDbLine
 10
130.626146
 20
125.592602
 30
0.0
 11
130.001146
 21
125.592602
 31
0.0
  0
SOLID
  5
30A
100
AcDbEntity
  8
0
  6
BYBLOCK
 62
     0
100
AcDbTrace
 10
120.58151
 20
125.925935
 30
0.0
 11
120.58151
 21
125.259268
 31
0.0
 12
118.58151
 22
125.592602
 32
0.0
 13
118.58151
 23
125.592602
 33
0.0
  0
SOLID
  5
30B
100
AcDbEntity
  8
0
  6
BYBLOCK
 62
     0
100
AcDbTrace
 10
130.626146
 20
125.925935
 30
0.0
 11
130.626146
 21
125.259268
 31
0.0
 12
132.626146
 22
125.592602
 32
0.0
 13
132.626146
 23
125.592602
 33
0.0
  0
MTEXT
  5
30C
100
AcDbEntity
  8
0
  6
BYBLOCK
 62
     0
100
AcDbMText
 10
125.603828
 20
125.592602
 30
0.0
 40
4.0
 41
0.0
 71
     5
 72
     1
  1
\A1;14.1
  0
POINT
  5
30D
100
AcDbEntity
  8
DEFPOINTS
  6
BYBLOCK
 62
     0
100
AcDbPoint
 10
118.58151
 20
133.12753
 30
0.0
  0
POINT
  5
30E
100
AcDbEntity
  8
DEFPOINTS
  6
BYBLOCK
 62
     0
100
AcDbPoint
 10
132.626146
 20
132.248
 30
0.0
  0
POINT
  5
30F
100
AcDbEntity
  8
DEFPOINTS
  6
BYBLOCK
 62
     0
100
AcDbPoint
 10
132.626146
 20
125.592602
 30
0.0
  0
ENDBLK
  5
311
100
AcDbEntity
  8
0
100
AcDbBlockEnd
  0
BLOCK
  5
319
100
AcDbEntity
  8
0
100
AcDbBlockBegin
  2
*D12
 70
     1
 10
0.0
 20
0.0
 30
0.0
  3
*D12
  1

  0
LINE
  5
313
100
AcDbEntity
  8
0
  6
BYBLOCK
 62
     0
100
AcDbLine
 10
172.725781
 20
123.090029
 30
0.0
 11
174.725781
 21
123.090029
 31
0.0
  0
LINE
  5
314
100
AcDbEntity
  8
0
  6
BYBLOCK
 62
     0
100
AcDbLine
 10
174.725781
 20
123.090029
 30
0.0
 11
183.060189
 21
158.309937
 31
0.0
  0
MTEXT
  5
315
100
AcDbEntity
  8
0
  6
BYBLOCK
 62
     0
100
AcDbMText
 10
166.434115
 20
123.090029
 30
0.0
 40
4.0
 41
0.0
 71
     5
 72
     1
  1
\A1;R0.5
  0
SOLID
  5
316
100
AcDbEntity
  8
0
  6
BYBLOCK
 62
     0
100
AcDbTrace
 10
182.275255
 20
156.440448
 30
0.0
 11
182.924005
 21
156.286929
 31
0.0
 12
183.060189
 22
158.309937
 32
0.0
 13
183.060189
 23
158.309937
 33
0.0
  0
POINT
  5
317
100
AcDbEntity
  8
DEFPOINTS
  6
BYBLOCK
 62
     0
100
AcDbPoint
 10
183.060189
 20
158.309937
 30
0.0
  0
POINT
  5
318
100
AcDbEntity
  8
DEFPOINTS
  6
BYBLOCK
 62
     0
100
AcDbPoint
 10
183.175329
 20
158.7965
 30
0.0
  0
ENDBLK
  5
31A
100
AcDbEntity
  8
0
100
AcDbBlockEnd
  0
BLOCK
  5
322
100
AcDbEntity
  8
0
100
AcDbBlockBegin
  2
*D13
 70
     1
 10
0.0
 20
0.0
 30
0.0
  3
*D13
  1

  0
LINE
  5
31C
100
AcDbEntity
  8
0
  6
BYBLOCK
 62
     0
100
AcDbLine
 10
172.652937
 20
128.239116
 30
0.0
 11
174.652937
 21
128.239116
 31
0.0
  0
LINE
  5
31D
100
AcDbEntity
  8
0
  6
BYBLOCK
 62
     0
100
AcDbLine
 10
174.652937
 20
128.239116
 30
0.0
 11
182.127677
 21
160.013674
 31
0.0
  0
MTEXT
  5
31E
100
AcDbEntity
  8
0
  6
BYBLOCK
 62
     0
100
AcDbMText
 10
166.36127
 20
128.239116
 30
0.0
 40
4.0
 41
0.0
 71
     5
 72
     1
  1
\A1;R0.5
  0
SOLID
  5
31F
100
AcDbEntity
  8
0
  6
BYBLOCK
 62
     0
100
AcDbTrace
 10
181.345217
 20
158.143148
 30
0.0
 11
181.994169
 21
157.990487
 31
0.0
 12
182.127677
 22
160.013674
 32
0.0
 13
182.127677
 23
160.013674
 33
0.0
  0
POINT
  5
320
100
AcDbEntity
  8
DEFPOINTS
  6
BYBLOCK
 62
     0
100
AcDbPoint
 10
182.127677
 20
160.013674
 30
0.0
  0
POINT
  5
321
100
AcDbEntity
  8
DEFPOINTS
  6
BYBLOCK
 62
     0
100
AcDbPoint
 10
182.013181
 20
159.52696
 30
0.0
  0
ENDBLK
  5
323
100
AcDbEntity
  8
0
100
AcDbBlockEnd
  0
BLOCK
  5
32B
100
AcDbEntity
  8
0
100
AcDbBlockBegin
  2
*D14
 70
     1
 10
0.0
 20
0.0
 30
0.0
  3
*D14
  1

  0
LINE
  5
325
100
AcDbEntity
  8
0
  6
BYBLOCK
 62
     0
100
AcDbLine
 10
204.380908
 20
181.261492
 30
0.0
 11
202.380908
 21
181.261492
 31
0.0
  0
LINE
  5
326
100
AcDbEntity
  8
0
  6
BYBLOCK
 62
     0
100
AcDbLine
 10
202.380908
 20
181.261492
 30
0.0
 11
190.078143
 21
168.764989
 31
0.0
  0
MTEXT
  5
327
100
AcDbEntity
  8
0
  6
BYBLOCK
 62
     0
100
AcDbMText
 10
208.339241
 20
181.261492
 30
0.0
 40
4.0
 41
0.0
 71
     5
 72
     1
  1
\A1;R2
  0
SOLID
  5
328
100
AcDbEntity
  8
0
  6
BYBLOCK
 62
     0
100
AcDbTrace
 10
191.243729
 20
170.424061
 30
0.0
 11
191.718802
 21
169.956353
 31
0.0
 12
190.078143
 22
168.764989
 32
0.0
 13
190.078143
 23
168.764989
 33
0.0
  0
POINT
  5
329
100
AcDbEntity
  8
DEFPOINTS
  6
BYBLOCK
 62
     0
100
AcDbPoint
 10
190.078143
 20
168.764989
 30
0.0
  0
POINT
  5
32A
100
AcDbEntity
  8
DEFPOINTS
  6
BYBLOCK
 62
     0
100
AcDbPoint
 10
188.680748
 20
167.345589
 30
0.0
  0
ENDBLK
  5
32C
100
AcDbEntity
  8
0
100
AcDbBlockEnd
  0
BLOCK
  5
334
100
AcDbEntity
  8
0
100
AcDbBlockBegin
  2
*D15
 70
     1
 10
0.0
 20
0.0
 30
0.0
  3
*D15
  1

  0
LINE
  5
32E
100
AcDbEntity
  8
0
  6
BYBLOCK
 62
     0
100
AcDbLine
 10
178.252024
 20
174.802159
 30
0.0
 11
180.252024
 21
174.802159
 31
0.0
  0
LINE
  5
32F
100
AcDbEntity
  8
0
  6
BYBLOCK
 62
     0
100
AcDbLine
 10
180.252024
 20
174.802159
 30
0.0
 11
189.949437
 21
160.747992
 31
0.0
  0
MTEXT
  5
330
100
AcDbEntity
  8
0
  6
BYBLOCK
 62
     0
100
AcDbMText
 10
174.960358
 20
174.802159
 30
0.0
 40
4.0
 41
0.0
 71
     5
 72
     1
  1
\A1;R1
  0
SOLID
  5
331
100
AcDbEntity
  8
0
  6
BYBLOCK
 62
     0
100
AcDbTrace
 10
189.087943
 20
162.583459
 30
0.0
 11
188.539224
 21
162.204841
 31
0.0
 12
189.949437
 22
160.747992
 32
0.0
 13
189.949437
 23
160.747992
 33
0.0
  0
POINT
  5
332
100
AcDbEntity
  8
DEFPOINTS
  6
BYBLOCK
 62
     0
100
AcDbPoint
 10
189.949437
 20
160.747992
 30
0.0
  0
POINT
  5
333
100
AcDbEntity
  8
DEFPOINTS
  6
BYBLOCK
 62
     0
100
AcDbPoint
 10
189.38151
 20
161.571071
 30
0.0
  0
ENDBLK
  5
335
100
AcDbEntity
  8
0
100
AcDbBlockEnd
  0
BLOCK
  5
341
100
AcDbEntity
  8
0
100
AcDbBlockBegin
  2
*D16
 70
     1
 10
0.0
 20
0.0
 30
0.0
  3
*D16
  1

  0
LINE
  5
337
100
AcDbEntity
  8
0
  6
BYBLOCK
 62
     0
100
AcDbLine
 10
144.0738
 20
159.589732
 30
0.0
 11
166.0
 21
159.589732
 31
0.0
  0
LINE
  5
338
100
AcDbEntity
  8
0
  6
BYBLOCK
 62
     0
100
AcDbLine
 10
71.13151
 20
132.748
 30
0.0
 11
166.0
 21
132.748
 31
0.0
  0
LINE
  5
339
100
AcDbEntity
  8
0
  6
BYBLOCK
 62
     0
100
AcDbLine
 10
165.0
 20
157.589732
 30
0.0
 11
165.0
 21
151.125
 31
0.0
  0
LINE
  5
33A
100
AcDbEntity
  8
0
  6
BYBLOCK
 62
     0
100
AcDbLine
 10
165.0
 20
134.748
 30
0.0
 11
165.0
 21
135.373
 31
0.0
  0
SOLID
  5
33B
100
AcDbEntity
  8
0
  6
BYBLOCK
 62
     0
100
AcDbTrace
 10
164.666667
 20
157.589732
 30
0.0
 11
165.333333
 21
157.589732
 31
0.0
 12
165.0
 22
159.589732
 32
0.0
 13
165.0
 23
159.589732
 33
0.0
  0
SOLID
  5
33C
100
AcDbEntity
  8
0
  6
BYBLOCK
 62
     0
100
AcDbTrace
 10
164.666667
 20
134.748
 30
0.0
 11
165.333333
 21
134.748
 31
0.0
 12
165.0
 22
132.748
 32
0.0
 13
165.0
 23
132.748
 33
0.0
  0
MTEXT
  5
33D
100
AcDbEntity
  8
0
  6
BYBLOCK
 62
     0
100
AcDbMText
 10
165.0
 20
142.5
 30
0.0
 40
4.0
 41
0.0
 71
     5
 72
     1
  1
\A1;26.84
 11
0.0
 21
1.0
 31
0.0
  0
POINT
  5
33E
100
AcDbEntity
  8
DEFPOINTS
  6
BYBLOCK
 62
     0
100
AcDbPoint
 10
143.0738
 20
159.589732
 30
4.370056
  0
POINT
  5
33F
100
AcDbEntity
  8
DEFPOINTS
  6
BYBLOCK
 62
     0
100
AcDbPoint
 10
70.13151
 20
132.748
 30
4.370056
  0
POINT
  5
340
100
AcDbEntity
  8
DEFPOINTS
  6
BYBLOCK
 62
     0
100
AcDbPoint
 10
165.0
 20
132.748
 30
0.0
  0
ENDBLK
  5
342
100
AcDbEntity
  8
0
100
AcDbBlockEnd
  0
BLOCK
  5
34A
100
AcDbEntity
  8
0
100
AcDbBlockBegin
  2
*D17
 70
     1
 10
0.0
 20
0.0
 30
0.0
  3
*D17
  1

  0
LINE
  5
344
100
AcDbEntity
  8
0
  6
BYBLOCK
 62
     0
100
AcDbLine
 10
147.758459
 20
152.5
 30
0.0
 11
145.758459
 21
152.5
 31
0.0
  0
LINE
  5
345
100
AcDbEntity
  8
0
  6
BYBLOCK
 62
     0
100
AcDbLine
 10
145.758459
 20
152.5
 30
0.0
 11
143.21727
 21
159.629123
 31
0.0
  0
MTEXT
  5
346
100
AcDbEntity
  8
0
  6
BYBLOCK
 62
     0
100
AcDbMText
 10
151.050126
 20
152.5
 30
0.0
 40
4.0
 41
0.0
 71
     5
 72
     1
  1
\A1;R1
  0
SOLID
  5
347
100
AcDbEntity
  8
0
  6
BYBLOCK
 62
     0
100
AcDbTrace
 10
144.20277
 20
157.857147
 30
0.0
 11
143.574805
 21
157.633307
 31
0.0
 12
143.21727
 22
159.629123
 32
0.0
 13
143.21727
 23
159.629123
 33
0.0
  0
POINT
  5
348
100
AcDbEntity
  8
DEFPOINTS
  6
BYBLOCK
 62
     0
100
AcDbPoint
 10
143.21727
 20
159.629123
 30
4.370056
  0
POINT
  5
349
100
AcDbEntity
  8
DEFPOINTS
  6
BYBLOCK
 62
     0
100
AcDbPoint
 10
142.88151
 20
160.571071
 30
4.370056
  0
ENDBLK
  5
34B
100
AcDbEntity
  8
0
100
AcDbBlockEnd
  0
BLOCK
  5
358
100
AcDbEntity
  8
0
100
AcDbBlockBegin
  2
*D18
 70
     1
 10
0.0
 20
0.0
 30
0.0
  3
*D18
  1

  0
LINE
  5
34D
100
AcDbEntity
  8
0
  6
BYBLOCK
 62
     0
100
AcDbLine
 10
89.217366
 20
136.268066
 30
0.0
 11
99.125
 21
136.268066
 31
0.0
  0
LINE
  5
34E
100
AcDbEntity
  8
0
  6
BYBLOCK
 62
     0
100
AcDbLine
 10
71.13151
 20
132.748
 30
0.0
 11
99.125
 21
132.748
 31
0.0
  0
LINE
  5
34F
100
AcDbEntity
  8
0
  6
BYBLOCK
 62
     0
100
AcDbLine
 10
98.125
 20
138.268066
 30
0.0
 11
98.125
 21
140.268066
 31
0.0
  0
LINE
  5
350
100
AcDbEntity
  8
0
  6
BYBLOCK
 62
     0
100
AcDbLine
 10
98.125
 20
130.748
 30
0.0
 11
98.125
 21
114.0
 31
0.0
  0
LINE
  5
351
100
AcDbEntity
  8
0
  6
BYBLOCK
 62
     0
100
AcDbLine
 10
98.125
 20
114.0
 30
0.0
 11
96.125
 21
114.0
 31
0.0
  0
SOLID
  5
352
100
AcDbEntity
  8
0
  6
BYBLOCK
 62
     0
100
AcDbTrace
 10
97.791667
 20
138.268066
 30
0.0
 11
98.458333
 21
138.268066
 31
0.0
 12
98.125
 22
136.268066
 32
0.0
 13
98.125
 23
136.268066
 33
0.0
  0
SOLID
  5
353
100
AcDbEntity
  8
0
  6
BYBLOCK
 62
     0
100
AcDbTrace
 10
97.791667
 20
130.748
 30
0.0
 11
98.458333
 21
130.748
 31
0.0
 12
98.125
 22
132.748
 32
0.0
 13
98.125
 23
132.748
 33
0.0
  0
MTEXT
  5
354
100
AcDbEntity
  8
0
  6
BYBLOCK
 62
     0
100
AcDbMText
 10
89.5
 20
114.0
 30
0.0
 40
4.0
 41
0.0
 71
     5
 72
     1
  1
\A1;3.52
  0
POINT
  5
355
100
AcDbEntity
  8
DEFPOINTS
  6
BYBLOCK
 62
     0
100
AcDbPoint
 10
88.217366
 20
136.268066
 30
4.370056
  0
POINT
  5
356
100
AcDbEntity
  8
DEFPOINTS
  6
BYBLOCK
 62
     0
100
AcDbPoint
 10
70.13151
 20
132.748
 30
4.370056
  0
POINT
  5
357
100
AcDbEntity
  8
DEFPOINTS
  6
BYBLOCK
 62
     0
100
AcDbPoint
 10
98.125
 20
132.748
 30
0.0
  0
ENDBLK
  5
359
100
AcDbEntity
  8
0
100
AcDbBlockEnd
  0
BLOCK
  5
361
100
AcDbEntity
  8
0
100
AcDbBlockBegin
  2
*D19
 70
     1
 10
0.0
 20
0.0
 30
0.0
  3
*D19
  1

  0
LINE
  5
35B
100
AcDbEntity
  8
0
  6
BYBLOCK
 62
     0
100
AcDbLine
 10
109.257979
 20
110.0
 30
0.0
 11
107.257979
 21
110.0
 31
0.0
  0
LINE
  5
35C
100
AcDbEntity
  8
0
  6
BYBLOCK
 62
     0
100
AcDbLine
 10
107.257979
 20
110.0
 30
0.0
 11
95.159464
 21
152.286572
 31
0.0
  0
MTEXT
  5
35D
100
AcDbEntity
  8
0
  6
BYBLOCK
 62
     0
100
AcDbMText
 10
118.882979
 20
110.0
 30
0.0
 40
4.0
 41
0.0
 71
     5
 72
     1
  1
\A1;R17.07
  0
SOLID
  5
35E
100
AcDbEntity
  8
0
  6
BYBLOCK
 62
     0
100
AcDbTrace
 10
96.03008
 20
150.455414
 30
0.0
 11
95.389131
 21
150.272033
 31
0.0
 12
95.159464
 22
152.286572
 32
0.0
 13
95.159464
 23
152.286572
 33
0.0
  0
POINT
  5
35F
100
AcDbEntity
  8
DEFPOINTS
  6
BYBLOCK
 62
     0
100
AcDbPoint
 10
95.159464
 20
152.286572
 30
4.370056
  0
POINT
  5
360
100
AcDbEntity
  8
DEFPOINTS
  6
BYBLOCK
 62
     0
100
AcDbPoint
 10
99.854565
 20
135.876315
 30
4.370056
  0
ENDBLK
  5
362
100
AcDbEntity
  8
0
100
AcDbBlockEnd
  0
BLOCK
  5
36F
100
AcDbEntity
  8
0
100
AcDbBlockBegin
  2
*D20
 70
     1
 10
0.0
 20
0.0
 30
0.0
  3
*D20
  1

  0
LINE
  5
364
100
AcDbEntity
  8
0
  6
BYBLOCK
 62
     0
100
AcDbLine
 10
87.18151
 20
148.11192
 30
0.0
 11
101.958333
 21
148.11192
 31
0.0
  0
LINE
  5
365
100
AcDbEntity
  8
0
  6
BYBLOCK
 62
     0
100
AcDbLine
 10
71.13151
 20
132.748
 30
0.0
 11
101.958333
 21
132.748
 31
0.0
  0
LINE
  5
366
100
AcDbEntity
  8
0
  6
BYBLOCK
 62
     0
100
AcDbLine
 10
100.958333
 20
146.11192
 30
0.0
 11
100.958333
 21
134.748
 31
0.0
  0
LINE
  5
367
100
AcDbEntity
  8
0
  6
BYBLOCK
 62
     0
100
AcDbLine
 10
100.958333
 20
132.748
 30
0.0
 11
100.958333
 21
108.0
 31
0.0
  0
LINE
  5
368
100
AcDbEntity
  8
0
  6
BYBLOCK
 62
     0
100
AcDbLine
 10
100.958333
 20
108.0
 30
0.0
 11
98.958333
 21
108.0
 31
0.0
  0
SOLID
  5
369
100
AcDbEntity
  8
0
  6
BYBLOCK
 62
     0
100
AcDbTrace
 10
100.625
 20
146.11192
 30
0.0
 11
101.291667
 21
146.11192
 31
0.0
 12
100.958333
 22
148.11192
 32
0.0
 13
100.958333
 23
148.11192
 33
0.0
  0
SOLID
  5
36A
100
AcDbEntity
  8
0
  6
BYBLOCK
 62
     0
100
AcDbTrace
 10
100.625
 20
134.748
 30
0.0
 11
101.291667
 21
134.748
 31
0.0
 12
100.958333
 22
132.748
 32
0.0
 13
100.958333
 23
132.748
 33
0.0
  0
MTEXT
  5
36B
100
AcDbEntity
  8
0
  6
BYBLOCK
 62
     0
100
AcDbMText
 10
91.0
 20
108.0
 30
0.0
 40
4.0
 41
0.0
 71
     5
 72
     1
  1
\A1;15.36
  0
POINT
  5
36C
100
AcDbEntity
  8
DEFPOINTS
  6
BYBLOCK
 62
     0
100
AcDbPoint
 10
86.18151
 20
148.11192
 30
4.370056
  0
POINT
  5
36D
100
AcDbEntity
  8
DEFPOINTS
  6
BYBLOCK
 62
     0
100
AcDbPoint
 10
70.13151
 20
132.748
 30
4.370056
  0
POINT
  5
36E
100
AcDbEntity
  8
DEFPOINTS
  6
BYBLOCK
 62
     0
100
AcDbPoint
 10
100.958333
 20
132.748
 30
0.0
  0
ENDBLK
  5
370
100
AcDbEntity
  8
0
100
AcDbBlockEnd
  0
BLOCK
  5
3CB
100
AcDbEntity
  8
0
100
AcDbBlockBegin
  2
A$C2290175C
 70
     0
 10
0.0
 20
0.0
 30
0.0
  3
A$C2290175C
  1

  0
DIMENSION
  5
374
100
AcDbEntity
  8
0
100
AcDbDimension
  2
*D20
 10
47.214163
 20
26.748
 30
8.375621
 11
37.25583
 21
2.0
 31
8.375621
 12
-53.74417
 22
-106.0
 32
8.375621
 70
   128
  3
STANDARD
100
AcDbAlignedDimension
 13
32.43734
 23
42.111919
 33
12.745677
 14
16.38734
 24
26.748
 34
12.745677
 50
90.0
100
AcDbRotatedDimension
1001
ACAD
1000
DSTYLE
1002
{
1070
   140
1040
4.0
1070
    77
1070
     0
1070
    40
1040
1.0
1070
   141
1040
0.0
1070
    41
1040
2.0
1002
}
  0
DIMENSION
  5
375
100
AcDbEntity
  8
0
100
AcDbDimension
  2
*D19
 10
46.110395
 20
29.876314
 30
12.745677
 11
65.138809
 21
4.0
 31
8.375621
 12
-53.74417
 22
-106.0
 32
8.375621
 70
   132
  3
STANDARD
100
AcDbRadialDimension
 15
41.415294
 25
46.286571
 35
12.745677
 40
0.0
1001
ACAD
1000
DSTYLE
1002
{
1070
   140
1040
4.0
1070
    77
1070
     0
1070
    40
1040
1.0
1070
   287
1070
     4
1070
   141
1040
0.0
1070
    41
1040
2.0
1002
}
  0
DIMENSION
  5
376
100
AcDbEntity
  8
0
100
AcDbDimension
  2
*D18
 10
44.38083
 20
26.748
 30
8.375621
 11
35.75583
 21
8.0
 31
8.375621
 12
-53.74417
 22
-106.0
 32
8.375621
 70
   128
  3
STANDARD
100
AcDbAlignedDimension
 13
34.473195
 23
30.268066
 33
12.745677
 14
16.38734
 24
26.748
 34
12.745677
 50
90.0
100
AcDbRotatedDimension
1001
ACAD
1000
DSTYLE
1002
{
1070
   140
1040
4.0
1070
    77
1070
     0
1070
    40
1040
1.0
1070
   141
1040
0.0
1070
    41
1040
2.0
1002
}
  0
DIMENSION
  5
377
100
AcDbEntity
  8
0
100
AcDbDimension
  2
*D16
 10
111.25583
 20
26.748
 30
8.375621
 11
111.25583
 21
36.5
 31
8.375621
 12
-53.74417
 22
-106.0
 32
8.375621
 70
   128
  3
STANDARD
100
AcDbAlignedDimension
 13
89.329629
 23
53.589732
 33
12.745677
 14
16.38734
 24
26.748
 34
12.745677
 50
90.0
100
AcDbRotatedDimension
1001
ACAD
1000
DSTYLE
1002
{
1070
   140
1040
4.0
1070
    77
1070
     0
1070
    40
1040
1.0
1070
   141
1040
0.0
1070
    41
1040
2.0
1002
}
  0
DIMENSION
  5
378
100
AcDbEntity
  8
0
100
AcDbDimension
  2
*D13
 10
81.769011
 20
53.52696
 30
12.745677
 11
66.1171
 21
22.239116
 31
12.745677
 12
-100.24417
 22
-106.0
 32
12.745677
 70
   132
  3
STANDARD
100
AcDbRadialDimension
 15
81.883507
 25
54.013674
 35
12.745677
 40
0.0
1001
ACAD
1000
DSTYLE
1002
{
1070
   140
1040
4.0
1070
    77
1070
     0
1070
    40
1040
1.0
1070
   287
1070
     4
1070
   141
1040
0.0
1070
    41
1040
2.0
1002
}
  0
DIMENSION
  5
379
100
AcDbEntity
  8
0
100
AcDbDimension
  2
*D12
 10
82.931158
 20
52.796499
 30
12.745677
 11
66.189944
 21
17.090029
 31
12.745677
 12
-100.24417
 22
-106.0
 32
12.745677
 70
   132
  3
STANDARD
100
AcDbRadialDimension
 15
82.816019
 25
52.309937
 35
12.745677
 40
0.0
1001
ACAD
1000
DSTYLE
1002
{
1070
   140
1040
4.0
1070
    77
1070
     0
1070
    40
1040
1.0
1070
   141
1040
0.0
1070
    41
1040
2.0
1002
}
  0
LINE
  5
37A
100
AcDbEntity
  8
3
100
AcDbLine
 10
34.473195
 20
30.268066
 30
12.745677
 11
16.38734
 21
26.748
 31
12.745677
  0
LINE
  5
37B
100
AcDbEntity
  8
1
100
AcDbLine
 10
25.38734
 20
24.998
 30
12.745677
 11
25.38734
 21
58.248
 31
12.745677
  0
LINE
  5
37C
100
AcDbEntity
  8
3
100
AcDbLine
 10
16.38734
 20
26.748
 30
12.745677
 11
15.88734
 21
47.248
 31
12.745677
  0
DIMENSION
  5
37D
100
AcDbEntity
  8
0
100
AcDbDimension
  2
*D9
 10
8.287369
 20
26.748
 30
12.745677
 11
8.287369
 21
33.506975
 31
12.745677
 12
-100.24417
 22
-106.0
 32
12.745677
 70
   128
  3
STANDARD
100
AcDbAlignedDimension
 13
19.88734
 23
39.748
 33
12.745677
 14
16.38734
 24
26.748
 34
12.745677
 50
90.0
100
AcDbRotatedDimension
1001
ACAD
1000
DSTYLE
1002
{
1070
   140
1040
4.0
1070
    77
1070
     0
1070
    40
1040
1.0
1070
   141
1040
0.0
1070
    41
1040
2.0
1002
}
  0
DIMENSION
  5
37E
100
AcDbEntity
  8
0
100
AcDbDimension
  2
*D8
 10
1.316817
 20
26.748
 30
12.745677
 11
1.316817
 21
34.699635
 31
12.745677
 12
-100.24417
 22
-106.0
 32
12.745677
 70
   128
  3
STANDARD
100
AcDbAlignedDimension
 13
18.33734
 23
42.248
 33
12.745677
 14
16.38734
 24
26.748
 34
12.745677
 50
90.0
100
AcDbRotatedDimension
1001
ACAD
1000
DSTYLE
1002
{
1070
   140
1040
4.0
1070
    77
1070
     0
1070
    40
1040
1.0
1070
   141
1040
0.0
1070
    41
1040
2.0
1002
}
  0
LINE
  5
37F
100
AcDbEntity
  8
2
100
AcDbLine
 10
18.33734
 20
27.12753
 30
12.745677
 11
18.33734
 21
42.248
 31
12.745677
  0
DIMENSION
  5
380
100
AcDbEntity
  8
0
100
AcDbDimension
  2
*D5
 10
104.879301
 20
26.748
 30
12.745677
 11
104.879301
 21
40.464161
 31
12.745677
 12
-100.24417
 22
-106.0
 32
12.745677
 70
   128
  3
STANDARD
100
AcDbAlignedDimension
 13
82.853708
 23
52.302534
 33
12.745677
 14
16.38734
 24
26.748
 34
12.745677
 50
90.0
100
AcDbRotatedDimension
1001
ACAD
1000
DSTYLE
1002
{
1070
   140
1040
4.0
1070
    77
1070
     0
1070
    40
1040
1.0
1070
   141
1040
0.0
1070
    41
1040
2.0
1002
}
  0
DIMENSION
  5
381
100
AcDbEntity
  8
0
100
AcDbDimension
  2
*D4
 10
69.628225
 20
26.748
 30
12.745677
 11
69.628225
 21
37.617175
 31
12.745677
 12
-100.24417
 22
-106.0
 32
12.745677
 70
   128
  3
STANDARD
100
AcDbAlignedDimension
 13
34.910572
 23
48.200508
 33
12.745677
 14
16.38734
 24
26.748
 34
12.745677
 50
90.0
100
AcDbRotatedDimension
1001
ACAD
1000
DSTYLE
1002
{
1070
   140
1040
4.0
1070
    77
1070
     0
1070
    40
1040
1.0
1070
   141
1040
0.0
1070
    41
1040
2.0
1002
}
  0
DIMENSION
  5
382
100
AcDbEntity
  8
0
100
AcDbDimension
  2
*D11
 10
32.381976
 20
19.592602
 30
12.745677
 11
25.359658
 21
19.592602
 31
12.745677
 12
-100.24417
 22
-106.0
 32
12.745677
 70
   128
  1
14.1
  3
STANDARD
100
AcDbAlignedDimension
 13
18.33734
 23
27.12753
 33
12.745677
 14
32.381976
 24
26.248
 34
12.745677
100
AcDbRotatedDimension
1001
ACAD
1000
DSTYLE
1002
{
1070
   140
1040
4.0
1070
    77
1070
     0
1070
    40
1040
1.0
1070
   141
1040
0.0
1070
    41
1040
2.0
1002
}
  0
DIMENSION
  5
383
100
AcDbEntity
  8
0
100
AcDbDimension
  2
*D10
 10
34.293887
 20
13.828075
 30
12.745677
 11
25.215852
 21
13.828075
 31
12.745677
 12
-100.24417
 22
-106.0
 32
12.745677
 70
   128
  1
18
  3
STANDARD
100
AcDbAlignedDimension
 13
16.38734
 23
26.748
 33
12.745677
 14
34.293887
 24
26.27454
 34
12.745677
100
AcDbRotatedDimension
1001
ACAD
1000
DSTYLE
1002
{
1070
   140
1040
4.0
1070
    77
1070
     0
1070
    40
1040
1.0
1070
   141
1040
0.0
1070
    41
1040
2.0
1002
}
  0
DIMENSION
  5
384
100
AcDbEntity
  8
0
100
AcDbDimension
  2
*D17
 10
89.13734
 20
54.57107
 30
12.745677
 11
97.305955
 21
46.5
 31
8.375621
 12
-53.74417
 22
-106.0
 32
8.375621
 70
   132
  3
STANDARD
100
AcDbRadialDimension
 15
89.473099
 25
53.629123
 35
12.745677
 40
0.0
1001
ACAD
1000
DSTYLE
1002
{
1070
   140
1040
4.0
1070
    77
1070
     0
1070
    40
1040
1.0
1070
   141
1040
0.0
1070
    41
1040
2.0
1002
}
  0
LINE
  5
385
100
AcDbEntity
  8
2
100
AcDbLine
 10
22.38734
 20
43.748
 30
12.745677
 11
19.88734
 21
43.748
 31
12.745677
  0
LINE
  5
386
100
AcDbEntity
  8
2
100
AcDbLine
 10
18.38734
 20
39.748
 30
12.745677
 11
25.38734
 21
39.748
 31
12.745677
  0
LINE
  5
387
100
AcDbEntity
  8
2
100
AcDbLine
 10
18.38734
 20
42.248
 30
12.745677
 11
25.38734
 21
42.248
 31
12.745677
  0
ARC
  5
388
100
AcDbEntity
  8
3
100
AcDbCircle
 10
25.38734
 20
114.498
 30
12.745677
 40
9.5
100
AcDbArc
 50
47.224669
 51
312.775331
  0
CIRCLE
  5
389
100
AcDbEntity
  8
3
100
AcDbCircle
 10
25.38734
 20
114.498
 30
12.745677
 40
5.5
  0
LINE
  5
38A
100
AcDbEntity
  8
1
100
AcDbLine
 10
13.38734
 20
114.498
 30
12.745677
 11
92.38734
 21
114.498
 31
12.745677
  0
LINE
  5
38B
100
AcDbEntity
  8
3
100
AcDbLine
 10
17.410573
 20
49.544468
 30
12.745677
 11
88.213369
 21
63.324878
 31
12.745677
  0
LINE
  5
38C
100
AcDbEntity
  8
3
100
AcDbLine
 10
90.38734
 20
61.748
 30
12.745677
 11
15.88734
 21
47.248
 31
12.745677
  0
DIMENSION
  5
38D
100
AcDbEntity
  8
0
100
AcDbDimension
  2
*D3
 10
90.38734
 20
93.196012
 30
12.745677
 11
52.299343
 21
93.196012
 31
12.745677
 12
-100.24417
 22
-106.0
 32
12.745677
 70
   128
  3
STANDARD
100
AcDbAlignedDimension
 13
15.88734
 23
114.498
 33
12.745677
 14
90.38734
 24
110.931731
 34
12.745677
100
AcDbRotatedDimension
1001
ACAD
1000
DSTYLE
1002
{
1070
   140
1040
4.0
1070
    77
1070
     0
1070
    40
1040
1.0
1070
   141
1040
0.0
1070
    41
1040
2.0
1002
}
  0
LINE
  5
38E
100
AcDbEntity
  8
2
100
AcDbLine
 10
19.88734
 20
43.748
 30
12.745677
 11
19.88734
 21
50.026523
 31
12.745677
  0
LINE
  5
38F
100
AcDbEntity
  8
2
100
AcDbLine
 10
18.33734
 20
42.248
 30
12.745677
 11
18.88734
 21
42.248
 31
12.745677
  0
LINE
  5
390
100
AcDbEntity
  8
2
100
AcDbLine
 10
19.88734
 20
42.248
 30
12.745677
 11
19.88734
 21
39.748
 31
12.745677
  0
ARC
  5
391
100
AcDbEntity
  8
3
100
AcDbCircle
 10
18.098799
 20
47.434562
 30
12.745677
 40
2.219314
100
AcDbArc
 50
108.065703
 51
184.822156
  0
LINE
  5
392
100
AcDbEntity
  8
3
100
AcDbLine
 10
15.88734
 20
47.248
 30
12.745677
 11
15.88734
 21
47.621125
 31
12.745677
  0
CIRCLE
  5
393
100
AcDbEntity
  8
3
100
AcDbCircle
 10
25.38734
 20
114.498
 30
12.745677
 40
3.5
  0
LINE
  5
394
100
AcDbEntity
  8
3
100
AcDbLine
 10
61.282515
 20
104.744177
 30
12.745677
 11
61.282515
 21
123.742648
 31
12.745677
  0
LINE
  5
395
100
AcDbEntity
  8
3
100
AcDbLine
 10
86.282515
 20
105.814513
 30
12.745677
 11
86.282515
 21
123.475064
 31
12.745677
  0
LINE
  5
396
100
AcDbEntity
  8
3
100
AcDbLine
 10
90.38734
 20
117.03227
 30
12.745677
 11
90.38734
 21
111.96373
 31
12.745677
  0
LINE
  5
397
100
AcDbEntity
  8
1
100
AcDbLine
 10
25.38734
 20
102.998
 30
12.745677
 11
25.38734
 21
126.248
 31
12.745677
  0
LINE
  5
398
100
AcDbEntity
  8
3
100
AcDbLine
 10
36.282515
 20
104.209009
 30
12.745677
 11
36.282515
 21
125.348153
 31
12.745677
  0
ARC
  5
399
100
AcDbEntity
  8
3
100
AcDbCircle
 10
81.769011
 20
53.52696
 30
12.745677
 40
0.5
100
AcDbArc
 50
11.086413
 51
103.594366
  0
DIMENSION
  5
39A
100
AcDbEntity
  8
0
100
AcDbDimension
  2
*D15
 10
89.13734
 20
55.57107
 30
12.745677
 11
74.716187
 21
68.802158
 31
12.745677
 12
-100.24417
 22
-106.0
 32
12.745677
 70
   132
  3
STANDARD
100
AcDbRadialDimension
 15
89.705267
 25
54.747991
 35
12.745677
 40
0.0
1001
ACAD
1000
DSTYLE
1002
{
1070
   140
1040
4.0
1070
    77
1070
     0
1070
    40
1040
1.0
1070
   287
1070
     4
1070
   141
1040
0.0
1070
    41
1040
2.0
1002
}
  0
LINE
  5
39B
100
AcDbEntity
  8
2
100
AcDbLine
 10
89.13734
 20
54.57107
 30
12.745677
 11
67.642082
 21
54.57107
 31
12.745677
  0
DIMENSION
  5
39C
100
AcDbEntity
  8
0
100
AcDbDimension
  2
*D6
 10
90.38734
 20
73.858656
 30
12.745677
 11
57.280391
 21
73.858656
 31
12.745677
 12
-100.24417
 22
-106.0
 32
12.745677
 70
   128
  3
STANDARD
100
AcDbAlignedDimension
 13
25.38734
 23
58.248
 33
12.745677
 14
90.38734
 24
61.748
 34
12.745677
100
AcDbRotatedDimension
1001
ACAD
1000
DSTYLE
1002
{
1070
   140
1040
4.0
1070
    77
1070
     0
1070
    40
1040
1.0
1070
   141
1040
0.0
1070
    41
1040
2.0
1002
}
  0
LINE
  5
39D
100
AcDbEntity
  8
3
100
AcDbLine
 10
88.454706
 20
109.432866
 30
12.745677
 11
31.839031
 21
107.524788
 31
12.745677
  0
LINE
  5
39E
100
AcDbEntity
  8
3
100
AcDbLine
 10
81.651488
 20
54.012952
 30
12.745677
 11
50.282515
 21
46.427264
 31
12.745677
  0
LINE
  5
39F
100
AcDbEntity
  8
2
100
AcDbLine
 10
34.910572
 20
48.200508
 30
12.745677
 11
67.642082
 21
54.57107
 31
12.745677
  0
DIMENSION
  5
3A0
100
AcDbEntity
  8
0
100
AcDbDimension
  2
*D7
 10
25.38734
 20
68.09413
 30
12.745677
 11
46.326666
 21
68.09413
 31
12.745677
 12
-100.24417
 22
-106.0
 32
12.745677
 70
   128
  3
STANDARD
100
AcDbAlignedDimension
 13
67.642082
 23
54.57107
 33
12.745677
 14
25.38734
 24
58.748
 34
12.745677
100
AcDbRotatedDimension
1001
ACAD
1000
DSTYLE
1002
{
1070
   140
1040
4.0
1070
    77
1070
     0
1070
    40
1040
1.0
1070
   141
1040
0.0
1070
    41
1040
2.0
1002
}
  0
LINE
  5
3A1
100
AcDbEntity
  8
2
100
AcDbLine
 10
30.88734
 20
43.748
 30
12.745677
 11
30.88734
 21
52.167463
 31
12.745677
  0
LINE
  5
3A2
100
AcDbEntity
  8
3
100
AcDbLine
 10
31.044194
 20
50.119951
 30
12.745677
 11
31.044194
 21
43.045672
 31
12.745677
  0
DIMENSION
  5
3A3
100
AcDbEntity
  8
0
100
AcDbDimension
  2
*D2
 10
34.910572
 20
61.534497
 30
12.745677
 11
43.737603
 21
61.534497
 31
12.745677
 12
-100.24417
 22
-106.0
 32
12.745677
 70
   128
  3
STANDARD
100
AcDbAlignedDimension
 13
25.38734
 23
58.748
 33
12.745677
 14
34.910572
 24
48.700508
 34
12.745677
100
AcDbRotatedDimension
1001
ACAD
1000
DSTYLE
1002
{
1070
   140
1040
4.0
1070
    77
1070
     0
1070
    40
1040
1.0
1070
   141
1040
0.0
1070
    41
1040
2.0
1002
}
  0
DIMENSION
  5
3A4
100
AcDbEntity
  8
0
100
AcDbDimension
  2
*D1
 10
25.38734
 20
57.287755
 30
12.745677
 11
40.543519
 21
57.287755
 31
12.745677
 12
-100.24417
 22
-106.0
 32
12.745677
 70
   128
  1
25
  3
STANDARD
100
AcDbAlignedDimension
 13
50.282515
 23
46.427264
 33
12.745677
 14
25.38734
 24
58.248
 34
12.745677
100
AcDbRotatedDimension
1001
ACAD
1000
DSTYLE
1002
{
1070
   140
1040
4.0
1070
    77
1070
     0
1070
    40
1040
1.0
1070
   141
1040
0.0
1070
    41
1040
2.0
1002
}
  0
ARC
  5
3A5
100
AcDbEntity
  8
3
100
AcDbCircle
 10
46.110395
 20
29.876314
 30
12.745677
 40
17.0687
100
AcDbArc
 50
75.851789
 51
131.614142
  0
LINE
  5
3A6
100
AcDbEntity
  8
2
100
AcDbLine
 10
32.43734
 20
29.871825
 30
12.745677
 11
32.43734
 21
42.248
 31
12.745677
  0
LINE
  5
3A7
100
AcDbEntity
  8
3
100
AcDbLine
 10
34.473195
 20
30.268066
 30
12.745677
 11
34.775863
 21
42.677424
 31
12.745677
  0
LINE
  5
3A8
100
AcDbEntity
  8
2
100
AcDbLine
 10
32.38734
 20
39.748
 30
12.745677
 11
25.38734
 21
39.748
 31
12.745677
  0
LINE
  5
3A9
100
AcDbEntity
  8
2
100
AcDbLine
 10
32.38734
 20
42.248
 30
12.745677
 11
25.38734
 21
42.248
 31
12.745677
  0
LINE
  5
3AA
100
AcDbEntity
  8
2
100
AcDbLine
 10
21.38734
 20
42.248
 30
12.745677
 11
21.38734
 21
39.748
 31
12.745677
  0
LINE
  5
3AB
100
AcDbEntity
  8
2
100
AcDbLine
 10
22.88734
 20
42.248
 30
12.745677
 11
22.88734
 21
39.748
 31
12.745677
  0
LINE
  5
3AC
100
AcDbEntity
  8
2
100
AcDbLine
 10
22.38734
 20
42.248
 30
12.745677
 11
22.38734
 21
43.748
 31
12.745677
  0
LINE
  5
3AD
100
AcDbEntity
  8
2
100
AcDbLine
 10
27.88734
 20
42.248
 30
12.745677
 11
27.88734
 21
39.748
 31
12.745677
  0
LINE
  5
3AE
100
AcDbEntity
  8
2
100
AcDbLine
 10
26.38734
 20
42.248
 30
12.745677
 11
26.38734
 21
39.748
 31
12.745677
  0
LINE
  5
3AF
100
AcDbEntity
  8
2
100
AcDbLine
 10
24.38734
 20
42.248
 30
12.745677
 11
24.38734
 21
39.748
 31
12.745677
  0
LINE
  5
3B0
100
AcDbEntity
  8
2
100
AcDbLine
 10
34.775863
 20
42.677424
 30
12.745677
 11
34.910572
 21
48.200508
 31
12.745677
  0
ARC
  5
3B1
100
AcDbEntity
  8
3
100
AcDbCircle
 10
32.044194
 20
43.045672
 30
12.745677
 40
1.0
100
AcDbArc
 50
180.0
 51
283.594366
  0
LINE
  5
3B2
100
AcDbEntity
  8
2
100
AcDbLine
 10
28.38734
 20
43.748
 30
12.745677
 11
30.88734
 21
43.748
 31
12.745677
  0
LINE
  5
3B3
100
AcDbEntity
  8
2
100
AcDbLine
 10
29.38734
 20
42.248
 30
12.745677
 11
29.38734
 21
39.748
 31
12.745677
  0
LINE
  5
3B4
100
AcDbEntity
  8
2
100
AcDbLine
 10
30.88734
 20
42.248
 30
12.745677
 11
30.88734
 21
39.748
 31
12.745677
  0
LINE
  5
3B5
100
AcDbEntity
  8
2
100
AcDbLine
 10
28.38734
 20
42.248
 30
12.745677
 11
28.38734
 21
43.748
 31
12.745677
  0
LINE
  5
3B6
100
AcDbEntity
  8
2
100
AcDbLine
 10
32.43734
 20
42.248
 30
12.745677
 11
32.13734
 21
42.248
 31
12.745677
  0
LINE
  5
3B7
100
AcDbEntity
  8
3
100
AcDbLine
 10
34.836759
 20
42.69215
 30
12.745677
 11
32.279241
 21
42.073687
 31
12.745677
  0
TEXT
  5
3B8
100
AcDbEntity
  8
3
100
AcDbText
 10
35.49612
 20
100.378949
 30
12.745677
 40
3.0
  1
A
 41
0.7
  7
BIGFONT
100
AcDbText
  0
TEXT
  5
3B9
100
AcDbEntity
  8
3
100
AcDbText
 10
60.429248
 20
100.976693
 30
12.745677
 40
3.0
  1
B
 41
0.7
  7
BIGFONT
100
AcDbText
  0
DIMENSION
  5
3BA
100
AcDbEntity
  8
0
100
AcDbDimension
  2
*D14
 10
88.436578
 20
61.345588
 30
12.745677
 11
108.095071
 21
75.261491
 31
12.745677
 12
-100.24417
 22
-106.0
 32
12.745677
 70
   132
  1
R2
  3
STANDARD
100
AcDbRadialDimension
 15
89.833972
 25
62.764989
 35
12.745677
 40
0.0
1001
ACAD
1000
DSTYLE
1002
{
1070
   140
1040
4.0
1070
    77
1070
     0
1070
    40
1040
1.0
1070
   141
1040
0.0
1070
    41
1040
2.0
1002
}
  0
LINE
  5
3BB
100
AcDbEntity
  8
3
100
AcDbLine
 10
90.38734
 20
61.748
 30
12.745677
 11
90.13734
 21
54.57107
 31
12.745677
  0
ARC
  5
3BC
100
AcDbEntity
  8
2
100
AcDbCircle
 10
89.13734
 20
55.57107
 30
12.745677
 40
1.0
100
AcDbArc
 50
270.0
 51
0.0
  0
ARC
  5
3BD
100
AcDbEntity
  8
3
100
AcDbCircle
 10
89.13734
 20
54.57107
 30
12.745677
 40
1.0
100
AcDbArc
 50
281.086413
 51
0.0
  0
LINE
  5
3BE
100
AcDbEntity
  8
3
100
AcDbLine
 10
89.329629
 20
53.589732
 30
12.745677
 11
83.027303
 21
52.30583
 31
12.745677
  0
ARC
  5
3BF
100
AcDbEntity
  8
3
100
AcDbCircle
 10
82.931158
 20
52.796499
 30
12.745677
 40
0.5
100
AcDbArc
 50
191.086413
 51
281.086413
  0
LINE
  5
3C0
100
AcDbEntity
  8
3
100
AcDbLine
 10
82.25968
 20
53.623104
 30
12.745677
 11
82.440489
 21
52.700355
 31
12.745677
  0
ARC
  5
3C1
100
AcDbEntity
  8
3
100
AcDbCircle
 10
88.436578
 20
61.345588
 30
12.745677
 40
1.991835
100
AcDbArc
 50
11.655716
 51
96.434198
  0
TEXT
  5
3C2
100
AcDbEntity
  8
3
100
AcDbText
 10
85.261804
 20
101.833631
 30
12.745677
 40
3.0
  1
C
 41
0.7
  7
BIGFONT
100
AcDbText
  0
ARC
  5
3C3
100
AcDbEntity
  8
3
100
AcDbCircle
 10
88.38734
 20
111.431731
 30
12.745677
 40
2.0
100
AcDbArc
 50
271.930268
 51
0.0
  0
LINE
  5
3C4
100
AcDbEntity
  8
3
100
AcDbLine
 10
90.38734
 20
111.96373
 30
12.745677
 11
90.38734
 21
111.431731
 31
12.745677
  0
LINE
  5
3C5
100
AcDbEntity
  8
3
100
AcDbLine
 10
88.454706
 20
119.563134
 30
12.745677
 11
31.839031
 21
121.471212
 31
12.745677
  0
TEXT
  5
3C6
100
AcDbEntity
  8
3
100
AcDbText
 10
35.412358
 20
126.109244
 30
12.745677
 40
3.0
  1
A
 41
0.7
  7
BIGFONT
100
AcDbText
  0
TEXT
  5
3C7
100
AcDbEntity
  8
3
100
AcDbText
 10
60.337081
 20
124.741908
 30
12.745677
 40
3.0
  1
B
 41
0.7
  7
BIGFONT
100
AcDbText
  0
ARC
  5
3C8
100
AcDbEntity
  8
3
100
AcDbCircle
 10
88.38734
 20
117.564269
 30
12.745677
 40
2.0
100
AcDbArc
 50
0.0
 51
88.069732
  0
LINE
  5
3C9
100
AcDbEntity
  8
3
100
AcDbLine
 10
90.38734
 20
117.03227
 30
12.745677
 11
90.38734
 21
117.564269
 31
12.745677
  0
TEXT
  5
3CA
100
AcDbEntity
  8
3
100
AcDbText
 10
85.270209
 20
124.378082
 30
12.745677
 40
3.0
  1
C
 41
0.7
  7
BIGFONT
100
AcDbText
  0
ENDBLK
  5
3CC
100
AcDbEntity
  8
0
100
AcDbBlockEnd
  0
BLOCK
  5
5F9
100
AcDbEntity
  8
0
100
AcDbBlockBegin
  2
*D22
 70
     1
 10
0.0
 20
0.0
 30
0.0
  3
*D22
  1

  0
LINE
  5
5F0
100
AcDbEntity
  8
0
  6
BYBLOCK
 62
     0
100
AcDbLine
 10
185.136887
 20
133.551589
 30
0.0
 11
197.4
 21
133.551589
 31
0.0
  0
LINE
  5
5F1
100
AcDbEntity
  8
0
  6
BYBLOCK
 62
     0
100
AcDbLine
 10
185.136887
 20
128.551589
 30
0.0
 11
197.4
 21
128.551589
 31
0.0
  0
LINE
  5
5F2
100
AcDbEntity
  8
0
  6
BYBLOCK
 62
     0
100
AcDbLine
 10
196.9
 20
132.551589
 30
0.0
 11
196.9
 21
129.551589
 31
0.0
  0
SOLID
  5
5F3
100
AcDbEntity
  8
0
  6
BYBLOCK
 62
     0
100
AcDbTrace
 10
196.733333
 20
132.551589
 30
0.0
 11
197.066667
 21
132.551589
 31
0.0
 12
196.9
 22
133.551589
 32
0.0
 13
196.9
 23
133.551589
 33
0.0
  0
SOLID
  5
5F4
100
AcDbEntity
  8
0
  6
BYBLOCK
 62
     0
100
AcDbTrace
 10
196.733333
 20
129.551589
 30
0.0
 11
197.066667
 21
129.551589
 31
0.0
 12
196.9
 22
128.551589
 32
0.0
 13
196.9
 23
128.551589
 33
0.0
  0
MTEXT
  5
5F5
100
AcDbEntity
  8
0
  6
BYBLOCK
 62
     0
100
AcDbMText
 10
195.3
 20
131.2
 30
0.0
 40
3.0
 41
0.0
 71
     5
 72
     1
  1
\A1;5
 11
0.0
 21
1.0
 31
0.0
  0
POINT
  5
5F6
100
AcDbEntity
  8
DEFPOINTS
  6
BYBLOCK
 62
     0
100
AcDbPoint
 10
184.636887
 20
133.551589
 30
0.0
  0
POINT
  5
5F7
100
AcDbEntity
  8
DEFPOINTS
  6
BYBLOCK
 62
     0
100
AcDbPoint
 10
184.636887
 20
128.551589
 30
0.0
  0
POINT
  5
5F8
100
AcDbEntity
  8
DEFPOINTS
  6
BYBLOCK
 62
     0
100
AcDbPoint
 10
196.9
 20
128.551589
 30
0.0
  0
ENDBLK
  5
5FA
100
AcDbEntity
  8
0
100
AcDbBlockEnd
  0
BLOCK
  5
628
100
AcDbEntity
  8
0
100
AcDbBlockBegin
  2
A$C78F16135
 70
     0
 10
0.0
 20
0.0
 30
0.0
  3
A$C78F16135
  1

  0
LINE
  5
5FD
100
AcDbEntity
  8
1
100
AcDbLine
 10
37.5
 20
9.43174
 30
0.0
 11
49.763113
 21
9.43174
 31
0.0
  0
LINE
  5
5FE
100
AcDbEntity
  8
3
100
AcDbLine
 10
44.0
 20
6.93174
 30
0.0
 11
42.0
 21
6.43174
 31
0.0
  0
LINE
  5
5FF
100
AcDbEntity
  8
3
100
AcDbLine
 10
44.0
 20
11.93174
 30
0.0
 11
42.0
 21
12.43174
 31
0.0
  0
LINE
  5
600
100
AcDbEntity
  8
3
100
AcDbLine
 10
3.0
 20
5.43174
 30
0.0
 11
2.0
 21
6.43174
 31
0.0
  0
LINE
  5
601
100
AcDbEntity
  8
0
100
AcDbLine
 10
14.0
 20
5.43174
 30
0.0
 11
14.0
 21
9.43174
 31
0.0
  0
LINE
  5
602
100
AcDbEntity
  8
3
100
AcDbLine
 10
15.0
 20
2.93174
 30
0.0
 11
15.0
 21
9.43174
 31
0.0
  0
LINE
  5
603
100
AcDbEntity
  8
0
100
AcDbLine
 10
3.0
 20
5.43174
 30
0.0
 11
3.0
 21
9.43174
 31
0.0
  0
LINE
  5
604
100
AcDbEntity
  8
3
100
AcDbLine
 10
33.5
 20
9.43174
 30
0.0
 11
33.5
 21
2.93174
 31
0.0
  0
LINE
  5
605
100
AcDbEntity
  8
3
100
AcDbLine
 10
33.0
 20
2.43174
 30
0.0
 11
15.5
 21
2.43174
 31
0.0
  0
LINE
  5
606
100
AcDbEntity
  8
3
100
AcDbLine
 10
15.0
 20
5.43174
 30
0.0
 11
3.0
 21
5.43174
 31
0.0
  0
SOLID
  5
607
100
AcDbEntity
  8
0
100
AcDbTrace
 10
16.9792
 20
0.04499
 30
0.0
 11
17.349
 21
0.59969
 31
0.0
 12
15.5
 22
1.43174
 32
0.0
 13
15.5
 23
1.43174
 33
0.0
  0
LINE
  5
608
100
AcDbEntity
  8
3
100
AcDbLine
 10
15.5
 20
2.43174
 30
0.0
 11
15.0
 21
2.93174
 31
0.0
  0
SOLID
  5
609
100
AcDbEntity
  8
0
100
AcDbTrace
 10
32.126506
 20
0.721126
 30
0.0
 11
32.431219
 21
1.31408
 31
0.0
 12
30.5
 22
1.93174
 32
0.0
 13
30.5
 23
1.93174
 33
0.0
  0
LINE
  5
60A
100
AcDbEntity
  8
3
100
AcDbLine
 10
33.5
 20
2.93174
 30
0.0
 11
33.0
 21
2.43174
 31
0.0
  0
SOLID
  5
60B
100
AcDbEntity
  8
0
100
AcDbTrace
 10
34.616027
 20
0.0
 30
0.0
 11
35.209239
 21
0.304211
 31
0.0
 12
34.0
 22
1.93174
 32
0.0
 13
34.0
 23
1.93174
 33
0.0
  0
LINE
  5
60C
100
AcDbEntity
  8
3
100
AcDbLine
 10
33.0
 20
16.43174
 30
0.0
 11
15.5
 21
16.43174
 31
0.0
  0
LINE
  5
60D
100
AcDbEntity
  8
1
100
AcDbLine
 10
5.0
 20
9.43174
 30
0.0
 11
37.5
 21
9.43174
 31
0.0
  0
LINE
  5
60E
100
AcDbEntity
  8
0
100
AcDbLine
 10
2.0
 20
12.43174
 30
0.0
 11
14.0
 21
12.43174
 31
0.0
  0
LINE
  5
60F
100
AcDbEntity
  8
3
100
AcDbLine
 10
15.0
 20
13.43174
 30
0.0
 11
3.0
 21
13.43174
 31
0.0
  0
LINE
  5
610
100
AcDbEntity
  8
0
100
AcDbLine
 10
2.0
 20
6.43174
 30
0.0
 11
14.0
 21
6.43174
 31
0.0
  0
SOLID
  5
611
100
AcDbEntity
  8
0
100
AcDbTrace
 10
7.999314
 20
15.695186
 30
0.0
 11
7.481477
 21
15.275318
 31
0.0
 12
9.0
 22
13.93174
 32
0.0
 13
9.0
 23
13.93174
 33
0.0
  0
LINE
  5
612
100
AcDbEntity
  8
1
100
AcDbLine
 10
5.5
 20
9.43174
 30
0.0
 11
0.0
 21
9.43174
 31
0.0
  0
LINE
  5
613
100
AcDbEntity
  8
0
100
AcDbLine
 10
3.0
 20
13.43174
 30
0.0
 11
3.0
 21
9.43174
 31
0.0
  0
LINE
  5
614
100
AcDbEntity
  8
3
100
AcDbLine
 10
2.0
 20
12.43174
 30
0.0
 11
2.0
 21
9.43174
 31
0.0
  0
LINE
  5
615
100
AcDbEntity
  8
3
100
AcDbLine
 10
2.0
 20
6.43174
 30
0.0
 11
2.0
 21
9.43174
 31
0.0
  0
LINE
  5
616
100
AcDbEntity
  8
3
100
AcDbLine
 10
3.0
 20
13.43174
 30
0.0
 11
2.0
 21
12.43174
 31
0.0
  0
LINE
  5
617
100
AcDbEntity
  8
0
100
AcDbLine
 10
2.0
 20
17.43174
 30
0.0
 11
2.0
 21
14.43174
 31
0.0
  0
LINE
  5
618
100
AcDbEntity
  8
3
100
AcDbLine
 10
15.0
 20
15.93174
 30
0.0
 11
15.0
 21
9.43174
 31
0.0
  0
LINE
  5
619
100
AcDbEntity
  8
0
100
AcDbLine
 10
14.0
 20
13.43174
 30
0.0
 11
14.0
 21
9.43174
 31
0.0
  0
LINE
  5
61A
100
AcDbEntity
  8
3
100
AcDbLine
 10
15.5
 20
16.43174
 30
0.0
 11
15.0
 21
15.93174
 31
0.0
  0
LINE
  5
61B
100
AcDbEntity
  8
3
100
AcDbLine
 10
33.5
 20
9.43174
 30
0.0
 11
33.5
 21
15.93174
 31
0.0
  0
LINE
  5
61C
100
AcDbEntity
  8
3
100
AcDbLine
 10
42.0
 20
6.43174
 30
0.0
 11
33.5
 21
6.43174
 31
0.0
  0
LINE
  5
61D
100
AcDbEntity
  8
3
100
AcDbLine
 10
42.0
 20
12.43174
 30
0.0
 11
33.5
 21
12.43174
 31
0.0
  0
LINE
  5
61E
100
AcDbEntity
  8
3
100
AcDbLine
 10
42.0
 20
12.43174
 30
0.0
 11
42.0
 21
9.43174
 31
0.0
  0
LINE
  5
61F
100
AcDbEntity
  8
3
100
AcDbLine
 10
42.0
 20
6.43174
 30
0.0
 11
42.0
 21
9.43174
 31
0.0
  0
LINE
  5
620
100
AcDbEntity
  8
3
100
AcDbLine
 10
33.5
 20
15.93174
 30
0.0
 11
33.0
 21
16.43174
 31
0.0
  0
DIMENSION
  5
621
100
AcDbEntity
  8
0
100
AcDbDimension
  2
*D22
 10
56.263113
 20
6.93174
 30
0.0
 11
56.263113
 21
9.580151
 31
0.0
 12
-140.636887
 22
-121.619849
 32
0.0
 70
   128
  3
STANDARD
100
AcDbAlignedDimension
 13
44.0
 23
11.93174
 33
0.0
 14
44.0
 24
6.93174
 34
0.0
 50
90.0
100
AcDbRotatedDimension
1001
ACAD
1000
DSTYLE
1002
{
1070
    78
1070
     8
1070
   288
1070
     1
1070
   284
1070
     8
1070
   140
1040
3.0
1070
    73
1070
     0
1070
   272
1070
     2
1070
    77
1070
     1
1070
   147
1040
0.1
1070
    42
1040
0.5
1070
    44
1040
0.5
1070
    43
1040
0.4
1070
   271
1070
     2
1070
   141
1040
0.1
1070
    41
1040
1.0
1002
}
  0
LINE
  5
622
100
AcDbEntity
  8
3
100
AcDbLine
 10
46.0
 20
9.43174
 30
0.0
 11
46.0
 21
11.93174
 31
0.0
  0
LINE
  5
623
100
AcDbEntity
  8
3
100
AcDbLine
 10
44.0
 20
12.43174
 30
0.0
 11
44.0
 21
9.43174
 31
0.0
  0
LINE
  5
624
100
AcDbEntity
  8
3
100
AcDbLine
 10
46.0
 20
6.93174
 30
0.0
 11
44.0
 21
6.43174
 31
0.0
  0
LINE
  5
625
100
AcDbEntity
  8
3
100
AcDbLine
 10
44.0
 20
6.43174
 30
0.0
 11
44.0
 21
9.43174
 31
0.0
  0
LINE
  5
626
100
AcDbEntity
  8
3
100
AcDbLine
 10
46.0
 20
9.43174
 30
0.0
 11
46.0
 21
6.93174
 31
0.0
  0
LINE
  5
627
100
AcDbEntity
  8
3
100
AcDbLine
 10
46.0
 20
11.93174
 30
0.0
 11
44.0
 21
12.43174
 31
0.0
  0
ENDBLK
  5
629
100
AcDbEntity
  8
0
100
AcDbBlockEnd
  0
BLOCK
  5
C83
100
AcDbEntity
  8
0
100
AcDbBlockBegin
  2
*D24
 70
     1
 10
0.0
 20
0.0
 30
0.0
  3
*D24
  1

  0
LINE
  5
C79
100
AcDbEntity
  8
0
  6
BYBLOCK
 62
     0
100
AcDbLine
 10
174.55
 20
124.0
 30
0.0
 11
187.827063
 21
124.0
 31
0.0
  0
LINE
  5
C7A
100
AcDbEntity
  8
0
  6
BYBLOCK
 62
     0
100
AcDbLine
 10
174.55
 20
106.0
 30
0.0
 11
187.827063
 21
106.0
 31
0.0
  0
LINE
  5
C7B
100
AcDbEntity
  8
0
  6
BYBLOCK
 62
     0
100
AcDbLine
 10
187.327063
 20
122.0
 30
0.0
 11
187.327063
 21
117.149142
 31
0.0
  0
LINE
  5
C7C
100
AcDbEntity
  8
0
  6
BYBLOCK
 62
     0
100
AcDbLine
 10
187.327063
 20
108.0
 30
0.0
 11
187.327063
 21
112.969142
 31
0.0
  0
SOLID
  5
C7D
100
AcDbEntity
  8
0
  6
BYBLOCK
 62
     0
100
AcDbTrace
 10
186.993729
 20
122.0
 30
0.0
 11
187.660396
 21
122.0
 31
0.0
 12
187.327063
 22
124.0
 32
0.0
 13
187.327063
 23
124.0
 33
0.0
  0
SOLID
  5
C7E
100
AcDbEntity
  8
0
  6
BYBLOCK
 62
     0
100
AcDbTrace
 10
186.993729
 20
108.0
 30
0.0
 11
187.660396
 21
108.0
 31
0.0
 12
187.327063
 22
106.0
 32
0.0
 13
187.327063
 23
106.0
 33
0.0
  0
MTEXT
  5
C7F
100
AcDbEntity
  8
0
  6
BYBLOCK
 62
     0
100
AcDbMText
 10
187.327063
 20
115.059142
 30
0.0
 40
4.0
 41
0.0
 71
     5
 72
     1
  1
\A1;18
  7
EXTFONT
 11
0.0
 21
1.0
 31
0.0
  0
POINT
  5
C80
100
AcDbEntity
  8
DEFPOINTS
  6
BYBLOCK
 62
     0
100
AcDbPoint
 10
174.05
 20
124.0
 30
0.0
  0
POINT
  5
C81
100
AcDbEntity
  8
DEFPOINTS
  6
BYBLOCK
 62
     0
100
AcDbPoint
 10
174.05
 20
106.0
 30
0.0
  0
POINT
  5
C82
100
AcDbEntity
  8
DEFPOINTS
  6
BYBLOCK
 62
     0
100
AcDbPoint
 10
187.327063
 20
106.0
 30
0.0
  0
ENDBLK
  5
C84
100
AcDbEntity
  8
0
100
AcDbBlockEnd
  0
BLOCK
  5
C90
100
AcDbEntity
  8
0
100
AcDbBlockBegin
  2
*D25
 70
     1
 10
0.0
 20
0.0
 30
0.0
  3
*D25
  1

  0
LINE
  5
C86
100
AcDbEntity
  8
0
  6
BYBLOCK
 62
     0
100
AcDbLine
 10
174.25
 20
125.3
 30
0.0
 11
174.25
 21
149.318355
 31
0.0
  0
LINE
  5
C87
100
AcDbEntity
  8
0
  6
BYBLOCK
 62
     0
100
AcDbLine
 10
177.75
 20
124.5
 30
0.0
 11
177.75
 21
149.318355
 31
0.0
  0
LINE
  5
C88
100
AcDbEntity
  8
0
  6
BYBLOCK
 62
     0
100
AcDbLine
 10
172.25
 20
148.818355
 30
0.0
 11
170.25
 21
148.818355
 31
0.0
  0
LINE
  5
C89
100
AcDbEntity
  8
0
  6
BYBLOCK
 62
     0
100
AcDbLine
 10
179.75
 20
148.818355
 30
0.0
 11
184.638804
 21
148.818355
 31
0.0
  0
SOLID
  5
C8A
100
AcDbEntity
  8
0
  6
BYBLOCK
 62
     0
100
AcDbTrace
 10
172.25
 20
149.151688
 30
0.0
 11
172.25
 21
148.485022
 31
0.0
 12
174.25
 22
148.818355
 32
0.0
 13
174.25
 23
148.818355
 33
0.0
  0
SOLID
  5
C8B
100
AcDbEntity
  8
0
  6
BYBLOCK
 62
     0
100
AcDbTrace
 10
179.75
 20
149.151688
 30
0.0
 11
179.75
 21
148.485022
 31
0.0
 12
177.75
 22
148.818355
 32
0.0
 13
177.75
 23
148.818355
 33
0.0
  0
MTEXT
  5
C8C
100
AcDbEntity
  8
0
  6
BYBLOCK
 62
     0
100
AcDbMText
 10
187.728804
 20
148.818355
 30
0.0
 40
4.0
 41
0.0
 71
     5
 72
     1
  1
\A1;3.5
  7
EXTFONT
  0
POINT
  5
C8D
100
AcDbEntity
  8
DEFPOINTS
  6
BYBLOCK
 62
     0
100
AcDbPoint
 10
174.25
 20
124.8
 30
0.0
  0
POINT
  5
C8E
100
AcDbEntity
  8
DEFPOINTS
  6
BYBLOCK
 62
     0
100
AcDbPoint
 10
177.75
 20
124.0
 30
0.0
  0
POINT
  5
C8F
100
AcDbEntity
  8
DEFPOINTS
  6
BYBLOCK
 62
     0
100
AcDbPoint
 10
177.75
 20
148.818355
 30
0.0
  0
ENDBLK
  5
C91
100
AcDbEntity
  8
0
100
AcDbBlockEnd
  0
BLOCK
  5
C9D
100
AcDbEntity
  8
0
100
AcDbBlockBegin
  2
*D26
 70
     1
 10
0.0
 20
0.0
 30
0.0
  3
*D26
  1

  0
LINE
  5
C93
100
AcDbEntity
  8
0
  6
BYBLOCK
 62
     0
100
AcDbLine
 10
174.25
 20
125.8
 30
0.0
 11
174.25
 21
145.791676
 31
0.0
  0
LINE
  5
C94
100
AcDbEntity
  8
0
  6
BYBLOCK
 62
     0
100
AcDbLine
 10
173.75
 20
125.3
 30
0.0
 11
173.75
 21
145.791676
 31
0.0
  0
LINE
  5
C95
100
AcDbEntity
  8
0
  6
BYBLOCK
 62
     0
100
AcDbLine
 10
176.25
 20
145.291676
 30
0.0
 11
178.25
 21
145.291676
 31
0.0
  0
LINE
  5
C96
100
AcDbEntity
  8
0
  6
BYBLOCK
 62
     0
100
AcDbLine
 10
171.75
 20
145.291676
 30
0.0
 11
165.226293
 21
145.291676
 31
0.0
  0
SOLID
  5
C97
100
AcDbEntity
  8
0
  6
BYBLOCK
 62
     0
100
AcDbTrace
 10
176.25
 20
145.625009
 30
0.0
 11
176.25
 21
144.958343
 31
0.0
 12
174.25
 22
145.291676
 32
0.0
 13
174.25
 23
145.291676
 33
0.0
  0
SOLID
  5
C98
100
AcDbEntity
  8
0
  6
BYBLOCK
 62
     0
100
AcDbTrace
 10
171.75
 20
145.625009
 30
0.0
 11
171.75
 21
144.958343
 31
0.0
 12
173.75
 22
145.291676
 32
0.0
 13
173.75
 23
145.291676
 33
0.0
  0
MTEXT
  5
C99
100
AcDbEntity
  8
0
  6
BYBLOCK
 62
     0
100
AcDbMText
 10
162.386293
 20
145.291676
 30
0.0
 40
4.0
 41
0.0
 71
     5
 72
     1
  1
\A1;0.5
  7
EXTFONT
  0
POINT
  5
C9A
100
AcDbEntity
  8
DEFPOINTS
  6
BYBLOCK
 62
     0
100
AcDbPoint
 10
174.25
 20
125.3
 30
0.0
  0
POINT
  5
C9B
100
AcDbEntity
  8
DEFPOINTS
  6
BYBLOCK
 62
     0
100
AcDbPoint
 10
173.75
 20
124.8
 30
0.0
  0
POINT
  5
C9C
100
AcDbEntity
  8
DEFPOINTS
  6
BYBLOCK
 62
     0
100
AcDbPoint
 10
173.75
 20
145.291676
 30
0.0
  0
ENDBLK
  5
C9E
100
AcDbEntity
  8
0
100
AcDbBlockEnd
  0
BLOCK
  5
CAA
100
AcDbEntity
  8
0
100
AcDbBlockBegin
  2
*D27
 70
     1
 10
0.0
 20
0.0
 30
0.0
  3
*D27
  1

  0
LINE
  5
CA0
100
AcDbEntity
  8
0
  6
BYBLOCK
 62
     0
100
AcDbLine
 10
173.75
 20
125.8
 30
0.0
 11
173.75
 21
138.097103
 31
0.0
  0
LINE
  5
CA1
100
AcDbEntity
  8
0
  6
BYBLOCK
 62
     0
100
AcDbLine
 10
170.75
 20
125.5
 30
0.0
 11
170.75
 21
138.097103
 31
0.0
  0
LINE
  5
CA2
100
AcDbEntity
  8
0
  6
BYBLOCK
 62
     0
100
AcDbLine
 10
175.75
 20
137.597103
 30
0.0
 11
177.75
 21
137.597103
 31
0.0
  0
LINE
  5
CA3
100
AcDbEntity
  8
0
  6
BYBLOCK
 62
     0
100
AcDbLine
 10
168.75
 20
137.597103
 30
0.0
 11
164.759457
 21
137.597103
 31
0.0
  0
SOLID
  5
CA4
100
AcDbEntity
  8
0
  6
BYBLOCK
 62
     0
100
AcDbTrace
 10
175.75
 20
137.930436
 30
0.0
 11
175.75
 21
137.263769
 31
0.0
 12
173.75
 22
137.597103
 32
0.0
 13
173.75
 23
137.597103
 33
0.0
  0
SOLID
  5
CA5
100
AcDbEntity
  8
0
  6
BYBLOCK
 62
     0
100
AcDbTrace
 10
168.75
 20
137.930436
 30
0.0
 11
168.75
 21
137.263769
 31
0.0
 12
170.75
 22
137.597103
 32
0.0
 13
170.75
 23
137.597103
 33
0.0
  0
MTEXT
  5
CA6
100
AcDbEntity
  8
0
  6
BYBLOCK
 62
     0
100
AcDbMText
 10
163.669457
 20
137.597103
 30
0.0
 40
4.0
 41
0.0
 71
     5
 72
     1
  1
\A1;3
  7
EXTFONT
  0
POINT
  5
CA7
100
AcDbEntity
  8
DEFPOINTS
  6
BYBLOCK
 62
     0
100
AcDbPoint
 10
173.75
 20
125.3
 30
0.0
  0
POINT
  5
CA8
100
AcDbEntity
  8
DEFPOINTS
  6
BYBLOCK
 62
     0
100
AcDbPoint
 10
170.75
 20
125.0
 30
0.0
  0
POINT
  5
CA9
100
AcDbEntity
  8
DEFPOINTS
  6
BYBLOCK
 62
     0
100
AcDbPoint
 10
170.75
 20
137.597103
 30
0.0
  0
ENDBLK
  5
CAB
100
AcDbEntity
  8
0
100
AcDbBlockEnd
  0
BLOCK
  5
CB7
100
AcDbEntity
  8
0
100
AcDbBlockBegin
  2
*D28
 70
     1
 10
0.0
 20
0.0
 30
0.0
  3
*D28
  1

  0
LINE
  5
CAD
100
AcDbEntity
  8
0
  6
BYBLOCK
 62
     0
100
AcDbLine
 10
170.75
 20
125.48
 30
0.0
 11
170.75
 21
159.25
 31
0.0
  0
LINE
  5
CAE
100
AcDbEntity
  8
0
  6
BYBLOCK
 62
     0
100
AcDbLine
 10
173.75
 20
125.3
 30
0.0
 11
173.75
 21
159.25
 31
0.0
  0
LINE
  5
CAF
100
AcDbEntity
  8
0
  6
BYBLOCK
 62
     0
100
AcDbLine
 10
168.75
 20
158.75
 30
0.0
 11
166.75
 21
158.75
 31
0.0
  0
LINE
  5
CB0
100
AcDbEntity
  8
0
  6
BYBLOCK
 62
     0
100
AcDbLine
 10
175.75
 20
158.75
 30
0.0
 11
177.75
 21
158.75
 31
0.0
  0
SOLID
  5
CB1
100
AcDbEntity
  8
0
  6
BYBLOCK
 62
     0
100
AcDbTrace
 10
168.75
 20
159.083333
 30
0.0
 11
168.75
 21
158.416667
 31
0.0
 12
170.75
 22
158.75
 32
0.0
 13
170.75
 23
158.75
 33
0.0
  0
SOLID
  5
CB2
100
AcDbEntity
  8
0
  6
BYBLOCK
 62
     0
100
AcDbTrace
 10
175.75
 20
159.083333
 30
0.0
 11
175.75
 21
158.416667
 31
0.0
 12
173.75
 22
158.75
 32
0.0
 13
173.75
 23
158.75
 33
0.0
  0
MTEXT
  5
CB3
100
AcDbEntity
  8
0
  6
BYBLOCK
 62
     0
100
AcDbMText
 10
172.25
 20
158.75
 30
0.0
 40
4.0
 41
0.0
 71
     5
 72
     1
  1
\A1;3
  7
EXTFONT
  0
POINT
  5
CB4
100
AcDbEntity
  8
DEFPOINTS
  6
BYBLOCK
 62
     0
100
AcDbPoint
 10
170.75
 20
124.98
 30
0.0
  0
POINT
  5
CB5
100
AcDbEntity
  8
DEFPOINTS
  6
BYBLOCK
 62
     0
100
AcDbPoint
 10
173.75
 20
124.8
 30
0.0
  0
POINT
  5
CB6
100
AcDbEntity
  8
DEFPOINTS
  6
BYBLOCK
 62
     0
100
AcDbPoint
 10
173.75
 20
158.75
 30
0.0
  0
ENDBLK
  5
CB8
100
AcDbEntity
  8
0
100
AcDbBlockEnd
  0
BLOCK
  5
CC4
100
AcDbEntity
  8
0
100
AcDbBlockBegin
  2
*D29
 70
     1
 10
0.0
 20
0.0
 30
0.0
  3
*D29
  1

  0
LINE
  5
CBA
100
AcDbEntity
  8
0
  6
BYBLOCK
 62
     0
100
AcDbLine
 10
141.25
 20
127.0
 30
0.0
 11
141.25
 21
155.632923
 31
0.0
  0
LINE
  5
CBB
100
AcDbEntity
  8
0
  6
BYBLOCK
 62
     0
100
AcDbLine
 10
171.05
 20
125.48
 30
0.0
 11
171.05
 21
155.632923
 31
0.0
  0
LINE
  5
CBC
100
AcDbEntity
  8
0
  6
BYBLOCK
 62
     0
100
AcDbLine
 10
143.25
 20
155.132923
 30
0.0
 11
152.428692
 21
155.132923
 31
0.0
  0
LINE
  5
CBD
100
AcDbEntity
  8
0
  6
BYBLOCK
 62
     0
100
AcDbLine
 10
169.05
 20
155.132923
 30
0.0
 11
161.608692
 21
155.132923
 31
0.0
  0
SOLID
  5
CBE
100
AcDbEntity
  8
0
  6
BYBLOCK
 62
     0
100
AcDbTrace
 10
143.25
 20
155.466256
 30
0.0
 11
143.25
 21
154.799589
 31
0.0
 12
141.25
 22
155.132923
 32
0.0
 13
141.25
 23
155.132923
 33
0.0
  0
SOLID
  5
CBF
100
AcDbEntity
  8
0
  6
BYBLOCK
 62
     0
100
AcDbTrace
 10
169.05
 20
155.466256
 30
0.0
 11
169.05
 21
154.799589
 31
0.0
 12
171.05
 22
155.132923
 32
0.0
 13
171.05
 23
155.132923
 33
0.0
  0
MTEXT
  5
CC0
100
AcDbEntity
  8
0
  6
BYBLOCK
 62
     0
100
AcDbMText
 10
157.018692
 20
155.132923
 30
0.0
 40
4.0
 41
0.0
 71
     5
 72
     1
  1
\A1;29.8
  7
EXTFONT
  0
POINT
  5
CC1
100
AcDbEntity
  8
DEFPOINTS
  6
BYBLOCK
 62
     0
100
AcDbPoint
 10
141.25
 20
126.5
 30
0.0
  0
POINT
  5
CC2
100
AcDbEntity
  8
DEFPOINTS
  6
BYBLOCK
 62
     0
100
AcDbPoint
 10
171.05
 20
124.98
 30
0.0
  0
POINT
  5
CC3
100
AcDbEntity
  8
DEFPOINTS
  6
BYBLOCK
 62
     0
100
AcDbPoint
 10
171.05
 20
155.132923
 30
0.0
  0
ENDBLK
  5
CC5
100
AcDbEntity
  8
0
100
AcDbBlockEnd
  0
BLOCK
  5
CD1
100
AcDbEntity
  8
0
100
AcDbBlockBegin
  2
*D30
 70
     1
 10
0.0
 20
0.0
 30
0.0
  3
*D30
  1

  0
LINE
  5
CC7
100
AcDbEntity
  8
0
  6
BYBLOCK
 62
     0
100
AcDbLine
 10
141.25
 20
103.0
 30
0.0
 11
141.25
 21
91.456913
 31
0.0
  0
LINE
  5
CC8
100
AcDbEntity
  8
0
  6
BYBLOCK
 62
     0
100
AcDbLine
 10
174.05
 20
104.7
 30
0.0
 11
174.05
 21
91.456913
 31
0.0
  0
LINE
  5
CC9
100
AcDbEntity
  8
0
  6
BYBLOCK
 62
     0
100
AcDbLine
 10
143.25
 20
91.956913
 30
0.0
 11
153.036502
 21
91.956913
 31
0.0
  0
LINE
  5
CCA
100
AcDbEntity
  8
0
  6
BYBLOCK
 62
     0
100
AcDbLine
 10
172.05
 20
91.956913
 30
0.0
 11
162.216502
 21
91.956913
 31
0.0
  0
SOLID
  5
CCB
100
AcDbEntity
  8
0
  6
BYBLOCK
 62
     0
100
AcDbTrace
 10
143.25
 20
92.290246
 30
0.0
 11
143.25
 21
91.62358
 31
0.0
 12
141.25
 22
91.956913
 32
0.0
 13
141.25
 23
91.956913
 33
0.0
  0
SOLID
  5
CCC
100
AcDbEntity
  8
0
  6
BYBLOCK
 62
     0
100
AcDbTrace
 10
172.05
 20
92.290246
 30
0.0
 11
172.05
 21
91.62358
 31
0.0
 12
174.05
 22
91.956913
 32
0.0
 13
174.05
 23
91.956913
 33
0.0
  0
MTEXT
  5
CCD
100
AcDbEntity
  8
0
  6
BYBLOCK
 62
     0
100
AcDbMText
 10
157.626502
 20
91.956913
 30
0.0
 40
4.0
 41
0.0
 71
     5
 72
     1
  1
\A1;32.8
  7
EXTFONT
  0
POINT
  5
CCE
100
AcDbEntity
  8
DEFPOINTS
  6
BYBLOCK
 62
     0
100
AcDbPoint
 10
141.25
 20
103.5
 30
0.0
  0
POINT
  5
CCF
100
AcDbEntity
  8
DEFPOINTS
  6
BYBLOCK
 62
     0
100
AcDbPoint
 10
174.05
 20
105.2
 30
0.0
  0
POINT
  5
CD0
100
AcDbEntity
  8
DEFPOINTS
  6
BYBLOCK
 62
     0
100
AcDbPoint
 10
174.05
 20
91.956913
 30
0.0
  0
ENDBLK
  5
CD2
100
AcDbEntity
  8
0
100
AcDbBlockEnd
  0
BLOCK
  5
CDE
100
AcDbEntity
  8
0
100
AcDbBlockBegin
  2
*D31
 70
     1
 10
0.0
 20
0.0
 30
0.0
  3
*D31
  1

  0
LINE
  5
CD4
100
AcDbEntity
  8
0
  6
BYBLOCK
 62
     0
100
AcDbLine
 10
141.75
 20
105.02
 30
0.0
 11
147.328042
 21
105.02
 31
0.0
  0
LINE
  5
CD5
100
AcDbEntity
  8
0
  6
BYBLOCK
 62
     0
100
AcDbLine
 10
141.75
 20
124.98
 30
0.0
 11
147.328042
 21
124.98
 31
0.0
  0
LINE
  5
CD6
100
AcDbEntity
  8
0
  6
BYBLOCK
 62
     0
100
AcDbLine
 10
146.828042
 20
107.02
 30
0.0
 11
146.828042
 21
122.98
 31
0.0
  0
LINE
  5
CD7
100
AcDbEntity
  8
0
  6
BYBLOCK
 62
     0
100
AcDbLine
 10
146.828042
 20
124.98
 30
0.0
 11
146.828042
 21
129.688879
 31
0.0
  0
LINE
  5
CD8
100
AcDbEntity
  8
0
  6
BYBLOCK
 62
     0
100
AcDbLine
 10
146.828042
 20
129.688879
 30
0.0
 11
146.918042
 21
129.688879
 31
0.0
  0
SOLID
  5
CD9
100
AcDbEntity
  8
0
  6
BYBLOCK
 62
     0
100
AcDbTrace
 10
146.494708
 20
107.02
 30
0.0
 11
147.161375
 21
107.02
 31
0.0
 12
146.828042
 22
105.02
 32
0.0
 13
146.828042
 23
105.02
 33
0.0
  0
SOLID
  5
CDA
100
AcDbEntity
  8
0
  6
BYBLOCK
 62
     0
100
AcDbTrace
 10
146.494708
 20
122.98
 30
0.0
 11
147.161375
 21
122.98
 31
0.0
 12
146.828042
 22
124.98
 32
0.0
 13
146.828042
 23
124.98
 33
0.0
  0
POINT
  5
CDB
100
AcDbEntity
  8
DEFPOINTS
  6
BYBLOCK
 62
     0
100
AcDbPoint
 10
141.25
 20
105.02
 30
0.0
  0
POINT
  5
CDC
100
AcDbEntity
  8
DEFPOINTS
  6
BYBLOCK
 62
     0
100
AcDbPoint
 10
141.25
 20
124.98
 30
0.0
  0
POINT
  5
CDD
100
AcDbEntity
  8
DEFPOINTS
  6
BYBLOCK
 62
     0
100
AcDbPoint
 10
146.828042
 20
124.98
 30
0.0
  0
ENDBLK
  5
CDF
100
AcDbEntity
  8
0
100
AcDbBlockEnd
  0
BLOCK
  5
CEB
100
AcDbEntity
  8
0
100
AcDbBlockBegin
  2
*D32
 70
     1
 10
0.0
 20
0.0
 30
0.0
  3
*D32
  1

  0
LINE
  5
CE1
100
AcDbEntity
  8
0
  6
BYBLOCK
 62
     0
100
AcDbLine
 10
175.05
 20
124.8
 30
0.0
 11
199.738313
 21
124.8
 31
0.0
  0
LINE
  5
CE2
100
AcDbEntity
  8
0
  6
BYBLOCK
 62
     0
100
AcDbLine
 10
175.05
 20
105.2
 30
0.0
 11
199.738313
 21
105.2
 31
0.0
  0
LINE
  5
CE3
100
AcDbEntity
  8
0
  6
BYBLOCK
 62
     0
100
AcDbLine
 10
199.238313
 20
122.8
 30
0.0
 11
199.238313
 21
120.278342
 31
0.0
  0
LINE
  5
CE4
100
AcDbEntity
  8
0
  6
BYBLOCK
 62
     0
100
AcDbLine
 10
199.238313
 20
107.2
 30
0.0
 11
199.238313
 21
112.098342
 31
0.0
  0
SOLID
  5
CE5
100
AcDbEntity
  8
0
  6
BYBLOCK
 62
     0
100
AcDbTrace
 10
198.904979
 20
122.8
 30
0.0
 11
199.571646
 21
122.8
 31
0.0
 12
199.238313
 22
124.8
 32
0.0
 13
199.238313
 23
124.8
 33
0.0
  0
SOLID
  5
CE6
100
AcDbEntity
  8
0
  6
BYBLOCK
 62
     0
100
AcDbTrace
 10
198.904979
 20
107.2
 30
0.0
 11
199.571646
 21
107.2
 31
0.0
 12
199.238313
 22
105.2
 32
0.0
 13
199.238313
 23
105.2
 33
0.0
  0
MTEXT
  5
CE7
100
AcDbEntity
  8
0
  6
BYBLOCK
 62
     0
100
AcDbMText
 10
199.238313
 20
116.188342
 30
0.0
 40
4.0
 41
0.0
 71
     5
 72
     1
  1
\A1;19.6
  7
EXTFONT
 11
0.0
 21
1.0
 31
0.0
  0
POINT
  5
CE8
100
AcDbEntity
  8
DEFPOINTS
  6
BYBLOCK
 62
     0
100
AcDbPoint
 10
174.55
 20
124.8
 30
0.0
  0
POINT
  5
CE9
100
AcDbEntity
  8
DEFPOINTS
  6
BYBLOCK
 62
     0
100
AcDbPoint
 10
174.55
 20
105.2
 30
0.0
  0
POINT
  5
CEA
100
AcDbEntity
  8
DEFPOINTS
  6
BYBLOCK
 62
     0
100
AcDbPoint
 10
199.238313
 20
105.2
 30
0.0
  0
ENDBLK
  5
CEC
100
AcDbEntity
  8
0
100
AcDbBlockEnd
  0
BLOCK
  5
D19
100
AcDbEntity
  8
0
100
AcDbBlockBegin
  2
A$C375C091B
 70
     0
 10
0.0
 20
0.0
 30
0.0
  3
A$C375C091B
  1

  0
DIMENSION
  5
CEE
100
AcDbEntity
  8
0
100
AcDbDimension
  2
*D30
 10
32.8
 20
4.044122
 30
0.0
 11
16.376503
 21
4.044122
 31
0.0
 12
-141.25
 22
-87.912791
 32
0.0
 70
   128
  3
STANDARD
100
AcDbAlignedDimension
 13
0.0
 23
15.587209
 33
0.0
 14
32.8
 24
17.287209
 34
0.0
100
AcDbRotatedDimension
1001
ACAD
1000
DSTYLE
1002
{
1070
    78
1070
     8
1070
   288
1070
     1
1070
   284
1070
     8
1070
   140
1040
4.0
1070
   340
1005
22
1070
    73
1070
     0
1070
   272
1070
     2
1070
    42
1040
0.5
1070
    44
1040
0.5
1070
   271
1070
     2
1070
    41
1040
2.0
1002
}
  0
ELLIPSE
  5
CEF
100
AcDbEntity
  8
0
100
AcDbEllipse
 10
16.005064
 20
4.558777
 30
0.0
 11
-9.803757001005976
 21
0.1462406906463229
 31
0.0
210
0.0
220
0.0
230
0.9999999999999998
 40
0.464794
 41
0.0
 42
6.283185307179586
  0
ELLIPSE
  5
CF0
100
AcDbEntity
  8
0
100
AcDbEllipse
 10
16.005064
 20
4.266296
 30
0.0
 11
-8.925808656409628
 21
-0.1462409197721115
 31
0.0
210
0.0
220
0.0
230
1.0
 40
0.396703
 41
0.0
 42
6.283185307179586
  0
DIMENSION
  5
CF1
100
AcDbEntity
  8
0
100
AcDbDimension
  2
*D28
 10
32.8
 20
70.837209
 30
0.0
 11
31.3
 21
70.837209
 31
0.0
 12
-140.95
 22
-87.912791
 32
0.0
 70
   128
  3
STANDARD
100
AcDbAlignedDimension
 13
29.8
 23
37.067209
 33
0.0
 14
32.8
 24
36.887209
 34
0.0
100
AcDbRotatedDimension
1001
ACAD
1000
DSTYLE
1002
{
1070
    78
1070
     8
1070
   288
1070
     1
1070
   284
1070
     8
1070
   140
1040
4.0
1070
   340
1005
22
1070
    73
1070
     0
1070
   272
1070
     1
1070
    42
1040
0.5
1070
    44
1040
0.5
1070
   271
1070
     1
1070
    41
1040
2.0
1002
}
  0
DIMENSION
  5
CF2
100
AcDbEntity
  8
0
100
AcDbDimension
  2
*D32
 10
57.988313
 20
17.287209
 30
0.0
 11
57.988313
 21
28.275551
 31
0.0
 12
-141.25
 22
-87.912791
 32
0.0
 70
   128
  3
STANDARD
100
AcDbAlignedDimension
 13
33.3
 23
36.887209
 33
0.0
 14
33.3
 24
17.287209
 34
0.0
 50
90.0
100
AcDbRotatedDimension
1001
ACAD
1000
DSTYLE
1002
{
1070
    78
1070
     8
1070
   288
1070
     1
1070
   284
1070
     8
1070
   140
1040
4.0
1070
   340
1005
22
1070
    73
1070
     0
1070
   272
1070
     2
1070
    42
1040
0.5
1070
    44
1040
0.5
1070
   271
1070
     2
1070
    41
1040
2.0
1002
}
  0
LEADER
  5
CF3
100
AcDbEntity
  8
0
100
AcDbLeader
  3
STANDARD
 76
     3
 10
35.32027
 20
17.742871
 30
0.0
 10
40.182623
 20
10.800638
 30
0.0
 10
45.392287
 20
10.800638
 30
0.0
 77
   256
1001
ACAD
1000
DSTYLE
1002
{
1070
    78
1070
     8
1070
   288
1070
     1
1070
   284
1070
     8
1070
   140
1040
4.0
1070
   340
1005
22
1070
    73
1070
     0
1070
   272
1070
     1
1070
    42
1040
0.5
1070
    44
1040
0.5
1070
   271
1070
     1
1070
    41
1040
2.0
1002
}
  0
LWPOLYLINE
  5
CF4
100
AcDbEntity
  8
0
100
AcDbPolyline
 90
        3
 70
     1
 43
0.0
 10
41.918082
 20
10.906825
 10
42.820422
 20
12.469724
 10
41.015741
 20
12.469724
  0
DIMENSION
  5
CF5
100
AcDbEntity
  8
0
100
AcDbDimension
  2
*D25
 10
36.8
 20
60.905564
 30
0.0
 11
46.778804
 21
60.905564
 31
0.0
 12
-140.95
 22
-87.912791
 32
0.0
 70
   128
  3
STANDARD
100
AcDbAlignedDimension
 13
33.3
 23
36.887209
 33
0.0
 14
36.8
 24
36.087209
 34
0.0
100
AcDbRotatedDimension
1001
ACAD
1000
DSTYLE
1002
{
1070
    78
1070
     8
1070
   288
1070
     1
1070
   284
1070
     8
1070
   140
1040
4.0
1070
   340
1005
22
1070
    73
1070
     0
1070
   272
1070
     1
1070
    42
1040
0.5
1070
    44
1040
0.5
1070
   271
1070
     1
1070
    41
1040
2.0
1002
}
  0
DIMENSION
  5
CF6
100
AcDbEntity
  8
0
100
AcDbDimension
  2
*D24
 10
46.377063
 20
18.087209
 30
0.0
 11
46.377063
 21
27.146351
 31
0.0
 12
-140.95
 22
-87.912791
 32
0.0
 70
   128
  3
STANDARD
100
AcDbAlignedDimension
 13
33.1
 23
36.087209
 33
0.0
 14
33.1
 24
18.087209
 34
0.0
 50
90.0
100
AcDbRotatedDimension
1001
ACAD
1000
DSTYLE
1002
{
1070
    78
1070
     8
1070
   288
1070
     1
1070
   284
1070
     8
1070
   140
1040
4.0
1070
   340
1005
22
1070
    73
1070
     0
1070
   272
1070
     1
1070
    42
1040
0.5
1070
    44
1040
0.5
1070
   271
1070
     1
1070
    41
1040
2.0
1002
}
  0
DIMENSION
  5
CF7
100
AcDbEntity
  8
0
100
AcDbDimension
  2
*D31
 10
5.578042
 20
37.067209
 30
0.0
 11
5.578042
 21
41.866088
 31
0.0
 12
-141.25
 22
-87.912791
 32
0.0
 70
   128
  1
 
  3
STANDARD
100
AcDbAlignedDimension
 13
0.0
 23
17.107209
 33
0.0
 14
0.0
 24
37.067209
 34
0.0
 50
90.0
100
AcDbRotatedDimension
1001
ACAD
1000
DSTYLE
1002
{
1070
    78
1070
     8
1070
   288
1070
     1
1070
   284
1070
     8
1070
   140
1040
4.0
1070
   340
1005
22
1070
    73
1070
     0
1070
   272
1070
     2
1070
    42
1040
0.5
1070
    44
1040
0.5
1070
   271
1070
     2
1070
    41
1040
2.0
1002
}
  0
ELLIPSE
  5
CF8
100
AcDbEntity
  8
0
100
AcDbEllipse
 10
13.652057
 20
44.131178
 30
0.0
 11
-11.75689838058963
 21
0.2831362337982455
 31
0.0
210
0.0
220
0.0
230
1.0
 40
0.431727
 41
0.0
 42
6.283185307179586
  0
DIMENSION
  5
CF9
100
AcDbEntity
  8
0
100
AcDbDimension
  2
*D29
 10
29.8
 20
67.220132
 30
0.0
 11
15.768692
 21
67.220132
 31
0.0
 12
-141.25
 22
-87.912791
 32
0.0
 70
   128
  3
STANDARD
100
AcDbAlignedDimension
 13
0.0
 23
38.587209
 33
0.0
 14
29.8
 24
37.067209
 34
0.0
100
AcDbRotatedDimension
1001
ACAD
1000
DSTYLE
1002
{
1070
    78
1070
     8
1070
   288
1070
     1
1070
   284
1070
     8
1070
   140
1040
4.0
1070
   340
1005
22
1070
    73
1070
     0
1070
   272
1070
     2
1070
    42
1040
0.5
1070
    44
1040
0.5
1070
   271
1070
     2
1070
    41
1040
2.0
1002
}
  0
DIMENSION
  5
CFA
100
AcDbEntity
  8
0
100
AcDbDimension
  2
*D27
 10
29.8
 20
49.684312
 30
0.0
 11
22.719457
 21
49.684312
 31
0.0
 12
-140.95
 22
-87.912791
 32
0.0
 70
   128
  3
STANDARD
100
AcDbAlignedDimension
 13
32.8
 23
37.387209
 33
0.0
 14
29.8
 24
37.087209
 34
0.0
100
AcDbRotatedDimension
1001
ACAD
1000
DSTYLE
1002
{
1070
    78
1070
     8
1070
   288
1070
     1
1070
   284
1070
     8
1070
   140
1040
4.0
1070
   340
1005
22
1070
    73
1070
     0
1070
   272
1070
     1
1070
    42
1040
0.5
1070
    44
1040
0.5
1070
   271
1070
     1
1070
    41
1040
2.0
1002
}
  0
DIMENSION
  5
CFB
100
AcDbEntity
  8
0
100
AcDbDimension
  2
*D26
 10
32.8
 20
57.378885
 30
0.0
 11
21.436293
 21
57.378885
 31
0.0
 12
-140.95
 22
-87.912791
 32
0.0
 70
   128
  3
STANDARD
100
AcDbAlignedDimension
 13
33.3
 23
37.387209
 33
0.0
 14
32.8
 24
36.887209
 34
0.0
100
AcDbRotatedDimension
1001
ACAD
1000
DSTYLE
1002
{
1070
    78
1070
     8
1070
   288
1070
     1
1070
   284
1070
     8
1070
   140
1040
4.0
1070
   340
1005
22
1070
    73
1070
     0
1070
   272
1070
     1
1070
    42
1040
0.5
1070
    44
1040
0.5
1070
   271
1070
     1
1070
    41
1040
2.0
1002
}
  0
LINE
  5
CFC
100
AcDbEntity
  8
3
100
AcDbLine
 10
29.8
 20
37.067209
 30
0.0
 11
0.0
 21
37.067209
 31
0.0
  0
LINE
  5
CFD
100
AcDbEntity
  8
3
100
AcDbLine
 10
29.8
 20
17.107209
 30
0.0
 11
0.0
 21
17.107209
 31
0.0
  0
TEXT
  5
CFE
100
AcDbEntity
  8
0
100
AcDbText
 10
17.624256
 20
9.96293
 30
0.0
 40
2.4
  1
%%P0.1
 41
0.75
  7
EXTFONT
100
AcDbText
  0
LINE
  5
CFF
100
AcDbEntity
  8
3
100
AcDbLine
 10
0.0
 20
15.587209
 30
0.0
 11
0.0
 21
27.087209
 31
0.0
  0
LINE
  5
D00
100
AcDbEntity
  8
3
100
AcDbLine
 10
0.0
 20
15.587209
 30
0.0
 11
0.0
 21
27.087209
 31
0.0
  0
LINE
  5
D01
100
AcDbEntity
  8
3
100
AcDbLine
 10
0.0
 20
38.587209
 30
0.0
 11
0.0
 21
27.087209
 31
0.0
  0
LINE
  5
D02
100
AcDbEntity
  8
3
100
AcDbLine
 10
29.8
 20
27.087209
 30
0.0
 11
29.8
 21
17.107209
 31
0.0
  0
LINE
  5
D03
100
AcDbEntity
  8
3
100
AcDbLine
 10
36.8
 20
27.087209
 30
0.0
 11
36.8
 21
18.087209
 31
0.0
  0
LINE
  5
D04
100
AcDbEntity
  8
3
100
AcDbLine
 10
33.3
 20
17.287209
 30
0.0
 11
33.3
 21
27.087209
 31
0.0
  0
LINE
  5
D05
100
AcDbEntity
  8
3
100
AcDbLine
 10
32.8
 20
27.087209
 30
0.0
 11
32.8
 21
17.287209
 31
0.0
  0
LINE
  5
D06
100
AcDbEntity
  8
3
100
AcDbLine
 10
29.8
 20
18.087209
 30
0.0
 11
32.8
 21
18.087209
 31
0.0
  0
LINE
  5
D07
100
AcDbEntity
  8
3
100
AcDbLine
 10
36.8
 20
18.087209
 30
0.0
 11
33.3
 21
17.287209
 31
0.0
  0
LINE
  5
D08
100
AcDbEntity
  8
3
100
AcDbLine
 10
32.8
 20
17.287209
 30
0.0
 11
33.3
 21
17.287209
 31
0.0
  0
LINE
  5
D09
100
AcDbEntity
  8
3
100
AcDbLine
 10
29.8
 20
36.087209
 30
0.0
 11
32.8
 21
36.087209
 31
0.0
  0
LINE
  5
D0A
100
AcDbEntity
  8
3
100
AcDbLine
 10
29.8
 20
27.087209
 30
0.0
 11
29.8
 21
37.067209
 31
0.0
  0
LINE
  5
D0B
100
AcDbEntity
  8
3
100
AcDbLine
 10
36.8
 20
27.087209
 30
0.0
 11
36.8
 21
36.087209
 31
0.0
  0
LINE
  5
D0C
100
AcDbEntity
  8
3
100
AcDbLine
 10
33.3
 20
36.887209
 30
0.0
 11
33.3
 21
27.087209
 31
0.0
  0
LINE
  5
D0D
100
AcDbEntity
  8
3
100
AcDbLine
 10
32.8
 20
27.087209
 30
0.0
 11
32.8
 21
36.887209
 31
0.0
  0
LINE
  5
D0E
100
AcDbEntity
  8
3
100
AcDbLine
 10
36.8
 20
36.087209
 30
0.0
 11
33.3
 21
36.887209
 31
0.0
  0
LINE
  5
D0F
100
AcDbEntity
  8
3
100
AcDbLine
 10
32.8
 20
36.887209
 30
0.0
 11
33.3
 21
36.887209
 31
0.0
  0
LINE
  5
D10
100
AcDbEntity
  8
0
100
AcDbLine
 10
5.668042
 20
41.776088
 30
0.0
 11
23.992461
 21
42.43236
 31
0.0
  0
TEXT
  5
D11
100
AcDbEntity
  8
0
100
AcDbText
 10
5.41492
 20
43.021861
 30
0.0
 40
2.4
  1
19.92～19.96
 41
0.75
  7
EXTFONT
100
AcDbText
  0
LWPOLYLINE
  5
D12
100
AcDbEntity
  8
0
100
AcDbPolyline
 90
        3
 70
     1
 43
0.0
 10
0.393369
 20
52.106624
 10
1.956269
 20
51.204283
 10
1.956269
 20
53.008964
  0
LWPOLYLINE
  5
D13
100
AcDbEntity
  8
0
100
AcDbPolyline
 90
        3
 70
     1
 43
0.0
 10
0.393369
 20
50.301943
 10
1.956269
 20
49.399602
 10
1.956269
 20
51.204283
  0
LWPOLYLINE
  5
D14
100
AcDbEntity
  8
0
100
AcDbPolyline
 90
        3
 70
     1
 43
0.0
 10
36.813707
 20
47.594172
 10
38.376607
 20
46.691832
 10
38.376607
 20
48.496513
  0
LWPOLYLINE
  5
D15
100
AcDbEntity
  8
0
100
AcDbPolyline
 90
        3
 70
     1
 43
0.0
 10
36.813707
 20
45.789492
 10
38.376607
 20
44.887151
 10
38.376607
 20
46.691832
  0
LWPOLYLINE
  5
D16
100
AcDbEntity
  8
0
100
AcDbPolyline
 90
        3
 70
     1
 43
0.0
 10
43.722762
 20
10.906825
 10
44.625103
 20
12.469724
 10
42.820422
 20
12.469724
  0
LWPOLYLINE
  5
D17
100
AcDbEntity
  8
0
100
AcDbPolyline
 90
        3
 70
     1
 43
0.0
 10
51.363603
 20
37.291296
 10
52.265943
 20
38.854195
 10
50.461263
 20
38.854195
  0
LWPOLYLINE
  5
D18
100
AcDbEntity
  8
0
100
AcDbPolyline
 90
        3
 70
     1
 43
0.0
 10
49.558922
 20
37.291296
 10
50.461263
 20
38.854195
 10
48.656582
 20
38.854195
  0
ENDBLK
  5
D1A
100
AcDbEntity
  8
0
100
AcDbBlockEnd
  0
BLOCK
  5
EC0
100
AcDbEntity
  8
0
100
AcDbBlockBegin
  2
*D34
 70
     1
 10
0.0
 20
0.0
 30
0.0
  3
*D34
  1

  0
LINE
  5
EB6
100
AcDbEntity
  8
0
  6
BYBLOCK
 62
     0
100
AcDbLine
 10
119.0
 20
165.0
 30
0.0
 11
119.0
 21
190.483825
 31
0.0
  0
LINE
  5
EB7
100
AcDbEntity
  8
0
  6
BYBLOCK
 62
     0
100
AcDbLine
 10
117.5
 20
169.0
 30
0.0
 11
117.5
 21
190.483825
 31
0.0
  0
LINE
  5
EB8
100
AcDbEntity
  8
0
  6
BYBLOCK
 62
     0
100
AcDbLine
 10
116.0
 20
189.483825
 30
0.0
 11
114.5
 21
189.483825
 31
0.0
  0
LINE
  5
EB9
100
AcDbEntity
  8
0
  6
BYBLOCK
 62
     0
100
AcDbLine
 10
120.5
 20
189.483825
 30
0.0
 11
125.245909
 21
189.483825
 31
0.0
  0
SOLID
  5
EBA
100
AcDbEntity
  8
0
  6
BYBLOCK
 62
     0
100
AcDbTrace
 10
116.0
 20
189.733825
 30
0.0
 11
116.0
 21
189.233825
 31
0.0
 12
117.5
 22
189.483825
 32
0.0
 13
117.5
 23
189.483825
 33
0.0
  0
SOLID
  5
EBB
100
AcDbEntity
  8
0
  6
BYBLOCK
 62
     0
100
AcDbTrace
 10
120.5
 20
189.733825
 30
0.0
 11
120.5
 21
189.233825
 31
0.0
 12
119.0
 22
189.483825
 32
0.0
 13
119.0
 23
189.483825
 33
0.0
  0
MTEXT
  5
EBC
100
AcDbEntity
  8
0
  6
BYBLOCK
 62
     0
100
AcDbMText
 10
128.669243
 20
189.483825
 30
0.0
 40
4.0
 41
0.0
 71
     5
 72
     1
  1
\A1;1.5
  0
POINT
  5
EBD
100
AcDbEntity
  8
DEFPOINTS
  6
BYBLOCK
 62
     0
100
AcDbPoint
 10
119.0
 20
164.0
 30
0.0
  0
POINT
  5
EBE
100
AcDbEntity
  8
DEFPOINTS
  6
BYBLOCK
 62
     0
100
AcDbPoint
 10
117.5
 20
168.0
 30
0.0
  0
POINT
  5
EBF
100
AcDbEntity
  8
DEFPOINTS
  6
BYBLOCK
 62
     0
100
AcDbPoint
 10
117.5
 20
189.483825
 30
0.0
  0
ENDBLK
  5
EC1
100
AcDbEntity
  8
0
100
AcDbBlockEnd
  0
BLOCK
  5
ECD
100
AcDbEntity
  8
0
100
AcDbBlockBegin
  2
*D35
 70
     1
 10
0.0
 20
0.0
 30
0.0
  3
*D35
  1

  0
LINE
  5
EC3
100
AcDbEntity
  8
0
  6
BYBLOCK
 62
     0
100
AcDbLine
 10
122.5
 20
168.0
 30
0.0
 11
150.0
 21
168.0
 31
0.0
  0
LINE
  5
EC4
100
AcDbEntity
  8
0
  6
BYBLOCK
 62
     0
100
AcDbLine
 10
122.5
 20
160.0
 30
0.0
 11
150.0
 21
160.0
 31
0.0
  0
LINE
  5
EC5
100
AcDbEntity
  8
0
  6
BYBLOCK
 62
     0
100
AcDbLine
 10
149.0
 20
166.5
 30
0.0
 11
149.0
 21
165.923333
 31
0.0
  0
LINE
  5
EC6
100
AcDbEntity
  8
0
  6
BYBLOCK
 62
     0
100
AcDbLine
 10
149.0
 20
161.5
 30
0.0
 11
149.0
 21
163.076667
 31
0.0
  0
SOLID
  5
EC7
100
AcDbEntity
  8
0
  6
BYBLOCK
 62
     0
100
AcDbTrace
 10
148.75
 20
166.5
 30
0.0
 11
149.25
 21
166.5
 31
0.0
 12
149.0
 22
168.0
 32
0.0
 13
149.0
 23
168.0
 33
0.0
  0
SOLID
  5
EC8
100
AcDbEntity
  8
0
  6
BYBLOCK
 62
     0
100
AcDbTrace
 10
148.75
 20
161.5
 30
0.0
 11
149.25
 21
161.5
 31
0.0
 12
149.0
 22
160.0
 32
0.0
 13
149.0
 23
160.0
 33
0.0
  0
MTEXT
  5
EC9
100
AcDbEntity
  8
0
  6
BYBLOCK
 62
     0
100
AcDbMText
 10
149.0
 20
164.5
 30
0.0
 40
4.0
 41
0.0
 71
     5
 72
     1
  1
\A1;8
 11
0.0
 21
1.0
 31
0.0
  0
POINT
  5
ECA
100
AcDbEntity
  8
DEFPOINTS
  6
BYBLOCK
 62
     0
100
AcDbPoint
 10
121.5
 20
168.0
 30
0.0
  0
POINT
  5
ECB
100
AcDbEntity
  8
DEFPOINTS
  6
BYBLOCK
 62
     0
100
AcDbPoint
 10
121.5
 20
160.0
 30
0.0
  0
POINT
  5
ECC
100
AcDbEntity
  8
DEFPOINTS
  6
BYBLOCK
 62
     0
100
AcDbPoint
 10
149.0
 20
160.0
 30
0.0
  0
ENDBLK
  5
ECE
100
AcDbEntity
  8
0
100
AcDbBlockEnd
  0
BLOCK
  5
ED6
100
AcDbEntity
  8
0
100
AcDbBlockBegin
  2
*D36
 70
     1
 10
0.0
 20
0.0
 30
0.0
  3
*D36
  1

  0
LINE
  5
ED0
100
AcDbEntity
  8
0
  6
BYBLOCK
 62
     0
100
AcDbLine
 10
79.5
 20
174.0
 30
0.0
 11
81.0
 21
174.0
 31
0.0
  0
LINE
  5
ED1
100
AcDbEntity
  8
0
  6
BYBLOCK
 62
     0
100
AcDbLine
 10
81.0
 20
174.0
 30
0.0
 11
122.777092
 21
162.368327
 31
0.0
  0
MTEXT
  5
ED2
100
AcDbEntity
  8
0
  6
BYBLOCK
 62
     0
100
AcDbMText
 10
76.076667
 20
174.0
 30
0.0
 40
4.0
 41
0.0
 71
     5
 72
     1
  1
\A1;R6
  0
SOLID
  5
ED3
100
AcDbEntity
  8
0
  6
BYBLOCK
 62
     0
100
AcDbTrace
 10
121.399111
 20
163.011497
 30
0.0
 11
121.265001
 21
162.529818
 31
0.0
 12
122.777092
 22
162.368327
 32
0.0
 13
122.777092
 23
162.368327
 33
0.0
  0
POINT
  5
ED4
100
AcDbEntity
  8
DEFPOINTS
  6
BYBLOCK
 62
     0
100
AcDbPoint
 10
122.777092
 20
162.368327
 30
0.0
  0
POINT
  5
ED5
100
AcDbEntity
  8
DEFPOINTS
  6
BYBLOCK
 62
     0
100
AcDbPoint
 10
116.916667
 20
164.0
 30
0.0
  0
ENDBLK
  5
ED7
100
AcDbEntity
  8
0
100
AcDbBlockEnd
  0
BLOCK
  5
EE3
100
AcDbEntity
  8
0
100
AcDbBlockBegin
  2
*D37
 70
     1
 10
0.0
 20
0.0
 30
0.0
  3
*D37
  1

  0
LINE
  5
ED9
100
AcDbEntity
  8
0
  6
BYBLOCK
 62
     0
100
AcDbLine
 10
107.0
 20
169.0
 30
0.0
 11
107.0
 21
199.208261
 31
0.0
  0
LINE
  5
EDA
100
AcDbEntity
  8
0
  6
BYBLOCK
 62
     0
100
AcDbLine
 10
123.0
 20
165.0
 30
0.0
 11
123.0
 21
199.208261
 31
0.0
  0
LINE
  5
EDB
100
AcDbEntity
  8
0
  6
BYBLOCK
 62
     0
100
AcDbLine
 10
108.5
 20
198.208261
 30
0.0
 11
112.375256
 21
198.208261
 31
0.0
  0
LINE
  5
EDC
100
AcDbEntity
  8
0
  6
BYBLOCK
 62
     0
100
AcDbLine
 10
121.5
 20
198.208261
 30
0.0
 11
117.888589
 21
198.208261
 31
0.0
  0
SOLID
  5
EDD
100
AcDbEntity
  8
0
  6
BYBLOCK
 62
     0
100
AcDbTrace
 10
108.5
 20
198.458261
 30
0.0
 11
108.5
 21
197.958261
 31
0.0
 12
107.0
 22
198.208261
 32
0.0
 13
107.0
 23
198.208261
 33
0.0
  0
SOLID
  5
EDE
100
AcDbEntity
  8
0
  6
BYBLOCK
 62
     0
100
AcDbTrace
 10
121.5
 20
198.458261
 30
0.0
 11
121.5
 21
197.958261
 31
0.0
 12
123.0
 22
198.208261
 32
0.0
 13
123.0
 23
198.208261
 33
0.0
  0
MTEXT
  5
EDF
100
AcDbEntity
  8
0
  6
BYBLOCK
 62
     0
100
AcDbMText
 10
115.131923
 20
198.208261
 30
0.0
 40
4.0
 41
0.0
 71
     5
 72
     1
  1
\A1;16
  0
POINT
  5
EE0
100
AcDbEntity
  8
DEFPOINTS
  6
BYBLOCK
 62
     0
100
AcDbPoint
 10
107.0
 20
168.0
 30
0.0
  0
POINT
  5
EE1
100
AcDbEntity
  8
DEFPOINTS
  6
BYBLOCK
 62
     0
100
AcDbPoint
 10
123.0
 20
164.0
 30
0.0
  0
POINT
  5
EE2
100
AcDbEntity
  8
DEFPOINTS
  6
BYBLOCK
 62
     0
100
AcDbPoint
 10
123.0
 20
198.208261
 30
0.0
  0
ENDBLK
  5
EE4
100
AcDbEntity
  8
0
100
AcDbBlockEnd
  0
BLOCK
  5
EF0
100
AcDbEntity
  8
0
100
AcDbBlockBegin
  2
*D38
 70
     1
 10
0.0
 20
0.0
 30
0.0
  3
*D38
  1

  0
LINE
  5
EE6
100
AcDbEntity
  8
0
  6
BYBLOCK
 62
     0
100
AcDbLine
 10
58.5
 20
167.0
 30
0.0
 11
58.5
 21
181.000265
 31
0.0
  0
LINE
  5
EE7
100
AcDbEntity
  8
0
  6
BYBLOCK
 62
     0
100
AcDbLine
 10
60.5
 20
167.5
 30
0.0
 11
60.5
 21
181.000265
 31
0.0
  0
LINE
  5
EE8
100
AcDbEntity
  8
0
  6
BYBLOCK
 62
     0
100
AcDbLine
 10
62.0
 20
180.000265
 30
0.0
 11
63.5
 21
180.000265
 31
0.0
  0
LINE
  5
EE9
100
AcDbEntity
  8
0
  6
BYBLOCK
 62
     0
100
AcDbLine
 10
57.0
 20
180.000265
 30
0.0
 11
48.586604
 21
180.000265
 31
0.0
  0
SOLID
  5
EEA
100
AcDbEntity
  8
0
  6
BYBLOCK
 62
     0
100
AcDbTrace
 10
62.0
 20
180.250265
 30
0.0
 11
62.0
 21
179.750265
 31
0.0
 12
60.5
 22
180.000265
 32
0.0
 13
60.5
 23
180.000265
 33
0.0
  0
SOLID
  5
EEB
100
AcDbEntity
  8
0
  6
BYBLOCK
 62
     0
100
AcDbTrace
 10
57.0
 20
180.250265
 30
0.0
 11
57.0
 21
179.750265
 31
0.0
 12
58.5
 22
180.000265
 32
0.0
 13
58.5
 23
180.000265
 33
0.0
  0
MTEXT
  5
EEC
100
AcDbEntity
  8
0
  6
BYBLOCK
 62
     0
100
AcDbMText
 10
47.163271
 20
180.000265
 30
0.0
 40
4.0
 41
0.0
 71
     5
 72
     1
  1
\A1;2
  0
POINT
  5
EED
100
AcDbEntity
  8
DEFPOINTS
  6
BYBLOCK
 62
     0
100
AcDbPoint
 10
58.5
 20
166.0
 30
0.0
  0
POINT
  5
EEE
100
AcDbEntity
  8
DEFPOINTS
  6
BYBLOCK
 62
     0
100
AcDbPoint
 10
60.5
 20
166.5
 30
0.0
  0
POINT
  5
EEF
100
AcDbEntity
  8
DEFPOINTS
  6
BYBLOCK
 62
     0
100
AcDbPoint
 10
60.5
 20
180.000265
 30
0.0
  0
ENDBLK
  5
EF1
100
AcDbEntity
  8
0
100
AcDbBlockEnd
  0
BLOCK
  5
EFD
100
AcDbEntity
  8
0
100
AcDbBlockBegin
  2
*D39
 70
     1
 10
0.0
 20
0.0
 30
0.0
  3
*D39
  1

  0
LINE
  5
EF3
100
AcDbEntity
  8
0
  6
BYBLOCK
 62
     0
100
AcDbLine
 10
60.5
 20
167.5
 30
0.0
 11
60.5
 21
185.896533
 31
0.0
  0
LINE
  5
EF4
100
AcDbEntity
  8
0
  6
BYBLOCK
 62
     0
100
AcDbLine
 10
62.5
 20
167.5
 30
0.0
 11
62.5
 21
185.896533
 31
0.0
  0
LINE
  5
EF5
100
AcDbEntity
  8
0
  6
BYBLOCK
 62
     0
100
AcDbLine
 10
59.0
 20
184.896533
 30
0.0
 11
57.5
 21
184.896533
 31
0.0
  0
LINE
  5
EF6
100
AcDbEntity
  8
0
  6
BYBLOCK
 62
     0
100
AcDbLine
 10
64.0
 20
184.896533
 30
0.0
 11
66.406082
 21
184.896533
 31
0.0
  0
SOLID
  5
EF7
100
AcDbEntity
  8
0
  6
BYBLOCK
 62
     0
100
AcDbTrace
 10
59.0
 20
185.146533
 30
0.0
 11
59.0
 21
184.646533
 31
0.0
 12
60.5
 22
184.896533
 32
0.0
 13
60.5
 23
184.896533
 33
0.0
  0
SOLID
  5
EF8
100
AcDbEntity
  8
0
  6
BYBLOCK
 62
     0
100
AcDbTrace
 10
64.0
 20
185.146533
 30
0.0
 11
64.0
 21
184.646533
 31
0.0
 12
62.5
 22
184.896533
 32
0.0
 13
62.5
 23
184.896533
 33
0.0
  0
MTEXT
  5
EF9
100
AcDbEntity
  8
0
  6
BYBLOCK
 62
     0
100
AcDbMText
 10
67.829415
 20
184.896533
 30
0.0
 40
4.0
 41
0.0
 71
     5
 72
     1
  1
\A1;2
  0
POINT
  5
EFA
100
AcDbEntity
  8
DEFPOINTS
  6
BYBLOCK
 62
     0
100
AcDbPoint
 10
60.5
 20
166.5
 30
0.0
  0
POINT
  5
EFB
100
AcDbEntity
  8
DEFPOINTS
  6
BYBLOCK
 62
     0
100
AcDbPoint
 10
62.5
 20
166.5
 30
0.0
  0
POINT
  5
EFC
100
AcDbEntity
  8
DEFPOINTS
  6
BYBLOCK
 62
     0
100
AcDbPoint
 10
62.5
 20
184.896533
 30
0.0
  0
ENDBLK
  5
EFE
100
AcDbEntity
  8
0
100
AcDbBlockEnd
  0
BLOCK
  5
F0A
100
AcDbEntity
  8
0
100
AcDbBlockBegin
  2
*D40
 70
     1
 10
0.0
 20
0.0
 30
0.0
  3
*D40
  1

  0
LINE
  5
F00
100
AcDbEntity
  8
0
  6
BYBLOCK
 62
     0
100
AcDbLine
 10
58.5
 20
167.0
 30
0.0
 11
58.5
 21
209.612829
 31
0.0
  0
LINE
  5
F01
100
AcDbEntity
  8
0
  6
BYBLOCK
 62
     0
100
AcDbLine
 10
123.0
 20
165.0
 30
0.0
 11
123.0
 21
209.612829
 31
0.0
  0
LINE
  5
F02
100
AcDbEntity
  8
0
  6
BYBLOCK
 62
     0
100
AcDbLine
 10
60.0
 20
208.612829
 30
0.0
 11
84.089467
 21
208.612829
 31
0.0
  0
LINE
  5
F03
100
AcDbEntity
  8
0
  6
BYBLOCK
 62
     0
100
AcDbLine
 10
121.5
 20
208.612829
 30
0.0
 11
96.269467
 21
208.612829
 31
0.0
  0
SOLID
  5
F04
100
AcDbEntity
  8
0
  6
BYBLOCK
 62
     0
100
AcDbTrace
 10
60.0
 20
208.862829
 30
0.0
 11
60.0
 21
208.362829
 31
0.0
 12
58.5
 22
208.612829
 32
0.0
 13
58.5
 23
208.612829
 33
0.0
  0
SOLID
  5
F05
100
AcDbEntity
  8
0
  6
BYBLOCK
 62
     0
100
AcDbTrace
 10
121.5
 20
208.862829
 30
0.0
 11
121.5
 21
208.362829
 31
0.0
 12
123.0
 22
208.612829
 32
0.0
 13
123.0
 23
208.612829
 33
0.0
  0
MTEXT
  5
F06
100
AcDbEntity
  8
0
  6
BYBLOCK
 62
     0
100
AcDbMText
 10
90.179467
 20
208.612829
 30
0.0
 40
4.0
 41
0.0
 71
     5
 72
     1
  1
\A1;64.5
  0
POINT
  5
F07
100
AcDbEntity
  8
DEFPOINTS
  6
BYBLOCK
 62
     0
100
AcDbPoint
 10
58.5
 20
166.0
 30
0.0
  0
POINT
  5
F08
100
AcDbEntity
  8
DEFPOINTS
  6
BYBLOCK
 62
     0
100
AcDbPoint
 10
123.0
 20
164.0
 30
0.0
  0
POINT
  5
F09
100
AcDbEntity
  8
DEFPOINTS
  6
BYBLOCK
 62
     0
100
AcDbPoint
 10
123.0
 20
208.612829
 30
0.0
  0
ENDBLK
  5
F0B
100
AcDbEntity
  8
0
100
AcDbBlockEnd
  0
BLOCK
  5
F17
100
AcDbEntity
  8
0
100
AcDbBlockBegin
  2
*D41
 70
     1
 10
0.0
 20
0.0
 30
0.0
  3
*D41
  1

  0
LINE
  5
F0D
100
AcDbEntity
  8
0
  6
BYBLOCK
 62
     0
100
AcDbLine
 10
107.0
 20
169.0
 30
0.0
 11
107.0
 21
199.208261
 31
0.0
  0
LINE
  5
F0E
100
AcDbEntity
  8
0
  6
BYBLOCK
 62
     0
100
AcDbLine
 10
58.5
 20
167.0
 30
0.0
 11
58.5
 21
199.208261
 31
0.0
  0
LINE
  5
F0F
100
AcDbEntity
  8
0
  6
BYBLOCK
 62
     0
100
AcDbLine
 10
105.5
 20
198.208261
 30
0.0
 11
91.983156
 21
198.208261
 31
0.0
  0
LINE
  5
F10
100
AcDbEntity
  8
0
  6
BYBLOCK
 62
     0
100
AcDbLine
 10
60.0
 20
198.208261
 30
0.0
 11
79.803156
 21
198.208261
 31
0.0
  0
SOLID
  5
F11
100
AcDbEntity
  8
0
  6
BYBLOCK
 62
     0
100
AcDbTrace
 10
105.5
 20
198.458261
 30
0.0
 11
105.5
 21
197.958261
 31
0.0
 12
107.0
 22
198.208261
 32
0.0
 13
107.0
 23
198.208261
 33
0.0
  0
SOLID
  5
F12
100
AcDbEntity
  8
0
  6
BYBLOCK
 62
     0
100
AcDbTrace
 10
60.0
 20
198.458261
 30
0.0
 11
60.0
 21
197.958261
 31
0.0
 12
58.5
 22
198.208261
 32
0.0
 13
58.5
 23
198.208261
 33
0.0
  0
MTEXT
  5
F13
100
AcDbEntity
  8
0
  6
BYBLOCK
 62
     0
100
AcDbMText
 10
85.893156
 20
198.208261
 30
0.0
 40
4.0
 41
0.0
 71
     5
 72
     1
  1
\A1;48.5
  0
POINT
  5
F14
100
AcDbEntity
  8
DEFPOINTS
  6
BYBLOCK
 62
     0
100
AcDbPoint
 10
107.0
 20
168.0
 30
0.0
  0
POINT
  5
F15
100
AcDbEntity
  8
DEFPOINTS
  6
BYBLOCK
 62
     0
100
AcDbPoint
 10
58.5
 20
166.0
 30
0.0
  0
POINT
  5
F16
100
AcDbEntity
  8
DEFPOINTS
  6
BYBLOCK
 62
     0
100
AcDbPoint
 10
58.5
 20
198.208261
 30
0.0
  0
ENDBLK
  5
F18
100
AcDbEntity
  8
0
100
AcDbBlockEnd
  0
BLOCK
  5
F25
100
AcDbEntity
  8
0
100
AcDbBlockBegin
  2
*D42
 70
     1
 10
0.0
 20
0.0
 30
0.0
  3
*D42
  1

  0
LINE
  5
F1A
100
AcDbEntity
  8
0
  6
BYBLOCK
 62
     0
100
AcDbLine
 10
61.5
 20
166.5
 30
0.0
 11
33.442654
 21
166.5
 31
0.0
  0
LINE
  5
F1B
100
AcDbEntity
  8
0
  6
BYBLOCK
 62
     0
100
AcDbLine
 10
61.5
 20
161.5
 30
0.0
 11
33.442654
 21
161.5
 31
0.0
  0
LINE
  5
F1C
100
AcDbEntity
  8
0
  6
BYBLOCK
 62
     0
100
AcDbLine
 10
34.442654
 20
163.0
 30
0.0
 11
34.442654
 21
165.0
 31
0.0
  0
LINE
  5
F1D
100
AcDbEntity
  8
0
  6
BYBLOCK
 62
     0
100
AcDbLine
 10
34.442654
 20
166.5
 30
0.0
 11
34.442654
 21
174.797981
 31
0.0
  0
LINE
  5
F1E
100
AcDbEntity
  8
0
  6
BYBLOCK
 62
     0
100
AcDbLine
 10
34.442654
 20
174.797981
 30
0.0
 11
35.942654
 21
174.797981
 31
0.0
  0
SOLID
  5
F1F
100
AcDbEntity
  8
0
  6
BYBLOCK
 62
     0
100
AcDbTrace
 10
34.192654
 20
163.0
 30
0.0
 11
34.692654
 21
163.0
 31
0.0
 12
34.442654
 22
161.5
 32
0.0
 13
34.442654
 23
161.5
 33
0.0
  0
SOLID
  5
F20
100
AcDbEntity
  8
0
  6
BYBLOCK
 62
     0
100
AcDbTrace
 10
34.192654
 20
165.0
 30
0.0
 11
34.692654
 21
165.0
 31
0.0
 12
34.442654
 22
166.5
 32
0.0
 13
34.442654
 23
166.5
 33
0.0
  0
MTEXT
  5
F21
100
AcDbEntity
  8
0
  6
BYBLOCK
 62
     0
100
AcDbMText
 10
37.365987
 20
174.797981
 30
0.0
 40
4.0
 41
0.0
 71
     5
 72
     1
  1
\A1;5
  0
POINT
  5
F22
100
AcDbEntity
  8
DEFPOINTS
  6
BYBLOCK
 62
     0
100
AcDbPoint
 10
62.5
 20
166.5
 30
0.0
  0
POINT
  5
F23
100
AcDbEntity
  8
DEFPOINTS
  6
BYBLOCK
 62
     0
100
AcDbPoint
 10
62.5
 20
161.5
 30
0.0
  0
POINT
  5
F24
100
AcDbEntity
  8
DEFPOINTS
  6
BYBLOCK
 62
     0
100
AcDbPoint
 10
34.442654
 20
161.5
 30
0.0
  0
ENDBLK
  5
F26
100
AcDbEntity
  8
0
100
AcDbBlockEnd
  0
BLOCK
  5
F33
100
AcDbEntity
  8
0
100
AcDbBlockBegin
  2
*D43
 70
     1
 10
0.0
 20
0.0
 30
0.0
  3
*D43
  1

  0
LINE
  5
F28
100
AcDbEntity
  8
0
  6
BYBLOCK
 62
     0
100
AcDbLine
 10
59.5
 20
166.0
 30
0.0
 11
37.882048
 21
166.0
 31
0.0
  0
LINE
  5
F29
100
AcDbEntity
  8
0
  6
BYBLOCK
 62
     0
100
AcDbLine
 10
59.5
 20
162.0
 30
0.0
 11
37.882048
 21
162.0
 31
0.0
  0
LINE
  5
F2A
100
AcDbEntity
  8
0
  6
BYBLOCK
 62
     0
100
AcDbLine
 10
38.882048
 20
163.5
 30
0.0
 11
38.882048
 21
164.5
 31
0.0
  0
LINE
  5
F2B
100
AcDbEntity
  8
0
  6
BYBLOCK
 62
     0
100
AcDbLine
 10
38.882048
 20
166.0
 30
0.0
 11
38.882048
 21
170.513746
 31
0.0
  0
LINE
  5
F2C
100
AcDbEntity
  8
0
  6
BYBLOCK
 62
     0
100
AcDbLine
 10
38.882048
 20
170.513746
 30
0.0
 11
40.382048
 21
170.513746
 31
0.0
  0
SOLID
  5
F2D
100
AcDbEntity
  8
0
  6
BYBLOCK
 62
     0
100
AcDbTrace
 10
38.632048
 20
163.5
 30
0.0
 11
39.132048
 21
163.5
 31
0.0
 12
38.882048
 22
162.0
 32
0.0
 13
38.882048
 23
162.0
 33
0.0
  0
SOLID
  5
F2E
100
AcDbEntity
  8
0
  6
BYBLOCK
 62
     0
100
AcDbTrace
 10
38.632048
 20
164.5
 30
0.0
 11
39.132048
 21
164.5
 31
0.0
 12
38.882048
 22
166.0
 32
0.0
 13
38.882048
 23
166.0
 33
0.0
  0
MTEXT
  5
F2F
100
AcDbEntity
  8
0
  6
BYBLOCK
 62
     0
100
AcDbMText
 10
41.805381
 20
170.513746
 30
0.0
 40
4.0
 41
0.0
 71
     5
 72
     1
  1
\A1;4
  0
POINT
  5
F30
100
AcDbEntity
  8
DEFPOINTS
  6
BYBLOCK
 62
     0
100
AcDbPoint
 10
60.5
 20
166.0
 30
0.0
  0
POINT
  5
F31
100
AcDbEntity
  8
DEFPOINTS
  6
BYBLOCK
 62
     0
100
AcDbPoint
 10
60.5
 20
162.0
 30
0.0
  0
POINT
  5
F32
100
AcDbEntity
  8
DEFPOINTS
  6
BYBLOCK
 62
     0
100
AcDbPoint
 10
38.882048
 20
162.0
 30
0.0
  0
ENDBLK
  5
F34
100
AcDbEntity
  8
0
100
AcDbBlockEnd
  0
BLOCK
  5
F38
100
AcDbEntity
  8
0
100
AcDbBlockBegin
  2
A$C43FD107B
 70
     0
 10
0.0
 20
0.0
 30
0.0
  3
A$C43FD107B
  1

  0
TEXT
  5
F36
100
AcDbEntity
  8
3
100
AcDbText
 10
0.0
 20
0.0
 30
0.0
 40
5.0
  1
センターレス加工をすること。
 41
0.7
100
AcDbText
  0
TEXT
  5
F37
100
AcDbEntity
  8
3
100
AcDbText
 10
0.0
 20
6.0
 30
0.0
 40
5.0
  1
2003.8.2以後の製作分より
 41
0.7
100
AcDbText
  0
ENDBLK
  5
F39
100
AcDbEntity
  8
0
100
AcDbBlockEnd
  0
BLOCK
  5
F6D
100
AcDbEntity
  8
0
100
AcDbBlockBegin
  2
A$C72AD58F5
 70
     0
 10
0.0
 20
0.0
 30
0.0
  3
A$C72AD58F5
  1

  0
LINE
  5
F3B
100
AcDbEntity
  8
0
100
AcDbLine
 10
163.857256
 20
137.981439
 30
0.0
 11
31.140877
 21
0.0
 31
0.0
  0
TEXT
  5
F3C
100
AcDbEntity
  8
3
100
AcDbText
 10
82.20855
 20
2.71195
 30
0.0
 40
3.5
  1
材質：Ｓ45Ｃ　　又は　　ロット材
 41
0.5
  7
EXTFONT
100
AcDbText
  0
LEADER
  5
F3D
100
AcDbEntity
  8
0
100
AcDbLeader
  3
STANDARD
 76
     2
 10
96.5
 20
81.439601
 30
0.0
 10
77.5
 20
46.439601
 30
0.0
 77
   256
1001
ACAD
1000
DSTYLE
1002
{
1070
    78
1070
     8
1070
   288
1070
     1
1070
   284
1070
     8
1070
   140
1040
4.0
1070
    73
1070
     0
1070
   272
1070
     2
1070
    42
1040
1.0
1070
    44
1040
1.0
1070
   271
1070
     2
1070
    41
1040
1.5
1002
}
  0
DIMENSION
  5
F3E
100
AcDbEntity
  8
0
100
AcDbDimension
  2
*D41
 10
48.0
 20
119.647861
 30
0.0
 11
75.393155
 21
119.647861
 31
0.0
 12
-10.5
 22
-78.560399
 32
0.0
 70
   128
  3
STANDARD
100
AcDbAlignedDimension
 13
96.5
 23
89.439601
 33
0.0
 14
48.0
 24
87.439601
 34
0.0
100
AcDbRotatedDimension
1001
ACAD
1000
DSTYLE
1002
{
1070
    78
1070
     8
1070
   288
1070
     1
1070
   284
1070
     8
1070
   140
1040
4.0
1070
    73
1070
     0
1070
   272
1070
     2
1070
    42
1040
1.0
1070
    44
1040
1.0
1070
   271
1070
     2
1070
    41
1040
1.5
1002
}
  0
DIMENSION
  5
F3F
100
AcDbEntity
  8
0
100
AcDbDimension
  2
*D40
 10
112.5
 20
130.05243
 30
0.0
 11
79.679467
 21
130.05243
 31
0.0
 12
-10.5
 22
-78.560399
 32
0.0
 70
   128
  3
STANDARD
100
AcDbAlignedDimension
 13
48.0
 23
87.439601
 33
0.0
 14
112.5
 24
85.439601
 34
0.0
100
AcDbRotatedDimension
1001
ACAD
1000
DSTYLE
1002
{
1070
    78
1070
     8
1070
   288
1070
     1
1070
   284
1070
     8
1070
   140
1040
4.0
1070
    73
1070
     0
1070
   272
1070
     2
1070
    42
1040
1.0
1070
    44
1040
1.0
1070
   271
1070
     2
1070
    41
1040
1.5
1002
}
  0
LINE
  5
F40
100
AcDbEntity
  8
3
100
AcDbLine
 10
96.5
 20
87.939601
 30
0.0
 11
52.0
 21
87.939601
 31
0.0
  0
LINE
  5
F41
100
AcDbEntity
  8
3
100
AcDbLine
 10
96.5
 20
82.939601
 30
0.0
 11
52.0
 21
82.939601
 31
0.0
  0
LEADER
  5
F42
100
AcDbEntity
  8
0
100
AcDbLeader
  3
STANDARD
 76
     2
 10
111.0
 20
80.939601
 30
0.0
 10
77.5
 20
46.439601
 30
0.0
 77
   256
1001
ACAD
1000
DSTYLE
1002
{
1070
    78
1070
     8
1070
   288
1070
     1
1070
   284
1070
     8
1070
   140
1040
4.0
1070
    73
1070
     0
1070
   272
1070
     2
1070
    42
1040
1.0
1070
    44
1040
1.0
1070
   271
1070
     2
1070
    41
1040
1.5
1002
}
  0
DIMENSION
  5
F43
100
AcDbEntity
  8
0
100
AcDbDimension
  2
*D36
 10
106.416666
 20
85.439601
 30
0.0
 11
65.576666
 21
95.439601
 31
0.0
 12
-10.5
 22
-78.560399
 32
0.0
 70
   132
  1
R6
  3
STANDARD
100
AcDbRadialDimension
 15
112.277092
 25
83.807928
 35
0.0
 40
0.0
1001
ACAD
1000
DSTYLE
1002
{
1070
    78
1070
     8
1070
   288
1070
     1
1070
   284
1070
     8
1070
   140
1040
4.0
1070
    73
1070
     0
1070
   272
1070
     2
1070
   287
1070
     4
1070
    42
1040
1.0
1070
    44
1040
1.0
1070
   271
1070
     2
1070
    41
1040
1.5
1002
}
  0
LINE
  5
F44
100
AcDbEntity
  8
1
100
AcDbLine
 10
43.0
 20
85.439601
 30
0.0
 11
120.0
 21
85.439601
 31
0.0
  0
TEXT
  5
F45
100
AcDbEntity
  8
0
100
AcDbText
 10
66.5
 20
44.439601
 30
0.0
 40
3.5
  1
糸面取り
 41
0.5
  7
EXTFONT
100
AcDbText
  0
DIMENSION
  5
F46
100
AcDbEntity
  8
0
100
AcDbDimension
  2
*D42
 10
23.942654
 20
82.939601
 30
0.0
 11
26.865987
 21
96.237581
 31
0.0
 12
-10.5
 22
-78.560399
 32
0.0
 70
   128
  3
STANDARD
100
AcDbAlignedDimension
 13
52.0
 23
87.939601
 33
0.0
 14
52.0
 24
82.939601
 34
0.0
 50
90.0
100
AcDbRotatedDimension
1001
ACAD
1000
DSTYLE
1002
{
1070
    78
1070
     8
1070
   288
1070
     1
1070
   284
1070
     8
1070
   140
1040
4.0
1070
    73
1070
     0
1070
   272
1070
     2
1070
    42
1040
1.0
1070
    44
1040
1.0
1070
   271
1070
     2
1070
    41
1040
1.5
1002
}
  0
CIRCLE
  5
F47
100
AcDbEntity
  8
3
100
AcDbCircle
 10
9.0
 20
85.439601
 30
0.0
 40
2.0
  0
CIRCLE
  5
F48
100
AcDbEntity
  8
3
100
AcDbCircle
 10
9.0
 20
85.439601
 30
0.0
 40
2.5
  0
CIRCLE
  5
F49
100
AcDbEntity
  8
3
100
AcDbCircle
 10
9.0
 20
85.439601
 30
0.0
 40
4.0
  0
LINE
  5
F4A
100
AcDbEntity
  8
1
100
AcDbLine
 10
18.0
 20
85.439601
 30
0.0
 11
0.0
 21
85.439601
 31
0.0
  0
LINE
  5
F4B
100
AcDbEntity
  8
1
100
AcDbLine
 10
9.0
 20
94.939601
 30
0.0
 11
9.0
 21
76.439601
 31
0.0
  0
DIMENSION
  5
F4C
100
AcDbEntity
  8
0
100
AcDbDimension
  2
*D39
 10
52.0
 20
106.336133
 30
0.0
 11
57.329415
 21
106.336133
 31
0.0
 12
-10.5
 22
-78.560399
 32
0.0
 70
   128
  3
STANDARD
100
AcDbAlignedDimension
 13
50.0
 23
87.939601
 33
0.0
 14
52.0
 24
87.939601
 34
0.0
100
AcDbRotatedDimension
1001
ACAD
1000
DSTYLE
1002
{
1070
    78
1070
     8
1070
   288
1070
     1
1070
   284
1070
     8
1070
   140
1040
4.0
1070
    73
1070
     0
1070
   272
1070
     2
1070
    42
1040
1.0
1070
    44
1040
1.0
1070
   271
1070
     2
1070
    41
1040
1.5
1002
}
  0
DIMENSION
  5
F4D
100
AcDbEntity
  8
0
100
AcDbDimension
  2
*D43
 10
28.382048
 20
83.439601
 30
0.0
 11
31.305381
 21
91.953347
 31
0.0
 12
-10.5
 22
-78.560399
 32
0.0
 70
   128
  3
STANDARD
100
AcDbAlignedDimension
 13
50.0
 23
87.439601
 33
0.0
 14
50.0
 24
83.439601
 34
0.0
 50
90.0
100
AcDbRotatedDimension
1001
ACAD
1000
DSTYLE
1002
{
1070
    78
1070
     8
1070
   288
1070
     1
1070
   284
1070
     8
1070
   140
1040
4.0
1070
    73
1070
     0
1070
   272
1070
     2
1070
    42
1040
1.0
1070
    44
1040
1.0
1070
   271
1070
     2
1070
    41
1040
1.5
1002
}
  0
DIMENSION
  5
F4E
100
AcDbEntity
  8
0
100
AcDbDimension
  2
*D38
 10
50.0
 20
101.439866
 30
0.0
 11
36.663271
 21
101.439866
 31
0.0
 12
-10.5
 22
-78.560399
 32
0.0
 70
   128
  3
STANDARD
100
AcDbAlignedDimension
 13
48.0
 23
87.439601
 33
0.0
 14
50.0
 24
87.939601
 34
0.0
100
AcDbRotatedDimension
1001
ACAD
1000
DSTYLE
1002
{
1070
    78
1070
     8
1070
   288
1070
     1
1070
   284
1070
     8
1070
   140
1040
4.0
1070
    73
1070
     0
1070
   272
1070
     2
1070
    42
1040
1.0
1070
    44
1040
1.0
1070
   271
1070
     2
1070
    41
1040
1.5
1002
}
  0
LINE
  5
F4F
100
AcDbEntity
  8
3
100
AcDbLine
 10
52.0
 20
87.939601
 30
0.0
 11
52.0
 21
85.439601
 31
0.0
  0
LINE
  5
F50
100
AcDbEntity
  8
3
100
AcDbLine
 10
50.0
 20
87.439601
 30
0.0
 11
50.0
 21
85.439601
 31
0.0
  0
LINE
  5
F51
100
AcDbEntity
  8
3
100
AcDbLine
 10
48.0
 20
87.439601
 30
0.0
 11
48.0
 21
85.439601
 31
0.0
  0
LINE
  5
F52
100
AcDbEntity
  8
3
100
AcDbLine
 10
50.0
 20
82.939601
 30
0.0
 11
48.0
 21
83.439601
 31
0.0
  0
LINE
  5
F53
100
AcDbEntity
  8
3
100
AcDbLine
 10
48.0
 20
83.439601
 30
0.0
 11
48.0
 21
85.439601
 31
0.0
  0
LINE
  5
F54
100
AcDbEntity
  8
3
100
AcDbLine
 10
52.0
 20
82.939601
 30
0.0
 11
50.0
 21
83.439601
 31
0.0
  0
LINE
  5
F55
100
AcDbEntity
  8
3
100
AcDbLine
 10
50.0
 20
83.439601
 30
0.0
 11
50.0
 21
82.939601
 31
0.0
  0
LINE
  5
F56
100
AcDbEntity
  8
3
100
AcDbLine
 10
50.0
 20
83.439601
 30
0.0
 11
50.0
 21
85.439601
 31
0.0
  0
LINE
  5
F57
100
AcDbEntity
  8
3
100
AcDbLine
 10
52.0
 20
82.939601
 30
0.0
 11
52.0
 21
85.439601
 31
0.0
  0
LINE
  5
F58
100
AcDbEntity
  8
3
100
AcDbLine
 10
50.0
 20
87.939601
 30
0.0
 11
48.0
 21
87.439601
 31
0.0
  0
LINE
  5
F59
100
AcDbEntity
  8
3
100
AcDbLine
 10
52.0
 20
87.939601
 30
0.0
 11
50.0
 21
87.439601
 31
0.0
  0
LINE
  5
F5A
100
AcDbEntity
  8
3
100
AcDbLine
 10
50.0
 20
87.439601
 30
0.0
 11
50.0
 21
87.939601
 31
0.0
  0
INSERT
  5
F5B
100
AcDbEntity
  8
0
100
AcDbBlockReference
  2
A$C43FD107B
 10
120.643514
 20
67.346589
 30
0.0
  0
DIMENSION
  5
F5C
100
AcDbEntity
  8
0
100
AcDbDimension
  2
*D35
 10
138.5
 20
81.439601
 30
0.0
 11
138.5
 21
85.939601
 31
0.0
 12
-10.5
 22
-78.560399
 32
0.0
 70
   128
  3
STANDARD
100
AcDbAlignedDimension
 13
111.0
 23
89.439601
 33
0.0
 14
111.0
 24
81.439601
 34
0.0
 50
90.0
100
AcDbRotatedDimension
1001
ACAD
1000
DSTYLE
1002
{
1070
    78
1070
     8
1070
   288
1070
     1
1070
   284
1070
     8
1070
   140
1040
4.0
1070
    73
1070
     0
1070
   272
1070
     2
1070
    42
1040
1.0
1070
    44
1040
1.0
1070
   271
1070
     2
1070
    41
1040
1.5
1002
}
  0
DIMENSION
  5
F5D
100
AcDbEntity
  8
0
100
AcDbDimension
  2
*D34
 10
111.0
 20
110.923425
 30
0.0
 11
122.169242
 21
110.923425
 31
0.0
 12
-6.5
 22
-78.560399
 32
0.0
 70
   128
  3
STANDARD
100
AcDbAlignedDimension
 13
112.5
 23
85.439601
 33
0.0
 14
111.0
 24
89.439601
 34
0.0
100
AcDbRotatedDimension
1001
ACAD
1000
DSTYLE
1002
{
1070
    78
1070
     8
1070
   288
1070
     1
1070
   284
1070
     8
1070
   140
1040
4.0
1070
    73
1070
     0
1070
   272
1070
     2
1070
    42
1040
1.0
1070
    44
1040
1.0
1070
   271
1070
     2
1070
    41
1040
1.5
1002
}
  0
DIMENSION
  5
F5E
100
AcDbEntity
  8
0
100
AcDbDimension
  2
*D37
 10
112.5
 20
119.647861
 30
0.0
 11
104.631922
 21
119.647861
 31
0.0
 12
-10.5
 22
-78.560399
 32
0.0
 70
   128
  3
STANDARD
100
AcDbAlignedDimension
 13
96.5
 23
89.439601
 33
0.0
 14
112.5
 24
85.439601
 34
0.0
100
AcDbRotatedDimension
1001
ACAD
1000
DSTYLE
1002
{
1070
    78
1070
     8
1070
   288
1070
     1
1070
   284
1070
     8
1070
   140
1040
4.0
1070
    73
1070
     0
1070
   272
1070
     2
1070
    42
1040
1.0
1070
    44
1040
1.0
1070
   271
1070
     2
1070
    41
1040
1.5
1002
}
  0
LINE
  5
F5F
100
AcDbEntity
  8
3
100
AcDbLine
 10
96.5
 20
89.439601
 30
0.0
 11
111.0
 21
89.439601
 31
0.0
  0
LINE
  5
F60
100
AcDbEntity
  8
3
100
AcDbLine
 10
111.0
 20
81.439601
 30
0.0
 11
96.5
 21
81.439601
 31
0.0
  0
LINE
  5
F61
100
AcDbEntity
  8
3
100
AcDbLine
 10
96.5
 20
85.439601
 30
0.0
 11
96.5
 21
89.439601
 31
0.0
  0
LINE
  5
F62
100
AcDbEntity
  8
3
100
AcDbLine
 10
96.5
 20
85.439601
 30
0.0
 11
96.5
 21
82.939601
 31
0.0
  0
LINE
  5
F63
100
AcDbEntity
  8
3
100
AcDbLine
 10
96.5
 20
85.439601
 30
0.0
 11
96.5
 21
81.439601
 31
0.0
  0
LINE
  5
F64
100
AcDbEntity
  8
0
100
AcDbLine
 10
111.0
 20
89.439601
 30
0.0
 11
111.0
 21
81.439601
 31
0.0
  0
ARC
  5
F65
100
AcDbEntity
  8
3
100
AcDbCircle
 10
106.416666
 20
85.439601
 30
0.0
 40
6.083333
100
AcDbArc
 50
318.88791
 51
41.11209
  0
TEXT
  5
F66
100
AcDbEntity
  8
0
100
AcDbText
 10
133.5
 20
86.439601
 30
0.0
 40
1.75
  1
0.01
 50
90.0
 41
0.5
  7
EXTFONT
100
AcDbText
  0
LINE
  5
F67
100
AcDbEntity
  8
0
100
AcDbLine
 10
132.5
 20
85.939601
 30
0.0
 11
132.5
 21
84.439601
 31
0.0
  0
LINE
  5
F68
100
AcDbEntity
  8
0
100
AcDbLine
 10
134.5
 20
85.939601
 30
0.0
 11
134.5
 21
84.439601
 31
0.0
  0
TEXT
  5
F69
100
AcDbEntity
  8
0
100
AcDbText
 10
135.6
 20
86.439601
 30
0.0
 40
1.75
  1
0.03
 50
90.0
 41
0.5
  7
EXTFONT
100
AcDbText
  0
LINE
  5
F6A
100
AcDbEntity
  8
1
100
AcDbLine
 10
160.5
 20
85.439601
 30
0.0
 11
179.0
 21
85.439601
 31
0.0
  0
CIRCLE
  5
F6B
100
AcDbEntity
  8
3
100
AcDbCircle
 10
169.5
 20
85.439601
 30
0.0
 40
4.0
  0
LINE
  5
F6C
100
AcDbEntity
  8
1
100
AcDbLine
 10
169.5
 20
94.439601
 30
0.0
 11
169.5
 21
76.439601
 31
0.0
  0
ENDBLK
  5
F6E
100
AcDbEntity
  8
0
100
AcDbBlockEnd
  0
BLOCK
  5
1140
100
AcDbEntity
  8
0
100
AcDbBlockBegin
  2
*D46
 70
     1
 10
0.0
 20
0.0
 30
0.0
  3
*D46
  1

  0
LINE
  5
1136
100
AcDbEntity
  8
0
  6
BYBLOCK
 62
     0
100
AcDbLine
 10
64.0
 20
181.0
 30
0.0
 11
64.0
 21
205.0
 31
0.0
  0
LINE
  5
1137
100
AcDbEntity
  8
0
  6
BYBLOCK
 62
     0
100
AcDbLine
 10
87.0
 20
181.0
 30
0.0
 11
87.0
 21
205.0
 31
0.0
  0
LINE
  5
1138
100
AcDbEntity
  8
0
  6
BYBLOCK
 62
     0
100
AcDbLine
 10
66.0
 20
204.5
 30
0.0
 11
73.41
 21
204.5
 31
0.0
  0
LINE
  5
1139
100
AcDbEntity
  8
0
  6
BYBLOCK
 62
     0
100
AcDbLine
 10
85.0
 20
204.5
 30
0.0
 11
77.59
 21
204.5
 31
0.0
  0
SOLID
  5
113A
100
AcDbEntity
  8
0
  6
BYBLOCK
 62
     0
100
AcDbTrace
 10
66.0
 20
204.833333
 30
0.0
 11
66.0
 21
204.166667
 31
0.0
 12
64.0
 22
204.5
 32
0.0
 13
64.0
 23
204.5
 33
0.0
  0
SOLID
  5
113B
100
AcDbEntity
  8
0
  6
BYBLOCK
 62
     0
100
AcDbTrace
 10
85.0
 20
204.833333
 30
0.0
 11
85.0
 21
204.166667
 31
0.0
 12
87.0
 22
204.5
 32
0.0
 13
87.0
 23
204.5
 33
0.0
  0
MTEXT
  5
113C
100
AcDbEntity
  8
0
  6
BYBLOCK
 62
     0
100
AcDbMText
 10
75.5
 20
204.5
 30
0.0
 40
4.0
 41
0.0
 71
     5
 72
     1
  1
\A1;23
  7
BIGFONT
  0
POINT
  5
113D
100
AcDbEntity
  8
DEFPOINTS
  6
BYBLOCK
 62
     0
100
AcDbPoint
 10
64.0
 20
180.5
 30
0.0
  0
POINT
  5
113E
100
AcDbEntity
  8
DEFPOINTS
  6
BYBLOCK
 62
     0
100
AcDbPoint
 10
87.0
 20
180.5
 30
0.0
  0
POINT
  5
113F
100
AcDbEntity
  8
DEFPOINTS
  6
BYBLOCK
 62
     0
100
AcDbPoint
 10
87.0
 20
204.5
 30
0.0
  0
ENDBLK
  5
1141
100
AcDbEntity
  8
0
100
AcDbBlockEnd
  0
BLOCK
  5
114D
100
AcDbEntity
  8
0
100
AcDbBlockBegin
  2
*D47
 70
     1
 10
0.0
 20
0.0
 30
0.0
  3
*D47
  1

  0
LINE
  5
1143
100
AcDbEntity
  8
0
  6
BYBLOCK
 62
     0
100
AcDbLine
 10
83.0
 20
185.0
 30
0.0
 11
83.0
 21
191.5
 31
0.0
  0
LINE
  5
1144
100
AcDbEntity
  8
0
  6
BYBLOCK
 62
     0
100
AcDbLine
 10
87.0
 20
181.0
 30
0.0
 11
87.0
 21
191.5
 31
0.0
  0
LINE
  5
1145
100
AcDbEntity
  8
0
  6
BYBLOCK
 62
     0
100
AcDbLine
 10
81.0
 20
191.0
 30
0.0
 11
79.0
 21
191.0
 31
0.0
  0
LINE
  5
1146
100
AcDbEntity
  8
0
  6
BYBLOCK
 62
     0
100
AcDbLine
 10
89.0
 20
191.0
 30
0.0
 11
91.0
 21
191.0
 31
0.0
  0
SOLID
  5
1147
100
AcDbEntity
  8
0
  6
BYBLOCK
 62
     0
100
AcDbTrace
 10
81.0
 20
191.333333
 30
0.0
 11
81.0
 21
190.666667
 31
0.0
 12
83.0
 22
191.0
 32
0.0
 13
83.0
 23
191.0
 33
0.0
  0
SOLID
  5
1148
100
AcDbEntity
  8
0
  6
BYBLOCK
 62
     0
100
AcDbTrace
 10
89.0
 20
191.333333
 30
0.0
 11
89.0
 21
190.666667
 31
0.0
 12
87.0
 22
191.0
 32
0.0
 13
87.0
 23
191.0
 33
0.0
  0
MTEXT
  5
1149
100
AcDbEntity
  8
0
  6
BYBLOCK
 62
     0
100
AcDbMText
 10
85.0
 20
191.0
 30
0.0
 40
4.0
 41
0.0
 71
     5
 72
     1
  1
\A1;4
  7
BIGFONT
  0
POINT
  5
114A
100
AcDbEntity
  8
DEFPOINTS
  6
BYBLOCK
 62
     0
100
AcDbPoint
 10
83.0
 20
184.5
 30
0.0
  0
POINT
  5
114B
100
AcDbEntity
  8
DEFPOINTS
  6
BYBLOCK
 62
     0
100
AcDbPoint
 10
87.0
 20
180.5
 30
0.0
  0
POINT
  5
114C
100
AcDbEntity
  8
DEFPOINTS
  6
BYBLOCK
 62
     0
100
AcDbPoint
 10
87.0
 20
191.0
 30
0.0
  0
ENDBLK
  5
114E
100
AcDbEntity
  8
0
100
AcDbBlockEnd
  0
BLOCK
  5
115A
100
AcDbEntity
  8
0
100
AcDbBlockBegin
  2
*D48
 70
     1
 10
0.0
 20
0.0
 30
0.0
  3
*D48
  1

  0
LINE
  5
1150
100
AcDbEntity
  8
0
  6
BYBLOCK
 62
     0
100
AcDbLine
 10
64.5
 20
181.5
 30
0.0
 11
34.0
 21
181.5
 31
0.0
  0
LINE
  5
1151
100
AcDbEntity
  8
0
  6
BYBLOCK
 62
     0
100
AcDbLine
 10
64.5
 20
167.5
 30
0.0
 11
34.0
 21
167.5
 31
0.0
  0
LINE
  5
1152
100
AcDbEntity
  8
0
  6
BYBLOCK
 62
     0
100
AcDbLine
 10
34.5
 20
179.5
 30
0.0
 11
34.5
 21
176.69
 31
0.0
  0
LINE
  5
1153
100
AcDbEntity
  8
0
  6
BYBLOCK
 62
     0
100
AcDbLine
 10
34.5
 20
169.5
 30
0.0
 11
34.5
 21
173.31
 31
0.0
  0
SOLID
  5
1154
100
AcDbEntity
  8
0
  6
BYBLOCK
 62
     0
100
AcDbTrace
 10
34.166667
 20
179.5
 30
0.0
 11
34.833333
 21
179.5
 31
0.0
 12
34.5
 22
181.5
 32
0.0
 13
34.5
 23
181.5
 33
0.0
  0
SOLID
  5
1155
100
AcDbEntity
  8
0
  6
BYBLOCK
 62
     0
100
AcDbTrace
 10
34.166667
 20
169.5
 30
0.0
 11
34.833333
 21
169.5
 31
0.0
 12
34.5
 22
167.5
 32
0.0
 13
34.5
 23
167.5
 33
0.0
  0
MTEXT
  5
1156
100
AcDbEntity
  8
0
  6
BYBLOCK
 62
     0
100
AcDbMText
 10
34.5
 20
175.0
 30
0.0
 40
4.0
 41
0.0
 71
     5
 72
     1
  1
\A1;14
  7
BIGFONT
 11
0.0
 21
1.0
 31
0.0
  0
POINT
  5
1157
100
AcDbEntity
  8
DEFPOINTS
  6
BYBLOCK
 62
     0
100
AcDbPoint
 10
65.0
 20
181.5
 30
0.0
  0
POINT
  5
1158
100
AcDbEntity
  8
DEFPOINTS
  6
BYBLOCK
 62
     0
100
AcDbPoint
 10
65.0
 20
167.5
 30
0.0
  0
POINT
  5
1159
100
AcDbEntity
  8
DEFPOINTS
  6
BYBLOCK
 62
     0
100
AcDbPoint
 10
34.5
 20
167.5
 30
0.0
  0
ENDBLK
  5
115B
100
AcDbEntity
  8
0
100
AcDbBlockEnd
  0
BLOCK
  5
1165
100
AcDbEntity
  8
0
100
AcDbBlockBegin
  2
*D49
 70
     1
 10
0.0
 20
0.0
 30
0.0
  3
*D49
  1

  0
LINE
  5
115D
100
AcDbEntity
  8
0
  6
BYBLOCK
 62
     0
100
AcDbLine
 10
47.5
 20
157.0
 30
0.0
 11
49.5
 21
157.0
 31
0.0
  0
LINE
  5
115E
100
AcDbEntity
  8
0
  6
BYBLOCK
 62
     0
100
AcDbLine
 10
49.5
 20
157.0
 30
0.0
 11
64.196902
 21
167.904153
 31
0.0
  0
MTEXT
  5
115F
100
AcDbEntity
  8
0
  6
BYBLOCK
 62
     0
100
AcDbMText
 10
45.81
 20
157.0
 30
0.0
 40
4.0
 41
0.0
 71
     5
 72
     1
  1
\A1;R1
  7
BIGFONT
  0
SOLID
  5
1160
100
AcDbEntity
  8
0
  6
BYBLOCK
 62
     0
100
AcDbTrace
 10
62.39209
 20
166.980159
 30
0.0
 11
62.789322
 21
166.44476
 31
0.0
 12
64.196902
 22
167.904153
 32
0.0
 13
64.196902
 23
167.904153
 33
0.0
  0
LINE
  5
1161
100
AcDbEntity
  8
0
  6
BYBLOCK
 62
     0
100
AcDbLine
 10
64.91
 20
168.5
 30
0.0
 11
65.09
 21
168.5
 31
0.0
  0
LINE
  5
1162
100
AcDbEntity
  8
0
  6
BYBLOCK
 62
     0
100
AcDbLine
 10
65.0
 20
168.41
 30
0.0
 11
65.0
 21
168.59
 31
0.0
  0
POINT
  5
1163
100
AcDbEntity
  8
DEFPOINTS
  6
BYBLOCK
 62
     0
100
AcDbPoint
 10
64.196902
 20
167.904153
 30
0.0
  0
POINT
  5
1164
100
AcDbEntity
  8
DEFPOINTS
  6
BYBLOCK
 62
     0
100
AcDbPoint
 10
65.0
 20
168.5
 30
0.0
  0
ENDBLK
  5
1166
100
AcDbEntity
  8
0
100
AcDbBlockEnd
  0
BLOCK
  5
1170
100
AcDbEntity
  8
0
100
AcDbBlockBegin
  2
*D50
 70
     1
 10
0.0
 20
0.0
 30
0.0
  3
*D50
  1

  0
LINE
  5
1168
100
AcDbEntity
  8
0
  6
BYBLOCK
 62
     0
100
AcDbLine
 10
93.5
 20
158.5
 30
0.0
 11
91.5
 21
158.5
 31
0.0
  0
LINE
  5
1169
100
AcDbEntity
  8
0
  6
BYBLOCK
 62
     0
100
AcDbLine
 10
91.5
 20
158.5
 30
0.0
 11
86.481919
 21
167.623784
 31
0.0
  0
MTEXT
  5
116A
100
AcDbEntity
  8
0
  6
BYBLOCK
 62
     0
100
AcDbMText
 10
95.19
 20
158.5
 30
0.0
 40
4.0
 41
0.0
 71
     5
 72
     1
  1
\A1;R1
  7
BIGFONT
  0
SOLID
  5
116B
100
AcDbEntity
  8
0
  6
BYBLOCK
 62
     0
100
AcDbTrace
 10
87.737828
 20
166.031992
 30
0.0
 11
87.153684
 21
165.710713
 31
0.0
 12
86.481919
 22
167.623784
 32
0.0
 13
86.481919
 23
167.623784
 33
0.0
  0
LINE
  5
116C
100
AcDbEntity
  8
0
  6
BYBLOCK
 62
     0
100
AcDbLine
 10
85.91
 20
168.5
 30
0.0
 11
86.09
 21
168.5
 31
0.0
  0
LINE
  5
116D
100
AcDbEntity
  8
0
  6
BYBLOCK
 62
     0
100
AcDbLine
 10
86.0
 20
168.41
 30
0.0
 11
86.0
 21
168.59
 31
0.0
  0
POINT
  5
116E
100
AcDbEntity
  8
DEFPOINTS
  6
BYBLOCK
 62
     0
100
AcDbPoint
 10
86.481919
 20
167.623784
 30
0.0
  0
POINT
  5
116F
100
AcDbEntity
  8
DEFPOINTS
  6
BYBLOCK
 62
     0
100
AcDbPoint
 10
86.0
 20
168.5
 30
0.0
  0
ENDBLK
  5
1171
100
AcDbEntity
  8
0
100
AcDbBlockEnd
  0
BLOCK
  5
117D
100
AcDbEntity
  8
0
100
AcDbBlockBegin
  2
*D51
 70
     1
 10
0.0
 20
0.0
 30
0.0
  3
*D51
  1

  0
LINE
  5
1173
100
AcDbEntity
  8
0
  6
BYBLOCK
 62
     0
100
AcDbLine
 10
78.5
 20
186.0
 30
0.0
 11
78.5
 21
199.5
 31
0.0
  0
LINE
  5
1174
100
AcDbEntity
  8
0
  6
BYBLOCK
 62
     0
100
AcDbLine
 10
87.0
 20
181.0
 30
0.0
 11
87.0
 21
199.5
 31
0.0
  0
LINE
  5
1175
100
AcDbEntity
  8
0
  6
BYBLOCK
 62
     0
100
AcDbLine
 10
80.5
 20
199.0
 30
0.0
 11
80.59
 21
199.0
 31
0.0
  0
LINE
  5
1176
100
AcDbEntity
  8
0
  6
BYBLOCK
 62
     0
100
AcDbLine
 10
85.0
 20
199.0
 30
0.0
 11
84.91
 21
199.0
 31
0.0
  0
SOLID
  5
1177
100
AcDbEntity
  8
0
  6
BYBLOCK
 62
     0
100
AcDbTrace
 10
80.5
 20
199.333333
 30
0.0
 11
80.5
 21
198.666667
 31
0.0
 12
78.5
 22
199.0
 32
0.0
 13
78.5
 23
199.0
 33
0.0
  0
SOLID
  5
1178
100
AcDbEntity
  8
0
  6
BYBLOCK
 62
     0
100
AcDbTrace
 10
85.0
 20
199.333333
 30
0.0
 11
85.0
 21
198.666667
 31
0.0
 12
87.0
 22
199.0
 32
0.0
 13
87.0
 23
199.0
 33
0.0
  0
MTEXT
  5
1179
100
AcDbEntity
  8
0
  6
BYBLOCK
 62
     0
100
AcDbMText
 10
83.0
 20
199.0
 30
0.0
 40
4.0
 41
0.0
 71
     5
 72
     1
  1
\A1;8.5
  7
BIGFONT
  0
POINT
  5
117A
100
AcDbEntity
  8
DEFPOINTS
  6
BYBLOCK
 62
     0
100
AcDbPoint
 10
78.5
 20
185.5
 30
0.0
  0
POINT
  5
117B
100
AcDbEntity
  8
DEFPOINTS
  6
BYBLOCK
 62
     0
100
AcDbPoint
 10
87.0
 20
180.5
 30
0.0
  0
POINT
  5
117C
100
AcDbEntity
  8
DEFPOINTS
  6
BYBLOCK
 62
     0
100
AcDbPoint
 10
87.0
 20
199.0
 30
0.0
  0
ENDBLK
  5
117E
100
AcDbEntity
  8
0
100
AcDbBlockEnd
  0
BLOCK
  5
118A
100
AcDbEntity
  8
0
100
AcDbBlockBegin
  2
*D52
 70
     1
 10
0.0
 20
0.0
 30
0.0
  3
*D52
  1

  0
LINE
  5
1180
100
AcDbEntity
  8
0
  6
BYBLOCK
 62
     0
100
AcDbLine
 10
77.0
 20
167.0
 30
0.0
 11
77.0
 21
159.0
 31
0.0
  0
LINE
  5
1181
100
AcDbEntity
  8
0
  6
BYBLOCK
 62
     0
100
AcDbLine
 10
80.0
 20
167.0
 30
0.0
 11
80.0
 21
159.0
 31
0.0
  0
LINE
  5
1182
100
AcDbEntity
  8
0
  6
BYBLOCK
 62
     0
100
AcDbLine
 10
75.0
 20
159.5
 30
0.0
 11
73.0
 21
159.5
 31
0.0
  0
LINE
  5
1183
100
AcDbEntity
  8
0
  6
BYBLOCK
 62
     0
100
AcDbLine
 10
82.0
 20
159.5
 30
0.0
 11
84.0
 21
159.5
 31
0.0
  0
SOLID
  5
1184
100
AcDbEntity
  8
0
  6
BYBLOCK
 62
     0
100
AcDbTrace
 10
75.0
 20
159.833333
 30
0.0
 11
75.0
 21
159.166667
 31
0.0
 12
77.0
 22
159.5
 32
0.0
 13
77.0
 23
159.5
 33
0.0
  0
SOLID
  5
1185
100
AcDbEntity
  8
0
  6
BYBLOCK
 62
     0
100
AcDbTrace
 10
82.0
 20
159.833333
 30
0.0
 11
82.0
 21
159.166667
 31
0.0
 12
80.0
 22
159.5
 32
0.0
 13
80.0
 23
159.5
 33
0.0
  0
MTEXT
  5
1186
100
AcDbEntity
  8
0
  6
BYBLOCK
 62
     0
100
AcDbMText
 10
78.5
 20
159.5
 30
0.0
 40
4.0
 41
0.0
 71
     5
 72
     1
  1
\A1;3
  7
BIGFONT
  0
POINT
  5
1187
100
AcDbEntity
  8
DEFPOINTS
  6
BYBLOCK
 62
     0
100
AcDbPoint
 10
77.0
 20
167.5
 30
0.0
  0
POINT
  5
1188
100
AcDbEntity
  8
DEFPOINTS
  6
BYBLOCK
 62
     0
100
AcDbPoint
 10
80.0
 20
167.5
 30
0.0
  0
POINT
  5
1189
100
AcDbEntity
  8
DEFPOINTS
  6
BYBLOCK
 62
     0
100
AcDbPoint
 10
80.0
 20
159.5
 30
0.0
  0
ENDBLK
  5
118B
100
AcDbEntity
  8
0
100
AcDbBlockEnd
  0
BLOCK
  5
1197
100
AcDbEntity
  8
0
100
AcDbBlockBegin
  2
*D53
 70
     1
 10
0.0
 20
0.0
 30
0.0
  3
*D53
  1

  0
LINE
  5
118D
100
AcDbEntity
  8
0
  6
BYBLOCK
 62
     0
100
AcDbLine
 10
80.5
 20
180.5
 30
0.0
 11
95.5
 21
180.5
 31
0.0
  0
LINE
  5
118E
100
AcDbEntity
  8
0
  6
BYBLOCK
 62
     0
100
AcDbLine
 10
80.5
 20
168.5
 30
0.0
 11
95.5
 21
168.5
 31
0.0
  0
LINE
  5
118F
100
AcDbEntity
  8
0
  6
BYBLOCK
 62
     0
100
AcDbLine
 10
95.0
 20
178.5
 30
0.0
 11
95.0
 21
176.19
 31
0.0
  0
LINE
  5
1190
100
AcDbEntity
  8
0
  6
BYBLOCK
 62
     0
100
AcDbLine
 10
95.0
 20
170.5
 30
0.0
 11
95.0
 21
172.81
 31
0.0
  0
SOLID
  5
1191
100
AcDbEntity
  8
0
  6
BYBLOCK
 62
     0
100
AcDbTrace
 10
94.666667
 20
178.5
 30
0.0
 11
95.333333
 21
178.5
 31
0.0
 12
95.0
 22
180.5
 32
0.0
 13
95.0
 23
180.5
 33
0.0
  0
SOLID
  5
1192
100
AcDbEntity
  8
0
  6
BYBLOCK
 62
     0
100
AcDbTrace
 10
94.666667
 20
170.5
 30
0.0
 11
95.333333
 21
170.5
 31
0.0
 12
95.0
 22
168.5
 32
0.0
 13
95.0
 23
168.5
 33
0.0
  0
MTEXT
  5
1193
100
AcDbEntity
  8
0
  6
BYBLOCK
 62
     0
100
AcDbMText
 10
95.0
 20
174.5
 30
0.0
 40
4.0
 41
0.0
 71
     5
 72
     1
  1
\A1;12
  7
BIGFONT
 11
0.0
 21
1.0
 31
0.0
  0
POINT
  5
1194
100
AcDbEntity
  8
DEFPOINTS
  6
BYBLOCK
 62
     0
100
AcDbPoint
 10
80.0
 20
180.5
 30
0.0
  0
POINT
  5
1195
100
AcDbEntity
  8
DEFPOINTS
  6
BYBLOCK
 62
     0
100
AcDbPoint
 10
80.0
 20
168.5
 30
0.0
  0
POINT
  5
1196
100
AcDbEntity
  8
DEFPOINTS
  6
BYBLOCK
 62
     0
100
AcDbPoint
 10
95.0
 20
168.5
 30
0.0
  0
ENDBLK
  5
1198
100
AcDbEntity
  8
0
100
AcDbBlockEnd
  0
BLOCK
  5
11A4
100
AcDbEntity
  8
0
100
AcDbBlockBegin
  2
*D54
 70
     1
 10
0.0
 20
0.0
 30
0.0
  3
*D54
  1

  0
LINE
  5
119A
100
AcDbEntity
  8
0
  6
BYBLOCK
 62
     0
100
AcDbLine
 10
64.0
 20
152.5
 30
0.0
 11
64.0
 21
171.0
 31
0.0
  0
LINE
  5
119B
100
AcDbEntity
  8
0
  6
BYBLOCK
 62
     0
100
AcDbLine
 10
80.0
 20
150.5
 30
0.0
 11
80.0
 21
171.0
 31
0.0
  0
LINE
  5
119C
100
AcDbEntity
  8
0
  6
BYBLOCK
 62
     0
100
AcDbLine
 10
66.0
 20
170.5
 30
0.0
 11
70.81
 21
170.5
 31
0.0
  0
LINE
  5
119D
100
AcDbEntity
  8
0
  6
BYBLOCK
 62
     0
100
AcDbLine
 10
78.0
 20
170.5
 30
0.0
 11
74.19
 21
170.5
 31
0.0
  0
SOLID
  5
119E
100
AcDbEntity
  8
0
  6
BYBLOCK
 62
     0
100
AcDbTrace
 10
66.0
 20
170.833333
 30
0.0
 11
66.0
 21
170.166667
 31
0.0
 12
64.0
 22
170.5
 32
0.0
 13
64.0
 23
170.5
 33
0.0
  0
SOLID
  5
119F
100
AcDbEntity
  8
0
  6
BYBLOCK
 62
     0
100
AcDbTrace
 10
78.0
 20
170.833333
 30
0.0
 11
78.0
 21
170.166667
 31
0.0
 12
80.0
 22
170.5
 32
0.0
 13
80.0
 23
170.5
 33
0.0
  0
MTEXT
  5
11A0
100
AcDbEntity
  8
0
  6
BYBLOCK
 62
     0
100
AcDbMText
 10
72.5
 20
170.5
 30
0.0
 40
4.0
 41
0.0
 71
     5
 72
     1
  1
\A1;16
  7
BIGFONT
  0
POINT
  5
11A1
100
AcDbEntity
  8
DEFPOINTS
  6
BYBLOCK
 62
     0
100
AcDbPoint
 10
64.0
 20
152.0
 30
0.0
  0
POINT
  5
11A2
100
AcDbEntity
  8
DEFPOINTS
  6
BYBLOCK
 62
     0
100
AcDbPoint
 10
80.0
 20
150.0
 30
0.0
  0
POINT
  5
11A3
100
AcDbEntity
  8
DEFPOINTS
  6
BYBLOCK
 62
     0
100
AcDbPoint
 10
80.0
 20
170.5
 30
0.0
  0
ENDBLK
  5
11A5
100
AcDbEntity
  8
0
100
AcDbBlockEnd
  0
BLOCK
  5
11B1
100
AcDbEntity
  8
0
100
AcDbBlockBegin
  2
*D55
 70
     1
 10
0.0
 20
0.0
 30
0.0
  3
*D55
  1

  0
LINE
  5
11A7
100
AcDbEntity
  8
0
  6
BYBLOCK
 62
     0
100
AcDbLine
 10
63.5
 20
150.0
 30
0.0
 11
41.5
 21
150.0
 31
0.0
  0
LINE
  5
11A8
100
AcDbEntity
  8
0
  6
BYBLOCK
 62
     0
100
AcDbLine
 10
63.5
 20
142.0
 30
0.0
 11
41.5
 21
142.0
 31
0.0
  0
LINE
  5
11A9
100
AcDbEntity
  8
0
  6
BYBLOCK
 62
     0
100
AcDbLine
 10
42.0
 20
148.0
 30
0.0
 11
42.0
 21
146.89
 31
0.0
  0
LINE
  5
11AA
100
AcDbEntity
  8
0
  6
BYBLOCK
 62
     0
100
AcDbLine
 10
42.0
 20
144.0
 30
0.0
 11
42.0
 21
145.11
 31
0.0
  0
SOLID
  5
11AB
100
AcDbEntity
  8
0
  6
BYBLOCK
 62
     0
100
AcDbTrace
 10
41.666667
 20
148.0
 30
0.0
 11
42.333333
 21
148.0
 31
0.0
 12
42.0
 22
150.0
 32
0.0
 13
42.0
 23
150.0
 33
0.0
  0
SOLID
  5
11AC
100
AcDbEntity
  8
0
  6
BYBLOCK
 62
     0
100
AcDbTrace
 10
41.666667
 20
144.0
 30
0.0
 11
42.333333
 21
144.0
 31
0.0
 12
42.0
 22
142.0
 32
0.0
 13
42.0
 23
142.0
 33
0.0
  0
MTEXT
  5
11AD
100
AcDbEntity
  8
0
  6
BYBLOCK
 62
     0
100
AcDbMText
 10
42.0
 20
146.0
 30
0.0
 40
4.0
 41
0.0
 71
     5
 72
     1
  1
\A1;8
  7
BIGFONT
 11
0.0
 21
1.0
 31
0.0
  0
POINT
  5
11AE
100
AcDbEntity
  8
DEFPOINTS
  6
BYBLOCK
 62
     0
100
AcDbPoint
 10
64.0
 20
150.0
 30
0.0
  0
POINT
  5
11AF
100
AcDbEntity
  8
DEFPOINTS
  6
BYBLOCK
 62
     0
100
AcDbPoint
 10
64.0
 20
142.0
 30
0.0
  0
POINT
  5
11B0
100
AcDbEntity
  8
DEFPOINTS
  6
BYBLOCK
 62
     0
100
AcDbPoint
 10
42.0
 20
142.0
 30
0.0
  0
ENDBLK
  5
11B2
100
AcDbEntity
  8
0
100
AcDbBlockEnd
  0
BLOCK
  5
11BE
100
AcDbEntity
  8
0
100
AcDbBlockBegin
  2
*D56
 70
     1
 10
0.0
 20
0.0
 30
0.0
  3
*D56
  1

  0
LINE
  5
11B4
100
AcDbEntity
  8
0
  6
BYBLOCK
 62
     0
100
AcDbLine
 10
113.437197
 20
202.75
 30
0.0
 11
113.437197
 21
224.0
 31
0.0
  0
LINE
  5
11B5
100
AcDbEntity
  8
0
  6
BYBLOCK
 62
     0
100
AcDbLine
 10
114.937197
 20
202.75
 30
0.0
 11
114.937197
 21
224.0
 31
0.0
  0
LINE
  5
11B6
100
AcDbEntity
  8
0
  6
BYBLOCK
 62
     0
100
AcDbLine
 10
116.937197
 20
223.5
 30
0.0
 11
118.937197
 21
223.5
 31
0.0
  0
LINE
  5
11B7
100
AcDbEntity
  8
0
  6
BYBLOCK
 62
     0
100
AcDbLine
 10
111.437197
 20
223.5
 30
0.0
 11
108.59
 21
223.5
 31
0.0
  0
SOLID
  5
11B8
100
AcDbEntity
  8
0
  6
BYBLOCK
 62
     0
100
AcDbTrace
 10
116.937197
 20
223.833333
 30
0.0
 11
116.937197
 21
223.166667
 31
0.0
 12
114.937197
 22
223.5
 32
0.0
 13
114.937197
 23
223.5
 33
0.0
  0
SOLID
  5
11B9
100
AcDbEntity
  8
0
  6
BYBLOCK
 62
     0
100
AcDbTrace
 10
111.437197
 20
223.833333
 30
0.0
 11
111.437197
 21
223.166667
 31
0.0
 12
113.437197
 22
223.5
 32
0.0
 13
113.437197
 23
223.5
 33
0.0
  0
MTEXT
  5
11BA
100
AcDbEntity
  8
0
  6
BYBLOCK
 62
     0
100
AcDbMText
 10
106.5
 20
223.5
 30
0.0
 40
4.0
 41
0.0
 71
     5
 72
     1
  1
\A1;1.5
  7
BIGFONT
  0
POINT
  5
11BB
100
AcDbEntity
  8
DEFPOINTS
  6
BYBLOCK
 62
     0
100
AcDbPoint
 10
113.437197
 20
202.25
 30
0.0
  0
POINT
  5
11BC
100
AcDbEntity
  8
DEFPOINTS
  6
BYBLOCK
 62
     0
100
AcDbPoint
 10
114.937197
 20
202.25
 30
0.0
  0
POINT
  5
11BD
100
AcDbEntity
  8
DEFPOINTS
  6
BYBLOCK
 62
     0
100
AcDbPoint
 10
114.937197
 20
223.5
 30
0.0
  0
ENDBLK
  5
11BF
100
AcDbEntity
  8
0
100
AcDbBlockEnd
  0
BLOCK
  5
11CB
100
AcDbEntity
  8
0
100
AcDbBlockBegin
  2
*D57
 70
     1
 10
0.0
 20
0.0
 30
0.0
  3
*D57
  1

  0
LINE
  5
11C1
100
AcDbEntity
  8
0
  6
BYBLOCK
 62
     0
100
AcDbLine
 10
102.062803
 20
196.25
 30
0.0
 11
102.062803
 21
175.5
 31
0.0
  0
LINE
  5
11C2
100
AcDbEntity
  8
0
  6
BYBLOCK
 62
     0
100
AcDbLine
 10
103.562803
 20
196.25
 30
0.0
 11
103.562803
 21
175.5
 31
0.0
  0
LINE
  5
11C3
100
AcDbEntity
  8
0
  6
BYBLOCK
 62
     0
100
AcDbLine
 10
100.062803
 20
176.0
 30
0.0
 11
98.062803
 21
176.0
 31
0.0
  0
LINE
  5
11C4
100
AcDbEntity
  8
0
  6
BYBLOCK
 62
     0
100
AcDbLine
 10
105.562803
 20
176.0
 30
0.0
 11
109.91
 21
176.0
 31
0.0
  0
SOLID
  5
11C5
100
AcDbEntity
  8
0
  6
BYBLOCK
 62
     0
100
AcDbTrace
 10
100.062803
 20
176.333333
 30
0.0
 11
100.062803
 21
175.666667
 31
0.0
 12
102.062803
 22
176.0
 32
0.0
 13
102.062803
 23
176.0
 33
0.0
  0
SOLID
  5
11C6
100
AcDbEntity
  8
0
  6
BYBLOCK
 62
     0
100
AcDbTrace
 10
105.562803
 20
176.333333
 30
0.0
 11
105.562803
 21
175.666667
 31
0.0
 12
103.562803
 22
176.0
 32
0.0
 13
103.562803
 23
176.0
 33
0.0
  0
MTEXT
  5
11C7
100
AcDbEntity
  8
0
  6
BYBLOCK
 62
     0
100
AcDbMText
 10
112.0
 20
176.0
 30
0.0
 40
4.0
 41
0.0
 71
     5
 72
     1
  1
\A1;1.5
  7
BIGFONT
  0
POINT
  5
11C8
100
AcDbEntity
  8
DEFPOINTS
  6
BYBLOCK
 62
     0
100
AcDbPoint
 10
102.062803
 20
196.75
 30
0.0
  0
POINT
  5
11C9
100
AcDbEntity
  8
DEFPOINTS
  6
BYBLOCK
 62
     0
100
AcDbPoint
 10
103.562803
 20
196.75
 30
0.0
  0
POINT
  5
11CA
100
AcDbEntity
  8
DEFPOINTS
  6
BYBLOCK
 62
     0
100
AcDbPoint
 10
103.562803
 20
176.0
 30
0.0
  0
ENDBLK
  5
11CC
100
AcDbEntity
  8
0
100
AcDbBlockEnd
  0
BLOCK
  5
11D8
100
AcDbEntity
  8
0
100
AcDbBlockBegin
  2
*D58
 70
     1
 10
0.0
 20
0.0
 30
0.0
  3
*D58
  1

  0
LINE
  5
11CE
100
AcDbEntity
  8
0
  6
BYBLOCK
 62
     0
100
AcDbLine
 10
64.0
 20
152.5
 30
0.0
 11
64.0
 21
176.5
 31
0.0
  0
LINE
  5
11CF
100
AcDbEntity
  8
0
  6
BYBLOCK
 62
     0
100
AcDbLine
 10
82.0
 20
150.0
 30
0.0
 11
82.0
 21
176.5
 31
0.0
  0
LINE
  5
11D0
100
AcDbEntity
  8
0
  6
BYBLOCK
 62
     0
100
AcDbLine
 10
66.0
 20
176.0
 30
0.0
 11
73.31
 21
176.0
 31
0.0
  0
LINE
  5
11D1
100
AcDbEntity
  8
0
  6
BYBLOCK
 62
     0
100
AcDbLine
 10
80.0
 20
176.0
 30
0.0
 11
76.69
 21
176.0
 31
0.0
  0
SOLID
  5
11D2
100
AcDbEntity
  8
0
  6
BYBLOCK
 62
     0
100
AcDbTrace
 10
66.0
 20
176.333333
 30
0.0
 11
66.0
 21
175.666667
 31
0.0
 12
64.0
 22
176.0
 32
0.0
 13
64.0
 23
176.0
 33
0.0
  0
SOLID
  5
11D3
100
AcDbEntity
  8
0
  6
BYBLOCK
 62
     0
100
AcDbTrace
 10
80.0
 20
176.333333
 30
0.0
 11
80.0
 21
175.666667
 31
0.0
 12
82.0
 22
176.0
 32
0.0
 13
82.0
 23
176.0
 33
0.0
  0
MTEXT
  5
11D4
100
AcDbEntity
  8
0
  6
BYBLOCK
 62
     0
100
AcDbMText
 10
75.0
 20
176.0
 30
0.0
 40
4.0
 41
0.0
 71
     5
 72
     1
  1
\A1;18
  7
BIGFONT
  0
POINT
  5
11D5
100
AcDbEntity
  8
DEFPOINTS
  6
BYBLOCK
 62
     0
100
AcDbPoint
 10
64.0
 20
152.0
 30
0.0
  0
POINT
  5
11D6
100
AcDbEntity
  8
DEFPOINTS
  6
BYBLOCK
 62
     0
100
AcDbPoint
 10
82.0
 20
149.5
 30
0.0
  0
POINT
  5
11D7
100
AcDbEntity
  8
DEFPOINTS
  6
BYBLOCK
 62
     0
100
AcDbPoint
 10
82.0
 20
176.0
 30
0.0
  0
ENDBLK
  5
11D9
100
AcDbEntity
  8
0
100
AcDbBlockEnd
  0
BLOCK
  5
11E5
100
AcDbEntity
  8
0
100
AcDbBlockBegin
  2
*D59
 70
     1
 10
0.0
 20
0.0
 30
0.0
  3
*D59
  1

  0
LINE
  5
11DB
100
AcDbEntity
  8
0
  6
BYBLOCK
 62
     0
100
AcDbLine
 10
63.5
 20
150.0
 30
0.0
 11
41.5
 21
150.0
 31
0.0
  0
LINE
  5
11DC
100
AcDbEntity
  8
0
  6
BYBLOCK
 62
     0
100
AcDbLine
 10
63.5
 20
142.0
 30
0.0
 11
41.5
 21
142.0
 31
0.0
  0
LINE
  5
11DD
100
AcDbEntity
  8
0
  6
BYBLOCK
 62
     0
100
AcDbLine
 10
42.0
 20
148.0
 30
0.0
 11
42.0
 21
146.89
 31
0.0
  0
LINE
  5
11DE
100
AcDbEntity
  8
0
  6
BYBLOCK
 62
     0
100
AcDbLine
 10
42.0
 20
144.0
 30
0.0
 11
42.0
 21
145.11
 31
0.0
  0
SOLID
  5
11DF
100
AcDbEntity
  8
0
  6
BYBLOCK
 62
     0
100
AcDbTrace
 10
41.666667
 20
148.0
 30
0.0
 11
42.333333
 21
148.0
 31
0.0
 12
42.0
 22
150.0
 32
0.0
 13
42.0
 23
150.0
 33
0.0
  0
SOLID
  5
11E0
100
AcDbEntity
  8
0
  6
BYBLOCK
 62
     0
100
AcDbTrace
 10
41.666667
 20
144.0
 30
0.0
 11
42.333333
 21
144.0
 31
0.0
 12
42.0
 22
142.0
 32
0.0
 13
42.0
 23
142.0
 33
0.0
  0
MTEXT
  5
11E1
100
AcDbEntity
  8
0
  6
BYBLOCK
 62
     0
100
AcDbMText
 10
42.0
 20
146.0
 30
0.0
 40
4.0
 41
0.0
 71
     5
 72
     1
  1
\A1;8
  7
BIGFONT
 11
0.0
 21
1.0
 31
0.0
  0
POINT
  5
11E2
100
AcDbEntity
  8
DEFPOINTS
  6
BYBLOCK
 62
     0
100
AcDbPoint
 10
64.0
 20
150.0
 30
0.0
  0
POINT
  5
11E3
100
AcDbEntity
  8
DEFPOINTS
  6
BYBLOCK
 62
     0
100
AcDbPoint
 10
64.0
 20
142.0
 30
0.0
  0
POINT
  5
11E4
100
AcDbEntity
  8
DEFPOINTS
  6
BYBLOCK
 62
     0
100
AcDbPoint
 10
42.0
 20
142.0
 30
0.0
  0
ENDBLK
  5
11E6
100
AcDbEntity
  8
0
100
AcDbBlockEnd
  0
BLOCK
  5
1259
100
AcDbEntity
  8
0
100
AcDbBlockBegin
  2
A$C2EAC175B
 70
     0
 10
0.0
 20
0.0
 30
0.0
  3
A$C2EAC175B
  1

  0
LEADER
  5
11EB
100
AcDbEntity
  8
0
100
AcDbLeader
  3
STANDARD
 76
     3
 10
96.458185
 20
69.0
 30
0.0
 10
102.958185
 20
76.0
 30
0.0
 10
129.458185
 20
76.0
 30
0.0
 77
   256
1001
ACAD
1000
DSTYLE
1002
{
1070
    78
1070
     8
1070
   288
1070
     1
1070
   284
1070
     8
1070
   140
1040
5.0
1070
   340
1005
23
1070
    73
1070
     0
1070
   272
1070
     2
1070
    42
1040
0.5
1070
    44
1040
0.5
1070
   271
1070
     2
1070
    41
1040
2.0
1002
}
  0
TEXT
  5
11EC
100
AcDbEntity
  8
0
100
AcDbText
 10
103.958185
 20
76.9
 30
0.0
 40
3.0
  1
深さ１．５ミリ２カ所
 41
0.7
  7
BIGFONT
100
AcDbText
  0
TEXT
  5
11ED
100
AcDbEntity
  8
0
100
AcDbText
 10
103.958185
 20
80.5
 30
0.0
 40
3.0
  1
５．５パイキリ孔
 41
0.7
  7
BIGFONT
100
AcDbText
  0
MTEXT
  5
11EE
102
{ACAD_REACTORS
330
11EF
102
}
100
AcDbEntity
  8
0
100
AcDbMText
 10
32.368185
 20
2.0
 30
0.0
 40
4.0
 41
0.0
 71
     6
 72
     1
  1
\A1;1C
  7
BIGFONT
  0
LEADER
  5
11EF
100
AcDbEntity
  8
0
100
AcDbLeader
  3
STANDARD
 73
     0
 40
4.0
 41
3.733333
 76
     3
 10
44.458185
 20
10.5
 30
0.0
 10
34.458185
 20
2.0
 30
0.0
 10
32.458185
 20
2.0
 30
0.0
 77
   256
340
11EE
1001
ACAD
1000
DSTYLE
1002
{
1070
    78
1070
     8
1070
   288
1070
     1
1070
   284
1070
     8
1070
   140
1040
5.0
1070
   340
1005
23
1070
    73
1070
     0
1070
   272
1070
     2
1070
    42
1040
0.5
1070
    44
1040
0.5
1070
   271
1070
     2
1070
    41
1040
2.0
1002
}
  0
CIRCLE
  5
11F0
100
AcDbEntity
  8
3
100
AcDbCircle
 10
89.458185
 20
14.5
 30
0.0
 40
7.0
  0
CIRCLE
  5
11F1
100
AcDbEntity
  8
2
100
AcDbCircle
 10
89.458185
 20
14.5
 30
0.0
 40
6.0
  0
LINE
  5
11F2
100
AcDbEntity
  8
1
100
AcDbLine
 10
89.458185
 20
24.0
 30
0.0
 11
89.458185
 21
5.5
 31
0.0
  0
LINE
  5
11F3
100
AcDbEntity
  8
3
100
AcDbLine
 10
67.958185
 20
20.5
 30
0.0
 11
67.958185
 21
8.5
 31
0.0
  0
LINE
  5
11F4
100
AcDbEntity
  8
3
100
AcDbLine
 10
60.958185
 20
21.5
 30
0.0
 11
60.958185
 21
8.0
 31
0.0
  0
LINE
  5
11F5
100
AcDbEntity
  8
3
100
AcDbLine
 10
57.958185
 20
21.5
 30
0.0
 11
57.958185
 21
7.5
 31
0.0
  0
LINE
  5
11F6
100
AcDbEntity
  8
1
100
AcDbLine
 10
63.958185
 20
24.5
 30
0.0
 11
63.958185
 21
5.0
 31
0.0
  0
LINE
  5
11F7
100
AcDbEntity
  8
1
100
AcDbLine
 10
59.458185
 20
25.5
 30
0.0
 11
59.458185
 21
4.5
 31
0.0
  0
LINE
  5
11F8
100
AcDbEntity
  8
3
100
AcDbLine
 10
44.958185
 20
14.5
 30
0.0
 11
44.958185
 21
8.5
 31
0.0
  0
ARC
  5
11F9
100
AcDbEntity
  8
3
100
AcDbCircle
 10
66.958185
 20
8.5
 30
0.0
 40
1.0
100
AcDbArc
 50
270.0
 51
0.0
  0
LINE
  5
11FA
100
AcDbEntity
  8
3
100
AcDbLine
 10
45.958185
 20
7.5
 30
0.0
 11
57.958185
 21
7.5
 31
0.0
  0
ARC
  5
11FB
100
AcDbEntity
  8
3
100
AcDbCircle
 10
45.958185
 20
8.5
 30
0.0
 40
1.0
100
AcDbArc
 50
180.0
 51
270.0
  0
LINE
  5
11FC
100
AcDbEntity
  8
3
100
AcDbLine
 10
60.958185
 20
7.5
 30
0.0
 11
66.958185
 21
7.5
 31
0.0
  0
LINE
  5
11FD
100
AcDbEntity
  8
3
100
AcDbLine
 10
60.958185
 20
8.5
 30
0.0
 11
57.958185
 21
8.5
 31
0.0
  0
LINE
  5
11FE
100
AcDbEntity
  8
3
100
AcDbLine
 10
60.958185
 20
8.0
 30
0.0
 11
60.958185
 21
7.5
 31
0.0
  0
DIMENSION
  5
11FF
100
AcDbEntity
  8
0
100
AcDbDimension
  2
*D59
 10
22.958185
 20
64.0
 30
0.0
 11
22.958185
 21
68.0
 31
0.0
 12
-19.041815
 22
-78.0
 32
0.0
 70
   128
  3
STANDARD
100
AcDbAlignedDimension
 13
44.958185
 23
72.0
 33
0.0
 14
44.958185
 24
64.0
 34
0.0
 50
90.0
100
AcDbRotatedDimension
1001
ACAD
1000
DSTYLE
1002
{
1070
    78
1070
     8
1070
   288
1070
     1
1070
   284
1070
     8
1070
   140
1040
5.0
1070
   340
1005
23
1070
    73
1070
     0
1070
   272
1070
     2
1070
    42
1040
0.5
1070
    44
1040
0.5
1070
   271
1070
     2
1070
    41
1040
2.0
1002
}
  0
DIMENSION
  5
1200
100
AcDbEntity
  8
0
100
AcDbDimension
  2
*D55
 10
22.958185
 20
10.5
 30
0.0
 11
22.958185
 21
14.5
 31
0.0
 12
-19.041815
 22
-131.5
 32
0.0
 70
   128
  3
STANDARD
100
AcDbAlignedDimension
 13
44.958185
 23
18.5
 33
0.0
 14
44.958185
 24
10.5
 34
0.0
 50
90.0
100
AcDbRotatedDimension
1001
ACAD
1000
DSTYLE
1002
{
1070
    78
1070
     8
1070
   288
1070
     1
1070
   284
1070
     8
1070
   140
1040
5.0
1070
   340
1005
23
1070
    73
1070
     0
1070
   272
1070
     2
1070
    42
1040
0.5
1070
    44
1040
0.5
1070
   271
1070
     2
1070
    41
1040
2.0
1002
}
  0
DIMENSION
  5
1201
100
AcDbEntity
  8
0
100
AcDbDimension
  2
*D49
 10
45.958185
 20
62.0
 30
0.0
 11
26.768185
 21
50.5
 31
0.0
 12
-19.041815
 22
-106.5
 32
0.0
 70
   132
  3
STANDARD
100
AcDbRadialDimension
 15
45.155087
 25
61.404153
 35
0.0
 40
0.0
1001
ACAD
1000
DSTYLE
1002
{
1070
    78
1070
     8
1070
   288
1070
     1
1070
   284
1070
     8
1070
   140
1040
5.0
1070
   340
1005
23
1070
    73
1070
     0
1070
   272
1070
     2
1070
    42
1040
0.5
1070
    44
1040
0.5
1070
   271
1070
     2
1070
    41
1040
2.0
1002
}
  0
DIMENSION
  5
1202
100
AcDbEntity
  8
0
100
AcDbDimension
  2
*D48
 10
15.458185
 20
61.0
 30
0.0
 11
15.458185
 21
68.5
 31
0.0
 12
-19.041815
 22
-106.5
 32
0.0
 70
   128
  3
STANDARD
100
AcDbAlignedDimension
 13
45.958185
 23
75.0
 33
0.0
 14
45.958185
 24
61.0
 34
0.0
 50
90.0
100
AcDbRotatedDimension
1001
ACAD
1000
DSTYLE
1002
{
1070
    78
1070
     8
1070
   288
1070
     1
1070
   284
1070
     8
1070
   140
1040
5.0
1070
   340
1005
23
1070
    73
1070
     0
1070
   272
1070
     2
1070
    42
1040
0.5
1070
    44
1040
0.5
1070
   271
1070
     2
1070
    41
1040
2.0
1002
}
  0
TEXT
  5
1203
100
AcDbEntity
  8
0
100
AcDbText
 10
20.058185
 20
16.3
 30
0.0
 40
2.4
  1
H8
 50
90.0
 41
0.6
  7
BIGFONT
100
AcDbText
  0
TEXT
  5
1204
100
AcDbEntity
  8
0
100
AcDbText
 10
22.042571
 20
69.8
 30
0.0
 40
2.4
  1
H8
 50
90.0
 41
0.6
  7
BIGFONT
100
AcDbText
  0
TEXT
  5
1205
100
AcDbEntity
  8
0
100
AcDbText
 10
-0.384
 20
99.101739
 30
0.0
 40
4.8
  1
￥８４－
 41
0.6
  7
BIGFONT
100
AcDbText
  0
DIMENSION
  5
1206
100
AcDbEntity
  8
0
100
AcDbDimension
  2
*D46
 10
67.958185
 20
98.0
 30
0.0
 11
56.458185
 21
98.0
 31
0.0
 12
-19.041815
 22
-106.5
 32
0.0
  3
STANDARD
100
AcDbAlignedDimension
 13
44.958185
 23
74.0
 33
0.0
 14
67.958185
 24
74.0
 34
0.0
100
AcDbRotatedDimension
1001
ACAD
1000
DSTYLE
1002
{
1070
    78
1070
     8
1070
   288
1070
     1
1070
   284
1070
     8
1070
   140
1040
5.0
1070
   340
1005
23
1070
    73
1070
     0
1070
   272
1070
     2
1070
   287
1070
     5
1070
    42
1040
0.5
1070
    44
1040
0.5
1070
   271
1070
     2
1070
    41
1040
2.0
1002
}
  0
DIMENSION
  5
1207
100
AcDbEntity
  8
0
100
AcDbDimension
  2
*D53
 10
75.958185
 20
62.0
 30
0.0
 11
75.958185
 21
68.0
 31
0.0
 12
-19.041815
 22
-106.5
 32
0.0
 70
   128
  3
STANDARD
100
AcDbAlignedDimension
 13
60.958185
 23
74.0
 33
0.0
 14
60.958185
 24
62.0
 34
0.0
 50
90.0
100
AcDbRotatedDimension
1001
ACAD
1000
DSTYLE
1002
{
1070
    78
1070
     8
1070
   288
1070
     1
1070
   284
1070
     8
1070
   140
1040
5.0
1070
   340
1005
23
1070
    73
1070
     0
1070
   272
1070
     2
1070
    42
1040
0.5
1070
    44
1040
0.5
1070
   271
1070
     2
1070
    41
1040
2.0
1002
}
  0
DIMENSION
  5
1208
100
AcDbEntity
  8
0
100
AcDbDimension
  2
*D51
 10
67.958185
 20
92.5
 30
0.0
 11
63.958185
 21
92.5
 31
0.0
 12
-19.041815
 22
-106.5
 32
0.0
 70
   128
  3
STANDARD
100
AcDbAlignedDimension
 13
59.458185
 23
79.0
 33
0.0
 14
67.958185
 24
74.0
 34
0.0
100
AcDbRotatedDimension
1001
ACAD
1000
DSTYLE
1002
{
1070
    78
1070
     8
1070
   288
1070
     1
1070
   284
1070
     8
1070
   140
1040
5.0
1070
   340
1005
23
1070
    73
1070
     0
1070
   272
1070
     2
1070
    42
1040
0.5
1070
    44
1040
0.5
1070
   271
1070
     2
1070
    41
1040
2.0
1002
}
  0
DIMENSION
  5
1209
100
AcDbEntity
  8
0
100
AcDbDimension
  2
*D50
 10
66.958185
 20
62.0
 30
0.0
 11
76.148185
 21
52.0
 31
0.0
 12
-19.041815
 22
-106.5
 32
0.0
 70
   132
  3
STANDARD
100
AcDbRadialDimension
 15
67.440104
 25
61.123784
 35
0.0
 40
0.0
1001
ACAD
1000
DSTYLE
1002
{
1070
    78
1070
     8
1070
   288
1070
     1
1070
   284
1070
     8
1070
   140
1040
5.0
1070
   340
1005
23
1070
    73
1070
     0
1070
   272
1070
     2
1070
    42
1040
0.5
1070
    44
1040
0.5
1070
   271
1070
     2
1070
    41
1040
2.0
1002
}
  0
DIMENSION
  5
120A
100
AcDbEntity
  8
0
100
AcDbDimension
  2
*D47
 10
67.958185
 20
84.5
 30
0.0
 11
65.958185
 21
84.5
 31
0.0
 12
-19.041815
 22
-106.5
 32
0.0
  3
STANDARD
100
AcDbAlignedDimension
 13
63.958185
 23
78.0
 33
0.0
 14
67.958185
 24
74.0
 34
0.0
100
AcDbRotatedDimension
1001
ACAD
1000
DSTYLE
1002
{
1070
    78
1070
     8
1070
   288
1070
     1
1070
   284
1070
     8
1070
   140
1040
5.0
1070
   340
1005
23
1070
    73
1070
     0
1070
   272
1070
     2
1070
   287
1070
     5
1070
    42
1040
0.5
1070
    44
1040
0.5
1070
   271
1070
     2
1070
    41
1040
2.0
1002
}
  0
ARC
  5
120B
100
AcDbEntity
  8
3
100
AcDbCircle
 10
66.958185
 20
20.5
 30
0.0
 40
1.0
100
AcDbArc
 50
0.0
 51
90.0
  0
LINE
  5
120C
100
AcDbEntity
  8
1
100
AcDbLine
 10
42.458185
 20
14.5
 30
0.0
 11
71.458185
 21
14.5
 31
0.0
  0
ARC
  5
120D
100
AcDbEntity
  8
3
100
AcDbCircle
 10
66.958185
 20
62.0
 30
0.0
 40
1.0
100
AcDbArc
 50
270.0
 51
0.0
  0
ARC
  5
120E
100
AcDbEntity
  8
3
100
AcDbCircle
 10
66.958185
 20
74.0
 30
0.0
 40
1.0
100
AcDbArc
 50
0.0
 51
90.0
  0
LINE
  5
120F
100
AcDbEntity
  8
1
100
AcDbLine
 10
42.458185
 20
68.0
 30
0.0
 11
71.458185
 21
68.0
 31
0.0
  0
DIMENSION
  5
1210
100
AcDbEntity
  8
0
100
AcDbDimension
  2
*D52
 10
60.958185
 20
53.0
 30
0.0
 11
59.458185
 21
53.0
 31
0.0
 12
-19.041815
 22
-106.5
 32
0.0
 70
   128
  3
STANDARD
100
AcDbAlignedDimension
 13
57.958185
 23
61.0
 33
0.0
 14
60.958185
 24
61.0
 34
0.0
100
AcDbRotatedDimension
1001
ACAD
1000
DSTYLE
1002
{
1070
    78
1070
     8
1070
   288
1070
     1
1070
   284
1070
     8
1070
   140
1040
5.0
1070
   340
1005
23
1070
    73
1070
     0
1070
   272
1070
     2
1070
    42
1040
0.5
1070
    44
1040
0.5
1070
   271
1070
     2
1070
    41
1040
2.0
1002
}
  0
DIMENSION
  5
1211
100
AcDbEntity
  8
0
100
AcDbDimension
  2
*D58
 10
62.958185
 20
44.5
 30
0.0
 11
55.958185
 21
44.5
 31
0.0
 12
-19.041815
 22
-131.5
 32
0.0
 70
   128
  3
STANDARD
100
AcDbAlignedDimension
 13
44.958185
 23
20.5
 33
0.0
 14
62.958185
 24
18.0
 34
0.0
100
AcDbRotatedDimension
1001
ACAD
1000
DSTYLE
1002
{
1070
    78
1070
     8
1070
   288
1070
     1
1070
   284
1070
     8
1070
   140
1040
5.0
1070
   340
1005
23
1070
    73
1070
     0
1070
   272
1070
     2
1070
    42
1040
0.5
1070
    44
1040
0.5
1070
   271
1070
     2
1070
    41
1040
2.0
1002
}
  0
DIMENSION
  5
1212
100
AcDbEntity
  8
0
100
AcDbDimension
  2
*D54
 10
60.958185
 20
39.0
 30
0.0
 11
53.458185
 21
39.0
 31
0.0
 12
-19.041815
 22
-131.5
 32
0.0
 70
   128
  3
STANDARD
100
AcDbAlignedDimension
 13
44.958185
 23
20.5
 33
0.0
 14
60.958185
 24
18.5
 34
0.0
100
AcDbRotatedDimension
1001
ACAD
1000
DSTYLE
1002
{
1070
    78
1070
     8
1070
   288
1070
     1
1070
   284
1070
     8
1070
   140
1040
5.0
1070
   340
1005
23
1070
    73
1070
     0
1070
   272
1070
     2
1070
    42
1040
0.5
1070
    44
1040
0.5
1070
   271
1070
     2
1070
    41
1040
2.0
1002
}
  0
LINE
  5
1213
100
AcDbEntity
  8
2
100
AcDbLine
 10
60.958185
 20
10.5
 30
0.0
 11
44.958185
 21
10.5
 31
0.0
  0
LINE
  5
1214
100
AcDbEntity
  8
2
100
AcDbLine
 10
44.958185
 20
18.5
 30
0.0
 11
60.958185
 21
18.5
 31
0.0
  0
LINE
  5
1215
100
AcDbEntity
  8
3
100
AcDbLine
 10
45.958185
 20
21.5
 30
0.0
 11
57.958185
 21
21.5
 31
0.0
  0
LINE
  5
1216
100
AcDbEntity
  8
3
100
AcDbLine
 10
44.958185
 20
14.5
 30
0.0
 11
44.958185
 21
20.5
 31
0.0
  0
ARC
  5
1217
100
AcDbEntity
  8
3
100
AcDbCircle
 10
45.958185
 20
20.5
 30
0.0
 40
1.0
100
AcDbArc
 50
90.0
 51
180.0
  0
LINE
  5
1218
100
AcDbEntity
  8
2
100
AcDbLine
 10
62.958185
 20
11.0
 30
0.0
 11
60.958185
 21
11.0
 31
0.0
  0
LINE
  5
1219
100
AcDbEntity
  8
2
100
AcDbLine
 10
60.958185
 20
18.0
 30
0.0
 11
62.958185
 21
18.0
 31
0.0
  0
CIRCLE
  5
121A
100
AcDbEntity
  8
3
100
AcDbCircle
 10
63.958185
 20
14.5
 30
0.0
 40
2.75
  0
LINE
  5
121B
100
AcDbEntity
  8
2
100
AcDbLine
 10
60.958185
 20
18.5
 30
0.0
 11
60.958185
 21
10.5
 31
0.0
  0
LINE
  5
121C
100
AcDbEntity
  8
2
100
AcDbLine
 10
62.958185
 20
11.0
 30
0.0
 11
64.958185
 21
14.5
 31
0.0
  0
LINE
  5
121D
100
AcDbEntity
  8
2
100
AcDbLine
 10
62.958185
 20
18.0
 30
0.0
 11
62.958185
 21
11.0
 31
0.0
  0
LINE
  5
121E
100
AcDbEntity
  8
2
100
AcDbLine
 10
64.958185
 20
14.5
 30
0.0
 11
62.958185
 21
18.0
 31
0.0
  0
LINE
  5
121F
100
AcDbEntity
  8
3
100
AcDbLine
 10
60.958185
 20
21.5
 30
0.0
 11
66.958185
 21
21.5
 31
0.0
  0
LINE
  5
1220
100
AcDbEntity
  8
3
100
AcDbLine
 10
60.958185
 20
20.5
 30
0.0
 11
57.958185
 21
20.5
 31
0.0
  0
LINE
  5
1221
100
AcDbEntity
  8
2
100
AcDbLine
 10
44.958185
 20
72.0
 30
0.0
 11
60.958185
 21
72.0
 31
0.0
  0
LINE
  5
1222
100
AcDbEntity
  8
2
100
AcDbLine
 10
60.958185
 20
64.0
 30
0.0
 11
44.958185
 21
64.0
 31
0.0
  0
LINE
  5
1223
100
AcDbEntity
  8
3
100
AcDbLine
 10
45.958185
 20
61.0
 30
0.0
 11
57.958185
 21
61.0
 31
0.0
  0
LINE
  5
1224
100
AcDbEntity
  8
3
100
AcDbLine
 10
45.958185
 20
75.0
 30
0.0
 11
57.958185
 21
75.0
 31
0.0
  0
ARC
  5
1225
100
AcDbEntity
  8
3
100
AcDbCircle
 10
45.958185
 20
74.0
 30
0.0
 40
1.0
100
AcDbArc
 50
90.0
 51
180.0
  0
LINE
  5
1226
100
AcDbEntity
  8
3
100
AcDbLine
 10
44.958185
 20
68.0
 30
0.0
 11
44.958185
 21
62.0
 31
0.0
  0
ARC
  5
1227
100
AcDbEntity
  8
3
100
AcDbCircle
 10
45.958185
 20
62.0
 30
0.0
 40
1.0
100
AcDbArc
 50
180.0
 51
270.0
  0
LINE
  5
1228
100
AcDbEntity
  8
3
100
AcDbLine
 10
44.958185
 20
68.0
 30
0.0
 11
44.958185
 21
74.0
 31
0.0
  0
LINE
  5
1229
100
AcDbEntity
  8
3
100
AcDbLine
 10
57.958185
 20
75.0
 30
0.0
 11
57.958185
 21
61.0
 31
0.0
  0
LINE
  5
122A
100
AcDbEntity
  8
3
100
AcDbLine
 10
60.958185
 20
75.0
 30
0.0
 11
60.958185
 21
61.5
 31
0.0
  0
LINE
  5
122B
100
AcDbEntity
  8
1
100
AcDbLine
 10
59.458185
 20
79.0
 30
0.0
 11
59.458185
 21
58.0
 31
0.0
  0
LINE
  5
122C
100
AcDbEntity
  8
1
100
AcDbLine
 10
63.958185
 20
78.0
 30
0.0
 11
63.958185
 21
58.5
 31
0.0
  0
LINE
  5
122D
100
AcDbEntity
  8
3
100
AcDbLine
 10
60.958185
 20
61.0
 30
0.0
 11
66.958185
 21
61.0
 31
0.0
  0
LINE
  5
122E
100
AcDbEntity
  8
3
100
AcDbLine
 10
60.958185
 20
62.0
 30
0.0
 11
57.958185
 21
62.0
 31
0.0
  0
LINE
  5
122F
100
AcDbEntity
  8
3
100
AcDbLine
 10
60.958185
 20
61.5
 30
0.0
 11
60.958185
 21
61.0
 31
0.0
  0
LINE
  5
1230
100
AcDbEntity
  8
2
100
AcDbLine
 10
60.958185
 20
71.5
 30
0.0
 11
62.958185
 21
71.5
 31
0.0
  0
LINE
  5
1231
100
AcDbEntity
  8
2
100
AcDbLine
 10
62.958185
 20
64.5
 30
0.0
 11
60.958185
 21
64.5
 31
0.0
  0
CIRCLE
  5
1232
100
AcDbEntity
  8
3
100
AcDbCircle
 10
63.958185
 20
68.0
 30
0.0
 40
2.75
  0
LINE
  5
1233
100
AcDbEntity
  8
2
100
AcDbLine
 10
60.958185
 20
72.0
 30
0.0
 11
60.958185
 21
64.0
 31
0.0
  0
LINE
  5
1234
100
AcDbEntity
  8
3
100
AcDbLine
 10
60.958185
 20
74.0
 30
0.0
 11
57.958185
 21
74.0
 31
0.0
  0
LINE
  5
1235
100
AcDbEntity
  8
2
100
AcDbLine
 10
62.958185
 20
71.5
 30
0.0
 11
62.958185
 21
64.5
 31
0.0
  0
LINE
  5
1236
100
AcDbEntity
  8
2
100
AcDbLine
 10
64.958185
 20
68.0
 30
0.0
 11
62.958185
 21
71.5
 31
0.0
  0
LINE
  5
1237
100
AcDbEntity
  8
2
100
AcDbLine
 10
62.958185
 20
64.5
 30
0.0
 11
64.958185
 21
68.0
 31
0.0
  0
LINE
  5
1238
100
AcDbEntity
  8
3
100
AcDbLine
 10
60.958185
 20
75.0
 30
0.0
 11
66.958185
 21
75.0
 31
0.0
  0
DIMENSION
  5
1239
100
AcDbEntity
  8
0
100
AcDbDimension
  2
*D57
 10
84.520989
 20
44.5
 30
0.0
 11
92.958185
 21
44.5
 31
0.0
 12
-19.041815
 22
-131.5
 32
0.0
 70
   128
  3
STANDARD
100
AcDbAlignedDimension
 13
83.020989
 23
65.25
 33
0.0
 14
84.520989
 24
65.25
 34
0.0
100
AcDbRotatedDimension
1001
ACAD
1000
DSTYLE
1002
{
1070
    78
1070
     8
1070
   288
1070
     1
1070
   284
1070
     8
1070
   140
1040
5.0
1070
   340
1005
23
1070
    73
1070
     0
1070
   272
1070
     2
1070
    42
1040
0.5
1070
    44
1040
0.5
1070
   271
1070
     2
1070
    41
1040
2.0
1002
}
  0
CIRCLE
  5
123A
100
AcDbEntity
  8
2
100
AcDbCircle
 10
89.458185
 20
14.5
 30
0.0
 40
4.0
  0
LINE
  5
123B
100
AcDbEntity
  8
1
100
AcDbLine
 10
80.458185
 20
14.5
 30
0.0
 11
97.958185
 21
14.5
 31
0.0
  0
LINE
  5
123C
100
AcDbEntity
  8
2
100
AcDbLine
 10
84.520989
 20
11.75
 30
0.0
 11
85.958185
 21
14.5
 31
0.0
  0
LINE
  5
123D
100
AcDbEntity
  8
2
100
AcDbLine
 10
84.520989
 20
17.25
 30
0.0
 11
84.520989
 21
11.75
 31
0.0
  0
LINE
  5
123E
100
AcDbEntity
  8
2
100
AcDbLine
 10
84.520989
 20
11.75
 30
0.0
 11
83.020989
 21
11.75
 31
0.0
  0
LINE
  5
123F
100
AcDbEntity
  8
2
100
AcDbLine
 10
85.958185
 20
14.5
 30
0.0
 11
84.520989
 21
17.25
 31
0.0
  0
LINE
  5
1240
100
AcDbEntity
  8
2
100
AcDbLine
 10
83.020989
 20
17.25
 30
0.0
 11
84.520989
 21
17.25
 31
0.0
  0
LINE
  5
1241
100
AcDbEntity
  8
2
100
AcDbLine
 10
94.395382
 20
17.25
 30
0.0
 11
94.395382
 21
11.75
 31
0.0
  0
LINE
  5
1242
100
AcDbEntity
  8
2
100
AcDbLine
 10
94.395382
 20
11.75
 30
0.0
 11
92.958185
 21
14.5
 31
0.0
  0
LINE
  5
1243
100
AcDbEntity
  8
2
100
AcDbLine
 10
94.395382
 20
11.75
 30
0.0
 11
95.895382
 21
11.75
 31
0.0
  0
LINE
  5
1244
100
AcDbEntity
  8
2
100
AcDbLine
 10
95.895382
 20
17.25
 30
0.0
 11
94.395382
 21
17.25
 31
0.0
  0
LINE
  5
1245
100
AcDbEntity
  8
2
100
AcDbLine
 10
92.958185
 20
14.5
 30
0.0
 11
94.395382
 21
17.25
 31
0.0
  0
CIRCLE
  5
1246
100
AcDbEntity
  8
2
100
AcDbCircle
 10
89.458185
 20
68.0
 30
0.0
 40
4.0
  0
DIMENSION
  5
1247
100
AcDbEntity
  8
0
100
AcDbDimension
  2
*D56
 10
95.895382
 20
92.0
 30
0.0
 11
87.458185
 21
92.0
 31
0.0
 12
-19.041815
 22
-131.5
 32
0.0
 70
   128
  3
STANDARD
100
AcDbAlignedDimension
 13
94.395382
 23
70.75
 33
0.0
 14
95.895382
 24
70.75
 34
0.0
100
AcDbRotatedDimension
1001
ACAD
1000
DSTYLE
1002
{
1070
    78
1070
     8
1070
   288
1070
     1
1070
   284
1070
     8
1070
   140
1040
5.0
1070
   340
1005
23
1070
    73
1070
     0
1070
   272
1070
     2
1070
    42
1040
0.5
1070
    44
1040
0.5
1070
   271
1070
     2
1070
    41
1040
2.0
1002
}
  0
CIRCLE
  5
1248
100
AcDbEntity
  8
2
100
AcDbCircle
 10
89.458185
 20
68.0
 30
0.0
 40
6.0
  0
CIRCLE
  5
1249
100
AcDbEntity
  8
3
100
AcDbCircle
 10
89.458185
 20
68.0
 30
0.0
 40
7.0
  0
LINE
  5
124A
100
AcDbEntity
  8
1
100
AcDbLine
 10
80.458185
 20
68.0
 30
0.0
 11
97.958185
 21
68.0
 31
0.0
  0
LINE
  5
124B
100
AcDbEntity
  8
3
100
AcDbLine
 10
67.958185
 20
74.0
 30
0.0
 11
67.958185
 21
62.0
 31
0.0
  0
LINE
  5
124C
100
AcDbEntity
  8
2
100
AcDbLine
 10
85.958185
 20
68.0
 30
0.0
 11
84.520989
 21
70.75
 31
0.0
  0
LINE
  5
124D
100
AcDbEntity
  8
2
100
AcDbLine
 10
84.520989
 20
70.75
 30
0.0
 11
84.520989
 21
65.25
 31
0.0
  0
LINE
  5
124E
100
AcDbEntity
  8
2
100
AcDbLine
 10
84.520989
 20
65.25
 30
0.0
 11
85.958185
 21
68.0
 31
0.0
  0
LINE
  5
124F
100
AcDbEntity
  8
2
100
AcDbLine
 10
84.520989
 20
65.25
 30
0.0
 11
83.020989
 21
65.25
 31
0.0
  0
LINE
  5
1250
100
AcDbEntity
  8
2
100
AcDbLine
 10
83.020989
 20
70.75
 30
0.0
 11
84.520989
 21
70.75
 31
0.0
  0
LINE
  5
1251
100
AcDbEntity
  8
1
100
AcDbLine
 10
89.458185
 20
77.5
 30
0.0
 11
89.458185
 21
59.0
 31
0.0
  0
LINE
  5
1252
100
AcDbEntity
  8
2
100
AcDbLine
 10
92.958185
 20
68.0
 30
0.0
 11
94.395382
 21
70.75
 31
0.0
  0
LINE
  5
1253
100
AcDbEntity
  8
2
100
AcDbLine
 10
94.395382
 20
70.75
 30
0.0
 11
94.395382
 21
65.25
 31
0.0
  0
LINE
  5
1254
100
AcDbEntity
  8
2
100
AcDbLine
 10
94.395382
 20
65.25
 30
0.0
 11
95.895382
 21
65.25
 31
0.0
  0
LINE
  5
1255
100
AcDbEntity
  8
2
100
AcDbLine
 10
94.395382
 20
65.25
 30
0.0
 11
92.958185
 21
68.0
 31
0.0
  0
LINE
  5
1256
100
AcDbEntity
  8
2
100
AcDbLine
 10
95.895382
 20
70.75
 30
0.0
 11
94.395382
 21
70.75
 31
0.0
  0
LINE
  5
1257
100
AcDbEntity
  8
4
100
AcDbLine
 10
135.604672
 20
46.9359
 30
0.0
 11
149.781371
 21
46.9359
 31
0.0
  0
TEXT
  5
1258
100
AcDbEntity
  8
1
 62
     7
100
AcDbText
 10
136.794903
 20
48.298037
 30
0.0
 40
4.0
  1
PK40R
 41
0.5
  7
ROMANS
100
AcDbText
  0
ENDBLK
  5
125A
100
AcDbEntity
  8
0
100
AcDbBlockEnd
  0
BLOCK
  5
14B8
100
AcDbEntity
  8
0
100
AcDbBlockBegin
  2
*D61
 70
     1
 10
0.0
 20
0.0
 30
0.0
  3
*D61
  1

  0
LINE
  5
14B1
100
AcDbEntity
  8
0
  6
BYBLOCK
 62
     0
100
AcDbLine
 10
88.512591
 20
167.852711
 30
0.0
 11
94.327902
 21
174.259538
 31
0.0
  0
MTEXT
  5
14B2
100
AcDbEntity
  8
0
  6
BYBLOCK
 62
     0
100
AcDbMText
 10
86.659841
 20
165.811504
 30
0.0
 40
4.0
 41
0.0
 71
     5
 72
     1
  1
\A1;R1
 11
0.672098
 21
0.740462
 31
0.0
  0
SOLID
  5
14B3
100
AcDbEntity
  8
0
  6
BYBLOCK
 62
     0
100
AcDbTrace
 10
92.736885
 20
173.002647
 30
0.0
 11
93.230526
 21
172.554581
 31
0.0
 12
94.327902
 22
174.259538
 32
0.0
 13
94.327902
 23
174.259538
 33
0.0
  0
LINE
  5
14B4
100
AcDbEntity
  8
0
  6
BYBLOCK
 62
     0
100
AcDbLine
 10
94.91
 20
175.0
 30
0.0
 11
95.09
 21
175.0
 31
0.0
  0
LINE
  5
14B5
100
AcDbEntity
  8
0
  6
BYBLOCK
 62
     0
100
AcDbLine
 10
95.0
 20
174.91
 30
0.0
 11
95.0
 21
175.09
 31
0.0
  0
POINT
  5
14B6
100
AcDbEntity
  8
DEFPOINTS
  6
BYBLOCK
 62
     0
100
AcDbPoint
 10
94.327902
 20
174.259538
 30
0.0
  0
POINT
  5
14B7
100
AcDbEntity
  8
DEFPOINTS
  6
BYBLOCK
 62
     0
100
AcDbPoint
 10
95.0
 20
175.0
 30
0.0
  0
ENDBLK
  5
14B9
100
AcDbEntity
  8
0
100
AcDbBlockEnd
  0
BLOCK
  5
14C2
100
AcDbEntity
  8
0
100
AcDbBlockBegin
  2
*D62
 70
     1
 10
0.0
 20
0.0
 30
0.0
  3
*D62
  1

  0
LINE
  5
14BB
100
AcDbEntity
  8
0
  6
BYBLOCK
 62
     0
100
AcDbLine
 10
106.048506
 20
167.282975
 30
0.0
 11
101.547459
 21
174.163167
 31
0.0
  0
MTEXT
  5
14BC
100
AcDbEntity
  8
0
  6
BYBLOCK
 62
     0
100
AcDbMText
 10
107.557667
 20
164.976106
 30
0.0
 40
4.0
 41
0.0
 71
     5
 72
     1
  1
\A1;R1
 11
0.547459
 21
-0.836833
 31
0.0
  0
SOLID
  5
14BD
100
AcDbEntity
  8
0
  6
BYBLOCK
 62
     0
100
AcDbTrace
 10
102.921321
 20
172.671989
 30
0.0
 11
102.363433
 21
172.307016
 31
0.0
 12
101.547459
 22
174.163167
 32
0.0
 13
101.547459
 23
174.163167
 33
0.0
  0
LINE
  5
14BE
100
AcDbEntity
  8
0
  6
BYBLOCK
 62
     0
100
AcDbLine
 10
100.91
 20
175.0
 30
0.0
 11
101.09
 21
175.0
 31
0.0
  0
LINE
  5
14BF
100
AcDbEntity
  8
0
  6
BYBLOCK
 62
     0
100
AcDbLine
 10
101.0
 20
174.91
 30
0.0
 11
101.0
 21
175.09
 31
0.0
  0
POINT
  5
14C0
100
AcDbEntity
  8
DEFPOINTS
  6
BYBLOCK
 62
     0
100
AcDbPoint
 10
101.547459
 20
174.163167
 30
0.0
  0
POINT
  5
14C1
100
AcDbEntity
  8
DEFPOINTS
  6
BYBLOCK
 62
     0
100
AcDbPoint
 10
101.0
 20
175.0
 30
0.0
  0
ENDBLK
  5
14C3
100
AcDbEntity
  8
0
100
AcDbBlockEnd
  0
BLOCK
  5
14CC
100
AcDbEntity
  8
0
100
AcDbBlockBegin
  2
*D63
 70
     1
 10
0.0
 20
0.0
 30
0.0
  3
*D63
  1

  0
LINE
  5
14C5
100
AcDbEntity
  8
0
  6
BYBLOCK
 62
     0
100
AcDbLine
 10
122.767989
 20
170.331442
 30
0.0
 11
116.471207
 21
182.117978
 31
0.0
  0
MTEXT
  5
14C6
100
AcDbEntity
  8
0
  6
BYBLOCK
 62
     0
100
AcDbMText
 10
124.066951
 20
167.9
 30
0.0
 40
4.0
 41
0.0
 71
     5
 72
     1
  1
\A1;R1
 11
0.471207
 21
-0.882022
 31
0.0
  0
SOLID
  5
14C7
100
AcDbEntity
  8
0
  6
BYBLOCK
 62
     0
100
AcDbTrace
 10
117.70763
 20
180.511002
 30
0.0
 11
117.119615
 21
180.196864
 31
0.0
 12
116.471207
 22
182.117978
 32
0.0
 13
116.471207
 23
182.117978
 33
0.0
  0
LINE
  5
14C8
100
AcDbEntity
  8
0
  6
BYBLOCK
 62
     0
100
AcDbLine
 10
115.91
 20
183.0
 30
0.0
 11
116.09
 21
183.0
 31
0.0
  0
LINE
  5
14C9
100
AcDbEntity
  8
0
  6
BYBLOCK
 62
     0
100
AcDbLine
 10
116.0
 20
182.91
 30
0.0
 11
116.0
 21
183.09
 31
0.0
  0
POINT
  5
14CA
100
AcDbEntity
  8
DEFPOINTS
  6
BYBLOCK
 62
     0
100
AcDbPoint
 10
116.471207
 20
182.117978
 30
0.0
  0
POINT
  5
14CB
100
AcDbEntity
  8
DEFPOINTS
  6
BYBLOCK
 62
     0
100
AcDbPoint
 10
116.0
 20
183.0
 30
0.0
  0
ENDBLK
  5
14CD
100
AcDbEntity
  8
0
100
AcDbBlockEnd
  0
BLOCK
  5
14D9
100
AcDbEntity
  8
0
100
AcDbBlockBegin
  2
*D64
 70
     1
 10
0.0
 20
0.0
 30
0.0
  3
*D64
  1

  0
LINE
  5
14CF
100
AcDbEntity
  8
0
  6
BYBLOCK
 62
     0
100
AcDbLine
 10
90.0
 20
212.06
 30
0.0
 11
90.0
 21
234.18
 31
0.0
  0
LINE
  5
14D0
100
AcDbEntity
  8
0
  6
BYBLOCK
 62
     0
100
AcDbLine
 10
98.0
 20
212.06
 30
0.0
 11
98.0
 21
234.18
 31
0.0
  0
LINE
  5
14D1
100
AcDbEntity
  8
0
  6
BYBLOCK
 62
     0
100
AcDbLine
 10
92.0
 20
234.0
 30
0.0
 11
92.576667
 21
234.0
 31
0.0
  0
LINE
  5
14D2
100
AcDbEntity
  8
0
  6
BYBLOCK
 62
     0
100
AcDbLine
 10
96.0
 20
234.0
 30
0.0
 11
95.423333
 21
234.0
 31
0.0
  0
SOLID
  5
14D3
100
AcDbEntity
  8
0
  6
BYBLOCK
 62
     0
100
AcDbTrace
 10
92.0
 20
234.333333
 30
0.0
 11
92.0
 21
233.666667
 31
0.0
 12
90.0
 22
234.0
 32
0.0
 13
90.0
 23
234.0
 33
0.0
  0
SOLID
  5
14D4
100
AcDbEntity
  8
0
  6
BYBLOCK
 62
     0
100
AcDbTrace
 10
96.0
 20
234.333333
 30
0.0
 11
96.0
 21
233.666667
 31
0.0
 12
98.0
 22
234.0
 32
0.0
 13
98.0
 23
234.0
 33
0.0
  0
MTEXT
  5
14D5
100
AcDbEntity
  8
0
  6
BYBLOCK
 62
     0
100
AcDbMText
 10
94.0
 20
234.0
 30
0.0
 40
4.0
 41
0.0
 71
     5
 72
     1
  1
\A1;8
  0
POINT
  5
14D6
100
AcDbEntity
  8
DEFPOINTS
  6
BYBLOCK
 62
     0
100
AcDbPoint
 10
90.0
 20
212.0
 30
0.0
  0
POINT
  5
14D7
100
AcDbEntity
  8
DEFPOINTS
  6
BYBLOCK
 62
     0
100
AcDbPoint
 10
98.0
 20
212.0
 30
0.0
  0
POINT
  5
14D8
100
AcDbEntity
  8
DEFPOINTS
  6
BYBLOCK
 62
     0
100
AcDbPoint
 10
98.0
 20
234.0
 30
0.0
  0
ENDBLK
  5
14DA
100
AcDbEntity
  8
0
100
AcDbBlockEnd
  0
BLOCK
  5
14E6
100
AcDbEntity
  8
0
100
AcDbBlockBegin
  2
*D65
 70
     1
 10
0.0
 20
0.0
 30
0.0
  3
*D65
  1

  0
LINE
  5
14DC
100
AcDbEntity
  8
0
  6
BYBLOCK
 62
     0
100
AcDbLine
 10
98.0
 20
217.56
 30
0.0
 11
98.0
 21
234.18
 31
0.0
  0
LINE
  5
14DD
100
AcDbEntity
  8
0
  6
BYBLOCK
 62
     0
100
AcDbLine
 10
113.0
 20
206.56
 30
0.0
 11
113.0
 21
234.18
 31
0.0
  0
LINE
  5
14DE
100
AcDbEntity
  8
0
  6
BYBLOCK
 62
     0
100
AcDbLine
 10
100.0
 20
234.0
 30
0.0
 11
102.743333
 21
234.0
 31
0.0
  0
LINE
  5
14DF
100
AcDbEntity
  8
0
  6
BYBLOCK
 62
     0
100
AcDbLine
 10
111.0
 20
234.0
 30
0.0
 11
108.256667
 21
234.0
 31
0.0
  0
SOLID
  5
14E0
100
AcDbEntity
  8
0
  6
BYBLOCK
 62
     0
100
AcDbTrace
 10
100.0
 20
234.333333
 30
0.0
 11
100.0
 21
233.666667
 31
0.0
 12
98.0
 22
234.0
 32
0.0
 13
98.0
 23
234.0
 33
0.0
  0
SOLID
  5
14E1
100
AcDbEntity
  8
0
  6
BYBLOCK
 62
     0
100
AcDbTrace
 10
111.0
 20
234.333333
 30
0.0
 11
111.0
 21
233.666667
 31
0.0
 12
113.0
 22
234.0
 32
0.0
 13
113.0
 23
234.0
 33
0.0
  0
MTEXT
  5
14E2
100
AcDbEntity
  8
0
  6
BYBLOCK
 62
     0
100
AcDbMText
 10
105.5
 20
234.0
 30
0.0
 40
4.0
 41
0.0
 71
     5
 72
     1
  1
\A1;15
  0
POINT
  5
14E3
100
AcDbEntity
  8
DEFPOINTS
  6
BYBLOCK
 62
     0
100
AcDbPoint
 10
98.0
 20
217.5
 30
0.0
  0
POINT
  5
14E4
100
AcDbEntity
  8
DEFPOINTS
  6
BYBLOCK
 62
     0
100
AcDbPoint
 10
113.0
 20
206.5
 30
0.0
  0
POINT
  5
14E5
100
AcDbEntity
  8
DEFPOINTS
  6
BYBLOCK
 62
     0
100
AcDbPoint
 10
113.0
 20
234.0
 30
0.0
  0
ENDBLK
  5
14E7
100
AcDbEntity
  8
0
100
AcDbBlockEnd
  0
BLOCK
  5
14F3
100
AcDbEntity
  8
0
100
AcDbBlockBegin
  2
*D66
 70
     1
 10
0.0
 20
0.0
 30
0.0
  3
*D66
  1

  0
LINE
  5
14E9
100
AcDbEntity
  8
0
  6
BYBLOCK
 62
     0
100
AcDbLine
 10
90.0
 20
230.56
 30
0.0
 11
90.0
 21
242.68
 31
0.0
  0
LINE
  5
14EA
100
AcDbEntity
  8
0
  6
BYBLOCK
 62
     0
100
AcDbLine
 10
113.0
 20
228.06
 30
0.0
 11
113.0
 21
242.68
 31
0.0
  0
LINE
  5
14EB
100
AcDbEntity
  8
0
  6
BYBLOCK
 62
     0
100
AcDbLine
 10
92.0
 20
242.5
 30
0.0
 11
98.076667
 21
242.5
 31
0.0
  0
LINE
  5
14EC
100
AcDbEntity
  8
0
  6
BYBLOCK
 62
     0
100
AcDbLine
 10
111.0
 20
242.5
 30
0.0
 11
104.923333
 21
242.5
 31
0.0
  0
SOLID
  5
14ED
100
AcDbEntity
  8
0
  6
BYBLOCK
 62
     0
100
AcDbTrace
 10
92.0
 20
242.833333
 30
0.0
 11
92.0
 21
242.166667
 31
0.0
 12
90.0
 22
242.5
 32
0.0
 13
90.0
 23
242.5
 33
0.0
  0
SOLID
  5
14EE
100
AcDbEntity
  8
0
  6
BYBLOCK
 62
     0
100
AcDbTrace
 10
111.0
 20
242.833333
 30
0.0
 11
111.0
 21
242.166667
 31
0.0
 12
113.0
 22
242.5
 32
0.0
 13
113.0
 23
242.5
 33
0.0
  0
MTEXT
  5
14EF
100
AcDbEntity
  8
0
  6
BYBLOCK
 62
     0
100
AcDbMText
 10
101.5
 20
242.5
 30
0.0
 40
4.0
 41
0.0
 71
     5
 72
     1
  1
\A1;23
  0
POINT
  5
14F0
100
AcDbEntity
  8
DEFPOINTS
  6
BYBLOCK
 62
     0
100
AcDbPoint
 10
90.0
 20
230.5
 30
0.0
  0
POINT
  5
14F1
100
AcDbEntity
  8
DEFPOINTS
  6
BYBLOCK
 62
     0
100
AcDbPoint
 10
113.0
 20
228.0
 30
0.0
  0
POINT
  5
14F2
100
AcDbEntity
  8
DEFPOINTS
  6
BYBLOCK
 62
     0
100
AcDbPoint
 10
113.0
 20
242.5
 30
0.0
  0
ENDBLK
  5
14F4
100
AcDbEntity
  8
0
100
AcDbBlockEnd
  0
BLOCK
  5
1500
100
AcDbEntity
  8
0
100
AcDbBlockBegin
  2
*D67
 70
     1
 10
0.0
 20
0.0
 30
0.0
  3
*D67
  1

  0
LINE
  5
14F6
100
AcDbEntity
  8
0
  6
BYBLOCK
 62
     0
100
AcDbLine
 10
113.0
 20
215.56
 30
0.0
 11
113.0
 21
242.68
 31
0.0
  0
LINE
  5
14F7
100
AcDbEntity
  8
0
  6
BYBLOCK
 62
     0
100
AcDbLine
 10
132.0
 20
198.06
 30
0.0
 11
132.0
 21
242.68
 31
0.0
  0
LINE
  5
14F8
100
AcDbEntity
  8
0
  6
BYBLOCK
 62
     0
100
AcDbLine
 10
115.0
 20
242.5
 30
0.0
 11
121.076667
 21
242.5
 31
0.0
  0
LINE
  5
14F9
100
AcDbEntity
  8
0
  6
BYBLOCK
 62
     0
100
AcDbLine
 10
130.0
 20
242.5
 30
0.0
 11
123.923333
 21
242.5
 31
0.0
  0
SOLID
  5
14FA
100
AcDbEntity
  8
0
  6
BYBLOCK
 62
     0
100
AcDbTrace
 10
115.0
 20
242.833333
 30
0.0
 11
115.0
 21
242.166667
 31
0.0
 12
113.0
 22
242.5
 32
0.0
 13
113.0
 23
242.5
 33
0.0
  0
SOLID
  5
14FB
100
AcDbEntity
  8
0
  6
BYBLOCK
 62
     0
100
AcDbTrace
 10
130.0
 20
242.833333
 30
0.0
 11
130.0
 21
242.166667
 31
0.0
 12
132.0
 22
242.5
 32
0.0
 13
132.0
 23
242.5
 33
0.0
  0
MTEXT
  5
14FC
100
AcDbEntity
  8
0
  6
BYBLOCK
 62
     0
100
AcDbMText
 10
122.5
 20
242.5
 30
0.0
 40
4.0
 41
0.0
 71
     5
 72
     1
  1
\A1;L
  0
POINT
  5
14FD
100
AcDbEntity
  8
DEFPOINTS
  6
BYBLOCK
 62
     0
100
AcDbPoint
 10
113.0
 20
215.5
 30
0.0
  0
POINT
  5
14FE
100
AcDbEntity
  8
DEFPOINTS
  6
BYBLOCK
 62
     0
100
AcDbPoint
 10
132.0
 20
198.0
 30
0.0
  0
POINT
  5
14FF
100
AcDbEntity
  8
DEFPOINTS
  6
BYBLOCK
 62
     0
100
AcDbPoint
 10
132.0
 20
242.5
 30
0.0
  0
ENDBLK
  5
1501
100
AcDbEntity
  8
0
100
AcDbBlockEnd
  0
BLOCK
  5
150D
100
AcDbEntity
  8
0
100
AcDbBlockBegin
  2
*D68
 70
     1
 10
0.0
 20
0.0
 30
0.0
  3
*D68
  1

  0
LINE
  5
1503
100
AcDbEntity
  8
0
  6
BYBLOCK
 62
     0
100
AcDbLine
 10
141.0
 20
199.06
 30
0.0
 11
141.0
 21
242.68
 31
0.0
  0
LINE
  5
1504
100
AcDbEntity
  8
0
  6
BYBLOCK
 62
     0
100
AcDbLine
 10
177.0
 20
199.06
 30
0.0
 11
177.0
 21
242.68
 31
0.0
  0
LINE
  5
1505
100
AcDbEntity
  8
0
  6
BYBLOCK
 62
     0
100
AcDbLine
 10
143.0
 20
242.5
 30
0.0
 11
155.576667
 21
242.5
 31
0.0
  0
LINE
  5
1506
100
AcDbEntity
  8
0
  6
BYBLOCK
 62
     0
100
AcDbLine
 10
175.0
 20
242.5
 30
0.0
 11
162.423333
 21
242.5
 31
0.0
  0
SOLID
  5
1507
100
AcDbEntity
  8
0
  6
BYBLOCK
 62
     0
100
AcDbTrace
 10
143.0
 20
242.833333
 30
0.0
 11
143.0
 21
242.166667
 31
0.0
 12
141.0
 22
242.5
 32
0.0
 13
141.0
 23
242.5
 33
0.0
  0
SOLID
  5
1508
100
AcDbEntity
  8
0
  6
BYBLOCK
 62
     0
100
AcDbTrace
 10
175.0
 20
242.833333
 30
0.0
 11
175.0
 21
242.166667
 31
0.0
 12
177.0
 22
242.5
 32
0.0
 13
177.0
 23
242.5
 33
0.0
  0
MTEXT
  5
1509
100
AcDbEntity
  8
0
  6
BYBLOCK
 62
     0
100
AcDbMText
 10
159.0
 20
242.5
 30
0.0
 40
4.0
 41
0.0
 71
     5
 72
     1
  1
\A1;36
  0
POINT
  5
150A
100
AcDbEntity
  8
DEFPOINTS
  6
BYBLOCK
 62
     0
100
AcDbPoint
 10
141.0
 20
199.0
 30
0.0
  0
POINT
  5
150B
100
AcDbEntity
  8
DEFPOINTS
  6
BYBLOCK
 62
     0
100
AcDbPoint
 10
177.0
 20
199.0
 30
0.0
  0
POINT
  5
150C
100
AcDbEntity
  8
DEFPOINTS
  6
BYBLOCK
 62
     0
100
AcDbPoint
 10
177.0
 20
242.5
 30
0.0
  0
ENDBLK
  5
150E
100
AcDbEntity
  8
0
100
AcDbBlockEnd
  0
BLOCK
  5
151A
100
AcDbEntity
  8
0
100
AcDbBlockBegin
  2
*D69
 70
     1
 10
0.0
 20
0.0
 30
0.0
  3
*D69
  1

  0
LINE
  5
1510
100
AcDbEntity
  8
0
  6
BYBLOCK
 62
     0
100
AcDbLine
 10
149.0
 20
196.56
 30
0.0
 11
149.0
 21
234.18
 31
0.0
  0
LINE
  5
1511
100
AcDbEntity
  8
0
  6
BYBLOCK
 62
     0
100
AcDbLine
 10
169.0
 20
196.56
 30
0.0
 11
169.0
 21
234.18
 31
0.0
  0
LINE
  5
1512
100
AcDbEntity
  8
0
  6
BYBLOCK
 62
     0
100
AcDbLine
 10
151.0
 20
234.0
 30
0.0
 11
155.91
 21
234.0
 31
0.0
  0
LINE
  5
1513
100
AcDbEntity
  8
0
  6
BYBLOCK
 62
     0
100
AcDbLine
 10
167.0
 20
234.0
 30
0.0
 11
162.09
 21
234.0
 31
0.0
  0
SOLID
  5
1514
100
AcDbEntity
  8
0
  6
BYBLOCK
 62
     0
100
AcDbTrace
 10
151.0
 20
234.333333
 30
0.0
 11
151.0
 21
233.666667
 31
0.0
 12
149.0
 22
234.0
 32
0.0
 13
149.0
 23
234.0
 33
0.0
  0
SOLID
  5
1515
100
AcDbEntity
  8
0
  6
BYBLOCK
 62
     0
100
AcDbTrace
 10
167.0
 20
234.333333
 30
0.0
 11
167.0
 21
233.666667
 31
0.0
 12
169.0
 22
234.0
 32
0.0
 13
169.0
 23
234.0
 33
0.0
  0
MTEXT
  5
1516
100
AcDbEntity
  8
0
  6
BYBLOCK
 62
     0
100
AcDbMText
 10
159.0
 20
234.0
 30
0.0
 40
4.0
 41
0.0
 71
     5
 72
     1
  1
\A1;20
  0
POINT
  5
1517
100
AcDbEntity
  8
DEFPOINTS
  6
BYBLOCK
 62
     0
100
AcDbPoint
 10
149.0
 20
196.5
 30
0.0
  0
POINT
  5
1518
100
AcDbEntity
  8
DEFPOINTS
  6
BYBLOCK
 62
     0
100
AcDbPoint
 10
169.0
 20
196.5
 30
0.0
  0
POINT
  5
1519
100
AcDbEntity
  8
DEFPOINTS
  6
BYBLOCK
 62
     0
100
AcDbPoint
 10
169.0
 20
234.0
 30
0.0
  0
ENDBLK
  5
151B
100
AcDbEntity
  8
0
100
AcDbBlockEnd
  0
BLOCK
  5
151E
100
AcDbEntity
  8
0
100
AcDbBlockBegin
  2
A$C2B8D5F0E
 70
     0
 10
0.0
 20
0.0
 30
0.0
  3
A$C2B8D5F0E
  1

  0
TEXT
  5
151D
100
AcDbEntity
  8
0
100
AcDbText
 10
0.0
 20
0.0
 30
0.0
 40
3.5
  1
材質：Ｓ４５Ｃ又はＳ４５Ｃ快削又は快削鋼
 41
0.6
  7
BIGFONT
100
AcDbText
  0
ENDBLK
  5
151F
100
AcDbEntity
  8
0
100
AcDbBlockEnd
  0
BLOCK
  5
15BF
100
AcDbEntity
  8
0
100
AcDbBlockBegin
  2
A$C28A03580
 70
     0
 10
0.0
 20
0.0
 30
0.0
  3
A$C28A03580
  1

  0
LEADER
  5
1521
100
AcDbEntity
  8
0
100
AcDbLeader
  3
STANDARD
 76
     3
 10
87.89
 20
47.5
 30
0.0
 10
95.89
 20
17.5
 30
0.0
 10
96.89
 20
17.5
 30
0.0
 77
   256
1001
ACAD
1000
DSTYLE
1002
{
1070
    78
1070
    12
1070
   284
1070
    12
1070
   140
1040
4.0
1070
    74
1070
     0
1070
    73
1070
     0
1070
    42
1040
0.06
1070
    41
1040
2.0
1002
}
  0
DIMENSION
  5
1522
100
AcDbEntity
  8
0
100
AcDbDimension
  2
*D66
 10
107.39
 20
116.0
 30
0.0
 11
95.89
 21
116.0
 31
0.0
 12
-5.61
 22
-126.5
 32
0.0
  3
STANDARD
100
AcDbAlignedDimension
 13
84.39
 23
104.0
 33
0.0
 14
107.39
 24
101.5
 34
0.0
100
AcDbRotatedDimension
1001
ACAD
1000
DSTYLE
1002
{
1070
    78
1070
    12
1070
   284
1070
    12
1070
   140
1040
4.0
1070
    74
1070
     0
1070
    73
1070
     0
1070
    42
1040
0.06
1070
    41
1040
2.0
1002
}
  0
DIMENSION
  5
1523
100
AcDbEntity
  8
0
100
AcDbDimension
  2
*D64
 10
92.39
 20
107.5
 30
0.0
 11
88.39
 21
107.5
 31
0.0
 12
-5.61
 22
-126.5
 32
0.0
  3
STANDARD
100
AcDbAlignedDimension
 13
84.39
 23
85.5
 33
0.0
 14
92.39
 24
85.5
 34
0.0
100
AcDbRotatedDimension
1001
ACAD
1000
DSTYLE
1002
{
1070
    78
1070
    12
1070
   284
1070
    12
1070
   140
1040
4.0
1070
    74
1070
     0
1070
    73
1070
     0
1070
    42
1040
0.06
1070
    41
1040
2.0
1002
}
  0
LINE
  5
1524
100
AcDbEntity
  8
1
100
AcDbLine
 10
80.89
 20
65.5
 30
0.0
 11
128.89
 21
65.5
 31
0.0
  0
LINE
  5
1525
100
AcDbEntity
  8
3
100
AcDbLine
 10
85.39
 20
83.5
 30
0.0
 11
91.39
 21
83.5
 31
0.0
  0
LINE
  5
1526
100
AcDbEntity
  8
3
100
AcDbLine
 10
91.39
 20
67.5
 30
0.0
 11
85.39
 21
67.5
 31
0.0
  0
LINE
  5
1527
100
AcDbEntity
  8
3
100
AcDbLine
 10
91.39
 20
69.5
 30
0.0
 11
85.39
 21
69.5
 31
0.0
  0
LINE
  5
1528
100
AcDbEntity
  8
3
100
AcDbLine
 10
91.39
 20
71.5
 30
0.0
 11
85.39
 21
71.5
 31
0.0
  0
LINE
  5
1529
100
AcDbEntity
  8
3
100
AcDbLine
 10
91.39
 20
73.5
 30
0.0
 11
85.39
 21
73.5
 31
0.0
  0
LINE
  5
152A
100
AcDbEntity
  8
3
100
AcDbLine
 10
91.39
 20
75.5
 30
0.0
 11
85.39
 21
75.5
 31
0.0
  0
LINE
  5
152B
100
AcDbEntity
  8
3
100
AcDbLine
 10
91.39
 20
77.5
 30
0.0
 11
85.39
 21
77.5
 31
0.0
  0
LINE
  5
152C
100
AcDbEntity
  8
3
100
AcDbLine
 10
91.39
 20
79.5
 30
0.0
 11
85.39
 21
79.5
 31
0.0
  0
LINE
  5
152D
100
AcDbEntity
  8
3
100
AcDbLine
 10
91.39
 20
81.5
 30
0.0
 11
85.39
 21
81.5
 31
0.0
  0
LINE
  5
152E
100
AcDbEntity
  8
3
100
AcDbLine
 10
91.39
 20
61.5
 30
0.0
 11
85.39
 21
61.5
 31
0.0
  0
LINE
  5
152F
100
AcDbEntity
  8
3
100
AcDbLine
 10
91.39
 20
63.5
 30
0.0
 11
85.39
 21
63.5
 31
0.0
  0
LINE
  5
1530
100
AcDbEntity
  8
3
100
AcDbLine
 10
91.39
 20
49.5
 30
0.0
 11
85.39
 21
49.5
 31
0.0
  0
LINE
  5
1531
100
AcDbEntity
  8
3
100
AcDbLine
 10
91.39
 20
51.5
 30
0.0
 11
85.39
 21
51.5
 31
0.0
  0
LINE
  5
1532
100
AcDbEntity
  8
3
100
AcDbLine
 10
91.39
 20
53.5
 30
0.0
 11
85.39
 21
53.5
 31
0.0
  0
LINE
  5
1533
100
AcDbEntity
  8
3
100
AcDbLine
 10
91.39
 20
55.5
 30
0.0
 11
85.39
 21
55.5
 31
0.0
  0
LINE
  5
1534
100
AcDbEntity
  8
3
100
AcDbLine
 10
91.39
 20
57.5
 30
0.0
 11
85.39
 21
57.5
 31
0.0
  0
LINE
  5
1535
100
AcDbEntity
  8
3
100
AcDbLine
 10
91.39
 20
59.5
 30
0.0
 11
85.39
 21
59.5
 31
0.0
  0
LINE
  5
1536
100
AcDbEntity
  8
3
100
AcDbLine
 10
85.39
 20
47.5
 30
0.0
 11
91.39
 21
47.5
 31
0.0
  0
LEADER
  5
1537
100
AcDbEntity
  8
0
100
AcDbLeader
  3
STANDARD
 76
     3
 10
18.89
 20
47.5
 30
0.0
 10
32.39
 20
14.5
 30
0.0
 10
35.89
 20
14.5
 30
0.0
 77
   256
1001
ACAD
1000
DSTYLE
1002
{
1070
    78
1070
    12
1070
   284
1070
    12
1070
   140
1040
4.0
1070
    74
1070
     0
1070
    73
1070
     0
1070
    42
1040
0.06
1070
    41
1040
2.0
1002
}
  0
TEXT
  5
1538
100
AcDbEntity
  8
0
100
AcDbText
 10
36.89
 20
14.5
 30
0.0
 40
5.0
  1
ローレット３２番
 41
0.6
  7
BIGFONT
100
AcDbText
  0
TEXT
  5
1539
100
AcDbEntity
  8
0
100
AcDbText
 10
36.89
 20
8.5
 30
0.0
 40
5.0
  1
（バリ無きこと）
 41
0.6
  7
BIGFONT
100
AcDbText
  0
TEXT
  5
153A
100
AcDbEntity
  8
3
100
AcDbText
 10
-0.26
 20
112.65
 30
0.0
 40
6.5
  1
ナールド・サム・ノブ
 41
0.6
  7
BIGFONT
100
AcDbText
  0
LEADER
  5
153B
100
AcDbEntity
  8
0
100
AcDbLeader
  3
STANDARD
 76
     3
 10
38.89
 20
65.0
 30
0.0
 10
57.39
 20
43.0
 30
0.0
 10
28.39
 20
43.0
 30
0.0
 77
   256
1001
ACAD
1000
DSTYLE
1002
{
1070
    78
1070
    12
1070
   284
1070
    12
1070
   140
1040
4.0
1070
    74
1070
     0
1070
    73
1070
     0
1070
    42
1040
0.06
1070
    41
1040
2.0
1002
}
  0
TEXT
  5
153C
100
AcDbEntity
  8
0
100
AcDbText
 10
27.89
 20
43.0
 30
0.0
 40
5.0
  1
M10-P1.5
 41
0.6
  7
BIGFONT
100
AcDbText
  0
LINE
  5
153D
100
AcDbEntity
  8
0
100
AcDbLine
 10
30.39
 20
77.5
 30
0.0
 11
32.39
 21
77.5
 31
0.0
  0
LINE
  5
153E
100
AcDbEntity
  8
0
100
AcDbLine
 10
31.39
 20
75.5
 30
0.0
 11
30.39
 21
77.5
 31
0.0
  0
LINE
  5
153F
100
AcDbEntity
  8
3
100
AcDbLine
 10
24.39
 20
55.5
 30
0.0
 11
37.39
 21
55.5
 31
0.0
  0
LINE
  5
1540
100
AcDbEntity
  8
2
100
AcDbLine
 10
37.39
 20
61.5
 30
0.0
 11
16.39
 21
61.5
 31
0.0
  0
LINE
  5
1541
100
AcDbEntity
  8
2
100
AcDbLine
 10
37.89
 20
60.5
 30
0.0
 11
15.89
 21
60.5
 31
0.0
  0
LINE
  5
1542
100
AcDbEntity
  8
2
100
AcDbLine
 10
37.89
 20
70.5
 30
0.0
 11
15.89
 21
70.5
 31
0.0
  0
LINE
  5
1543
100
AcDbEntity
  8
2
100
AcDbLine
 10
37.39
 20
69.5
 30
0.0
 11
16.39
 21
69.5
 31
0.0
  0
LINE
  5
1544
100
AcDbEntity
  8
3
100
AcDbLine
 10
24.39
 20
75.5
 30
0.0
 11
37.39
 21
75.5
 31
0.0
  0
LINE
  5
1545
100
AcDbEntity
  8
1
100
AcDbLine
 10
11.89
 20
65.5
 30
0.0
 11
41.39
 21
65.5
 31
0.0
  0
LINE
  5
1546
100
AcDbEntity
  8
0
100
AcDbLine
 10
13.39
 20
73.5
 30
0.0
 11
13.39
 21
70.5
 31
0.0
  0
LINE
  5
1547
100
AcDbEntity
  8
0
100
AcDbLine
 10
15.39
 20
72.0
 30
0.0
 11
13.39
 21
73.5
 31
0.0
  0
LINE
  5
1548
100
AcDbEntity
  8
0
100
AcDbLine
 10
22.39
 20
65.5
 30
0.0
 11
22.39
 21
83.5
 31
0.0
  0
LINE
  5
1549
100
AcDbEntity
  8
0
100
AcDbLine
 10
16.39
 20
65.5
 30
0.0
 11
16.39
 21
83.5
 31
0.0
  0
LINE
  5
154A
100
AcDbEntity
  8
3
100
AcDbLine
 10
23.39
 20
65.5
 30
0.0
 11
23.39
 21
76.5
 31
0.0
  0
LINE
  5
154B
100
AcDbEntity
  8
3
100
AcDbLine
 10
15.39
 20
65.5
 30
0.0
 11
15.39
 21
82.5
 31
0.0
  0
ARC
  5
154C
100
AcDbEntity
  8
3
100
AcDbCircle
 10
16.39
 20
48.5
 30
0.0
 40
1.0
100
AcDbArc
 50
180.0
 51
270.0
  0
LINE
  5
154D
100
AcDbEntity
  8
2
100
AcDbLine
 10
16.39
 20
61.5
 30
0.0
 11
15.39
 21
60.0
 31
0.0
  0
LINE
  5
154E
100
AcDbEntity
  8
2
100
AcDbLine
 10
16.39
 20
69.5
 30
0.0
 11
15.39
 21
71.0
 31
0.0
  0
LINE
  5
154F
100
AcDbEntity
  8
3
100
AcDbLine
 10
15.39
 20
65.5
 30
0.0
 11
15.39
 21
48.5
 31
0.0
  0
LINE
  5
1550
100
AcDbEntity
  8
0
100
AcDbLine
 10
13.39
 20
70.5
 30
0.0
 11
15.39
 21
72.0
 31
0.0
  0
LINE
  5
1551
100
AcDbEntity
  8
3
100
AcDbLine
 10
23.39
 20
48.5
 30
0.0
 11
23.39
 21
54.5
 31
0.0
  0
LINE
  5
1552
100
AcDbEntity
  8
0
100
AcDbLine
 10
16.39
 20
65.5
 30
0.0
 11
16.39
 21
47.5
 31
0.0
  0
LINE
  5
1553
100
AcDbEntity
  8
0
100
AcDbLine
 10
22.39
 20
65.5
 30
0.0
 11
22.39
 21
47.5
 31
0.0
  0
ARC
  5
1554
100
AcDbEntity
  8
3
100
AcDbCircle
 10
22.39
 20
48.5
 30
0.0
 40
1.0
100
AcDbArc
 50
270.0
 51
0.0
  0
LINE
  5
1555
100
AcDbEntity
  8
3
100
AcDbLine
 10
16.39
 20
47.5
 30
0.0
 11
22.39
 21
47.5
 31
0.0
  0
LINE
  5
1556
100
AcDbEntity
  8
3
100
AcDbLine
 10
22.39
 20
49.5
 30
0.0
 11
16.39
 21
49.5
 31
0.0
  0
LINE
  5
1557
100
AcDbEntity
  8
3
100
AcDbLine
 10
22.39
 20
61.5
 30
0.0
 11
16.39
 21
61.5
 31
0.0
  0
LINE
  5
1558
100
AcDbEntity
  8
3
100
AcDbLine
 10
22.39
 20
59.5
 30
0.0
 11
16.39
 21
59.5
 31
0.0
  0
LINE
  5
1559
100
AcDbEntity
  8
3
100
AcDbLine
 10
22.39
 20
57.5
 30
0.0
 11
16.39
 21
57.5
 31
0.0
  0
LINE
  5
155A
100
AcDbEntity
  8
3
100
AcDbLine
 10
22.39
 20
55.5
 30
0.0
 11
16.39
 21
55.5
 31
0.0
  0
LINE
  5
155B
100
AcDbEntity
  8
3
100
AcDbLine
 10
22.39
 20
53.5
 30
0.0
 11
16.39
 21
53.5
 31
0.0
  0
LINE
  5
155C
100
AcDbEntity
  8
3
100
AcDbLine
 10
22.39
 20
51.5
 30
0.0
 11
16.39
 21
51.5
 31
0.0
  0
LINE
  5
155D
100
AcDbEntity
  8
3
100
AcDbLine
 10
22.39
 20
63.5
 30
0.0
 11
16.39
 21
63.5
 31
0.0
  0
LINE
  5
155E
100
AcDbEntity
  8
3
100
AcDbLine
 10
22.39
 20
71.5
 30
0.0
 11
16.39
 21
71.5
 31
0.0
  0
LINE
  5
155F
100
AcDbEntity
  8
3
100
AcDbLine
 10
22.39
 20
69.5
 30
0.0
 11
16.39
 21
69.5
 31
0.0
  0
LINE
  5
1560
100
AcDbEntity
  8
3
100
AcDbLine
 10
22.39
 20
67.5
 30
0.0
 11
16.39
 21
67.5
 31
0.0
  0
LINE
  5
1561
100
AcDbEntity
  8
3
100
AcDbLine
 10
23.39
 20
65.5
 30
0.0
 11
23.39
 21
54.5
 31
0.0
  0
ARC
  5
1562
100
AcDbEntity
  8
3
100
AcDbCircle
 10
24.39
 20
54.5
 30
0.0
 40
1.0
100
AcDbArc
 50
90.0
 51
180.0
  0
ARC
  5
1563
100
AcDbEntity
  8
3
100
AcDbCircle
 10
16.39
 20
82.5
 30
0.0
 40
1.0
100
AcDbArc
 50
90.0
 51
180.0
  0
LINE
  5
1564
100
AcDbEntity
  8
0
100
AcDbLine
 10
13.39
 20
77.0
 30
0.0
 11
15.39
 21
78.5
 31
0.0
  0
LINE
  5
1565
100
AcDbEntity
  8
0
100
AcDbLine
 10
13.39
 20
80.0
 30
0.0
 11
13.39
 21
77.0
 31
0.0
  0
LINE
  5
1566
100
AcDbEntity
  8
0
100
AcDbLine
 10
15.39
 20
75.0
 30
0.0
 11
13.39
 21
76.5
 31
0.0
  0
LINE
  5
1567
100
AcDbEntity
  8
0
100
AcDbLine
 10
13.39
 20
73.5
 30
0.0
 11
15.39
 21
75.0
 31
0.0
  0
LINE
  5
1568
100
AcDbEntity
  8
0
100
AcDbLine
 10
13.39
 20
76.5
 30
0.0
 11
13.39
 21
73.5
 31
0.0
  0
LINE
  5
1569
100
AcDbEntity
  8
0
100
AcDbLine
 10
15.39
 20
78.5
 30
0.0
 11
13.39
 21
80.0
 31
0.0
  0
ARC
  5
156A
100
AcDbEntity
  8
3
100
AcDbCircle
 10
22.39
 20
82.5
 30
0.0
 40
1.0
100
AcDbArc
 50
0.0
 51
90.0
  0
LINE
  5
156B
100
AcDbEntity
  8
3
100
AcDbLine
 10
22.39
 20
81.5
 30
0.0
 11
16.39
 21
81.5
 31
0.0
  0
LINE
  5
156C
100
AcDbEntity
  8
3
100
AcDbLine
 10
22.39
 20
79.5
 30
0.0
 11
16.39
 21
79.5
 31
0.0
  0
LINE
  5
156D
100
AcDbEntity
  8
3
100
AcDbLine
 10
22.39
 20
77.5
 30
0.0
 11
16.39
 21
77.5
 31
0.0
  0
LINE
  5
156E
100
AcDbEntity
  8
3
100
AcDbLine
 10
22.39
 20
75.5
 30
0.0
 11
16.39
 21
75.5
 31
0.0
  0
LINE
  5
156F
100
AcDbEntity
  8
3
100
AcDbLine
 10
22.39
 20
73.5
 30
0.0
 11
16.39
 21
73.5
 31
0.0
  0
LINE
  5
1570
100
AcDbEntity
  8
3
100
AcDbLine
 10
16.39
 20
83.5
 30
0.0
 11
22.39
 21
83.5
 31
0.0
  0
LINE
  5
1571
100
AcDbEntity
  8
3
100
AcDbLine
 10
23.39
 20
82.5
 30
0.0
 11
23.39
 21
76.5
 31
0.0
  0
ARC
  5
1572
100
AcDbEntity
  8
3
100
AcDbCircle
 10
24.39
 20
76.5
 30
0.0
 40
1.0
100
AcDbArc
 50
180.0
 51
270.0
  0
MTEXT
  5
1573
102
{ACAD_REACTORS
330
1574
102
}
100
AcDbEntity
  8
0
100
AcDbMText
 10
46.3
 20
90.0
 30
0.0
 40
4.0
 41
0.0
 71
     6
 72
     1
  1
\A1;0.5C
  0
LEADER
  5
1574
100
AcDbEntity
  8
0
100
AcDbLeader
  3
STANDARD
 73
     0
 40
4.0
 41
11.333333
 76
     3
 10
39.39
 20
70.0
 30
0.0
 10
49.89
 20
90.0
 30
0.0
 10
46.39
 20
90.0
 30
0.0
 77
   256
340
1573
1001
ACAD
1000
DSTYLE
1002
{
1070
    78
1070
    12
1070
   284
1070
    12
1070
   140
1040
4.0
1070
    74
1070
     0
1070
    73
1070
     0
1070
    42
1040
0.06
1070
    41
1040
2.0
1002
}
  0
LINE
  5
1575
100
AcDbEntity
  8
3
100
AcDbLine
 10
38.39
 20
74.5
 30
0.0
 11
38.39
 21
65.5
 31
0.0
  0
ARC
  5
1576
100
AcDbEntity
  8
3
100
AcDbCircle
 10
37.39
 20
56.5
 30
0.0
 40
1.0
100
AcDbArc
 50
270.0
 51
0.0
  0
LINE
  5
1577
100
AcDbEntity
  8
2
100
AcDbLine
 10
38.39
 20
60.0
 30
0.0
 11
37.39
 21
61.5
 31
0.0
  0
LINE
  5
1578
100
AcDbEntity
  8
2
100
AcDbLine
 10
38.39
 20
71.0
 30
0.0
 11
37.39
 21
69.5
 31
0.0
  0
LINE
  5
1579
100
AcDbEntity
  8
2
100
AcDbLine
 10
37.39
 20
61.5
 30
0.0
 11
37.39
 21
65.5
 31
0.0
  0
LINE
  5
157A
100
AcDbEntity
  8
2
100
AcDbLine
 10
37.39
 20
69.5
 30
0.0
 11
37.39
 21
65.5
 31
0.0
  0
LINE
  5
157B
100
AcDbEntity
  8
3
100
AcDbLine
 10
38.39
 20
56.5
 30
0.0
 11
38.39
 21
65.5
 31
0.0
  0
ARC
  5
157C
100
AcDbEntity
  8
3
100
AcDbCircle
 10
37.39
 20
74.5
 30
0.0
 40
1.0
100
AcDbArc
 50
0.0
 51
90.0
  0
LINE
  5
157D
100
AcDbEntity
  8
0
100
AcDbLine
 10
32.39
 20
77.5
 30
0.0
 11
31.39
 21
75.5
 31
0.0
  0
LINE
  5
157E
100
AcDbEntity
  8
0
100
AcDbLine
 10
84.39
 20
72.0
 30
0.0
 11
82.39
 21
73.5
 31
0.0
  0
LINE
  5
157F
100
AcDbEntity
  8
0
100
AcDbLine
 10
82.39
 20
73.5
 30
0.0
 11
82.39
 21
70.5
 31
0.0
  0
LINE
  5
1580
100
AcDbEntity
  8
3
100
AcDbLine
 10
84.39
 20
65.5
 30
0.0
 11
84.39
 21
82.5
 31
0.0
  0
LINE
  5
1581
100
AcDbEntity
  8
0
100
AcDbLine
 10
85.39
 20
65.5
 30
0.0
 11
85.39
 21
83.5
 31
0.0
  0
DIMENSION
  5
1582
100
AcDbEntity
  8
0
100
AcDbDimension
  2
*D61
 10
85.39
 20
48.5
 30
0.0
 11
77.04984
 21
39.311505
 31
0.0
 12
-9.61
 22
-126.5
 32
0.0
 70
   132
  3
STANDARD
100
AcDbRadialDimension
 15
84.717901
 25
47.759538
 35
0.0
 40
0.0
1001
ACAD
1000
DSTYLE
1002
{
1070
    78
1070
    12
1070
   288
1070
     1
1070
   284
1070
    12
1070
   140
1040
4.0
1070
    74
1070
     0
1070
    73
1070
     0
1070
    42
1040
0.06
1070
    41
1040
2.0
1002
}
  0
LINE
  5
1583
100
AcDbEntity
  8
0
100
AcDbLine
 10
85.39
 20
65.5
 30
0.0
 11
85.39
 21
47.5
 31
0.0
  0
LINE
  5
1584
100
AcDbEntity
  8
3
100
AcDbLine
 10
84.39
 20
65.5
 30
0.0
 11
84.39
 21
48.5
 31
0.0
  0
ARC
  5
1585
100
AcDbEntity
  8
3
100
AcDbCircle
 10
85.39
 20
48.5
 30
0.0
 40
1.0
100
AcDbArc
 50
180.0
 51
270.0
  0
LINE
  5
1586
100
AcDbEntity
  8
0
100
AcDbLine
 10
82.39
 20
70.5
 30
0.0
 11
84.39
 21
72.0
 31
0.0
  0
LINE
  5
1587
100
AcDbEntity
  8
0
100
AcDbLine
 10
84.39
 20
78.5
 30
0.0
 11
82.39
 21
80.0
 31
0.0
  0
LINE
  5
1588
100
AcDbEntity
  8
0
100
AcDbLine
 10
82.39
 20
77.0
 30
0.0
 11
84.39
 21
78.5
 31
0.0
  0
LINE
  5
1589
100
AcDbEntity
  8
0
100
AcDbLine
 10
82.39
 20
73.5
 30
0.0
 11
84.39
 21
75.0
 31
0.0
  0
LINE
  5
158A
100
AcDbEntity
  8
0
100
AcDbLine
 10
84.39
 20
75.0
 30
0.0
 11
82.39
 21
76.5
 31
0.0
  0
LINE
  5
158B
100
AcDbEntity
  8
0
100
AcDbLine
 10
82.39
 20
80.0
 30
0.0
 11
82.39
 21
77.0
 31
0.0
  0
LINE
  5
158C
100
AcDbEntity
  8
0
100
AcDbLine
 10
82.39
 20
76.5
 30
0.0
 11
82.39
 21
73.5
 31
0.0
  0
ARC
  5
158D
100
AcDbEntity
  8
3
100
AcDbCircle
 10
85.39
 20
82.5
 30
0.0
 40
1.0
100
AcDbArc
 50
90.0
 51
180.0
  0
INSERT
  5
158E
100
AcDbEntity
  8
0
100
AcDbBlockReference
  2
A$C2B8D5F0E
 10
104.89
 20
0.0
 30
0.0
  0
TEXT
  5
158F
100
AcDbEntity
  8
0
100
AcDbText
 10
97.89
 20
12.5
 30
0.0
 40
5.0
  1
（バリ無きこと）
 41
0.6
  7
BIGFONT
100
AcDbText
  0
TEXT
  5
1590
100
AcDbEntity
  8
0
100
AcDbText
 10
97.89
 20
18.5
 30
0.0
 40
5.0
  1
ローレット３２番
 41
0.6
  7
BIGFONT
100
AcDbText
  0
DIMENSION
  5
1591
100
AcDbEntity
  8
0
100
AcDbDimension
  2
*D69
 10
169.39
 20
107.5
 30
0.0
 11
159.39
 21
107.5
 31
0.0
 12
0.39
 22
-126.5
 32
0.0
  3
STANDARD
100
AcDbAlignedDimension
 13
149.39
 23
70.0
 33
0.0
 14
169.39
 24
70.0
 34
0.0
100
AcDbRotatedDimension
1001
ACAD
1000
DSTYLE
1002
{
1070
    78
1070
    12
1070
   284
1070
    12
1070
   140
1040
4.0
1070
    74
1070
     0
1070
    73
1070
     0
1070
    42
1040
0.06
1070
    41
1040
2.0
1002
}
  0
DIMENSION
  5
1592
100
AcDbEntity
  8
0
100
AcDbDimension
  2
*D68
 10
177.39
 20
116.0
 30
0.0
 11
159.39
 21
116.0
 31
0.0
 12
0.39
 22
-126.5
 32
0.0
  3
STANDARD
100
AcDbAlignedDimension
 13
141.39
 23
72.5
 33
0.0
 14
177.39
 24
72.5
 34
0.0
100
AcDbRotatedDimension
1001
ACAD
1000
DSTYLE
1002
{
1070
    78
1070
    12
1070
   284
1070
    12
1070
   140
1040
4.0
1070
    74
1070
     0
1070
    73
1070
     0
1070
    42
1040
0.06
1070
    41
1040
2.0
1002
}
  0
LINE
  5
1593
100
AcDbEntity
  8
1
100
AcDbLine
 10
138.89
 20
65.5
 30
0.0
 11
179.89
 21
65.5
 31
0.0
  0
CIRCLE
  5
1594
100
AcDbEntity
  8
3
100
AcDbCircle
 10
159.39
 20
65.5
 30
0.0
 40
10.0
  0
CIRCLE
  5
1595
100
AcDbEntity
  8
3
100
AcDbCircle
 10
159.39
 20
65.5
 30
0.0
 40
18.0
  0
CIRCLE
  5
1596
100
AcDbEntity
  8
0
100
AcDbCircle
 10
159.39
 20
65.5
 30
0.0
 40
17.0
  0
DIMENSION
  5
1597
100
AcDbEntity
  8
0
100
AcDbDimension
  2
*D67
 10
126.39
 20
116.0
 30
0.0
 11
116.89
 21
116.0
 31
0.0
 12
-5.61
 22
-126.5
 32
0.0
  1
L
  3
STANDARD
100
AcDbAlignedDimension
 13
107.39
 23
89.0
 33
0.0
 14
126.39
 24
71.5
 34
0.0
100
AcDbRotatedDimension
1001
ACAD
1000
DSTYLE
1002
{
1070
    78
1070
    12
1070
   284
1070
    12
1070
   140
1040
4.0
1070
    74
1070
     0
1070
    73
1070
     0
1070
    42
1040
0.06
1070
    41
1040
2.0
1002
}
  0
TEXT
  5
1598
100
AcDbEntity
  8
3
100
AcDbText
 10
115.24
 20
46.75
 30
0.0
 40
6.5
  1
（細めに）
 41
0.6
  7
BIGFONT
100
AcDbText
  0
TEXT
  5
1599
100
AcDbEntity
  8
0
100
AcDbText
 10
109.39
 20
55.0
 30
0.0
 40
5.0
  1
M10-P1.5
 41
0.6
  7
BIGFONT
100
AcDbText
  0
LINE
  5
159A
100
AcDbEntity
  8
3
100
AcDbLine
 10
107.39
 20
60.5
 30
0.0
 11
125.39
 21
60.5
 31
0.0
  0
LINE
  5
159B
100
AcDbEntity
  8
0
100
AcDbLine
 10
126.39
 20
61.5
 30
0.0
 11
108.89
 21
61.5
 31
0.0
  0
LINE
  5
159C
100
AcDbEntity
  8
0
100
AcDbLine
 10
126.39
 20
69.5
 30
0.0
 11
108.89
 21
69.5
 31
0.0
  0
LINE
  5
159D
100
AcDbEntity
  8
3
100
AcDbLine
 10
107.39
 20
70.5
 30
0.0
 11
125.39
 21
70.5
 31
0.0
  0
LINE
  5
159E
100
AcDbEntity
  8
3
100
AcDbLine
 10
107.39
 20
74.5
 30
0.0
 11
107.39
 21
65.5
 31
0.0
  0
LINE
  5
159F
100
AcDbEntity
  8
3
100
AcDbLine
 10
92.39
 20
65.5
 30
0.0
 11
92.39
 21
76.5
 31
0.0
  0
LINE
  5
15A0
100
AcDbEntity
  8
0
100
AcDbLine
 10
91.39
 20
65.5
 30
0.0
 11
91.39
 21
83.5
 31
0.0
  0
LINE
  5
15A1
100
AcDbEntity
  8
3
100
AcDbLine
 10
93.39
 20
55.5
 30
0.0
 11
106.39
 21
55.5
 31
0.0
  0
LINE
  5
15A2
100
AcDbEntity
  8
3
100
AcDbLine
 10
92.39
 20
48.5
 30
0.0
 11
92.39
 21
54.5
 31
0.0
  0
LINE
  5
15A3
100
AcDbEntity
  8
0
100
AcDbLine
 10
91.39
 20
65.5
 30
0.0
 11
91.39
 21
47.5
 31
0.0
  0
DIMENSION
  5
15A4
100
AcDbEntity
  8
0
100
AcDbDimension
  2
*D62
 10
91.39
 20
48.5
 30
0.0
 11
97.947667
 21
38.476107
 31
0.0
 12
-9.61
 22
-126.5
 32
0.0
 70
   132
  3
STANDARD
100
AcDbRadialDimension
 15
91.937458
 25
47.663168
 35
0.0
 40
0.0
1001
ACAD
1000
DSTYLE
1002
{
1070
    78
1070
    12
1070
   288
1070
     1
1070
   284
1070
    12
1070
   140
1040
4.0
1070
    74
1070
     0
1070
    73
1070
     0
1070
    42
1040
0.06
1070
    41
1040
2.0
1002
}
  0
ARC
  5
15A5
100
AcDbEntity
  8
3
100
AcDbCircle
 10
91.39
 20
48.5
 30
0.0
 40
1.0
100
AcDbArc
 50
270.0
 51
0.0
  0
LINE
  5
15A6
100
AcDbEntity
  8
3
100
AcDbLine
 10
92.39
 20
65.5
 30
0.0
 11
92.39
 21
54.5
 31
0.0
  0
ARC
  5
15A7
100
AcDbEntity
  8
3
100
AcDbCircle
 10
93.39
 20
54.5
 30
0.0
 40
1.0
100
AcDbArc
 50
90.0
 51
180.0
  0
DIMENSION
  5
15A8
100
AcDbEntity
  8
0
100
AcDbDimension
  2
*D63
 10
106.39
 20
56.5
 30
0.0
 11
114.456951
 21
41.400001
 31
0.0
 12
-9.61
 22
-126.5
 32
0.0
 70
   132
  3
STANDARD
100
AcDbRadialDimension
 15
106.861207
 25
55.617978
 35
0.0
 40
0.0
1001
ACAD
1000
DSTYLE
1002
{
1070
    78
1070
    12
1070
   288
1070
     1
1070
   284
1070
    12
1070
   140
1040
4.0
1070
    74
1070
     0
1070
    73
1070
     0
1070
    42
1040
0.06
1070
    41
1040
2.0
1002
}
  0
LINE
  5
15A9
100
AcDbEntity
  8
0
100
AcDbLine
 10
108.89
 20
60.5
 30
0.0
 11
108.89
 21
65.5
 31
0.0
  0
LINE
  5
15AA
100
AcDbEntity
  8
3
100
AcDbLine
 10
107.39
 20
56.5
 30
0.0
 11
107.39
 21
65.5
 31
0.0
  0
ARC
  5
15AB
100
AcDbEntity
  8
3
100
AcDbCircle
 10
106.39
 20
56.5
 30
0.0
 40
1.0
100
AcDbArc
 50
270.0
 51
0.0
  0
LINE
  5
15AC
100
AcDbEntity
  8
0
100
AcDbLine
 10
108.89
 20
70.5
 30
0.0
 11
108.89
 21
65.5
 31
0.0
  0
DIMENSION
  5
15AD
100
AcDbEntity
  8
0
100
AcDbDimension
  2
*D65
 10
107.39
 20
107.5
 30
0.0
 11
99.89
 21
107.5
 31
0.0
 12
-5.61
 22
-126.5
 32
0.0
  3
STANDARD
100
AcDbAlignedDimension
 13
92.39
 23
91.0
 33
0.0
 14
107.39
 24
80.0
 34
0.0
100
AcDbRotatedDimension
1001
ACAD
1000
DSTYLE
1002
{
1070
    78
1070
    12
1070
   284
1070
    12
1070
   140
1040
4.0
1070
    74
1070
     0
1070
    73
1070
     0
1070
    42
1040
0.06
1070
    41
1040
2.0
1002
}
  0
LINE
  5
15AE
100
AcDbEntity
  8
3
100
AcDbLine
 10
93.39
 20
75.5
 30
0.0
 11
106.39
 21
75.5
 31
0.0
  0
LINE
  5
15AF
100
AcDbEntity
  8
3
100
AcDbLine
 10
92.39
 20
82.5
 30
0.0
 11
92.39
 21
76.5
 31
0.0
  0
ARC
  5
15B0
100
AcDbEntity
  8
3
100
AcDbCircle
 10
93.39
 20
76.5
 30
0.0
 40
1.0
100
AcDbArc
 50
180.0
 51
270.0
  0
ARC
  5
15B1
100
AcDbEntity
  8
3
100
AcDbCircle
 10
91.39
 20
82.5
 30
0.0
 40
1.0
100
AcDbArc
 50
0.0
 51
90.0
  0
LINE
  5
15B2
100
AcDbEntity
  8
0
100
AcDbLine
 10
100.39
 20
75.5
 30
0.0
 11
99.39
 21
77.5
 31
0.0
  0
LINE
  5
15B3
100
AcDbEntity
  8
0
100
AcDbLine
 10
99.39
 20
77.5
 30
0.0
 11
101.39
 21
77.5
 31
0.0
  0
LINE
  5
15B4
100
AcDbEntity
  8
0
100
AcDbLine
 10
101.39
 20
77.5
 30
0.0
 11
100.39
 21
75.5
 31
0.0
  0
ARC
  5
15B5
100
AcDbEntity
  8
3
100
AcDbCircle
 10
106.39
 20
74.5
 30
0.0
 40
1.0
100
AcDbArc
 50
0.0
 51
90.0
  0
LINE
  5
15B6
100
AcDbEntity
  8
3
100
AcDbLine
 10
126.39
 20
61.5
 30
0.0
 11
126.39
 21
65.5
 31
0.0
  0
LINE
  5
15B7
100
AcDbEntity
  8
0
100
AcDbLine
 10
125.39
 20
60.5
 30
0.0
 11
125.39
 21
65.5
 31
0.0
  0
LINE
  5
15B8
100
AcDbEntity
  8
3
100
AcDbLine
 10
125.39
 20
60.5
 30
0.0
 11
126.39
 21
61.5
 31
0.0
  0
LINE
  5
15B9
100
AcDbEntity
  8
0
100
AcDbLine
 10
125.39
 20
70.5
 30
0.0
 11
125.39
 21
65.5
 31
0.0
  0
LINE
  5
15BA
100
AcDbEntity
  8
3
100
AcDbLine
 10
126.39
 20
69.5
 30
0.0
 11
126.39
 21
65.5
 31
0.0
  0
LINE
  5
15BB
100
AcDbEntity
  8
3
100
AcDbLine
 10
125.39
 20
70.5
 30
0.0
 11
126.39
 21
69.5
 31
0.0
  0
LINE
  5
15BC
100
AcDbEntity
  8
1
100
AcDbLine
 10
159.39
 20
88.0
 30
0.0
 11
159.39
 21
43.5
 31
0.0
  0
CIRCLE
  5
15BD
100
AcDbEntity
  8
0
100
AcDbCircle
 10
159.39
 20
65.5
 30
0.0
 40
4.0
  0
CIRCLE
  5
15BE
100
AcDbEntity
  8
3
100
AcDbCircle
 10
159.39
 20
65.5
 30
0.0
 40
5.0
  0
ENDBLK
  5
15C0
100
AcDbEntity
  8
0
100
AcDbBlockEnd
  0
BLOCK
  5
1C0C
100
AcDbEntity
  8
0
100
AcDbBlockBegin
  2
A$C51075B6D
 70
     0
 10
0.0
 20
0.0
 30
0.0
  3
A$C51075B6D
  1

  0
LINE
  5
1BF8
100
AcDbEntity
  8
0
100
AcDbLine
 10
21.089877
 20
88.0
 30
0.0
 11
126.089877
 21
88.0
 31
0.0
  0
LINE
  5
1BF9
100
AcDbEntity
  8
3
100
AcDbLine
 10
37.589877
 20
20.0
 30
0.0
 11
37.589877
 21
53.5
 31
0.0
  0
LINE
  5
1BFA
100
AcDbEntity
  8
1
100
AcDbLine
 10
58.089877
 20
19.0
 30
0.0
 11
58.089877
 21
52.5
 31
0.0
  0
LINE
  5
1BFB
100
AcDbEntity
  8
3
100
AcDbLine
 10
16.589877
 20
20.0
 30
0.0
 11
16.589877
 21
53.5
 31
0.0
  0
LINE
  5
1BFC
100
AcDbEntity
  8
1
100
AcDbLine
 10
92.089877
 20
0.0
 30
0.0
 11
92.089877
 21
91.0
 31
0.0
  0
LINE
  5
1BFD
100
AcDbEntity
  8
1
100
AcDbLine
 10
27.089877
 20
83.0
 30
0.0
 11
27.089877
 21
3.0
 31
0.0
  0
LINE
  5
1BFE
100
AcDbEntity
  8
1
100
AcDbLine
 10
27.089877
 20
19.0
 30
0.0
 11
58.089877
 21
19.0
 31
0.0
  0
LINE
  5
1BFF
100
AcDbEntity
  8
1
100
AcDbLine
 10
27.089877
 20
0.0
 30
0.0
 11
92.089877
 21
0.0
 31
0.0
  0
LINE
  5
1C00
100
AcDbEntity
  8
3
100
AcDbLine
 10
27.089877
 20
20.0
 30
0.0
 11
16.589877
 21
20.0
 31
0.0
  0
LINE
  5
1C01
100
AcDbEntity
  8
3
100
AcDbLine
 10
27.089877
 20
19.0
 30
0.0
 11
20.339877
 21
19.0
 31
0.0
  0
LINE
  5
1C02
100
AcDbEntity
  8
3
100
AcDbLine
 10
20.339877
 20
19.0
 30
0.0
 11
20.339877
 21
20.0
 31
0.0
  0
LINE
  5
1C03
100
AcDbEntity
  8
3
100
AcDbLine
 10
27.089877
 20
20.0
 30
0.0
 11
37.589877
 21
20.0
 31
0.0
  0
LINE
  5
1C04
100
AcDbEntity
  8
3
100
AcDbLine
 10
27.089877
 20
19.0
 30
0.0
 11
33.839877
 21
19.0
 31
0.0
  0
LINE
  5
1C05
100
AcDbEntity
  8
3
100
AcDbLine
 10
33.839877
 20
19.0
 30
0.0
 11
33.839877
 21
20.0
 31
0.0
  0
LINE
  5
1C06
100
AcDbEntity
  8
1
100
AcDbLine
 10
58.089877
 20
52.5
 30
0.0
 11
3.089877
 21
52.5
 31
0.0
  0
LINE
  5
1C07
100
AcDbEntity
  8
1
100
AcDbLine
 10
92.089877
 20
68.0
 30
0.0
 11
0.0
 21
34.482026
 31
0.0
  0
LINE
  5
1C08
100
AcDbEntity
  8
3
100
AcDbLine
 10
16.589877
 20
53.5
 30
0.0
 11
27.089877
 21
53.5
 31
0.0
  0
LINE
  5
1C09
100
AcDbEntity
  8
3
100
AcDbLine
 10
37.589877
 20
53.5
 30
0.0
 11
27.089877
 21
53.5
 31
0.0
  0
CIRCLE
  5
1C0A
100
AcDbEntity
  8
3
100
AcDbCircle
 10
92.089877
 20
68.0
 30
0.0
 40
10.0
  0
LINE
  5
1C0B
100
AcDbEntity
  8
0
100
AcDbLine
 10
126.089877
 20
88.0
 30
0.0
 11
126.089877
 21
19.0
 31
0.0
  0
ENDBLK
  5
1C0D
100
AcDbEntity
  8
0
100
AcDbBlockEnd
  0
ENDSEC
  0
SECTION
  2
ENTITIES
  0
LINE
  5
1C10
100
AcDbEntity
  8
3
100
AcDbLine
 10
114.348514
 20
82.122437
 30
0.0
 11
114.348514
 21
104.122437
 31
0.0
  0
LINE
  5
1C12
100
AcDbEntity
  8
3
100
AcDbLine
 10
93.348514
 20
82.122437
 30
0.0
 11
93.348514
 21
104.122437
 31
0.0
  0
LINE
  5
1C14
100
AcDbEntity
  8
1
100
AcDbLine
 10
103.848514
 20
122.618306
 30
0.0
 11
103.848514
 21
37.480566
 31
0.0
  0
LINE
  5
1C17
100
AcDbEntity
  8
3
100
AcDbLine
 10
103.848514
 20
82.122437
 30
0.0
 11
93.348514
 21
82.122437
 31
0.0
  0
LINE
  5
1C18
100
AcDbEntity
  8
3
100
AcDbLine
 10
103.848514
 20
81.122437
 30
0.0
 11
97.098514
 21
81.122437
 31
0.0
  0
LINE
  5
1C19
100
AcDbEntity
  8
3
100
AcDbLine
 10
97.098514
 20
81.122437
 30
0.0
 11
97.098514
 21
82.122437
 31
0.0
  0
LINE
  5
1C1A
100
AcDbEntity
  8
3
100
AcDbLine
 10
103.848514
 20
82.122437
 30
0.0
 11
114.348514
 21
82.122437
 31
0.0
  0
LINE
  5
1C1B
100
AcDbEntity
  8
3
100
AcDbLine
 10
103.848514
 20
81.122437
 30
0.0
 11
110.598514
 21
81.122437
 31
0.0
  0
LINE
  5
1C1C
100
AcDbEntity
  8
3
100
AcDbLine
 10
110.598514
 20
81.122437
 30
0.0
 11
110.598514
 21
82.122437
 31
0.0
  0
LINE
  5
1C1E
100
AcDbEntity
  8
1
100
AcDbLine
 10
168.848514
 20
130.471583
 30
0.0
 11
103.848514
 21
106.813517
 31
0.0
  0
LINE
  5
1C1F
100
AcDbEntity
  8
3
100
AcDbLine
 10
97.534172
 20
115.622437
 30
0.0
 11
103.848514
 21
115.622437
 31
0.0
  0
LINE
  5
1C20
100
AcDbEntity
  8
3
100
AcDbLine
 10
110.162856
 20
115.622437
 30
0.0
 11
103.848514
 21
115.622437
 31
0.0
  0
ARC
  5
1C21
100
AcDbEntity
  8
3
100
AcDbCircle
 10
168.848514
 20
130.471583
 30
0.0
 40
10.0
100
AcDbArc
 50
223.578178
 51
176.421822
  0
LINE
  5
1C26
100
AcDbEntity
  8
3
100
AcDbLine
 10
114.348514
 20
104.122437
 30
0.0
 11
110.162856
 21
115.622437
 31
0.0
  0
LINE
  5
1C57
100
AcDbEntity
  8
3
100
AcDbLine
 10
158.868008
 20
131.095687
 30
0.0
 11
110.88727
 21
113.632126
 31
0.0
  0
LINE
  5
1C58
100
AcDbEntity
  8
3
100
AcDbLine
 10
161.604169
 20
123.578146
 30
0.0
 11
113.623431
 21
106.114585
 31
0.0
  0
LINE
  5
1C59
100
AcDbEntity
  8
3
100
AcDbLine
 10
158.868008
 20
131.095687
 30
0.0
 11
161.604169
 21
123.578146
 31
0.0
  0
LINE
  5
1C5A
100
AcDbEntity
  8
3
100
AcDbLine
 10
93.348514
 20
104.122437
 30
0.0
 11
97.534172
 21
115.622437
 31
0.0
  0
LINE
  5
1C5B
100
AcDbEntity
  8
3
100
AcDbLine
 10
93.348514
 20
104.122437
 30
0.0
 11
114.348514
 21
104.122437
 31
0.0
  0
LINE
  5
1C5C
100
AcDbEntity
  8
1
100
AcDbLine
 10
37.27891
 20
144.393003
 30
0.0
 11
37.27891
 21
38.393003
 31
0.0
  0
LINE
  5
1C5D
100
AcDbEntity
  8
3
100
AcDbLine
 10
26.77891
 20
82.122437
 30
0.0
 11
26.77891
 21
104.122437
 31
0.0
  0
LINE
  5
1C5E
100
AcDbEntity
  8
3
100
AcDbLine
 10
37.27891
 20
82.122437
 30
0.0
 11
26.77891
 21
82.122437
 31
0.0
  0
LINE
  5
1C5F
100
AcDbEntity
  8
3
100
AcDbLine
 10
37.27891
 20
81.122437
 30
0.0
 11
30.52891
 21
81.122437
 31
0.0
  0
LINE
  5
1C60
100
AcDbEntity
  8
3
100
AcDbLine
 10
30.52891
 20
81.122437
 30
0.0
 11
30.52891
 21
82.122437
 31
0.0
  0
LINE
  5
1C61
100
AcDbEntity
  8
3
100
AcDbLine
 10
26.77891
 20
104.122437
 30
0.0
 11
30.964568
 21
115.622437
 31
0.0
  0
LINE
  5
1C62
100
AcDbEntity
  8
3
100
AcDbLine
 10
30.964568
 20
115.622437
 30
0.0
 11
37.27891
 21
115.622437
 31
0.0
  0
LINE
  5
1C63
100
AcDbEntity
  8
3
100
AcDbLine
 10
47.77891
 20
82.122437
 30
0.0
 11
47.77891
 21
104.122437
 31
0.0
  0
LINE
  5
1C64
100
AcDbEntity
  8
3
100
AcDbLine
 10
37.27891
 20
81.122437
 30
0.0
 11
44.02891
 21
81.122437
 31
0.0
  0
LINE
  5
1C65
100
AcDbEntity
  8
3
100
AcDbLine
 10
37.27891
 20
82.122437
 30
0.0
 11
47.77891
 21
82.122437
 31
0.0
  0
LINE
  5
1C66
100
AcDbEntity
  8
3
100
AcDbLine
 10
44.02891
 20
81.122437
 30
0.0
 11
44.02891
 21
82.122437
 31
0.0
  0
LINE
  5
1C67
100
AcDbEntity
  8
3
100
AcDbLine
 10
47.77891
 20
104.122437
 30
0.0
 11
43.593253
 21
115.622437
 31
0.0
  0
LINE
  5
1C68
100
AcDbEntity
  8
3
100
AcDbLine
 10
43.593253
 20
115.622437
 30
0.0
 11
37.27891
 21
115.622437
 31
0.0
  0
ARC
  5
1C6B
100
AcDbEntity
  8
3
100
AcDbCircle
 10
37.27891
 20
130.471583
 30
0.0
 40
10.0
100
AcDbArc
 50
293.578178
 51
246.421822
  0
LINE
  5
1C6D
100
AcDbEntity
  8
3
100
AcDbLine
 10
41.27891
 20
127.336916
 30
0.0
 11
41.27891
 21
115.622437
 31
0.0
  0
LINE
  5
1C6F
100
AcDbEntity
  8
3
100
AcDbLine
 10
33.27891
 20
115.622437
 30
0.0
 11
33.27891
 21
127.336916
 31
0.0
  0
ELLIPSE
  5
1C72
100
AcDbEntity
  8
3
100
AcDbEllipse
 10
37.27891
 20
127.336916
 30
0.0
 11
-4.0
 21
0.0
 31
0.0
210
0.0
220
0.0
230
1.0
 40
0.939693
 41
3.141592653589793
 42
6.283185307179586
  0
LINE
  5
1C73
100
AcDbEntity
  8
3
100
AcDbLine
 10
26.77891
 20
104.122437
 30
0.0
 11
47.77891
 21
104.122437
 31
0.0
  0
LINE
  5
1C7F
100
AcDbEntity
  8
3
100
AcDbLine
 10
99.848514
 20
50.122437
 30
0.0
 11
99.848514
 21
81.122437
 31
0.0
  0
LINE
  5
1C80
100
AcDbEntity
  8
0
100
AcDbLine
 10
100.848514
 20
49.122437
 30
0.0
 11
100.848514
 21
80.122437
 31
0.0
  0
LINE
  5
1C81
100
AcDbEntity
  8
0
100
AcDbLine
 10
106.848514
 20
49.122437
 30
0.0
 11
106.848514
 21
80.122437
 31
0.0
  0
LINE
  5
1C82
100
AcDbEntity
  8
3
100
AcDbLine
 10
107.848514
 20
81.122437
 30
0.0
 11
107.848514
 21
50.122437
 31
0.0
  0
LINE
  5
1C83
100
AcDbEntity
  8
3
100
AcDbLine
 10
106.848514
 20
49.122437
 30
0.0
 11
100.848514
 21
49.122437
 31
0.0
  0
LINE
  5
1C84
100
AcDbEntity
  8
0
100
AcDbLine
 10
107.848514
 20
50.122437
 30
0.0
 11
99.848514
 21
50.122437
 31
0.0
  0
LINE
  5
1C85
100
AcDbEntity
  8
3
100
AcDbLine
 10
99.848514
 20
50.122437
 30
0.0
 11
100.848514
 21
49.122437
 31
0.0
  0
LINE
  5
1C86
100
AcDbEntity
  8
3
100
AcDbLine
 10
107.848514
 20
50.122437
 30
0.0
 11
106.848514
 21
49.122437
 31
0.0
  0
LINE
  5
1C87
100
AcDbEntity
  8
0
100
AcDbLine
 10
107.848514
 20
80.122437
 30
0.0
 11
99.848514
 21
80.122437
 31
0.0
  0
LINE
  5
1C88
100
AcDbEntity
  8
3
100
AcDbLine
 10
103.848514
 20
81.122437
 30
0.0
 11
106.848514
 21
81.122437
 31
0.0
  0
LINE
  5
1C97
100
AcDbEntity
  8
3
100
AcDbLine
 10
33.27891
 20
50.122437
 30
0.0
 11
33.27891
 21
81.122437
 31
0.0
  0
LINE
  5
1C98
100
AcDbEntity
  8
0
100
AcDbLine
 10
34.27891
 20
49.122437
 30
0.0
 11
34.27891
 21
80.122437
 31
0.0
  0
LINE
  5
1C99
100
AcDbEntity
  8
0
100
AcDbLine
 10
40.27891
 20
49.122437
 30
0.0
 11
40.27891
 21
80.122437
 31
0.0
  0
LINE
  5
1C9A
100
AcDbEntity
  8
3
100
AcDbLine
 10
41.27891
 20
81.122437
 30
0.0
 11
41.27891
 21
50.122437
 31
0.0
  0
LINE
  5
1C9B
100
AcDbEntity
  8
0
100
AcDbLine
 10
41.27891
 20
50.122437
 30
0.0
 11
33.27891
 21
50.122437
 31
0.0
  0
LINE
  5
1C9C
100
AcDbEntity
  8
3
100
AcDbLine
 10
41.27891
 20
50.122437
 30
0.0
 11
40.27891
 21
49.122437
 31
0.0
  0
LINE
  5
1C9D
100
AcDbEntity
  8
3
100
AcDbLine
 10
40.27891
 20
49.122437
 30
0.0
 11
34.27891
 21
49.122437
 31
0.0
  0
LINE
  5
1C9E
100
AcDbEntity
  8
3
100
AcDbLine
 10
33.27891
 20
50.122437
 30
0.0
 11
34.27891
 21
49.122437
 31
0.0
  0
LINE
  5
1C9F
100
AcDbEntity
  8
0
100
AcDbLine
 10
41.27891
 20
80.122437
 30
0.0
 11
33.27891
 21
80.122437
 31
0.0
  0
LINE
  5
1CA0
100
AcDbEntity
  8
3
100
AcDbLine
 10
37.27891
 20
81.122437
 30
0.0
 11
40.27891
 21
81.122437
 31
0.0
  0
ENDSEC
  0
SECTION
  2
OBJECTS
  0
DICTIONARY
  5
C
100
AcDbDictionary
  3
ACAD_GROUP
350
D
  3
ACAD_MLINESTYLE
350
1B
  3
ACDBVARIABLEDICTIONARY
350
865
  0
DICTIONARY
  5
D
102
{ACAD_REACTORS
330
C
102
}
100
AcDbDictionary
  0
DICTIONARY
  5
1B
102
{ACAD_REACTORS
330
C
102
}
100
AcDbDictionary
  3
STANDARD
350
1C
  0
DICTIONARY
  5
865
102
{ACAD_REACTORS
330
C
102
}
100
AcDbDictionary
  3
SORTENTS
350
866
  0
MLINESTYLE
  5
1C
102
{ACAD_REACTORS
330
1B
102
}
100
AcDbMlineStyle
  2
STANDARD
 70
     0
  3

 62
   256
 51
90.0
 52
90.0
 71
     2
 49
0.5
 62
   256
  6
BYLAYER
 49
-0.5
 62
   256
  6
BYLAYER
  0
DICTIONARYVAR
  5
866
102
{ACAD_REACTORS
330
865
102
}
100
DictionaryVariables
280
     0
  1
96
  0
ENDSEC
  0
EOF
