  0
SECTION
  2
HEADER
  9
$ACADVER
  1
AC1015
  9
$ACADMAINTVER
 70
    13
  9
$DWGCODEPAGE
  3
ANSI_932
  9
$INSBASE
 10
0.0
 20
0.0
 30
0.0
  9
$EXTMIN
 10
26.77890999999999
 20
49.480566
 30
0.0
  9
$EXTMAX
 10
178.8485139999999
 20
144.3930029999999
 30
0.0
  9
$LIMMIN
 10
0.0
 20
0.0
  9
$LIMMAX
 10
280.0
 20
195.0
  9
$ORTHOMODE
 70
     1
  9
$REGENMODE
 70
     1
  9
$FILLMODE
 70
     1
  9
$QTEXTMODE
 70
     0
  9
$MIRRTEXT
 70
     1
  9
$LTSCALE
 40
1.0
  9
$ATTMODE
 70
     1
  9
$TEXTSIZE
 40
4.0
  9
$TRACEWID
 40
1.0
  9
$TEXTSTYLE
  7
BIGFONT
  9
$CLAYER
  8
0
  9
$CELTYPE
  6
BYLAYER
  9
$CECOLOR
 62
   256
  9
$CELTSCALE
 40
1.0
  9
$DISPSILH
 70
     0
  9
$DIMSCALE
 40
0.0
  9
$DIMASZ
 40
1.0
  9
$DIMEXO
 40
0.5
  9
$DIMDLI
 40
3.75
  9
$DIMRND
 40
0.0
  9
$DIMDLE
 40
0.0
  9
$DIMEXE
 40
0.5
  9
$DIMTP
 40
0.0
  9
$DIMTM
 40
0.0
  9
$DIMTXT
 40
4.0
  9
$DIMCEN
 40
0.0
  9
$DIMTSZ
 40
0.0
  9
$DIMTOL
 70
     0
  9
$DIMLIM
 70
     0
  9
$DIMTIH
 70
     0
  9
$DIMTOH
 70
     1
  9
$DIMSE1
 70
     0
  9
$DIMSE2
 70
     0
  9
$DIMTAD
 70
     1
  9
$DIMZIN
 70
     8
  9
$DIMBLK
  1

  9
$DIMASO
 70
     1
  9
$DIMSHO
 70
     1
  9
$DIMPOST
  1

  9
$DIMAPOST
  1

  9
$DIMALT
 70
     0
  9
$DIMALTD
 70
     4
  9
$DIMALTF
 40
0.0394
  9
$DIMLFAC
 40
1.0
  9
$DIMTOFL
 70
     0
  9
$DIMTVP
 40
0.0
  9
$DIMTIX
 70
     0
  9
$DIMSOXD
 70
     0
  9
$DIMSAH
 70
     0
  9
$DIMBLK1
  1

  9
$DIMBLK2
  1

  9
$DIMSTYLE
  2
STANDARD
  9
$DIMCLRD
 70
     0
  9
$DIMCLRE
 70
     0
  9
$DIMCLRT
 70
     0
  9
$DIMTFAC
 40
1.0
  9
$DIMGAP
 40
0.625
  9
$DIMJUST
 70
     0
  9
$DIMSD1
 70
     0
  9
$DIMSD2
 70
     0
  9
$DIMTOLJ
 70
     1
  9
$DIMTZIN
 70
     8
  9
$DIMALTZ
 70
     0
  9
$DIMALTTZ
 70
     0
  9
$DIMUPT
 70
     1
  9
$DIMDEC
 70
     2
  9
$DIMTDEC
 70
     2
  9
$DIMALTU
 70
     8
  9
$DIMALTTD
 70
     4
  9
$DIMTXSTY
  7
STANDARD
  9
$DIMAUNIT
 70
     0
  9
$DIMADEC
 70
     0
  9
$DIMALTRND
 40
0.0
  9
$DIMAZIN
 70
     0
  9
$DIMDSEP
 70
    46
  9
$DIMATFIT
 70
     3
  9
$DIMFRAC
 70
     0
  9
$DIMLDRBLK
  1

  9
$DIMLUNIT
 70
     2
  9
$DIMLWD
 70
    -2
  9
$DIMLWE
 70
    -2
  9
$DIMTMOVE
 70
     0
  9
$LUNITS
 70
     2
  9
$LUPREC
 70
     2
  9
$SKETCHINC
 40
1.0
  9
$FILLETRAD
 40
3.0
  9
$AUNITS
 70
     0
  9
$AUPREC
 70
     0
  9
$MENU
  1
.
  9
$ELEVATION
 40
0.0
  9
$PELEVATION
 40
0.0
  9
$THICKNESS
 40
0.0
  9
$LIMCHECK
 70
     0
  9
$CHAMFERA
 40
1.0
  9
$CHAMFERB
 40
1.0
  9
$CHAMFERC
 40
20.0
  9
$CHAMFERD
 40
0.0
  9
$SKPOLY
 70
     0
  9
$TDCREATE
 40
2453182.407910879
  9
$TDUCREATE
 40
2453182.032910879
  9
$TDUPDATE
 40
2456449.449512442
  9
$TDUUPDATE
 40
2456449.074512442
  9
$TDINDWG
 40
1.7572451157
  9
$TDUSRTIMER
 40
1.7572451157
  9
$USRTIMER
 70
     1
  9
$ANGBASE
 50
0.0
  9
$ANGDIR
 70
     0
  9
$PDMODE
 70
     2
  9
$PDSIZE
 40
-0.1
  9
$PLINEWID
 40
0.0
  9
$SPLFRAME
 70
     0
  9
$SPLINETYPE
 70
     6
  9
$SPLINESEGS
 70
     8
  9
$HANDSEED
  5
1D93
  9
$SURFTAB1
 70
     6
  9
$SURFTAB2
 70
     6
  9
$SURFTYPE
 70
     6
  9
$SURFU
 70
     6
  9
$SURFV
 70
     6
  9
$UCSBASE
  2

  9
$UCSNAME
  2

  9
$UCSORG
 10
0.0
 20
0.0
 30
0.0
  9
$UCSXDIR
 10
1.0
 20
0.0
 30
0.0
  9
$UCSYDIR
 10
0.0
 20
1.0
 30
0.0
  9
$UCSORTHOREF
  2

  9
$UCSORTHOVIEW
 70
     0
  9
$UCSORGTOP
 10
0.0
 20
0.0
 30
0.0
  9
$UCSORGBOTTOM
 10
0.0
 20
0.0
 30
0.0
  9
$UCSORGLEFT
 10
0.0
 20
0.0
 30
0.0
  9
$UCSORGRIGHT
 10
0.0
 20
0.0
 30
0.0
  9
$UCSORGFRONT
 10
0.0
 20
0.0
 30
0.0
  9
$UCSORGBACK
 10
0.0
 20
0.0
 30
0.0
  9
$PUCSBASE
  2

  9
$PUCSNAME
  2

  9
$PUCSORG
 10
0.0
 20
0.0
 30
0.0
  9
$PUCSXDIR
 10
1.0
 20
0.0
 30
0.0
  9
$PUCSYDIR
 10
0.0
 20
1.0
 30
0.0
  9
$PUCSORTHOREF
  2

  9
$PUCSORTHOVIEW
 70
     0
  9
$PUCSORGTOP
 10
0.0
 20
0.0
 30
0.0
  9
$PUCSORGBOTTOM
 10
0.0
 20
0.0
 30
0.0
  9
$PUCSORGLEFT
 10
0.0
 20
0.0
 30
0.0
  9
$PUCSORGRIGHT
 10
0.0
 20
0.0
 30
0.0
  9
$PUCSORGFRONT
 10
0.0
 20
0.0
 30
0.0
  9
$PUCSORGBACK
 10
0.0
 20
0.0
 30
0.0
  9
$USERI1
 70
     0
  9
$USERI2
 70
     0
  9
$USERI3
 70
     0
  9
$USERI4
 70
     0
  9
$USERI5
 70
     0
  9
$USERR1
 40
0.0
  9
$USERR2
 40
0.0
  9
$USERR3
 40
0.0
  9
$USERR4
 40
0.0
  9
$USERR5
 40
0.0
  9
$WORLDVIEW
 70
     1
  9
$SHADEDGE
 70
     3
  9
$SHADEDIF
 70
    70
  9
$TILEMODE
 70
     1
  9
$MAXACTVP
 70
    48
  9
$PINSBASE
 10
0.0
 20
0.0
 30
0.0
  9
$PLIMCHECK
 70
     0
  9
$PEXTMIN
 10
1.000000000000000E+20
 20
1.000000000000000E+20
 30
1.000000000000000E+20
  9
$PEXTMAX
 10
-1.000000000000000E+20
 20
-1.000000000000000E+20
 30
-1.000000000000000E+20
  9
$PLIMMIN
 10
0.0
 20
0.0
  9
$PLIMMAX
 10
420.0
 20
297.0
  9
$UNITMODE
 70
     0
  9
$VISRETAIN
 70
     1
  9
$PLINEGEN
 70
     0
  9
$PSLTSCALE
 70
     1
  9
$TREEDEPTH
 70
  3020
  9
$CMLSTYLE
  2
STANDARD
  9
$CMLJUST
 70
     0
  9
$CMLSCALE
 40
20.0
  9
$PROXYGRAPHICS
 70
     1
  9
$MEASUREMENT
 70
     1
  9
$CELWEIGHT
370
    -1
  9
$ENDCAPS
280
     0
  9
$JOINSTYLE
280
     0
  9
$LWDISPLAY
290
     0
  9
$INSUNITS
 70
     0
  9
$HYPERLINKBASE
  1

  9
$STYLESHEET
  1

  9
$XEDIT
290
     1
  9
$CEPSNTYPE
380
     0
  9
$PSTYLEMODE
290
     1
  9
$FINGERPRINTGUID
  2
{4054F7C5-3687-4C9E-99A6-478B1FA7EE91}
  9
$VERSIONGUID
  2
{9476B402-C4F7-43B7-8D82-0CE92BF23203}
  9
$EXTNAMES
290
     1
  9
$PSVPSCALE
 40
0.0
  9
$OLESTARTUP
290
     0
  0
ENDSEC
  0
SECTION
  2
CLASSES
  0
CLASS
  1
LWPOLYLINE
  2
AcDbPolyline
  3
AutoCAD 2000
 90
    32768
280
     0
281
     1
  0
CLASS
  1
DICTIONARYVAR
  2
AcDbDictionaryVar
  3
AutoCAD 2000
 90
        0
280
     0
281
     0
  0
CLASS
  1
HATCH
  2
AcDbHatch
  3
AutoCAD 2000
 90
    32768
280
     0
281
     1
  0
CLASS
  1
ACDBDICTIONARYWDFLT
  2
AcDbDictionaryWithDefault
  3
AutoCAD 2000
 90
        0
280
     0
281
     0
  0
CLASS
  1
ACDBPLACEHOLDER
  2
AcDbPlaceHolder
  3
AutoCAD 2000
 90
        0
280
     0
281
     0
  0
CLASS
  1
LAYOUT
  2
AcDbLayout
  3
AutoCAD 2000
 90
        0
280
     0
281
     0
  0
CLASS
  1
AMGSETTINGSOBJ
  2
AmgSettingsObj
  3
"AcadM|Product Description: AutoCAD Mechanical 2000|Company: Autodesk"
 90
        0
280
     0
281
     0
  0
CLASS
  1
ACME_DOCUMENT
  2
AcMeDbDoc
  3
AcMeServices
 90
        0
280
     0
281
     0
  0
CLASS
  1
ACMESCOPE
  2
AcMeScope
  3
AcMeServices
 90
        0
280
     0
281
     0
  0
CLASS
  1
ACMECOMMANDHISTORY
  2
AcMeCommandHistory
  3
AcMeServices
 90
        0
280
     0
281
     0
  0
CLASS
  1
ACIMSYSVARMAN
  2
AcImSysVarManager
  3
AcMeServices
 90
        0
280
     0
281
     0
  0
CLASS
  1
ACIMREALSYSVAR
  2
AcImRealSysVar
  3
AcMeServices
 90
        0
280
     0
281
     0
  0
CLASS
  1
ACIMINTSYSVAR
  2
AcImIntSysVar
  3
AcMeServices
 90
        0
280
     0
281
     0
  0
CLASS
  1
ACMEDRAWINGMAN
  2
AcMeDrawingMan
  3
AcMeServices
 90
        0
280
     0
281
     0
  0
CLASS
  1
ACMEVIEW
  2
AcMeView
  3
AcMeServices
 90
        0
280
     0
281
     0
  0
CLASS
  1
ACDBENTITYCACHE
  2
AcMeEntityCache
  3
AcMeServices
 90
        0
280
     0
281
     0
  0
CLASS
  1
GSMANAGER
  2
AcMeGSManager
  3
AcMeServices
 90
        0
280
     0
281
     0
  0
CLASS
  1
AMDTINTERNALREACTOR
  2
AmdtInternalReactor
  3
AcMeServices
 90
        0
280
     0
281
     0
  0
CLASS
  1
ACMESTATEMGR
  2
AcMeStateMgr
  3
AcMeServices
 90
        0
280
     0
281
     0
  0
CLASS
  1
ACGREFMASTER
  2
AcGrefMaster
  3
AcAttribServices
 90
        0
280
     0
281
     0
  0
CLASS
  1
AM_DRAWING_MGR
  2
AcDmDwgMgr
  3
AcMechDwgViewMgmt
 90
        0
280
     0
281
     0
  0
CLASS
  1
AM_DWG_DOCUMENT
  2
AcDmDwgDocument
  3
AcMechDwgViewMgmt
 90
        0
280
     0
281
     0
  0
CLASS
  1
AM_DWG_SHEET
  2
AcDmSheet
  3
AcMechDwgViewMgmt
 90
        0
280
     0
281
     0
  0
CLASS
  1
AM_VIEWDIMPARMAP
  2
AcDmViewDimParMap
  3
AcMechDwgViewMgmt
 90
        0
280
     0
281
     0
  0
CLASS
  1
AM_DWGMGR_NAME
  2
AcDmDwgMgrName
  3
AcMechDwgViewMgmt
 90
        0
280
     0
281
     0
  0
CLASS
  1
ACME_DATABASE
  2
AcMeDbDatabase
  3
AcMeServices
 90
        0
280
     0
281
     0
  0
CLASS
  1
ACRFINSADJUSTERMGR
  2
AcRfInsAdjusterMgr
  3
AcMeServices
 90
        0
280
     0
281
     0
  0
CLASS
  1
ACGREFACADMASTER
  2
AcGrefacadMaster
  3
AcGrefServices
 90
        0
280
     0
281
     0
  0
CLASS
  1
AMDTMENUSTATEMGR
  2
AmdtMenuStateMgr
  3
McadcomServices
 90
        0
280
     0
281
     0
  0
CLASS
  1
AMDTMCOMMENUSTATE
  2
AmdtMcomMenuState
  3
McadcomServices
 90
        0
280
     0
281
     0
  0
CLASS
  1
AMIMASTER
  2
AmiMaster
  3
AmiServices
 90
        0
280
     0
281
     0
  0
CLASS
  1
ASAPP
  2
AcAsAppObject
  3
AutoSurfServices
 90
        0
280
     0
281
     0
  0
CLASS
  1
IM_STATIC_MAN
  2
AcImStaticVarManager
  3
AcMeServices
 90
        0
280
     0
281
     0
  0
CLASS
  1
ACIMSTRSYSVAR
  2
AcImStrSysVar
  3
AcMeServices
 90
        0
280
     0
281
     0
  0
CLASS
  1
ACIMDBLSTATICVAR
  2
AcImDblStaticVar
  3
AcMeServices
 90
        0
280
     0
281
     0
  0
CLASS
  1
ACIMSTRSTATICVAR
  2
AcImStrStaticVar
  3
AcMeServices
 90
        0
280
     0
281
     0
  0
CLASS
  1
ACIMINTSTATICVAR
  2
AcImIntStaticVar
  3
AcMeServices
 90
        0
280
     0
281
     0
  0
CLASS
  1
ACASGREFMASTER
  2
AcAsGrefMaster
  3
AutoSurfResolverServices
 90
        0
280
     0
281
     0
  0
CLASS
  1
ACADGREFMODULE
  2
AcAdGrefModule
  3
AdGrefServices
 90
        0
280
     0
281
     0
  0
CLASS
  1
AMDTMAPISURFMOUDULE
  2
AmdtMApiSurfModule
  3
MApiSurfServices
 90
        0
280
     0
281
     0
  0
CLASS
  1
MAPIAMMOUDLE
  2
MApiAmModule
  3
MApiAmServices
 90
        0
280
     0
281
     0
  0
CLASS
  1
AMDTADMENUSTATE
  2
AmdtAdMenuState
  3
DesignerServices
 90
        0
280
     0
281
     0
  0
CLASS
  1
ADAPPL
  2
AcAdAppl
  3
DesignerServices
 90
        0
280
     0
281
     0
  0
CLASS
  1
DEPMGR
  2
AcAdDepMgr
  3
DesignerServices
 90
        0
280
     0
281
     0
  0
CLASS
  1
PARAMMGR
  2
AcAdParamMgr
  3
DesignerServices
 90
        0
280
     0
281
     0
  0
CLASS
  1
PARAMSCOPE
  2
AcAdParamScope
  3
DesignerServices
 90
        0
280
     0
281
     0
  0
CLASS
  1
NAMEDAPPL
  2
AcAdNamedAppl
  3
DesignerServices
 90
        0
280
     0
281
     0
  0
CLASS
  1
AMDTDMMENUSTATE
  2
AmdtDmMenuState
  3
AcMechDwgViewMgmt
 90
        0
280
     0
281
     0
  0
CLASS
  1
MAPIADMODULE
  2
MApiAdModule
  3
MApiAdServices
 90
        0
280
     0
281
     0
  0
CLASS
  1
AMDTAMMENUSTATE
  2
AmdtAmMenuState
  3
DesignerAssemblies
 90
        0
280
     0
281
     0
  0
CLASS
  1
ACAMPROJECT
  2
AcAmProject
  3
DesignerAssemblies
 90
        0
280
     0
281
     0
  0
CLASS
  1
ACAMGRCOMPDEF
  2
AcAmGrCompDef
  3
DesignerAssemblies
 90
        0
280
     0
281
     0
  0
CLASS
  1
ACCMCONTEXT
  2
AcCmContext
  3
DesignerAssemblies
 90
        0
280
     0
281
     0
  0
CLASS
  1
ACAMCOMPDEF
  2
AcAmCompDef
  3
DesignerAssemblies
 90
        0
280
     0
281
     0
  0
CLASS
  1
ACAMCOMPDEFMGR
  2
AcAmCompDefMgr
  3
DesignerAssemblies
 90
        0
280
     0
281
     0
  0
CLASS
  1
AMCONTEXTMGR
  2
AcAmContextMgr
  3
DesignerAssemblies
 90
        0
280
     0
281
     0
  0
CLASS
  1
ACAMCONTEXTMODELER
  2
AcAmContextModeler
  3
DesignerAssemblies
 90
        0
280
     0
281
     0
  0
CLASS
  1
ACMDATADICTIONARY
  2
AcmDataDictionary
  3
"AcmSymBB|Product Description: AutoCAD Mechanical 2000|Company: Autodesk"
 90
        0
280
     0
281
     0
  0
CLASS
  1
ACMDATAENTRYBLOCK
  2
AcmDataEntryBlock
  3
"AcmSymBB|Product Description: AutoCAD Mechanical 2000|Company: Autodesk"
 90
        0
280
     0
281
     0
  0
CLASS
  1
CATALOGSTATE
  2
AcAmCatalogState
  3
DesignerAssemblies
 90
        0
280
     0
281
     0
  0
CLASS
  1
ACAMGRCOMPDEFSET
  2
AcAmGrCompDefSet
  3
DesignerAssemblies
 90
        0
280
     0
281
     0
  0
CLASS
  1
AMDTBROWSERDBTAB
  2
AmdtBrowserDbTab
  3
McadcomServices
 90
        0
280
     0
281
     0
  0
CLASS
  1
CBROWSERAPPOBJECT
  2
CBrowserAppObject
  3
McadcomServices
 90
        0
280
     0
281
     0
  0
CLASS
  1
DM_PLACEHOLDER
  2
AcDmSelsetPlaceholder
  3
AcMechDwgViewMgmt
 90
        0
280
     0
281
     0
  0
CLASS
  1
AMGOBJPROPCFG
  2
AmgObjPropCfg
  3
"AmgLay|Product Description: AutoCAD Mechanical 2000|Company: Autodesk"
 90
        1
280
     0
281
     0
  0
CLASS
  1
ACAMGFILTERDAT
  2
AcAmgFilterDat
  3
"AcadM|Product Description: AutoCAD Mechanical 2000|Company: Autodesk"
 90
        0
280
     0
281
     0
  0
CLASS
  1
LAYER_INDEX
  2
AcDbLayerIndex
  3
AutoCAD 2000
 90
        0
280
     0
281
     0
  0
CLASS
  1
IDBUFFER
  2
AcDbIdBuffer
  3
AutoCAD 2000
 90
        0
280
     0
281
     0
  0
ENDSEC
  0
SECTION
  2
TABLES
  0
TABLE
  2
VPORT
  5
8
330
0
100
AcDbSymbolTable
 70
     3
  0
VPORT
  5
1D92
330
8
100
AcDbSymbolTableRecord
100
AcDbViewportTableRecord
  2
*Active
 70
     0
 10
0.0
 20
0.0
 11
1.0
 21
1.0
 12
0.0
 22
0.0
 13
0.0
 23
0.0
 14
0.25
 24
0.25
 15
1.0
 25
1.0
 16
0.0
 26
0.0
 36
1.0
 17
145.3443917171394
 27
97.564767
 37
0.0
 40
195.129534
 41
1.489721886336154
 42
50.0
 43
0.0
 44
0.0
 50
0.0
 51
0.0
 71
     0
 72
 20000
 73
     1
 74
     1
 75
     0
 76
     0
 77
     0
 78
     0
281
     0
 65
     0
110
0.0
120
0.0
130
0.0
111
1.0
121
0.0
131
0.0
112
0.0
122
1.0
132
0.0
 79
     0
146
0.0
  0
ENDTAB
  0
TABLE
  2
LTYPE
  5
5
330
0
100
AcDbSymbolTable
 70
    22
  0
LTYPE
  5
12
330
5
100
AcDbSymbolTableRecord
100
AcDbLinetypeTableRecord
  2
BYBLOCK
 70
     0
  3

 72
    65
 73
     0
 40
0.0
  0
LTYPE
  5
13
330
5
100
AcDbSymbolTableRecord
100
AcDbLinetypeTableRecord
  2
BYLAYER
 70
     0
  3

 72
    65
 73
     0
 40
0.0
  0
LTYPE
  5
14
330
5
100
AcDbSymbolTableRecord
100
AcDbLinetypeTableRecord
  2
CONTINUOUS
 70
     0
  3
Solid line
 72
    65
 73
     0
 40
0.0
  0
LTYPE
  5
9D
330
5
100
AcDbSymbolTableRecord
100
AcDbLinetypeTableRecord
  2
CENTER
 70
     0
  3
Center ____ _ ____ _ ____ _ ____ _ ____ _ ____
 72
    65
 73
     4
 40
50.8
 49
31.75
 74
     0
 49
-6.349999999999999
 74
     0
 49
6.349999999999999
 74
     0
 49
-6.349999999999999
 74
     0
  0
LTYPE
  5
A0
330
5
100
AcDbSymbolTableRecord
100
AcDbLinetypeTableRecord
  2
HIDDEN
 70
     0
  3
Hidden __ __ __ __ __ __ __ __ __ __ __ __ __ _
 72
    65
 73
     2
 40
9.525
 49
6.349999999999999
 74
     0
 49
-3.174999999999999
 74
     0
  0
LTYPE
  5
C2
330
5
100
AcDbSymbolTableRecord
100
AcDbLinetypeTableRecord
  2
CENTER2
 70
     0
  3
Center (.5x) ___ _ ___ _ ___ _ ___ _ ___ _ ___
 72
    65
 73
     4
 40
28.57499999999999
 49
19.05
 74
     0
 49
-3.174999999999999
 74
     0
 49
3.174999999999999
 74
     0
 49
-3.174999999999999
 74
     0
  0
LTYPE
  5
C3
330
5
100
AcDbSymbolTableRecord
100
AcDbLinetypeTableRecord
  2
HIDDEN2
 70
     0
  3
Hidden (.5x) _ _ _ _ _ _ _ _ _ _ _ _ _ _ _ _ _
 72
    65
 73
     2
 40
4.7625
 49
3.174999999999999
 74
     0
 49
-1.587499999999999
 74
     0
  0
LTYPE
  5
371
330
5
100
AcDbSymbolTableRecord
100
AcDbLinetypeTableRecord
  2
TENSEN
 70
     0
  3

 72
    65
 73
     2
 40
4.0
 49
3.0
 74
     0
 49
-1.0
 74
     0
  0
LTYPE
  5
372
330
5
100
AcDbSymbolTableRecord
100
AcDbLinetypeTableRecord
  2
ITTEN1
 70
     0
  3

 72
    65
 73
     4
 40
8.199999999999999
 49
5.0
 74
     0
 49
-1.0
 74
     0
 49
1.199999999999999
 74
     0
 49
-1.0
 74
     0
  0
LTYPE
  5
5FB
330
5
100
AcDbSymbolTableRecord
100
AcDbLinetypeTableRecord
  2
ITTEN
 70
     0
  3

 72
    65
 73
     4
 40
5.5
 49
2.5
 74
     0
 49
-1.0
 74
     0
 49
1.0
 74
     0
 49
-1.0
 74
     0
  0
LTYPE
  5
11E7
330
5
100
AcDbSymbolTableRecord
100
AcDbLinetypeTableRecord
  2
TENSEN3
 70
     0
  3

 72
    65
 73
     2
 40
4.0
 49
3.0
 74
     0
 49
-1.0
 74
     0
  0
LTYPE
  5
1A37
330
5
100
AcDbSymbolTableRecord
100
AcDbLinetypeTableRecord
  2
DASHED2
 70
     0
  3
Dashed (.5x) _ _ _ _ _ _ _ _ _ _ _ _ _ _ _ _ _
 72
    65
 73
     2
 40
9.525
 49
6.349999999999999
 74
     0
 49
-3.174999999999999
 74
     0
  0
LTYPE
  5
1A3B
330
5
100
AcDbSymbolTableRecord
100
AcDbLinetypeTableRecord
  2
ACAD_ISO02W100
 70
     0
  3
ISO dash __ __ __ __ __ __ __ __ __ __ __ __ __
 72
    65
 73
     2
 40
15.0
 49
12.0
 74
     0
 49
-3.0
 74
     0
  0
LTYPE
  5
1A3D
330
5
100
AcDbSymbolTableRecord
100
AcDbLinetypeTableRecord
  2
DOT2
 70
     0
  3
Dot (.5x) .....................................
 72
    65
 73
     2
 40
3.174999999999999
 49
0.0
 74
     0
 49
-3.174999999999999
 74
     0
  0
LTYPE
  5
1CD3
330
5
100
AcDbSymbolTableRecord
100
AcDbLinetypeTableRecord
  2
PHANTOM2
 70
     0
  3
Phantom (.5x) ___ _ _ ___ _ _ ___ _ _ ___ _ _
 72
    65
 73
     6
 40
31.75
 49
15.875
 74
     0
 49
-3.174999999999999
 74
     0
 49
3.174999999999999
 74
     0
 49
-3.174999999999999
 74
     0
 49
3.174999999999999
 74
     0
 49
-3.174999999999999
 74
     0
  0
LTYPE
  5
1D35
330
5
100
AcDbSymbolTableRecord
100
AcDbLinetypeTableRecord
  2
ASULTYPE
 70
     0
  3
実線
 72
    65
 73
     2
 40
3.0
 49
2.5
 74
     0
 49
0.5
 74
     0
  0
LTYPE
  5
1D36
330
5
100
AcDbSymbolTableRecord
100
AcDbLinetypeTableRecord
  2
ASVLTYPE
 70
     0
  3
__ __ __ __ __ __ __ __ __ __ __ __ __ __ __ __ __ __ __ __ __
 72
    65
 73
     2
 40
0.75
 49
0.5
 74
     0
 49
-0.25
 74
     0
  0
LTYPE
  5
1D77
330
5
100
AcDbSymbolTableRecord
100
AcDbLinetypeTableRecord
  2
AM_ISO02W050
 70
     0
  3
__ __ __ __ __ __ __ __ __ __ __ __ __ __ __
 72
    65
 73
     2
 40
7.5
 49
6.0
 74
     0
 49
-1.5
 74
     0
  0
LTYPE
  5
1D78
330
5
100
AcDbSymbolTableRecord
100
AcDbLinetypeTableRecord
  2
AM_ISO08W050
 70
     0
  3
____ . ____ . ____ . ____ . ____ . ____ . ____
 72
    65
 73
     4
 40
18.0
 49
12.0
 74
     0
 49
-1.5
 74
     0
 49
3.0
 74
     0
 49
-1.5
 74
     0
  0
LTYPE
  5
1D79
330
5
100
AcDbSymbolTableRecord
100
AcDbLinetypeTableRecord
  2
AM_ISO09W050
 70
     0
  3
_____ . . _____ . . _____ . . ____ .. ____
 72
    65
 73
     6
 40
22.5
 49
12.0
 74
     0
 49
-1.5
 74
     0
 49
3.0
 74
     0
 49
-1.5
 74
     0
 49
3.0
 74
     0
 49
-1.5
 74
     0
  0
LTYPE
  5
1D7A
330
5
100
AcDbSymbolTableRecord
100
AcDbLinetypeTableRecord
  2
Amconstr
 70
     0
  3
_______________________
 72
    65
 73
     2
 40
9999.0
 49
9999.0
 74
     0
 49
0.0
 74
     0
  0
LTYPE
  5
1D7B
330
5
100
AcDbSymbolTableRecord
100
AcDbLinetypeTableRecord
  2
AM_ISO08W050x2
 70
     0
  3
__ . __ . __ . __ . __ . __
 72
    65
 73
     4
 40
9.0
 49
6.0
 74
     0
 49
-0.75
 74
     0
 49
1.5
 74
     0
 49
-0.75
 74
     0
  0
LTYPE
  5
1D7C
330
5
100
AcDbSymbolTableRecord
100
AcDbLinetypeTableRecord
  2
AM_ISO02W050x2
 70
     0
  3
 _ _ _ _ _ _ _ _ _ _ _ _
 72
    65
 73
     2
 40
3.75
 49
3.0
 74
     0
 49
-0.75
 74
     0
  0
LTYPE
  5
1D7D
330
5
100
AcDbSymbolTableRecord
100
AcDbLinetypeTableRecord
  2
Amzigzag
 70
     0
  3
/\/-/\/-/\/-/\/-/\/-/\/
 72
    65
 73
     2
 40
11.00009999999999
 49
0.0001
 74
     4
 75
   135
340
9C
 46
0.04
 50
0.0
 44
0.0
 45
0.0
 49
-11.0
 74
     0
  0
ENDTAB
  0
TABLE
  2
LAYER
  5
2
330
0
100
AcDbSymbolTable
 70
     7
  0
LAYER
  5
E
330
2
100
AcDbSymbolTableRecord
100
AcDbLayerTableRecord
  2
0
 70
     0
 62
     7
  6
CONTINUOUS
370
    -3
390
1CA9
  0
LAYER
  5
21
330
2
100
AcDbSymbolTableRecord
100
AcDbLayerTableRecord
  2
3
 70
     0
 62
     3
  6
CONTINUOUS
370
    -3
390
1CA9
  0
LAYER
  5
9E
330
2
100
AcDbSymbolTableRecord
100
AcDbLayerTableRecord
  2
1
 70
     0
 62
     1
  6
ITTEN1
370
    -3
390
1CA9
  0
LAYER
  5
9F
330
2
100
AcDbSymbolTableRecord
100
AcDbLayerTableRecord
  2
2
 70
     0
 62
     2
  6
HIDDEN
370
    -3
390
1CA9
  0
LAYER
  5
13A
330
2
100
AcDbSymbolTableRecord
100
AcDbLayerTableRecord
  2
DEFPOINTS
 70
     0
 62
     7
  6
CONTINUOUS
290
     0
370
    -3
390
1CA9
  0
LAYER
  5
11E8
330
2
100
AcDbSymbolTableRecord
100
AcDbLayerTableRecord
  2
4
 70
     0
 62
     6
  6
CONTINUOUS
370
    -3
390
1CA9
  0
LAYER
  5
1A38
330
2
100
AcDbSymbolTableRecord
100
AcDbLayerTableRecord
  2
5
 70
     0
 62
     2
  6
TENSEN
370
    -3
390
1CA9
  0
ENDTAB
  0
TABLE
  2
STYLE
  5
3
330
0
100
AcDbSymbolTable
 70
     6
  0
STYLE
  5
F
330
3
100
AcDbSymbolTableRecord
100
AcDbTextStyleTableRecord
  2
STANDARD
 70
     0
 40
4.0
 41
1.0
 50
0.0
 71
     0
 42
2.5
  3
txt.shx
  4

  0
STYLE
  5
22
330
3
100
AcDbSymbolTableRecord
100
AcDbTextStyleTableRecord
  2
EXTFONT
 70
     0
 40
5.0
 41
0.75
 50
0.0
 71
     0
 42
5.0
  3
simplex.shx
  4
bigfont.shx
  0
STYLE
  5
23
330
3
100
AcDbSymbolTableRecord
100
AcDbTextStyleTableRecord
  2
BIGFONT
 70
     0
 40
4.0
 41
0.7
 50
0.0
 71
     0
 42
4.0
  3
txt.shx
  4
extfont.shx
  0
STYLE
  5
24
330
3
100
AcDbSymbolTableRecord
100
AcDbTextStyleTableRecord
  2
ROMAND
 70
     0
 40
4.0
 41
0.6
 50
0.0
 71
     0
 42
4.0
  3
romand
  4

  0
STYLE
  5
9C
330
3
100
AcDbSymbolTableRecord
100
AcDbTextStyleTableRecord
  2

 70
     1
 40
0.0
 41
1.0
 50
0.0
 71
     0
 42
2.5
  3
ltypeshp.shx
  4

  0
STYLE
  5
11E9
330
3
100
AcDbSymbolTableRecord
100
AcDbTextStyleTableRecord
  2
ROMANS
 70
     0
 40
0.0
 41
1.0
 50
0.0
 71
     0
 42
0.0
  3
ROMANS
  4

  0
ENDTAB
  0
TABLE
  2
VIEW
  5
6
330
0
100
AcDbSymbolTable
 70
     0
  0
ENDTAB
  0
TABLE
  2
UCS
  5
7
330
0
100
AcDbSymbolTable
 70
     0
  0
ENDTAB
  0
TABLE
  2
APPID
  5
9
330
0
100
AcDbSymbolTable
 70
    12
  0
APPID
  5
10
330
9
100
AcDbSymbolTableRecord
100
AcDbRegAppTableRecord
  2
ACAD
 70
     0
  0
APPID
  5
1CB2
330
9
100
AcDbSymbolTableRecord
100
AcDbRegAppTableRecord
  2
GENIUS_GENDIM_13
 70
     0
  0
APPID
  5
1CB3
330
9
100
AcDbSymbolTableRecord
100
AcDbRegAppTableRecord
  2
GENIUS_GENDTOL_13
 70
     0
  0
APPID
  5
1CB4
330
9
100
AcDbSymbolTableRecord
100
AcDbRegAppTableRecord
  2
GENIUS_GE3DTOL_13
 70
     0
  0
APPID
  5
1CB6
330
9
100
AcDbSymbolTableRecord
100
AcDbRegAppTableRecord
  2
MCAD_NO_VIS
 70
     0
  0
APPID
  5
1CB7
330
9
100
AcDbSymbolTableRecord
100
AcDbRegAppTableRecord
  2
ACAD_TEMP_GRAPHIC
 70
     0
  0
APPID
  5
1CE8
330
9
100
AcDbSymbolTableRecord
100
AcDbRegAppTableRecord
  2
AD_DRAW
 70
     0
  0
APPID
  5
1CEB
330
9
100
AcDbSymbolTableRecord
100
AcDbRegAppTableRecord
  2
ACATTRIBSERVICES
 70
     0
  0
APPID
  5
1D37
330
9
100
AcDbSymbolTableRecord
100
AcDbRegAppTableRecord
  2
ASURF_PCURVE_APPNAME
 70
     0
  0
APPID
  5
1D66
330
9
100
AcDbSymbolTableRecord
100
AcDbRegAppTableRecord
  2
DESIGNERASSEMBLIES
 70
     0
  0
APPID
  5
1D6E
330
9
100
AcDbSymbolTableRecord
100
AcDbRegAppTableRecord
  2
ACADM_DIM_EDIT
 70
     0
  0
APPID
  5
1D6F
330
9
100
AcDbSymbolTableRecord
100
AcDbRegAppTableRecord
  2
AMDT_DM_ADJ
 70
     0
  0
ENDTAB
  0
TABLE
  2
DIMSTYLE
  5
A
330
0
100
AcDbSymbolTable
 70
     1
100
AcDbDimStyleTable
 71
     0
  0
DIMSTYLE
105
1D
102
{ACAD_REACTORS
330
374
330
375
330
376
330
377
330
378
330
379
330
37D
330
37E
330
380
330
381
330
382
330
383
330
384
330
38D
330
39A
330
39C
330
3A0
330
3A3
330
3A4
330
3BA
330
621
330
CEE
330
CF1
330
CF2
330
CF5
330
CF6
330
CF7
330
CF9
330
CFA
330
CFB
330
F3E
330
F3F
330
F43
330
F46
330
F4C
330
F4D
330
F4E
330
F5C
330
F5D
330
F5E
330
11FF
330
1200
330
1201
330
1202
330
1206
330
1207
330
1208
330
1209
330
120A
330
1210
330
1211
330
1212
330
1239
330
1247
330
1522
330
1523
330
1582
330
1591
330
1592
330
1597
330
15A4
330
15A8
330
15AD
102
}
330
A
100
AcDbSymbolTableRecord
100
AcDbDimStyleTableRecord
  2
STANDARD
 70
     0
340
F
  0
ENDTAB
  0
TABLE
  2
BLOCK_RECORD
  5
1
330
0
100
AcDbSymbolTable
 70
    74
  0
BLOCK_RECORD
  5
18
102
{ACAD_XDICTIONARY
360
1D86
102
}
330
1
100
AcDbSymbolTableRecord
100
AcDbBlockTableRecord
  2
*MODEL_SPACE
340
1CAC
  0
BLOCK_RECORD
  5
15
330
1
100
AcDbSymbolTableRecord
100
AcDbBlockTableRecord
  2
*PAPER_SPACE
340
1CAD
  0
BLOCK_RECORD
  5
25
330
1
100
AcDbSymbolTableRecord
100
AcDbBlockTableRecord
  2
A$C23A01D60
340
0
  0
BLOCK_RECORD
  5
283
330
1
100
AcDbSymbolTableRecord
100
AcDbBlockTableRecord
  2
*D1
340
0
  0
BLOCK_RECORD
  5
290
330
1
100
AcDbSymbolTableRecord
100
AcDbBlockTableRecord
  2
*D2
340
0
  0
BLOCK_RECORD
  5
29D
330
1
100
AcDbSymbolTableRecord
100
AcDbBlockTableRecord
  2
*D3
340
0
  0
BLOCK_RECORD
  5
2AA
330
1
100
AcDbSymbolTableRecord
100
AcDbBlockTableRecord
  2
*D4
340
0
  0
BLOCK_RECORD
  5
2B7
330
1
100
AcDbSymbolTableRecord
100
AcDbBlockTableRecord
  2
*D5
340
0
  0
BLOCK_RECORD
  5
2C4
330
1
100
AcDbSymbolTableRecord
100
AcDbBlockTableRecord
  2
*D6
340
0
  0
BLOCK_RECORD
  5
2D1
330
1
100
AcDbSymbolTableRecord
100
AcDbBlockTableRecord
  2
*D7
340
0
  0
BLOCK_RECORD
  5
2DE
330
1
100
AcDbSymbolTableRecord
100
AcDbBlockTableRecord
  2
*D8
340
0
  0
BLOCK_RECORD
  5
2EB
330
1
100
AcDbSymbolTableRecord
100
AcDbBlockTableRecord
  2
*D9
340
0
  0
BLOCK_RECORD
  5
2F8
330
1
100
AcDbSymbolTableRecord
100
AcDbBlockTableRecord
  2
*D10
340
0
  0
BLOCK_RECORD
  5
305
330
1
100
AcDbSymbolTableRecord
100
AcDbBlockTableRecord
  2
*D11
340
0
  0
BLOCK_RECORD
  5
312
330
1
100
AcDbSymbolTableRecord
100
AcDbBlockTableRecord
  2
*D12
340
0
  0
BLOCK_RECORD
  5
31B
330
1
100
AcDbSymbolTableRecord
100
AcDbBlockTableRecord
  2
*D13
340
0
  0
BLOCK_RECORD
  5
324
330
1
100
AcDbSymbolTableRecord
100
AcDbBlockTableRecord
  2
*D14
340
0
  0
BLOCK_RECORD
  5
32D
330
1
100
AcDbSymbolTableRecord
100
AcDbBlockTableRecord
  2
*D15
340
0
  0
BLOCK_RECORD
  5
336
330
1
100
AcDbSymbolTableRecord
100
AcDbBlockTableRecord
  2
*D16
340
0
  0
BLOCK_RECORD
  5
343
330
1
100
AcDbSymbolTableRecord
100
AcDbBlockTableRecord
  2
*D17
340
0
  0
BLOCK_RECORD
  5
34C
330
1
100
AcDbSymbolTableRecord
100
AcDbBlockTableRecord
  2
*D18
340
0
  0
BLOCK_RECORD
  5
35A
330
1
100
AcDbSymbolTableRecord
100
AcDbBlockTableRecord
  2
*D19
340
0
  0
BLOCK_RECORD
  5
363
330
1
100
AcDbSymbolTableRecord
100
AcDbBlockTableRecord
  2
*D20
340
0
  0
BLOCK_RECORD
  5
373
330
1
100
AcDbSymbolTableRecord
100
AcDbBlockTableRecord
  2
A$C2290175C
340
0
  0
BLOCK_RECORD
  5
5EF
330
1
100
AcDbSymbolTableRecord
100
AcDbBlockTableRecord
  2
*D22
340
0
  0
BLOCK_RECORD
  5
5FC
330
1
100
AcDbSymbolTableRecord
100
AcDbBlockTableRecord
  2
A$C78F16135
340
0
  0
BLOCK_RECORD
  5
C78
330
1
100
AcDbSymbolTableRecord
100
AcDbBlockTableRecord
  2
*D24
340
0
  0
BLOCK_RECORD
  5
C85
330
1
100
AcDbSymbolTableRecord
100
AcDbBlockTableRecord
  2
*D25
340
0
  0
BLOCK_RECORD
  5
C92
330
1
100
AcDbSymbolTableRecord
100
AcDbBlockTableRecord
  2
*D26
340
0
  0
BLOCK_RECORD
  5
C9F
330
1
100
AcDbSymbolTableRecord
100
AcDbBlockTableRecord
  2
*D27
340
0
  0
BLOCK_RECORD
  5
CAC
330
1
100
AcDbSymbolTableRecord
100
AcDbBlockTableRecord
  2
*D28
340
0
  0
BLOCK_RECORD
  5
CB9
330
1
100
AcDbSymbolTableRecord
100
AcDbBlockTableRecord
  2
*D29
340
0
  0
BLOCK_RECORD
  5
CC6
330
1
100
AcDbSymbolTableRecord
100
AcDbBlockTableRecord
  2
*D30
340
0
  0
BLOCK_RECORD
  5
CD3
330
1
100
AcDbSymbolTableRecord
100
AcDbBlockTableRecord
  2
*D31
340
0
  0
BLOCK_RECORD
  5
CE0
330
1
100
AcDbSymbolTableRecord
100
AcDbBlockTableRecord
  2
*D32
340
0
  0
BLOCK_RECORD
  5
CED
330
1
100
AcDbSymbolTableRecord
100
AcDbBlockTableRecord
  2
A$C375C091B
340
0
  0
BLOCK_RECORD
  5
EB5
330
1
100
AcDbSymbolTableRecord
100
AcDbBlockTableRecord
  2
*D34
340
0
  0
BLOCK_RECORD
  5
EC2
330
1
100
AcDbSymbolTableRecord
100
AcDbBlockTableRecord
  2
*D35
340
0
  0
BLOCK_RECORD
  5
ECF
330
1
100
AcDbSymbolTableRecord
100
AcDbBlockTableRecord
  2
*D36
340
0
  0
BLOCK_RECORD
  5
ED8
330
1
100
AcDbSymbolTableRecord
100
AcDbBlockTableRecord
  2
*D37
340
0
  0
BLOCK_RECORD
  5
EE5
330
1
100
AcDbSymbolTableRecord
100
AcDbBlockTableRecord
  2
*D38
340
0
  0
BLOCK_RECORD
  5
EF2
330
1
100
AcDbSymbolTableRecord
100
AcDbBlockTableRecord
  2
*D39
340
0
  0
BLOCK_RECORD
  5
EFF
330
1
100
AcDbSymbolTableRecord
100
AcDbBlockTableRecord
  2
*D40
340
0
  0
BLOCK_RECORD
  5
F0C
330
1
100
AcDbSymbolTableRecord
100
AcDbBlockTableRecord
  2
*D41
340
0
  0
BLOCK_RECORD
  5
F19
330
1
100
AcDbSymbolTableRecord
100
AcDbBlockTableRecord
  2
*D42
340
0
  0
BLOCK_RECORD
  5
F27
330
1
100
AcDbSymbolTableRecord
100
AcDbBlockTableRecord
  2
*D43
340
0
  0
BLOCK_RECORD
  5
F35
330
1
100
AcDbSymbolTableRecord
100
AcDbBlockTableRecord
  2
A$C43FD107B
340
0
102
{BLKREFS
331
F5B
102
}
  0
BLOCK_RECORD
  5
F3A
330
1
100
AcDbSymbolTableRecord
100
AcDbBlockTableRecord
  2
A$C72AD58F5
340
0
  0
BLOCK_RECORD
  5
1135
330
1
100
AcDbSymbolTableRecord
100
AcDbBlockTableRecord
  2
*D46
340
0
  0
BLOCK_RECORD
  5
1142
330
1
100
AcDbSymbolTableRecord
100
AcDbBlockTableRecord
  2
*D47
340
0
  0
BLOCK_RECORD
  5
114F
330
1
100
AcDbSymbolTableRecord
100
AcDbBlockTableRecord
  2
*D48
340
0
  0
BLOCK_RECORD
  5
115C
330
1
100
AcDbSymbolTableRecord
100
AcDbBlockTableRecord
  2
*D49
340
0
  0
BLOCK_RECORD
  5
1167
330
1
100
AcDbSymbolTableRecord
100
AcDbBlockTableRecord
  2
*D50
340
0
  0
BLOCK_RECORD
  5
1172
330
1
100
AcDbSymbolTableRecord
100
AcDbBlockTableRecord
  2
*D51
340
0
  0
BLOCK_RECORD
  5
117F
330
1
100
AcDbSymbolTableRecord
100
AcDbBlockTableRecord
  2
*D52
340
0
  0
BLOCK_RECORD
  5
118C
330
1
100
AcDbSymbolTableRecord
100
AcDbBlockTableRecord
  2
*D53
340
0
  0
BLOCK_RECORD
  5
1199
330
1
100
AcDbSymbolTableRecord
100
AcDbBlockTableRecord
  2
*D54
340
0
  0
BLOCK_RECORD
  5
11A6
330
1
100
AcDbSymbolTableRecord
100
AcDbBlockTableRecord
  2
*D55
340
0
  0
BLOCK_RECORD
  5
11B3
330
1
100
AcDbSymbolTableRecord
100
AcDbBlockTableRecord
  2
*D56
340
0
  0
BLOCK_RECORD
  5
11C0
330
1
100
AcDbSymbolTableRecord
100
AcDbBlockTableRecord
  2
*D57
340
0
  0
BLOCK_RECORD
  5
11CD
330
1
100
AcDbSymbolTableRecord
100
AcDbBlockTableRecord
  2
*D58
340
0
  0
BLOCK_RECORD
  5
11DA
330
1
100
AcDbSymbolTableRecord
100
AcDbBlockTableRecord
  2
*D59
340
0
  0
BLOCK_RECORD
  5
11EA
330
1
100
AcDbSymbolTableRecord
100
AcDbBlockTableRecord
  2
A$C2EAC175B
340
0
  0
BLOCK_RECORD
  5
14B0
330
1
100
AcDbSymbolTableRecord
100
AcDbBlockTableRecord
  2
*D61
340
0
  0
BLOCK_RECORD
  5
14BA
330
1
100
AcDbSymbolTableRecord
100
AcDbBlockTableRecord
  2
*D62
340
0
  0
BLOCK_RECORD
  5
14C4
330
1
100
AcDbSymbolTableRecord
100
AcDbBlockTableRecord
  2
*D63
340
0
  0
BLOCK_RECORD
  5
14CE
330
1
100
AcDbSymbolTableRecord
100
AcDbBlockTableRecord
  2
*D64
340
0
  0
BLOCK_RECORD
  5
14DB
330
1
100
AcDbSymbolTableRecord
100
AcDbBlockTableRecord
  2
*D65
340
0
  0
BLOCK_RECORD
  5
14E8
330
1
100
AcDbSymbolTableRecord
100
AcDbBlockTableRecord
  2
*D66
340
0
  0
BLOCK_RECORD
  5
14F5
330
1
100
AcDbSymbolTableRecord
100
AcDbBlockTableRecord
  2
*D67
340
0
  0
BLOCK_RECORD
  5
1502
330
1
100
AcDbSymbolTableRecord
100
AcDbBlockTableRecord
  2
*D68
340
0
  0
BLOCK_RECORD
  5
150F
330
1
100
AcDbSymbolTableRecord
100
AcDbBlockTableRecord
  2
*D69
340
0
  0
BLOCK_RECORD
  5
151C
330
1
100
AcDbSymbolTableRecord
100
AcDbBlockTableRecord
  2
A$C2B8D5F0E
340
0
102
{BLKREFS
331
158E
102
}
  0
BLOCK_RECORD
  5
1520
330
1
100
AcDbSymbolTableRecord
100
AcDbBlockTableRecord
  2
A$C28A03580
340
0
  0
BLOCK_RECORD
  5
1BF7
330
1
100
AcDbSymbolTableRecord
100
AcDbBlockTableRecord
  2
A$C51075B6D
340
0
  0
BLOCK_RECORD
  5
1D5D
330
1
100
AcDbSymbolTableRecord
100
AcDbBlockTableRecord
  2
*U73
340
0
  0
ENDTAB
  0
ENDSEC
  0
SECTION
  2
BLOCKS
  0
BLOCK
  5
19
330
18
100
AcDbEntity
  8
0
100
AcDbBlockBegin
  2
*MODEL_SPACE
 70
     0
 10
0.0
 20
0.0
 30
0.0
  3
*MODEL_SPACE
  1

  0
ENDBLK
  5
1A
330
18
100
AcDbEntity
  8
0
100
AcDbBlockEnd
  0
BLOCK
  5
16
330
15
100
AcDbEntity
 67
     1
  8
0
100
AcDbBlockBegin
  2
*PAPER_SPACE
 70
     0
 10
0.0
 20
0.0
 30
0.0
  3
*PAPER_SPACE
  1

  0
ENDBLK
  5
17
330
15
100
AcDbEntity
 67
     1
  8
0
100
AcDbBlockEnd
  0
BLOCK
  5
5D
330
25
100
AcDbEntity
  8
0
100
AcDbBlockBegin
  2
A$C23A01D60
 70
     0
 10
0.0
 20
0.0
 30
0.0
  3
A$C23A01D60
  1

  0
LINE
  5
26
330
25
100
AcDbEntity
  8
0
100
AcDbLine
 10
98.328815
 20
35.394448
 30
0.0
 11
279.457374
 21
35.394448
 31
0.0
  0
LWPOLYLINE
  5
27
330
25
100
AcDbEntity
  8
0
100
AcDbPolyline
 90
        4
 70
     1
 43
0.0
 10
0.0
 20
195.0
 10
280.0
 20
195.0
 10
280.0
 20
0.0
 10
0.0
 20
0.0
  0
LINE
  5
28
330
25
100
AcDbEntity
  8
0
100
AcDbLine
 10
98.328815
 20
0.0
 30
0.0
 11
280.0
 21
0.0
 31
0.0
  0
TEXT
  5
29
330
25
100
AcDbEntity
  8
0
100
AcDbText
 10
134.116561
 20
7.100852
 30
0.0
 40
2.116241
  1
DATE （作成日）
 41
0.55
  7
BIGFONT
100
AcDbText
  0
LINE
  5
2A
330
25
100
AcDbEntity
  8
0
100
AcDbLine
 10
98.328815
 20
29.394448
 30
0.0
 11
279.457374
 21
29.394448
 31
0.0
  0
LINE
  5
2B
330
25
100
AcDbEntity
  8
0
100
AcDbLine
 10
98.31091
 20
24.345016
 30
0.0
 11
279.457374
 21
24.345016
 31
0.0
  0
LINE
  5
2C
330
25
100
AcDbEntity
  8
0
100
AcDbLine
 10
98.328815
 20
19.29558399999999
 30
0.0
 11
279.457374
 21
19.29558399999999
 31
0.0
  0
LINE
  5
2D
330
25
100
AcDbEntity
  8
0
100
AcDbLine
 10
279.457374
 20
9.528316
 30
0.0
 11
98.328815
 21
9.528316
 31
0.0
  0
LINE
  5
2E
330
25
100
AcDbEntity
  8
0
100
AcDbLine
 10
133.430637
 20
9.528316
 30
0.0
 11
133.430637
 21
0.0
 31
0.0
  0
LINE
  5
2F
330
25
100
AcDbEntity
  8
0
100
AcDbLine
 10
98.328815
 20
9.528316
 30
0.0
 11
98.328815
 21
0.0
 31
0.0
  0
TEXT
  5
30
330
25
100
AcDbEntity
  8
0
100
AcDbText
 10
102.1684599999999
 20
20.964959
 30
0.0
 40
1.953453999999999
  1
No,
 41
0.4
  7
BIGFONT
100
AcDbText
  0
LINE
  5
31
330
25
100
AcDbEntity
  8
0
100
AcDbLine
 10
108.7955409999999
 20
29.394448
 30
0.0
 11
108.7955409999999
 21
19.29558399999999
 31
0.0
  0
LINE
  5
32
330
25
100
AcDbEntity
  8
0
100
AcDbLine
 10
98.328815
 20
19.29558399999999
 30
0.0
 11
98.328815
 21
29.394448
 31
0.0
  0
TEXT
  5
33
330
25
100
AcDbEntity
  8
0
100
AcDbText
 10
99.380527
 20
7.034472999999999
 30
0.0
 40
2.116241
  1
CODE NO. （製番）
 41
0.55
  7
BIGFONT
100
AcDbText
  0
TEXT
  5
34
330
25
100
AcDbEntity
  8
0
100
AcDbText
 10
99.381424
 20
16.259394
 30
0.0
 40
2.116241
  1
TITLE (品名）
 41
0.55
  7
BIGFONT
100
AcDbText
  0
LINE
  5
35
330
25
100
AcDbEntity
  8
0
100
AcDbLine
 10
98.328815
 20
9.528316
 30
0.0
 11
98.328815
 21
19.29558399999999
 31
0.0
  0
LINE
  5
36
330
25
100
AcDbEntity
  8
0
100
AcDbLine
 10
98.328815
 20
25.29558399999999
 30
0.0
 11
98.328815
 21
35.394448
 31
0.0
  0
CIRCLE
  5
37
330
25
100
AcDbEntity
  8
0
100
AcDbCircle
 10
103.6948329999999
 20
26.775338
 30
0.0
 40
2.217546
  0
TEXT
  5
38
330
25
100
AcDbEntity
  8
0
100
AcDbText
 10
102.462863
 20
25.464593
 30
0.0
 40
3.0
  1
1
 41
0.7
100
AcDbText
  0
CIRCLE
  5
39
330
25
100
AcDbEntity
  8
0
100
AcDbCircle
 10
103.4999999999999
 20
32.0
 30
0.0
 40
2.236067999999999
  0
TEXT
  5
3A
330
25
100
AcDbEntity
  8
0
100
AcDbText
 10
102.4999999999999
 20
30.5
 30
0.0
 40
3.0
  1
2
 41
0.7
100
AcDbText
  0
LINE
  5
3B
330
25
100
AcDbEntity
  8
0
100
AcDbLine
 10
108.7955409999999
 20
35.394448
 30
0.0
 11
108.7955409999999
 21
25.29558399999999
 31
0.0
  0
TEXT
  5
3C
330
25
100
AcDbEntity
  8
0
100
AcDbText
 10
119.2320929999999
 20
20.705559
 30
0.0
 40
1.953453999999999
  1
NAME
 41
0.4
  7
BIGFONT
100
AcDbText
  0
TEXT
  5
3D
330
25
100
AcDbEntity
  8
0
100
AcDbText
 10
122.9302629999999
 20
20.68082899999999
 30
0.0
 40
1.953453999999999
  1
（名称）
 41
0.7
  7
BIGFONT
100
AcDbText
  0
TEXT
  5
3E
330
25
100
AcDbEntity
  8
0
100
AcDbText
 10
226.15
 20
20.76
 30
0.0
 40
2.1
  1
HARDNESS
 41
0.6
100
AcDbText
  0
TEXT
  5
3F
330
25
100
AcDbEntity
  8
0
100
AcDbText
 10
214.492246
 20
1.981734
 30
0.0
 40
5.078979
  1
KONISHI MFG CO,.LTD
 41
0.6
  7
ROMAND
100
AcDbText
  0
TEXT
  5
40
330
25
100
AcDbEntity
  8
0
100
AcDbText
 10
174.719486
 20
6.629288
 30
0.0
 40
2.116241
  1
APPROVAL （承認）
 41
0.55
  7
BIGFONT
100
AcDbText
  0
LINE
  5
41
330
25
100
AcDbEntity
  8
0
100
AcDbLine
 10
159.537028
 20
9.528316
 30
0.0
 11
159.537028
 21
0.0
 31
0.0
  0
LINE
  5
42
330
25
100
AcDbEntity
  8
0
100
AcDbLine
 10
173.8623549999999
 20
9.528316
 30
0.0
 11
173.8623549999999
 21
0.0
 31
0.0
  0
TEXT
  5
43
330
25
100
AcDbEntity
  8
0
100
AcDbText
 10
159.892402
 20
7.033607
 30
0.0
 40
2.116241
  1
DNS/INS （製図）
 41
0.55
  7
BIGFONT
100
AcDbText
  0
TEXT
  5
44
330
25
100
AcDbEntity
  8
0
100
AcDbText
 10
148.756438
 20
16.464396
 30
0.0
 40
2.116241
  1
（品番）
 41
0.55
  7
BIGFONT
100
AcDbText
  0
LINE
  5
45
330
25
100
AcDbEntity
  8
0
100
AcDbLine
 10
141.062529
 20
19.29558399999999
 30
0.0
 11
141.062529
 21
9.528316
 31
0.0
  0
TEXT
  5
46
330
25
100
AcDbEntity
  8
0
100
AcDbText
 10
142.0350559999999
 20
16.403741
 30
0.0
 40
2.116241
  1
MODEL
 41
0.55
  7
BIGFONT
100
AcDbText
  0
LINE
  5
47
330
25
100
AcDbEntity
  8
0
100
AcDbLine
 10
173.736373
 20
29.144448
 30
0.0
 11
173.736373
 21
19.04558399999999
 31
0.0
  0
LINE
  5
48
330
25
100
AcDbEntity
  8
0
100
AcDbLine
 10
172.525462
 20
19.29558399999999
 30
0.0
 11
172.525462
 21
9.528316
 31
0.0
  0
TEXT
  5
49
330
25
100
AcDbEntity
  8
0
100
AcDbText
 10
173.8107709999999
 20
16.089572
 30
0.0
 40
1.953453999999999
  1
FINISH　(仕上)
 41
0.4
  7
BIGFONT
100
AcDbText
  0
LINE
  5
4A
330
25
100
AcDbEntity
  8
0
100
AcDbLine
 10
173.736373
 20
35.14444799999999
 30
0.0
 11
173.736373
 21
25.045584
 31
0.0
  0
TEXT
  5
4B
330
25
100
AcDbEntity
  8
0
100
AcDbText
 10
192.483335
 20
4.456108
 30
0.0
 40
3.385985999999999
  1
:MILLIMETERS
 41
0.55
  7
BIGFONT
100
AcDbText
  0
LINE
  5
4C
330
25
100
AcDbEntity
  8
0
100
AcDbLine
 10
212.931427
 20
9.528316
 30
0.0
 11
212.931427
 21
0.0
 31
0.0
  0
LINE
  5
4D
330
25
100
AcDbEntity
  8
0
100
AcDbLine
 10
191.443437
 20
9.528316
 30
0.0
 11
191.443437
 21
0.0
 31
0.0
  0
TEXT
  5
4E
330
25
100
AcDbEntity
  8
0
100
AcDbText
 10
200.948301
 20
1.070122
 30
0.0
 40
2.116241
  1
（単位：ミリ）
 41
0.55
  7
BIGFONT
100
AcDbText
  0
TEXT
  5
4F
330
25
100
AcDbEntity
  8
0
100
AcDbText
 10
184.196187
 20
20.53781499999999
 30
0.0
 40
2.116241
  1
MATERIAL （材質）
 41
0.55
  7
BIGFONT
 11
184.196187
 21
20.53781499999999
 31
0.0
100
AcDbText
 73
     1
  0
LINE
  5
50
330
25
100
AcDbEntity
  8
0
100
AcDbLine
 10
216.1143819999999
 20
29.394448
 30
0.0
 11
216.1143819999999
 21
19.29558399999999
 31
0.0
  0
LINE
  5
51
330
25
100
AcDbEntity
  8
0
100
AcDbLine
 10
216.1143819999999
 20
35.394448
 30
0.0
 11
216.1143819999999
 21
25.29558399999999
 31
0.0
  0
TEXT
  5
52
330
25
100
AcDbEntity
  8
0
100
AcDbText
 10
153.354003
 20
40.85420399999999
 30
0.0
 40
5.0
  1
各角はバリ無きこと。
 41
0.5
  7
BIGFONT
100
AcDbText
  0
TEXT
  5
53
330
25
100
AcDbEntity
  8
0
100
AcDbText
 10
266.3294399999999
 20
16.686154
 30
0.0
 40
2.116241
  1
SCALE （尺度）
 41
0.55
  7
BIGFONT
100
AcDbText
  0
TEXT
  5
54
330
25
100
AcDbEntity
  8
0
100
AcDbText
 10
264.5657729999999
 20
0.9659379999999998
 30
0.0
 40
2.962738
  1
    JAPAN
 41
0.5
  7
EXTFONT
100
AcDbText
  0
TEXT
  5
55
330
25
100
AcDbEntity
  8
0
100
AcDbText
 10
267.1703779999999
 20
5.563064999999999
 30
0.0
 40
2.962738
  1
IN NAGOYA
 41
0.5
  7
EXTFONT
100
AcDbText
  0
TEXT
  5
56
330
25
100
AcDbEntity
  8
0
100
AcDbText
 10
235.3874569999999
 20
16.142488
 30
0.0
 40
2.116241
  1
WEIGHT （質量）
 41
0.55
  7
BIGFONT
100
AcDbText
  0
LINE
  5
57
330
25
100
AcDbEntity
  8
0
100
AcDbLine
 10
230.364382
 20
19.29558399999999
 30
0.0
 11
230.364382
 21
9.528316
 31
0.0
  0
LINE
  5
58
330
25
100
AcDbEntity
  8
0
100
AcDbLine
 10
250.070568
 20
29.394448
 30
0.0
 11
250.070568
 21
19.29558399999999
 31
0.0
  0
TEXT
  5
59
330
25
100
AcDbEntity
  8
0
100
AcDbText
 10
257.223054
 20
16.62549899999999
 30
0.0
 40
2.116241
  1
DRAWING
 41
0.55
  7
BIGFONT
100
AcDbText
  0
LINE
  5
5A
330
25
100
AcDbEntity
  8
0
100
AcDbLine
 10
256.070568
 20
19.29558399999999
 30
0.0
 11
256.070568
 21
9.528316
 31
0.0
  0
TEXT
  5
5B
330
25
100
AcDbEntity
  8
0
100
AcDbText
 10
260.031717
 20
21.592312
 30
0.0
 40
1.953453999999999
  1
REMARKS　（備考）
 41
0.4
  7
BIGFONT
100
AcDbText
  0
LINE
  5
5C
330
25
100
AcDbEntity
  8
0
100
AcDbLine
 10
250.070568
 20
35.394448
 30
0.0
 11
250.070568
 21
25.29558399999999
 31
0.0
  0
ENDBLK
  5
5E
330
25
100
AcDbEntity
  8
0
100
AcDbBlockEnd
  0
BLOCK
  5
28E
330
283
100
AcDbEntity
  8
0
100
AcDbBlockBegin
  2
*D1
 70
     1
 10
0.0
 20
0.0
 30
0.0
  3
*D1
  1

  0
LINE
  5
284
330
283
100
AcDbEntity
  8
0
  6
ByBlock
 62
     0
100
AcDbLine
 10
150.526685
 20
153.4272639999999
 30
0.0
 11
150.526685
 21
164.287755
 31
0.0
  0
LINE
  5
285
330
283
100
AcDbEntity
  8
0
  6
ByBlock
 62
     0
100
AcDbLine
 10
125.63151
 20
163.2479999999999
 30
0.0
 11
125.63151
 21
162.287755
 31
0.0
  0
LINE
  5
286
330
283
100
AcDbEntity
  8
0
  6
ByBlock
 62
     0
100
AcDbLine
 10
148.526685
 20
163.287755
 30
0.0
 11
144.746022
 21
163.287755
 31
0.0
  0
LINE
  5
287
330
283
100
AcDbEntity
  8
0
  6
ByBlock
 62
     0
100
AcDbLine
 10
127.63151
 20
163.287755
 30
0.0
 11
136.829356
 21
163.287755
 31
0.0
  0
SOLID
  5
288
330
283
100
AcDbEntity
  8
0
  6
ByBlock
 62
     0
100
AcDbTrace
 10
148.526685
 20
163.6210879999999
 30
0.0
 11
148.526685
 21
162.9544219999999
 31
0.0
 12
150.526685
 22
163.287755
 32
0.0
 13
150.526685
 23
163.287755
 33
0.0
  0
SOLID
  5
289
330
283
100
AcDbEntity
  8
0
  6
ByBlock
 62
     0
100
AcDbTrace
 10
127.63151
 20
163.6210879999999
 30
0.0
 11
127.63151
 21
162.9544219999999
 31
0.0
 12
125.63151
 22
163.287755
 32
0.0
 13
125.63151
 23
163.287755
 33
0.0
  0
MTEXT
  5
28A
330
283
100
AcDbEntity
  8
0
  6
ByBlock
 62
     0
100
AcDbMText
 10
140.787689
 20
163.287755
 30
0.0
 40
4.0
 41
0.0
 71
     5
 72
     1
  1
\A1;25
 73
     1
 44
1.0
  0
POINT
  5
28B
330
283
100
AcDbEntity
  8
DEFPOINTS
  6
ByBlock
 62
     0
100
AcDbPoint
 10
150.526685
 20
152.4272639999999
 30
0.0
  0
POINT
  5
28C
330
283
100
AcDbEntity
  8
DEFPOINTS
  6
ByBlock
 62
     0
100
AcDbPoint
 10
125.63151
 20
164.2479999999999
 30
0.0
  0
POINT
  5
28D
330
283
100
AcDbEntity
  8
DEFPOINTS
  6
ByBlock
 62
     0
100
AcDbPoint
 10
125.63151
 20
163.287755
 30
0.0
  0
ENDBLK
  5
28F
330
283
100
AcDbEntity
  8
0
100
AcDbBlockEnd
  0
BLOCK
  5
29B
330
290
100
AcDbEntity
  8
0
100
AcDbBlockBegin
  2
*D2
 70
     1
 10
0.0
 20
0.0
 30
0.0
  3
*D2
  1

  0
LINE
  5
291
330
290
100
AcDbEntity
  8
0
  6
ByBlock
 62
     0
100
AcDbLine
 10
125.63151
 20
165.7479999999999
 30
0.0
 11
125.63151
 21
168.5344969999999
 31
0.0
  0
LINE
  5
292
330
290
100
AcDbEntity
  8
0
  6
ByBlock
 62
     0
100
AcDbLine
 10
135.1547419999999
 20
155.700508
 30
0.0
 11
135.1547419999999
 21
168.5344969999999
 31
0.0
  0
LINE
  5
293
330
290
100
AcDbEntity
  8
0
  6
ByBlock
 62
     0
100
AcDbLine
 10
127.63151
 20
167.5344969999999
 30
0.0
 11
133.1547419999999
 21
167.5344969999999
 31
0.0
  0
LINE
  5
294
330
290
100
AcDbEntity
  8
0
  6
ByBlock
 62
     0
100
AcDbLine
 10
135.1547419999999
 20
167.5344969999999
 30
0.0
 11
137.356774
 21
167.5344969999999
 31
0.0
  0
SOLID
  5
295
330
290
100
AcDbEntity
  8
0
  6
ByBlock
 62
     0
100
AcDbTrace
 10
127.63151
 20
167.867831
 30
0.0
 11
127.63151
 21
167.2011639999999
 31
0.0
 12
125.63151
 22
167.5344969999999
 32
0.0
 13
125.63151
 23
167.5344969999999
 33
0.0
  0
SOLID
  5
296
330
290
100
AcDbEntity
  8
0
  6
ByBlock
 62
     0
100
AcDbTrace
 10
133.1547419999999
 20
167.867831
 30
0.0
 11
133.1547419999999
 21
167.2011639999999
 31
0.0
 12
135.1547419999999
 22
167.5344969999999
 32
0.0
 13
135.1547419999999
 23
167.5344969999999
 33
0.0
  0
MTEXT
  5
297
330
290
100
AcDbEntity
  8
0
  6
ByBlock
 62
     0
100
AcDbMText
 10
143.981774
 20
167.5344969999999
 30
0.0
 40
4.0
 41
0.0
 71
     5
 72
     1
  1
\A1;9.52
 73
     1
 44
1.0
  0
POINT
  5
298
330
290
100
AcDbEntity
  8
DEFPOINTS
  6
ByBlock
 62
     0
100
AcDbPoint
 10
125.63151
 20
164.7479999999999
 30
0.0
  0
POINT
  5
299
330
290
100
AcDbEntity
  8
DEFPOINTS
  6
ByBlock
 62
     0
100
AcDbPoint
 10
135.1547419999999
 20
154.700508
 30
0.0
  0
POINT
  5
29A
330
290
100
AcDbEntity
  8
DEFPOINTS
  6
ByBlock
 62
     0
100
AcDbPoint
 10
135.1547419999999
 20
167.5344969999999
 30
0.0
  0
ENDBLK
  5
29C
330
290
100
AcDbEntity
  8
0
100
AcDbBlockEnd
  0
BLOCK
  5
2A8
330
29D
100
AcDbEntity
  8
0
100
AcDbBlockBegin
  2
*D3
 70
     1
 10
0.0
 20
0.0
 30
0.0
  3
*D3
  1

  0
LINE
  5
29E
330
29D
100
AcDbEntity
  8
0
  6
ByBlock
 62
     0
100
AcDbLine
 10
116.13151
 20
219.498
 30
0.0
 11
116.13151
 21
198.196012
 31
0.0
  0
LINE
  5
29F
330
29D
100
AcDbEntity
  8
0
  6
ByBlock
 62
     0
100
AcDbLine
 10
190.63151
 20
215.931731
 30
0.0
 11
190.63151
 21
198.196012
 31
0.0
  0
LINE
  5
2A0
330
29D
100
AcDbEntity
  8
0
  6
ByBlock
 62
     0
100
AcDbLine
 10
118.13151
 20
199.196012
 30
0.0
 11
145.9185129999999
 21
199.196012
 31
0.0
  0
LINE
  5
2A1
330
29D
100
AcDbEntity
  8
0
  6
ByBlock
 62
     0
100
AcDbLine
 10
188.63151
 20
199.196012
 30
0.0
 11
159.1685129999999
 21
199.196012
 31
0.0
  0
SOLID
  5
2A2
330
29D
100
AcDbEntity
  8
0
  6
ByBlock
 62
     0
100
AcDbTrace
 10
118.13151
 20
199.529346
 30
0.0
 11
118.13151
 21
198.8626789999999
 31
0.0
 12
116.13151
 22
199.196012
 32
0.0
 13
116.13151
 23
199.196012
 33
0.0
  0
SOLID
  5
2A3
330
29D
100
AcDbEntity
  8
0
  6
ByBlock
 62
     0
100
AcDbTrace
 10
188.63151
 20
199.529346
 30
0.0
 11
188.63151
 21
198.8626789999999
 31
0.0
 12
190.63151
 22
199.196012
 32
0.0
 13
190.63151
 23
199.196012
 33
0.0
  0
MTEXT
  5
2A4
330
29D
100
AcDbEntity
  8
0
  6
ByBlock
 62
     0
100
AcDbMText
 10
152.5435129999999
 20
199.196012
 30
0.0
 40
4.0
 41
0.0
 71
     5
 72
     1
  1
\A1;74.5
 73
     1
 44
1.0
  0
POINT
  5
2A5
330
29D
100
AcDbEntity
  8
DEFPOINTS
  6
ByBlock
 62
     0
100
AcDbPoint
 10
116.13151
 20
220.4979999999999
 30
0.0
  0
POINT
  5
2A6
330
29D
100
AcDbEntity
  8
DEFPOINTS
  6
ByBlock
 62
     0
100
AcDbPoint
 10
190.63151
 20
216.931731
 30
0.0
  0
POINT
  5
2A7
330
29D
100
AcDbEntity
  8
DEFPOINTS
  6
ByBlock
 62
     0
100
AcDbPoint
 10
190.63151
 20
199.196012
 30
0.0
  0
ENDBLK
  5
2A9
330
29D
100
AcDbEntity
  8
0
100
AcDbBlockEnd
  0
BLOCK
  5
2B5
330
2AA
100
AcDbEntity
  8
0
100
AcDbBlockBegin
  2
*D4
 70
     1
 10
0.0
 20
0.0
 30
0.0
  3
*D4
  1

  0
LINE
  5
2AB
330
2AA
100
AcDbEntity
  8
0
  6
ByBlock
 62
     0
100
AcDbLine
 10
136.1547419999999
 20
154.200508
 30
0.0
 11
170.872396
 21
154.200508
 31
0.0
  0
LINE
  5
2AC
330
2AA
100
AcDbEntity
  8
0
  6
ByBlock
 62
     0
100
AcDbLine
 10
117.63151
 20
132.7479999999999
 30
0.0
 11
170.872396
 21
132.7479999999999
 31
0.0
  0
LINE
  5
2AD
330
2AA
100
AcDbEntity
  8
0
  6
ByBlock
 62
     0
100
AcDbLine
 10
169.872396
 20
152.200508
 30
0.0
 11
169.872396
 21
151.575508
 31
0.0
  0
LINE
  5
2AE
330
2AA
100
AcDbEntity
  8
0
  6
ByBlock
 62
     0
100
AcDbLine
 10
169.872396
 20
134.748
 30
0.0
 11
169.872396
 21
135.658842
 31
0.0
  0
SOLID
  5
2AF
330
2AA
100
AcDbEntity
  8
0
  6
ByBlock
 62
     0
100
AcDbTrace
 10
169.5390619999999
 20
152.200508
 30
0.0
 11
170.2057289999999
 21
152.200508
 31
0.0
 12
169.872396
 22
154.200508
 32
0.0
 13
169.872396
 23
154.200508
 33
0.0
  0
SOLID
  5
2B0
330
2AA
100
AcDbEntity
  8
0
  6
ByBlock
 62
     0
100
AcDbTrace
 10
169.5390619999999
 20
134.748
 30
0.0
 11
170.2057289999999
 21
134.748
 31
0.0
 12
169.872396
 22
132.7479999999999
 32
0.0
 13
169.872396
 23
132.7479999999999
 33
0.0
  0
MTEXT
  5
2B1
330
2AA
100
AcDbEntity
  8
0
  6
ByBlock
 62
     0
100
AcDbMText
 10
169.872396
 20
143.6171749999999
 30
0.0
 40
4.0
 41
0.0
 71
     5
 72
     1
  1
\A1;21.45
 11
0.0
 21
1.0
 31
0.0
 73
     1
 44
1.0
  0
POINT
  5
2B2
330
2AA
100
AcDbEntity
  8
DEFPOINTS
  6
ByBlock
 62
     0
100
AcDbPoint
 10
135.1547419999999
 20
154.200508
 30
0.0
  0
POINT
  5
2B3
330
2AA
100
AcDbEntity
  8
DEFPOINTS
  6
ByBlock
 62
     0
100
AcDbPoint
 10
116.63151
 20
132.7479999999999
 30
0.0
  0
POINT
  5
2B4
330
2AA
100
AcDbEntity
  8
DEFPOINTS
  6
ByBlock
 62
     0
100
AcDbPoint
 10
169.872396
 20
132.7479999999999
 30
0.0
  0
ENDBLK
  5
2B6
330
2AA
100
AcDbEntity
  8
0
100
AcDbBlockEnd
  0
BLOCK
  5
2C2
330
2B7
100
AcDbEntity
  8
0
100
AcDbBlockBegin
  2
*D5
 70
     1
 10
0.0
 20
0.0
 30
0.0
  3
*D5
  1

  0
LINE
  5
2B8
330
2B7
100
AcDbEntity
  8
0
  6
ByBlock
 62
     0
100
AcDbLine
 10
184.097878
 20
158.3025349999999
 30
0.0
 11
206.1234719999999
 21
158.3025349999999
 31
0.0
  0
LINE
  5
2B9
330
2B7
100
AcDbEntity
  8
0
  6
ByBlock
 62
     0
100
AcDbLine
 10
117.63151
 20
132.7479999999999
 30
0.0
 11
206.1234719999999
 21
132.7479999999999
 31
0.0
  0
LINE
  5
2BA
330
2B7
100
AcDbEntity
  8
0
  6
ByBlock
 62
     0
100
AcDbLine
 10
205.123472
 20
156.302535
 30
0.0
 11
205.123472
 21
155.089161
 31
0.0
  0
LINE
  5
2BB
330
2B7
100
AcDbEntity
  8
0
  6
ByBlock
 62
     0
100
AcDbLine
 10
205.123472
 20
134.748
 30
0.0
 11
205.123472
 21
137.839161
 31
0.0
  0
SOLID
  5
2BC
330
2B7
100
AcDbEntity
  8
0
  6
ByBlock
 62
     0
100
AcDbTrace
 10
204.7901379999999
 20
156.302535
 30
0.0
 11
205.4568049999999
 21
156.302535
 31
0.0
 12
205.123472
 22
158.3025349999999
 32
0.0
 13
205.123472
 23
158.3025349999999
 33
0.0
  0
SOLID
  5
2BD
330
2B7
100
AcDbEntity
  8
0
  6
ByBlock
 62
     0
100
AcDbTrace
 10
204.7901379999999
 20
134.748
 30
0.0
 11
205.4568049999999
 21
134.748
 31
0.0
 12
205.123472
 22
132.7479999999999
 32
0.0
 13
205.123472
 23
132.7479999999999
 33
0.0
  0
MTEXT
  5
2BE
330
2B7
100
AcDbEntity
  8
0
  6
ByBlock
 62
     0
100
AcDbMText
 10
205.123472
 20
146.464161
 30
0.0
 40
4.0
 41
0.0
 71
     5
 72
     1
  1
\A1;25.56
 11
0.0
 21
1.0
 31
0.0
 73
     1
 44
1.0
  0
POINT
  5
2BF
330
2B7
100
AcDbEntity
  8
DEFPOINTS
  6
ByBlock
 62
     0
100
AcDbPoint
 10
183.097878
 20
158.3025349999999
 30
0.0
  0
POINT
  5
2C0
330
2B7
100
AcDbEntity
  8
DEFPOINTS
  6
ByBlock
 62
     0
100
AcDbPoint
 10
116.63151
 20
132.7479999999999
 30
0.0
  0
POINT
  5
2C1
330
2B7
100
AcDbEntity
  8
DEFPOINTS
  6
ByBlock
 62
     0
100
AcDbPoint
 10
205.123472
 20
132.7479999999999
 30
0.0
  0
ENDBLK
  5
2C3
330
2B7
100
AcDbEntity
  8
0
100
AcDbBlockEnd
  0
BLOCK
  5
2CF
330
2C4
100
AcDbEntity
  8
0
100
AcDbBlockBegin
  2
*D6
 70
     1
 10
0.0
 20
0.0
 30
0.0
  3
*D6
  1

  0
LINE
  5
2C5
330
2C4
100
AcDbEntity
  8
0
  6
ByBlock
 62
     0
100
AcDbLine
 10
125.63151
 20
165.2479999999999
 30
0.0
 11
125.63151
 21
180.8586569999999
 31
0.0
  0
LINE
  5
2C6
330
2C4
100
AcDbEntity
  8
0
  6
ByBlock
 62
     0
100
AcDbLine
 10
190.63151
 20
168.7479999999999
 30
0.0
 11
190.63151
 21
180.8586569999999
 31
0.0
  0
LINE
  5
2C7
330
2C4
100
AcDbEntity
  8
0
  6
ByBlock
 62
     0
100
AcDbLine
 10
127.63151
 20
179.8586569999999
 30
0.0
 11
153.5662279999999
 21
179.8586569999999
 31
0.0
  0
LINE
  5
2C8
330
2C4
100
AcDbEntity
  8
0
  6
ByBlock
 62
     0
100
AcDbLine
 10
188.63151
 20
179.8586569999999
 30
0.0
 11
161.4828939999999
 21
179.8586569999999
 31
0.0
  0
SOLID
  5
2C9
330
2C4
100
AcDbEntity
  8
0
  6
ByBlock
 62
     0
100
AcDbTrace
 10
127.63151
 20
180.19199
 30
0.0
 11
127.63151
 21
179.5253229999999
 31
0.0
 12
125.63151
 22
179.8586569999999
 32
0.0
 13
125.63151
 23
179.8586569999999
 33
0.0
  0
SOLID
  5
2CA
330
2C4
100
AcDbEntity
  8
0
  6
ByBlock
 62
     0
100
AcDbTrace
 10
188.63151
 20
180.19199
 30
0.0
 11
188.63151
 21
179.5253229999999
 31
0.0
 12
190.63151
 22
179.8586569999999
 32
0.0
 13
190.63151
 23
179.8586569999999
 33
0.0
  0
MTEXT
  5
2CB
330
2C4
100
AcDbEntity
  8
0
  6
ByBlock
 62
     0
100
AcDbMText
 10
157.524561
 20
179.8586569999999
 30
0.0
 40
4.0
 41
0.0
 71
     5
 72
     1
  1
\A1;65
 73
     1
 44
1.0
  0
POINT
  5
2CC
330
2C4
100
AcDbEntity
  8
DEFPOINTS
  6
ByBlock
 62
     0
100
AcDbPoint
 10
125.63151
 20
164.2479999999999
 30
0.0
  0
POINT
  5
2CD
330
2C4
100
AcDbEntity
  8
DEFPOINTS
  6
ByBlock
 62
     0
100
AcDbPoint
 10
190.63151
 20
167.7479999999999
 30
0.0
  0
POINT
  5
2CE
330
2C4
100
AcDbEntity
  8
DEFPOINTS
  6
ByBlock
 62
     0
100
AcDbPoint
 10
190.63151
 20
179.8586569999999
 30
0.0
  0
ENDBLK
  5
2D0
330
2C4
100
AcDbEntity
  8
0
100
AcDbBlockEnd
  0
BLOCK
  5
2DC
330
2D1
100
AcDbEntity
  8
0
100
AcDbBlockBegin
  2
*D7
 70
     1
 10
0.0
 20
0.0
 30
0.0
  3
*D7
  1

  0
LINE
  5
2D2
330
2D1
100
AcDbEntity
  8
0
  6
ByBlock
 62
     0
100
AcDbLine
 10
167.886253
 20
161.5710709999999
 30
0.0
 11
167.886253
 21
175.0941309999999
 31
0.0
  0
LINE
  5
2D3
330
2D1
100
AcDbEntity
  8
0
  6
ByBlock
 62
     0
100
AcDbLine
 10
125.63151
 20
165.7479999999999
 30
0.0
 11
125.63151
 21
175.0941309999999
 31
0.0
  0
LINE
  5
2D4
330
2D1
100
AcDbEntity
  8
0
  6
ByBlock
 62
     0
100
AcDbLine
 10
165.886253
 20
174.094131
 30
0.0
 11
155.195836
 21
174.094131
 31
0.0
  0
LINE
  5
2D5
330
2D1
100
AcDbEntity
  8
0
  6
ByBlock
 62
     0
100
AcDbLine
 10
127.63151
 20
174.094131
 30
0.0
 11
137.945836
 21
174.094131
 31
0.0
  0
SOLID
  5
2D6
330
2D1
100
AcDbEntity
  8
0
  6
ByBlock
 62
     0
100
AcDbTrace
 10
165.886253
 20
174.4274639999999
 30
0.0
 11
165.886253
 21
173.760797
 31
0.0
 12
167.886253
 22
174.094131
 32
0.0
 13
167.886253
 23
174.094131
 33
0.0
  0
SOLID
  5
2D7
330
2D1
100
AcDbEntity
  8
0
  6
ByBlock
 62
     0
100
AcDbTrace
 10
127.63151
 20
174.4274639999999
 30
0.0
 11
127.63151
 21
173.760797
 31
0.0
 12
125.63151
 22
174.094131
 32
0.0
 13
125.63151
 23
174.094131
 33
0.0
  0
MTEXT
  5
2D8
330
2D1
100
AcDbEntity
  8
0
  6
ByBlock
 62
     0
100
AcDbMText
 10
146.570836
 20
174.094131
 30
0.0
 40
4.0
 41
0.0
 71
     5
 72
     1
  1
\A1;42.26
 73
     1
 44
1.0
  0
POINT
  5
2D9
330
2D1
100
AcDbEntity
  8
DEFPOINTS
  6
ByBlock
 62
     0
100
AcDbPoint
 10
167.886253
 20
160.5710709999999
 30
0.0
  0
POINT
  5
2DA
330
2D1
100
AcDbEntity
  8
DEFPOINTS
  6
ByBlock
 62
     0
100
AcDbPoint
 10
125.63151
 20
164.7479999999999
 30
0.0
  0
POINT
  5
2DB
330
2D1
100
AcDbEntity
  8
DEFPOINTS
  6
ByBlock
 62
     0
100
AcDbPoint
 10
125.63151
 20
174.094131
 30
0.0
  0
ENDBLK
  5
2DD
330
2D1
100
AcDbEntity
  8
0
100
AcDbBlockEnd
  0
BLOCK
  5
2E9
330
2DE
100
AcDbEntity
  8
0
100
AcDbBlockBegin
  2
*D8
 70
     1
 10
0.0
 20
0.0
 30
0.0
  3
*D8
  1

  0
LINE
  5
2DF
330
2DE
100
AcDbEntity
  8
0
  6
ByBlock
 62
     0
100
AcDbLine
 10
117.58151
 20
148.2479999999999
 30
0.0
 11
100.5609879999999
 21
148.2479999999999
 31
0.0
  0
LINE
  5
2E0
330
2DE
100
AcDbEntity
  8
0
  6
ByBlock
 62
     0
100
AcDbLine
 10
115.63151
 20
132.7479999999999
 30
0.0
 11
100.5609879999999
 21
132.7479999999999
 31
0.0
  0
LINE
  5
2E1
330
2DE
100
AcDbEntity
  8
0
  6
ByBlock
 62
     0
100
AcDbLine
 10
101.5609879999999
 20
146.248
 30
0.0
 11
101.5609879999999
 21
145.6229999999999
 31
0.0
  0
LINE
  5
2E2
330
2DE
100
AcDbEntity
  8
0
  6
ByBlock
 62
     0
100
AcDbLine
 10
101.5609879999999
 20
134.748
 30
0.0
 11
101.5609879999999
 21
135.3729999999999
 31
0.0
  0
SOLID
  5
2E3
330
2DE
100
AcDbEntity
  8
0
  6
ByBlock
 62
     0
100
AcDbTrace
 10
101.227654
 20
146.248
 30
0.0
 11
101.8943209999999
 21
146.248
 31
0.0
 12
101.5609879999999
 22
148.2479999999999
 32
0.0
 13
101.5609879999999
 23
148.2479999999999
 33
0.0
  0
SOLID
  5
2E4
330
2DE
100
AcDbEntity
  8
0
  6
ByBlock
 62
     0
100
AcDbTrace
 10
101.227654
 20
134.748
 30
0.0
 11
101.8943209999999
 21
134.748
 31
0.0
 12
101.5609879999999
 22
132.7479999999999
 32
0.0
 13
101.5609879999999
 23
132.7479999999999
 33
0.0
  0
MTEXT
  5
2E5
330
2DE
100
AcDbEntity
  8
0
  6
ByBlock
 62
     0
100
AcDbMText
 10
101.5609879999999
 20
140.6996359999999
 30
0.0
 40
4.0
 41
0.0
 71
     5
 72
     1
  1
\A1;15.5
 11
0.0
 21
1.0
 31
0.0
 73
     1
 44
1.0
  0
POINT
  5
2E6
330
2DE
100
AcDbEntity
  8
DEFPOINTS
  6
ByBlock
 62
     0
100
AcDbPoint
 10
118.58151
 20
148.2479999999999
 30
0.0
  0
POINT
  5
2E7
330
2DE
100
AcDbEntity
  8
DEFPOINTS
  6
ByBlock
 62
     0
100
AcDbPoint
 10
116.63151
 20
132.7479999999999
 30
0.0
  0
POINT
  5
2E8
330
2DE
100
AcDbEntity
  8
DEFPOINTS
  6
ByBlock
 62
     0
100
AcDbPoint
 10
101.5609879999999
 20
132.7479999999999
 30
0.0
  0
ENDBLK
  5
2EA
330
2DE
100
AcDbEntity
  8
0
100
AcDbBlockEnd
  0
BLOCK
  5
2F6
330
2EB
100
AcDbEntity
  8
0
100
AcDbBlockBegin
  2
*D9
 70
     1
 10
0.0
 20
0.0
 30
0.0
  3
*D9
  1

  0
LINE
  5
2EC
330
2EB
100
AcDbEntity
  8
0
  6
ByBlock
 62
     0
100
AcDbLine
 10
119.13151
 20
145.7479999999999
 30
0.0
 11
107.5315389999999
 21
145.7479999999999
 31
0.0
  0
LINE
  5
2ED
330
2EB
100
AcDbEntity
  8
0
  6
ByBlock
 62
     0
100
AcDbLine
 10
115.63151
 20
132.7479999999999
 30
0.0
 11
107.5315389999999
 21
132.7479999999999
 31
0.0
  0
LINE
  5
2EE
330
2EB
100
AcDbEntity
  8
0
  6
ByBlock
 62
     0
100
AcDbLine
 10
108.5315389999999
 20
143.7479999999999
 30
0.0
 11
108.5315389999999
 21
142.798642
 31
0.0
  0
LINE
  5
2EF
330
2EB
100
AcDbEntity
  8
0
  6
ByBlock
 62
     0
100
AcDbLine
 10
108.5315389999999
 20
134.748
 30
0.0
 11
108.5315389999999
 21
136.215308
 31
0.0
  0
SOLID
  5
2F0
330
2EB
100
AcDbEntity
  8
0
  6
ByBlock
 62
     0
100
AcDbTrace
 10
108.198206
 20
143.7479999999999
 30
0.0
 11
108.8648719999999
 21
143.7479999999999
 31
0.0
 12
108.5315389999999
 22
145.7479999999999
 32
0.0
 13
108.5315389999999
 23
145.7479999999999
 33
0.0
  0
SOLID
  5
2F1
330
2EB
100
AcDbEntity
  8
0
  6
ByBlock
 62
     0
100
AcDbTrace
 10
108.198206
 20
134.748
 30
0.0
 11
108.8648719999999
 21
134.748
 31
0.0
 12
108.5315389999999
 22
132.7479999999999
 32
0.0
 13
108.5315389999999
 23
132.7479999999999
 33
0.0
  0
MTEXT
  5
2F2
330
2EB
100
AcDbEntity
  8
0
  6
ByBlock
 62
     0
100
AcDbMText
 10
108.5315389999999
 20
139.506975
 30
0.0
 40
4.0
 41
0.0
 71
     5
 72
     1
  1
\A1;13
 11
0.0
 21
1.0
 31
0.0
 73
     1
 44
1.0
  0
POINT
  5
2F3
330
2EB
100
AcDbEntity
  8
DEFPOINTS
  6
ByBlock
 62
     0
100
AcDbPoint
 10
120.13151
 20
145.7479999999999
 30
0.0
  0
POINT
  5
2F4
330
2EB
100
AcDbEntity
  8
DEFPOINTS
  6
ByBlock
 62
     0
100
AcDbPoint
 10
116.63151
 20
132.7479999999999
 30
0.0
  0
POINT
  5
2F5
330
2EB
100
AcDbEntity
  8
DEFPOINTS
  6
ByBlock
 62
     0
100
AcDbPoint
 10
108.5315389999999
 20
132.7479999999999
 30
0.0
  0
ENDBLK
  5
2F7
330
2EB
100
AcDbEntity
  8
0
100
AcDbBlockEnd
  0
BLOCK
  5
303
330
2F8
100
AcDbEntity
  8
0
100
AcDbBlockBegin
  2
*D10
 70
     1
 10
0.0
 20
0.0
 30
0.0
  3
*D10
  1

  0
LINE
  5
2F9
330
2F8
100
AcDbEntity
  8
0
  6
ByBlock
 62
     0
100
AcDbLine
 10
116.63151
 20
131.7479999999999
 30
0.0
 11
116.63151
 21
118.828076
 31
0.0
  0
LINE
  5
2FA
330
2F8
100
AcDbEntity
  8
0
  6
ByBlock
 62
     0
100
AcDbLine
 10
134.538058
 20
131.27454
 30
0.0
 11
134.538058
 21
118.828076
 31
0.0
  0
LINE
  5
2FB
330
2F8
100
AcDbEntity
  8
0
  6
ByBlock
 62
     0
100
AcDbLine
 10
118.63151
 20
119.828076
 30
0.0
 11
122.168356
 21
119.828076
 31
0.0
  0
LINE
  5
2FC
330
2F8
100
AcDbEntity
  8
0
  6
ByBlock
 62
     0
100
AcDbLine
 10
132.538058
 20
119.828076
 30
0.0
 11
128.751689
 21
119.828076
 31
0.0
  0
SOLID
  5
2FD
330
2F8
100
AcDbEntity
  8
0
  6
ByBlock
 62
     0
100
AcDbTrace
 10
118.63151
 20
120.161409
 30
0.0
 11
118.63151
 21
119.4947419999999
 31
0.0
 12
116.63151
 22
119.828076
 32
0.0
 13
116.63151
 23
119.828076
 33
0.0
  0
SOLID
  5
2FE
330
2F8
100
AcDbEntity
  8
0
  6
ByBlock
 62
     0
100
AcDbTrace
 10
132.538058
 20
120.161409
 30
0.0
 11
132.538058
 21
119.4947419999999
 31
0.0
 12
134.538058
 22
119.828076
 32
0.0
 13
134.538058
 23
119.828076
 33
0.0
  0
MTEXT
  5
2FF
330
2F8
100
AcDbEntity
  8
0
  6
ByBlock
 62
     0
100
AcDbMText
 10
125.4600229999999
 20
119.828076
 30
0.0
 40
4.0
 41
0.0
 71
     5
 72
     1
  1
\A1;18
 73
     1
 44
1.0
  0
POINT
  5
300
330
2F8
100
AcDbEntity
  8
DEFPOINTS
  6
ByBlock
 62
     0
100
AcDbPoint
 10
116.63151
 20
132.7479999999999
 30
0.0
  0
POINT
  5
301
330
2F8
100
AcDbEntity
  8
DEFPOINTS
  6
ByBlock
 62
     0
100
AcDbPoint
 10
134.538058
 20
132.27454
 30
0.0
  0
POINT
  5
302
330
2F8
100
AcDbEntity
  8
DEFPOINTS
  6
ByBlock
 62
     0
100
AcDbPoint
 10
134.538058
 20
119.828076
 30
0.0
  0
ENDBLK
  5
304
330
2F8
100
AcDbEntity
  8
0
100
AcDbBlockEnd
  0
BLOCK
  5
310
330
305
100
AcDbEntity
  8
0
100
AcDbBlockBegin
  2
*D11
 70
     1
 10
0.0
 20
0.0
 30
0.0
  3
*D11
  1

  0
LINE
  5
306
330
305
100
AcDbEntity
  8
0
  6
ByBlock
 62
     0
100
AcDbLine
 10
118.58151
 20
132.12753
 30
0.0
 11
118.58151
 21
124.5926019999999
 31
0.0
  0
LINE
  5
307
330
305
100
AcDbEntity
  8
0
  6
ByBlock
 62
     0
100
AcDbLine
 10
132.626146
 20
131.2479999999999
 30
0.0
 11
132.626146
 21
124.5926019999999
 31
0.0
  0
LINE
  5
308
330
305
100
AcDbEntity
  8
0
  6
ByBlock
 62
     0
100
AcDbLine
 10
120.58151
 20
125.5926019999999
 30
0.0
 11
121.20651
 21
125.5926019999999
 31
0.0
  0
LINE
  5
309
330
305
100
AcDbEntity
  8
0
  6
ByBlock
 62
     0
100
AcDbLine
 10
130.6261459999999
 20
125.5926019999999
 30
0.0
 11
130.001146
 21
125.5926019999999
 31
0.0
  0
SOLID
  5
30A
330
305
100
AcDbEntity
  8
0
  6
ByBlock
 62
     0
100
AcDbTrace
 10
120.58151
 20
125.925935
 30
0.0
 11
120.58151
 21
125.259268
 31
0.0
 12
118.58151
 22
125.5926019999999
 32
0.0
 13
118.58151
 23
125.5926019999999
 33
0.0
  0
SOLID
  5
30B
330
305
100
AcDbEntity
  8
0
  6
ByBlock
 62
     0
100
AcDbTrace
 10
130.6261459999999
 20
125.925935
 30
0.0
 11
130.6261459999999
 21
125.259268
 31
0.0
 12
132.626146
 22
125.5926019999999
 32
0.0
 13
132.626146
 23
125.5926019999999
 33
0.0
  0
MTEXT
  5
30C
330
305
100
AcDbEntity
  8
0
  6
ByBlock
 62
     0
100
AcDbMText
 10
125.603828
 20
125.5926019999999
 30
0.0
 40
4.0
 41
0.0
 71
     5
 72
     1
  1
\A1;14.1
 73
     1
 44
1.0
  0
POINT
  5
30D
330
305
100
AcDbEntity
  8
DEFPOINTS
  6
ByBlock
 62
     0
100
AcDbPoint
 10
118.58151
 20
133.12753
 30
0.0
  0
POINT
  5
30E
330
305
100
AcDbEntity
  8
DEFPOINTS
  6
ByBlock
 62
     0
100
AcDbPoint
 10
132.626146
 20
132.2479999999999
 30
0.0
  0
POINT
  5
30F
330
305
100
AcDbEntity
  8
DEFPOINTS
  6
ByBlock
 62
     0
100
AcDbPoint
 10
132.626146
 20
125.5926019999999
 30
0.0
  0
ENDBLK
  5
311
330
305
100
AcDbEntity
  8
0
100
AcDbBlockEnd
  0
BLOCK
  5
319
330
312
100
AcDbEntity
  8
0
100
AcDbBlockBegin
  2
*D12
 70
     1
 10
0.0
 20
0.0
 30
0.0
  3
*D12
  1

  0
LINE
  5
313
330
312
100
AcDbEntity
  8
0
  6
ByBlock
 62
     0
100
AcDbLine
 10
172.725781
 20
123.090029
 30
0.0
 11
174.725781
 21
123.090029
 31
0.0
  0
LINE
  5
314
330
312
100
AcDbEntity
  8
0
  6
ByBlock
 62
     0
100
AcDbLine
 10
174.725781
 20
123.090029
 30
0.0
 11
183.0601889999999
 21
158.309937
 31
0.0
  0
MTEXT
  5
315
330
312
100
AcDbEntity
  8
0
  6
ByBlock
 62
     0
100
AcDbMText
 10
166.434115
 20
123.090029
 30
0.0
 40
4.0
 41
0.0
 71
     5
 72
     1
  1
\A1;R0.5
 73
     1
 44
1.0
  0
SOLID
  5
316
330
312
100
AcDbEntity
  8
0
  6
ByBlock
 62
     0
100
AcDbTrace
 10
182.275255
 20
156.440448
 30
0.0
 11
182.9240049999999
 21
156.286929
 31
0.0
 12
183.0601889999999
 22
158.309937
 32
0.0
 13
183.0601889999999
 23
158.309937
 33
0.0
  0
POINT
  5
317
330
312
100
AcDbEntity
  8
DEFPOINTS
  6
ByBlock
 62
     0
100
AcDbPoint
 10
183.0601889999999
 20
158.309937
 30
0.0
  0
POINT
  5
318
330
312
100
AcDbEntity
  8
DEFPOINTS
  6
ByBlock
 62
     0
100
AcDbPoint
 10
183.1753289999999
 20
158.7965
 30
0.0
  0
ENDBLK
  5
31A
330
312
100
AcDbEntity
  8
0
100
AcDbBlockEnd
  0
BLOCK
  5
322
330
31B
100
AcDbEntity
  8
0
100
AcDbBlockBegin
  2
*D13
 70
     1
 10
0.0
 20
0.0
 30
0.0
  3
*D13
  1

  0
LINE
  5
31C
330
31B
100
AcDbEntity
  8
0
  6
ByBlock
 62
     0
100
AcDbLine
 10
172.652937
 20
128.2391159999999
 30
0.0
 11
174.652937
 21
128.2391159999999
 31
0.0
  0
LINE
  5
31D
330
31B
100
AcDbEntity
  8
0
  6
ByBlock
 62
     0
100
AcDbLine
 10
174.652937
 20
128.2391159999999
 30
0.0
 11
182.127677
 21
160.013674
 31
0.0
  0
MTEXT
  5
31E
330
31B
100
AcDbEntity
  8
0
  6
ByBlock
 62
     0
100
AcDbMText
 10
166.3612699999999
 20
128.2391159999999
 30
0.0
 40
4.0
 41
0.0
 71
     5
 72
     1
  1
\A1;R0.5
 73
     1
 44
1.0
  0
SOLID
  5
31F
330
31B
100
AcDbEntity
  8
0
  6
ByBlock
 62
     0
100
AcDbTrace
 10
181.3452169999999
 20
158.143148
 30
0.0
 11
181.994169
 21
157.990487
 31
0.0
 12
182.127677
 22
160.013674
 32
0.0
 13
182.127677
 23
160.013674
 33
0.0
  0
POINT
  5
320
330
31B
100
AcDbEntity
  8
DEFPOINTS
  6
ByBlock
 62
     0
100
AcDbPoint
 10
182.127677
 20
160.013674
 30
0.0
  0
POINT
  5
321
330
31B
100
AcDbEntity
  8
DEFPOINTS
  6
ByBlock
 62
     0
100
AcDbPoint
 10
182.013181
 20
159.5269599999999
 30
0.0
  0
ENDBLK
  5
323
330
31B
100
AcDbEntity
  8
0
100
AcDbBlockEnd
  0
BLOCK
  5
32B
330
324
100
AcDbEntity
  8
0
100
AcDbBlockBegin
  2
*D14
 70
     1
 10
0.0
 20
0.0
 30
0.0
  3
*D14
  1

  0
LINE
  5
325
330
324
100
AcDbEntity
  8
0
  6
ByBlock
 62
     0
100
AcDbLine
 10
204.3809079999999
 20
181.261492
 30
0.0
 11
202.3809079999999
 21
181.261492
 31
0.0
  0
LINE
  5
326
330
324
100
AcDbEntity
  8
0
  6
ByBlock
 62
     0
100
AcDbLine
 10
202.3809079999999
 20
181.261492
 30
0.0
 11
190.0781429999999
 21
168.7649889999999
 31
0.0
  0
MTEXT
  5
327
330
324
100
AcDbEntity
  8
0
  6
ByBlock
 62
     0
100
AcDbMText
 10
208.339241
 20
181.261492
 30
0.0
 40
4.0
 41
0.0
 71
     5
 72
     1
  1
\A1;R2
 73
     1
 44
1.0
  0
SOLID
  5
328
330
324
100
AcDbEntity
  8
0
  6
ByBlock
 62
     0
100
AcDbTrace
 10
191.2437289999999
 20
170.424061
 30
0.0
 11
191.718802
 21
169.956353
 31
0.0
 12
190.0781429999999
 22
168.7649889999999
 32
0.0
 13
190.0781429999999
 23
168.7649889999999
 33
0.0
  0
POINT
  5
329
330
324
100
AcDbEntity
  8
DEFPOINTS
  6
ByBlock
 62
     0
100
AcDbPoint
 10
190.0781429999999
 20
168.7649889999999
 30
0.0
  0
POINT
  5
32A
330
324
100
AcDbEntity
  8
DEFPOINTS
  6
ByBlock
 62
     0
100
AcDbPoint
 10
188.6807479999999
 20
167.3455889999999
 30
0.0
  0
ENDBLK
  5
32C
330
324
100
AcDbEntity
  8
0
100
AcDbBlockEnd
  0
BLOCK
  5
334
330
32D
100
AcDbEntity
  8
0
100
AcDbBlockBegin
  2
*D15
 70
     1
 10
0.0
 20
0.0
 30
0.0
  3
*D15
  1

  0
LINE
  5
32E
330
32D
100
AcDbEntity
  8
0
  6
ByBlock
 62
     0
100
AcDbLine
 10
178.252024
 20
174.802159
 30
0.0
 11
180.2520239999999
 21
174.802159
 31
0.0
  0
LINE
  5
32F
330
32D
100
AcDbEntity
  8
0
  6
ByBlock
 62
     0
100
AcDbLine
 10
180.2520239999999
 20
174.802159
 30
0.0
 11
189.949437
 21
160.7479919999999
 31
0.0
  0
MTEXT
  5
330
330
32D
100
AcDbEntity
  8
0
  6
ByBlock
 62
     0
100
AcDbMText
 10
174.960358
 20
174.802159
 30
0.0
 40
4.0
 41
0.0
 71
     5
 72
     1
  1
\A1;R1
 73
     1
 44
1.0
  0
SOLID
  5
331
330
32D
100
AcDbEntity
  8
0
  6
ByBlock
 62
     0
100
AcDbTrace
 10
189.087943
 20
162.583459
 30
0.0
 11
188.5392239999999
 21
162.2048409999999
 31
0.0
 12
189.949437
 22
160.7479919999999
 32
0.0
 13
189.949437
 23
160.7479919999999
 33
0.0
  0
POINT
  5
332
330
32D
100
AcDbEntity
  8
DEFPOINTS
  6
ByBlock
 62
     0
100
AcDbPoint
 10
189.949437
 20
160.7479919999999
 30
0.0
  0
POINT
  5
333
330
32D
100
AcDbEntity
  8
DEFPOINTS
  6
ByBlock
 62
     0
100
AcDbPoint
 10
189.38151
 20
161.5710709999999
 30
0.0
  0
ENDBLK
  5
335
330
32D
100
AcDbEntity
  8
0
100
AcDbBlockEnd
  0
BLOCK
  5
341
330
336
100
AcDbEntity
  8
0
100
AcDbBlockBegin
  2
*D16
 70
     1
 10
0.0
 20
0.0
 30
0.0
  3
*D16
  1

  0
LINE
  5
337
330
336
100
AcDbEntity
  8
0
  6
ByBlock
 62
     0
100
AcDbLine
 10
144.0738
 20
159.5897319999999
 30
0.0
 11
166.0
 21
159.5897319999999
 31
0.0
  0
LINE
  5
338
330
336
100
AcDbEntity
  8
0
  6
ByBlock
 62
     0
100
AcDbLine
 10
71.13150999999999
 20
132.7479999999999
 30
0.0
 11
166.0
 21
132.7479999999999
 31
0.0
  0
LINE
  5
339
330
336
100
AcDbEntity
  8
0
  6
ByBlock
 62
     0
100
AcDbLine
 10
165.0
 20
157.5897319999999
 30
0.0
 11
165.0
 21
151.1249999999999
 31
0.0
  0
LINE
  5
33A
330
336
100
AcDbEntity
  8
0
  6
ByBlock
 62
     0
100
AcDbLine
 10
165.0
 20
134.748
 30
0.0
 11
165.0
 21
135.3729999999999
 31
0.0
  0
SOLID
  5
33B
330
336
100
AcDbEntity
  8
0
  6
ByBlock
 62
     0
100
AcDbTrace
 10
164.6666669999999
 20
157.5897319999999
 30
0.0
 11
165.333333
 21
157.5897319999999
 31
0.0
 12
165.0
 22
159.5897319999999
 32
0.0
 13
165.0
 23
159.5897319999999
 33
0.0
  0
SOLID
  5
33C
330
336
100
AcDbEntity
  8
0
  6
ByBlock
 62
     0
100
AcDbTrace
 10
164.6666669999999
 20
134.748
 30
0.0
 11
165.333333
 21
134.748
 31
0.0
 12
165.0
 22
132.7479999999999
 32
0.0
 13
165.0
 23
132.7479999999999
 33
0.0
  0
MTEXT
  5
33D
330
336
100
AcDbEntity
  8
0
  6
ByBlock
 62
     0
100
AcDbMText
 10
165.0
 20
142.5
 30
0.0
 40
4.0
 41
0.0
 71
     5
 72
     1
  1
\A1;26.84
 11
0.0
 21
1.0
 31
0.0
 73
     1
 44
1.0
  0
POINT
  5
33E
330
336
100
AcDbEntity
  8
DEFPOINTS
  6
ByBlock
 62
     0
100
AcDbPoint
 10
143.0738
 20
159.5897319999999
 30
4.370055999999999
  0
POINT
  5
33F
330
336
100
AcDbEntity
  8
DEFPOINTS
  6
ByBlock
 62
     0
100
AcDbPoint
 10
70.13150999999999
 20
132.7479999999999
 30
4.370055999999999
  0
POINT
  5
340
330
336
100
AcDbEntity
  8
DEFPOINTS
  6
ByBlock
 62
     0
100
AcDbPoint
 10
165.0
 20
132.7479999999999
 30
0.0
  0
ENDBLK
  5
342
330
336
100
AcDbEntity
  8
0
100
AcDbBlockEnd
  0
BLOCK
  5
34A
330
343
100
AcDbEntity
  8
0
100
AcDbBlockBegin
  2
*D17
 70
     1
 10
0.0
 20
0.0
 30
0.0
  3
*D17
  1

  0
LINE
  5
344
330
343
100
AcDbEntity
  8
0
  6
ByBlock
 62
     0
100
AcDbLine
 10
147.758459
 20
152.5
 30
0.0
 11
145.758459
 21
152.5
 31
0.0
  0
LINE
  5
345
330
343
100
AcDbEntity
  8
0
  6
ByBlock
 62
     0
100
AcDbLine
 10
145.758459
 20
152.5
 30
0.0
 11
143.2172699999999
 21
159.629123
 31
0.0
  0
MTEXT
  5
346
330
343
100
AcDbEntity
  8
0
  6
ByBlock
 62
     0
100
AcDbMText
 10
151.050126
 20
152.5
 30
0.0
 40
4.0
 41
0.0
 71
     5
 72
     1
  1
\A1;R1
 73
     1
 44
1.0
  0
SOLID
  5
347
330
343
100
AcDbEntity
  8
0
  6
ByBlock
 62
     0
100
AcDbTrace
 10
144.2027699999999
 20
157.8571469999999
 30
0.0
 11
143.5748049999999
 21
157.633307
 31
0.0
 12
143.2172699999999
 22
159.629123
 32
0.0
 13
143.2172699999999
 23
159.629123
 33
0.0
  0
POINT
  5
348
330
343
100
AcDbEntity
  8
DEFPOINTS
  6
ByBlock
 62
     0
100
AcDbPoint
 10
143.2172699999999
 20
159.629123
 30
4.370055999999999
  0
POINT
  5
349
330
343
100
AcDbEntity
  8
DEFPOINTS
  6
ByBlock
 62
     0
100
AcDbPoint
 10
142.88151
 20
160.5710709999999
 30
4.370055999999999
  0
ENDBLK
  5
34B
330
343
100
AcDbEntity
  8
0
100
AcDbBlockEnd
  0
BLOCK
  5
358
330
34C
100
AcDbEntity
  8
0
100
AcDbBlockBegin
  2
*D18
 70
     1
 10
0.0
 20
0.0
 30
0.0
  3
*D18
  1

  0
LINE
  5
34D
330
34C
100
AcDbEntity
  8
0
  6
ByBlock
 62
     0
100
AcDbLine
 10
89.217366
 20
136.268066
 30
0.0
 11
99.12500000000001
 21
136.268066
 31
0.0
  0
LINE
  5
34E
330
34C
100
AcDbEntity
  8
0
  6
ByBlock
 62
     0
100
AcDbLine
 10
71.13150999999999
 20
132.7479999999999
 30
0.0
 11
99.12500000000001
 21
132.7479999999999
 31
0.0
  0
LINE
  5
34F
330
34C
100
AcDbEntity
  8
0
  6
ByBlock
 62
     0
100
AcDbLine
 10
98.125
 20
138.268066
 30
0.0
 11
98.125
 21
140.268066
 31
0.0
  0
LINE
  5
350
330
34C
100
AcDbEntity
  8
0
  6
ByBlock
 62
     0
100
AcDbLine
 10
98.125
 20
130.7479999999999
 30
0.0
 11
98.125
 21
114.0
 31
0.0
  0
LINE
  5
351
330
34C
100
AcDbEntity
  8
0
  6
ByBlock
 62
     0
100
AcDbLine
 10
98.125
 20
114.0
 30
0.0
 11
96.125
 21
114.0
 31
0.0
  0
SOLID
  5
352
330
34C
100
AcDbEntity
  8
0
  6
ByBlock
 62
     0
100
AcDbTrace
 10
97.79166700000001
 20
138.268066
 30
0.0
 11
98.458333
 21
138.268066
 31
0.0
 12
98.125
 22
136.268066
 32
0.0
 13
98.125
 23
136.268066
 33
0.0
  0
SOLID
  5
353
330
34C
100
AcDbEntity
  8
0
  6
ByBlock
 62
     0
100
AcDbTrace
 10
97.79166700000001
 20
130.7479999999999
 30
0.0
 11
98.458333
 21
130.7479999999999
 31
0.0
 12
98.125
 22
132.7479999999999
 32
0.0
 13
98.125
 23
132.7479999999999
 33
0.0
  0
MTEXT
  5
354
330
34C
100
AcDbEntity
  8
0
  6
ByBlock
 62
     0
100
AcDbMText
 10
89.50000000000001
 20
114.0
 30
0.0
 40
4.0
 41
0.0
 71
     5
 72
     1
  1
\A1;3.52
 73
     1
 44
1.0
  0
POINT
  5
355
330
34C
100
AcDbEntity
  8
DEFPOINTS
  6
ByBlock
 62
     0
100
AcDbPoint
 10
88.21736599999999
 20
136.268066
 30
4.370055999999999
  0
POINT
  5
356
330
34C
100
AcDbEntity
  8
DEFPOINTS
  6
ByBlock
 62
     0
100
AcDbPoint
 10
70.13150999999999
 20
132.7479999999999
 30
4.370055999999999
  0
POINT
  5
357
330
34C
100
AcDbEntity
  8
DEFPOINTS
  6
ByBlock
 62
     0
100
AcDbPoint
 10
98.125
 20
132.7479999999999
 30
0.0
  0
ENDBLK
  5
359
330
34C
100
AcDbEntity
  8
0
100
AcDbBlockEnd
  0
BLOCK
  5
361
330
35A
100
AcDbEntity
  8
0
100
AcDbBlockBegin
  2
*D19
 70
     1
 10
0.0
 20
0.0
 30
0.0
  3
*D19
  1

  0
LINE
  5
35B
330
35A
100
AcDbEntity
  8
0
  6
ByBlock
 62
     0
100
AcDbLine
 10
109.257979
 20
110.0
 30
0.0
 11
107.257979
 21
110.0
 31
0.0
  0
LINE
  5
35C
330
35A
100
AcDbEntity
  8
0
  6
ByBlock
 62
     0
100
AcDbLine
 10
107.257979
 20
110.0
 30
0.0
 11
95.159464
 21
152.286572
 31
0.0
  0
MTEXT
  5
35D
330
35A
100
AcDbEntity
  8
0
  6
ByBlock
 62
     0
100
AcDbMText
 10
118.8829789999999
 20
110.0
 30
0.0
 40
4.0
 41
0.0
 71
     5
 72
     1
  1
\A1;R17.07
 73
     1
 44
1.0
  0
SOLID
  5
35E
330
35A
100
AcDbEntity
  8
0
  6
ByBlock
 62
     0
100
AcDbTrace
 10
96.03008
 20
150.4554139999999
 30
0.0
 11
95.389131
 21
150.272033
 31
0.0
 12
95.159464
 22
152.286572
 32
0.0
 13
95.159464
 23
152.286572
 33
0.0
  0
POINT
  5
35F
330
35A
100
AcDbEntity
  8
DEFPOINTS
  6
ByBlock
 62
     0
100
AcDbPoint
 10
95.159464
 20
152.286572
 30
4.370055999999999
  0
POINT
  5
360
330
35A
100
AcDbEntity
  8
DEFPOINTS
  6
ByBlock
 62
     0
100
AcDbPoint
 10
99.85456500000001
 20
135.8763149999999
 30
4.370055999999999
  0
ENDBLK
  5
362
330
35A
100
AcDbEntity
  8
0
100
AcDbBlockEnd
  0
BLOCK
  5
36F
330
363
100
AcDbEntity
  8
0
100
AcDbBlockBegin
  2
*D20
 70
     1
 10
0.0
 20
0.0
 30
0.0
  3
*D20
  1

  0
LINE
  5
364
330
363
100
AcDbEntity
  8
0
  6
ByBlock
 62
     0
100
AcDbLine
 10
87.18151
 20
148.11192
 30
0.0
 11
101.9583329999999
 21
148.11192
 31
0.0
  0
LINE
  5
365
330
363
100
AcDbEntity
  8
0
  6
ByBlock
 62
     0
100
AcDbLine
 10
71.13150999999999
 20
132.7479999999999
 30
0.0
 11
101.9583329999999
 21
132.7479999999999
 31
0.0
  0
LINE
  5
366
330
363
100
AcDbEntity
  8
0
  6
ByBlock
 62
     0
100
AcDbLine
 10
100.9583329999999
 20
146.1119199999999
 30
0.0
 11
100.9583329999999
 21
134.748
 31
0.0
  0
LINE
  5
367
330
363
100
AcDbEntity
  8
0
  6
ByBlock
 62
     0
100
AcDbLine
 10
100.9583329999999
 20
132.7479999999999
 30
0.0
 11
100.9583329999999
 21
108.0
 31
0.0
  0
LINE
  5
368
330
363
100
AcDbEntity
  8
0
  6
ByBlock
 62
     0
100
AcDbLine
 10
100.9583329999999
 20
108.0
 30
0.0
 11
98.95833299999999
 21
108.0
 31
0.0
  0
SOLID
  5
369
330
363
100
AcDbEntity
  8
0
  6
ByBlock
 62
     0
100
AcDbTrace
 10
100.625
 20
146.1119199999999
 30
0.0
 11
101.291667
 21
146.1119199999999
 31
0.0
 12
100.9583329999999
 22
148.11192
 32
0.0
 13
100.9583329999999
 23
148.11192
 33
0.0
  0
SOLID
  5
36A
330
363
100
AcDbEntity
  8
0
  6
ByBlock
 62
     0
100
AcDbTrace
 10
100.625
 20
134.748
 30
0.0
 11
101.291667
 21
134.748
 31
0.0
 12
100.9583329999999
 22
132.7479999999999
 32
0.0
 13
100.9583329999999
 23
132.7479999999999
 33
0.0
  0
MTEXT
  5
36B
330
363
100
AcDbEntity
  8
0
  6
ByBlock
 62
     0
100
AcDbMText
 10
91.0
 20
108.0
 30
0.0
 40
4.0
 41
0.0
 71
     5
 72
     1
  1
\A1;15.36
 73
     1
 44
1.0
  0
POINT
  5
36C
330
363
100
AcDbEntity
  8
DEFPOINTS
  6
ByBlock
 62
     0
100
AcDbPoint
 10
86.18151000000001
 20
148.11192
 30
4.370055999999999
  0
POINT
  5
36D
330
363
100
AcDbEntity
  8
DEFPOINTS
  6
ByBlock
 62
     0
100
AcDbPoint
 10
70.13150999999999
 20
132.7479999999999
 30
4.370055999999999
  0
POINT
  5
36E
330
363
100
AcDbEntity
  8
DEFPOINTS
  6
ByBlock
 62
     0
100
AcDbPoint
 10
100.9583329999999
 20
132.7479999999999
 30
0.0
  0
ENDBLK
  5
370
330
363
100
AcDbEntity
  8
0
100
AcDbBlockEnd
  0
BLOCK
  5
3CB
330
373
100
AcDbEntity
  8
0
100
AcDbBlockBegin
  2
A$C2290175C
 70
     0
 10
0.0
 20
0.0
 30
0.0
  3
A$C2290175C
  1

  0
DIMENSION
  5
374
330
373
100
AcDbEntity
  8
0
100
AcDbDimension
  2
*D20
 10
47.214163
 20
26.748
 30
8.375621
 11
37.25582999999999
 21
2.0
 31
8.375621
 12
-53.74417
 22
-106.0
 32
8.375621
 70
   128
 71
     5
 42
-1.0
  3
STANDARD
100
AcDbAlignedDimension
 13
32.43733999999999
 23
42.111919
 33
12.745677
 14
16.38733999999999
 24
26.748
 34
12.745677
 50
90.0
100
AcDbRotatedDimension
1001
ACAD
1000
DSTYLE
1002
{
1070
   140
1040
4.0
1070
    77
1070
     0
1070
    40
1040
1.0
1070
   141
1040
0.0
1070
    41
1040
2.0
1002
}
  0
DIMENSION
  5
375
330
373
100
AcDbEntity
  8
0
100
AcDbDimension
  2
*D19
 10
46.110395
 20
29.876314
 30
12.745677
 11
65.138809
 21
4.0
 31
8.375621
 12
-53.74417
 22
-106.0
 32
8.375621
 70
   132
 71
     5
 42
-1.0
  3
STANDARD
100
AcDbRadialDimension
 15
41.415294
 25
46.286571
 35
12.745677
 40
0.0
1001
ACAD
1000
DSTYLE
1002
{
1070
   140
1040
4.0
1070
    77
1070
     0
1070
    40
1040
1.0
1070
   287
1070
     4
1070
   141
1040
0.0
1070
    41
1040
2.0
1002
}
  0
DIMENSION
  5
376
330
373
100
AcDbEntity
  8
0
100
AcDbDimension
  2
*D18
 10
44.38082999999999
 20
26.748
 30
8.375621
 11
35.75582999999999
 21
8.0
 31
8.375621
 12
-53.74417
 22
-106.0
 32
8.375621
 70
   128
 71
     5
 42
-1.0
  3
STANDARD
100
AcDbAlignedDimension
 13
34.473195
 23
30.268066
 33
12.745677
 14
16.38733999999999
 24
26.748
 34
12.745677
 50
90.0
100
AcDbRotatedDimension
1001
ACAD
1000
DSTYLE
1002
{
1070
   140
1040
4.0
1070
    77
1070
     0
1070
    40
1040
1.0
1070
   141
1040
0.0
1070
    41
1040
2.0
1002
}
  0
DIMENSION
  5
377
330
373
100
AcDbEntity
  8
0
100
AcDbDimension
  2
*D16
 10
111.25583
 20
26.748
 30
8.375621
 11
111.25583
 21
36.5
 31
8.375621
 12
-53.74417
 22
-106.0
 32
8.375621
 70
   128
 71
     5
 42
-1.0
  3
STANDARD
100
AcDbAlignedDimension
 13
89.32962899999999
 23
53.589732
 33
12.745677
 14
16.38733999999999
 24
26.748
 34
12.745677
 50
90.0
100
AcDbRotatedDimension
1001
ACAD
1000
DSTYLE
1002
{
1070
   140
1040
4.0
1070
    77
1070
     0
1070
    40
1040
1.0
1070
   141
1040
0.0
1070
    41
1040
2.0
1002
}
  0
DIMENSION
  5
378
330
373
100
AcDbEntity
  8
0
100
AcDbDimension
  2
*D13
 10
81.769011
 20
53.52695999999999
 30
12.745677
 11
66.11709999999999
 21
22.239116
 31
12.745677
 12
-100.2441699999999
 22
-106.0
 32
12.745677
 70
   132
 71
     5
 42
-1.0
  3
STANDARD
100
AcDbRadialDimension
 15
81.88350699999999
 25
54.013674
 35
12.745677
 40
0.0
1001
ACAD
1000
DSTYLE
1002
{
1070
   140
1040
4.0
1070
    77
1070
     0
1070
    40
1040
1.0
1070
   287
1070
     4
1070
   141
1040
0.0
1070
    41
1040
2.0
1002
}
  0
DIMENSION
  5
379
330
373
100
AcDbEntity
  8
0
100
AcDbDimension
  2
*D12
 10
82.931158
 20
52.79649899999999
 30
12.745677
 11
66.189944
 21
17.090029
 31
12.745677
 12
-100.2441699999999
 22
-106.0
 32
12.745677
 70
   132
 71
     5
 42
-1.0
  3
STANDARD
100
AcDbRadialDimension
 15
82.816019
 25
52.30993699999999
 35
12.745677
 40
0.0
1001
ACAD
1000
DSTYLE
1002
{
1070
   140
1040
4.0
1070
    77
1070
     0
1070
    40
1040
1.0
1070
   141
1040
0.0
1070
    41
1040
2.0
1002
}
  0
LINE
  5
37A
330
373
100
AcDbEntity
  8
3
100
AcDbLine
 10
34.473195
 20
30.268066
 30
12.745677
 11
16.38733999999999
 21
26.748
 31
12.745677
  0
LINE
  5
37B
330
373
100
AcDbEntity
  8
1
100
AcDbLine
 10
25.38733999999999
 20
24.998
 30
12.745677
 11
25.38733999999999
 21
58.248
 31
12.745677
  0
LINE
  5
37C
330
373
100
AcDbEntity
  8
3
100
AcDbLine
 10
16.38733999999999
 20
26.748
 30
12.745677
 11
15.88734
 21
47.248
 31
12.745677
  0
DIMENSION
  5
37D
330
373
100
AcDbEntity
  8
0
100
AcDbDimension
  2
*D9
 10
8.287368999999999
 20
26.748
 30
12.745677
 11
8.287368999999999
 21
33.50697499999999
 31
12.745677
 12
-100.2441699999999
 22
-106.0
 32
12.745677
 70
   128
 71
     5
 42
-1.0
  3
STANDARD
100
AcDbAlignedDimension
 13
19.88734
 23
39.748
 33
12.745677
 14
16.38733999999999
 24
26.748
 34
12.745677
 50
90.0
100
AcDbRotatedDimension
1001
ACAD
1000
DSTYLE
1002
{
1070
   140
1040
4.0
1070
    77
1070
     0
1070
    40
1040
1.0
1070
   141
1040
0.0
1070
    41
1040
2.0
1002
}
  0
DIMENSION
  5
37E
330
373
100
AcDbEntity
  8
0
100
AcDbDimension
  2
*D8
 10
1.316816999999999
 20
26.748
 30
12.745677
 11
1.316816999999999
 21
34.699635
 31
12.745677
 12
-100.2441699999999
 22
-106.0
 32
12.745677
 70
   128
 71
     5
 42
-1.0
  3
STANDARD
100
AcDbAlignedDimension
 13
18.33734
 23
42.248
 33
12.745677
 14
16.38733999999999
 24
26.748
 34
12.745677
 50
90.0
100
AcDbRotatedDimension
1001
ACAD
1000
DSTYLE
1002
{
1070
   140
1040
4.0
1070
    77
1070
     0
1070
    40
1040
1.0
1070
   141
1040
0.0
1070
    41
1040
2.0
1002
}
  0
LINE
  5
37F
330
373
100
AcDbEntity
  8
2
100
AcDbLine
 10
18.33734
 20
27.12753
 30
12.745677
 11
18.33734
 21
42.248
 31
12.745677
  0
DIMENSION
  5
380
330
373
100
AcDbEntity
  8
0
100
AcDbDimension
  2
*D5
 10
104.879301
 20
26.748
 30
12.745677
 11
104.879301
 21
40.464161
 31
12.745677
 12
-100.2441699999999
 22
-106.0
 32
12.745677
 70
   128
 71
     5
 42
-1.0
  3
STANDARD
100
AcDbAlignedDimension
 13
82.853708
 23
52.302534
 33
12.745677
 14
16.38733999999999
 24
26.748
 34
12.745677
 50
90.0
100
AcDbRotatedDimension
1001
ACAD
1000
DSTYLE
1002
{
1070
   140
1040
4.0
1070
    77
1070
     0
1070
    40
1040
1.0
1070
   141
1040
0.0
1070
    41
1040
2.0
1002
}
  0
DIMENSION
  5
381
330
373
100
AcDbEntity
  8
0
100
AcDbDimension
  2
*D4
 10
69.628225
 20
26.748
 30
12.745677
 11
69.628225
 21
37.617175
 31
12.745677
 12
-100.2441699999999
 22
-106.0
 32
12.745677
 70
   128
 71
     5
 42
-1.0
  3
STANDARD
100
AcDbAlignedDimension
 13
34.91057199999999
 23
48.200508
 33
12.745677
 14
16.38733999999999
 24
26.748
 34
12.745677
 50
90.0
100
AcDbRotatedDimension
1001
ACAD
1000
DSTYLE
1002
{
1070
   140
1040
4.0
1070
    77
1070
     0
1070
    40
1040
1.0
1070
   141
1040
0.0
1070
    41
1040
2.0
1002
}
  0
DIMENSION
  5
382
330
373
100
AcDbEntity
  8
0
100
AcDbDimension
  2
*D11
 10
32.381976
 20
19.592602
 30
12.745677
 11
25.359658
 21
19.592602
 31
12.745677
 12
-100.2441699999999
 22
-106.0
 32
12.745677
 70
   128
  1
14.1
 71
     5
 42
-1.0
  3
STANDARD
100
AcDbAlignedDimension
 13
18.33734
 23
27.12753
 33
12.745677
 14
32.381976
 24
26.248
 34
12.745677
100
AcDbRotatedDimension
1001
ACAD
1000
DSTYLE
1002
{
1070
   140
1040
4.0
1070
    77
1070
     0
1070
    40
1040
1.0
1070
   141
1040
0.0
1070
    41
1040
2.0
1002
}
  0
DIMENSION
  5
383
330
373
100
AcDbEntity
  8
0
100
AcDbDimension
  2
*D10
 10
34.293887
 20
13.828075
 30
12.745677
 11
25.215852
 21
13.828075
 31
12.745677
 12
-100.2441699999999
 22
-106.0
 32
12.745677
 70
   128
  1
18
 71
     5
 42
-1.0
  3
STANDARD
100
AcDbAlignedDimension
 13
16.38733999999999
 23
26.748
 33
12.745677
 14
34.293887
 24
26.27454
 34
12.745677
100
AcDbRotatedDimension
1001
ACAD
1000
DSTYLE
1002
{
1070
   140
1040
4.0
1070
    77
1070
     0
1070
    40
1040
1.0
1070
   141
1040
0.0
1070
    41
1040
2.0
1002
}
  0
DIMENSION
  5
384
330
373
100
AcDbEntity
  8
0
100
AcDbDimension
  2
*D17
 10
89.13734000000001
 20
54.57107
 30
12.745677
 11
97.30595500000001
 21
46.5
 31
8.375621
 12
-53.74417
 22
-106.0
 32
8.375621
 70
   132
 71
     5
 42
-1.0
  3
STANDARD
100
AcDbRadialDimension
 15
89.473099
 25
53.629123
 35
12.745677
 40
0.0
1001
ACAD
1000
DSTYLE
1002
{
1070
   140
1040
4.0
1070
    77
1070
     0
1070
    40
1040
1.0
1070
   141
1040
0.0
1070
    41
1040
2.0
1002
}
  0
LINE
  5
385
330
373
100
AcDbEntity
  8
2
100
AcDbLine
 10
22.38734
 20
43.748
 30
12.745677
 11
19.88734
 21
43.748
 31
12.745677
  0
LINE
  5
386
330
373
100
AcDbEntity
  8
2
100
AcDbLine
 10
18.38733999999999
 20
39.748
 30
12.745677
 11
25.38733999999999
 21
39.748
 31
12.745677
  0
LINE
  5
387
330
373
100
AcDbEntity
  8
2
100
AcDbLine
 10
18.38733999999999
 20
42.248
 30
12.745677
 11
25.38733999999999
 21
42.248
 31
12.745677
  0
ARC
  5
388
330
373
100
AcDbEntity
  8
3
100
AcDbCircle
 10
25.38733999999999
 20
114.4979999999999
 30
12.745677
 40
9.5
100
AcDbArc
 50
47.22466899999999
 51
312.775331
  0
CIRCLE
  5
389
330
373
100
AcDbEntity
  8
3
100
AcDbCircle
 10
25.38733999999999
 20
114.4979999999999
 30
12.745677
 40
5.5
  0
LINE
  5
38A
330
373
100
AcDbEntity
  8
1
100
AcDbLine
 10
13.38734
 20
114.4979999999999
 30
12.745677
 11
92.38734
 21
114.4979999999999
 31
12.745677
  0
LINE
  5
38B
330
373
100
AcDbEntity
  8
3
100
AcDbLine
 10
17.410573
 20
49.544468
 30
12.745677
 11
88.213369
 21
63.324878
 31
12.745677
  0
LINE
  5
38C
330
373
100
AcDbEntity
  8
3
100
AcDbLine
 10
90.38734000000001
 20
61.74800000000001
 30
12.745677
 11
15.88734
 21
47.248
 31
12.745677
  0
DIMENSION
  5
38D
330
373
100
AcDbEntity
  8
0
100
AcDbDimension
  2
*D3
 10
90.38734000000001
 20
93.19601199999999
 30
12.745677
 11
52.299343
 21
93.19601199999999
 31
12.745677
 12
-100.2441699999999
 22
-106.0
 32
12.745677
 70
   128
 71
     5
 42
-1.0
  3
STANDARD
100
AcDbAlignedDimension
 13
15.88734
 23
114.4979999999999
 33
12.745677
 14
90.38734000000001
 24
110.931731
 34
12.745677
100
AcDbRotatedDimension
1001
ACAD
1000
DSTYLE
1002
{
1070
   140
1040
4.0
1070
    77
1070
     0
1070
    40
1040
1.0
1070
   141
1040
0.0
1070
    41
1040
2.0
1002
}
  0
LINE
  5
38E
330
373
100
AcDbEntity
  8
2
100
AcDbLine
 10
19.88734
 20
43.748
 30
12.745677
 11
19.88734
 21
50.026523
 31
12.745677
  0
LINE
  5
38F
330
373
100
AcDbEntity
  8
2
100
AcDbLine
 10
18.33734
 20
42.248
 30
12.745677
 11
18.88733999999999
 21
42.248
 31
12.745677
  0
LINE
  5
390
330
373
100
AcDbEntity
  8
2
100
AcDbLine
 10
19.88734
 20
42.248
 30
12.745677
 11
19.88734
 21
39.748
 31
12.745677
  0
ARC
  5
391
330
373
100
AcDbEntity
  8
3
100
AcDbCircle
 10
18.098799
 20
47.43456199999999
 30
12.745677
 40
2.219313999999999
100
AcDbArc
 50
108.065703
 51
184.8221559999999
  0
LINE
  5
392
330
373
100
AcDbEntity
  8
3
100
AcDbLine
 10
15.88734
 20
47.248
 30
12.745677
 11
15.88734
 21
47.62112499999999
 31
12.745677
  0
CIRCLE
  5
393
330
373
100
AcDbEntity
  8
3
100
AcDbCircle
 10
25.38733999999999
 20
114.4979999999999
 30
12.745677
 40
3.5
  0
LINE
  5
394
330
373
100
AcDbEntity
  8
3
100
AcDbLine
 10
61.28251500000001
 20
104.744177
 30
12.745677
 11
61.28251500000001
 21
123.742648
 31
12.745677
  0
LINE
  5
395
330
373
100
AcDbEntity
  8
3
100
AcDbLine
 10
86.28251500000001
 20
105.8145129999999
 30
12.745677
 11
86.28251500000001
 21
123.4750639999999
 31
12.745677
  0
LINE
  5
396
330
373
100
AcDbEntity
  8
3
100
AcDbLine
 10
90.38734000000001
 20
117.03227
 30
12.745677
 11
90.38734000000001
 21
111.9637299999999
 31
12.745677
  0
LINE
  5
397
330
373
100
AcDbEntity
  8
1
100
AcDbLine
 10
25.38733999999999
 20
102.9979999999999
 30
12.745677
 11
25.38733999999999
 21
126.2479999999999
 31
12.745677
  0
LINE
  5
398
330
373
100
AcDbEntity
  8
3
100
AcDbLine
 10
36.282515
 20
104.2090089999999
 30
12.745677
 11
36.282515
 21
125.3481529999999
 31
12.745677
  0
ARC
  5
399
330
373
100
AcDbEntity
  8
3
100
AcDbCircle
 10
81.769011
 20
53.52695999999999
 30
12.745677
 40
0.5
100
AcDbArc
 50
11.086413
 51
103.594366
  0
DIMENSION
  5
39A
330
373
100
AcDbEntity
  8
0
100
AcDbDimension
  2
*D15
 10
89.13734000000001
 20
55.57107
 30
12.745677
 11
74.716187
 21
68.80215799999999
 31
12.745677
 12
-100.2441699999999
 22
-106.0
 32
12.745677
 70
   132
 71
     5
 42
-1.0
  3
STANDARD
100
AcDbRadialDimension
 15
89.705267
 25
54.74799100000001
 35
12.745677
 40
0.0
1001
ACAD
1000
DSTYLE
1002
{
1070
   140
1040
4.0
1070
    77
1070
     0
1070
    40
1040
1.0
1070
   287
1070
     4
1070
   141
1040
0.0
1070
    41
1040
2.0
1002
}
  0
LINE
  5
39B
330
373
100
AcDbEntity
  8
2
100
AcDbLine
 10
89.13734000000001
 20
54.57107
 30
12.745677
 11
67.64208199999998
 21
54.57107
 31
12.745677
  0
DIMENSION
  5
39C
330
373
100
AcDbEntity
  8
0
100
AcDbDimension
  2
*D6
 10
90.38734000000001
 20
73.85865600000001
 30
12.745677
 11
57.280391
 21
73.85865600000001
 31
12.745677
 12
-100.2441699999999
 22
-106.0
 32
12.745677
 70
   128
 71
     5
 42
-1.0
  3
STANDARD
100
AcDbAlignedDimension
 13
25.38733999999999
 23
58.248
 33
12.745677
 14
90.38734000000001
 24
61.74800000000001
 34
12.745677
100
AcDbRotatedDimension
1001
ACAD
1000
DSTYLE
1002
{
1070
   140
1040
4.0
1070
    77
1070
     0
1070
    40
1040
1.0
1070
   141
1040
0.0
1070
    41
1040
2.0
1002
}
  0
LINE
  5
39D
330
373
100
AcDbEntity
  8
3
100
AcDbLine
 10
88.454706
 20
109.4328659999999
 30
12.745677
 11
31.839031
 21
107.5247879999999
 31
12.745677
  0
LINE
  5
39E
330
373
100
AcDbEntity
  8
3
100
AcDbLine
 10
81.651488
 20
54.01295199999999
 30
12.745677
 11
50.282515
 21
46.42726399999999
 31
12.745677
  0
LINE
  5
39F
330
373
100
AcDbEntity
  8
2
100
AcDbLine
 10
34.91057199999999
 20
48.200508
 30
12.745677
 11
67.64208199999998
 21
54.57107
 31
12.745677
  0
DIMENSION
  5
3A0
330
373
100
AcDbEntity
  8
0
100
AcDbDimension
  2
*D7
 10
25.38733999999999
 20
68.09413000000001
 30
12.745677
 11
46.32666599999999
 21
68.09413000000001
 31
12.745677
 12
-100.2441699999999
 22
-106.0
 32
12.745677
 70
   128
 71
     5
 42
-1.0
  3
STANDARD
100
AcDbAlignedDimension
 13
67.64208199999998
 23
54.57107
 33
12.745677
 14
25.38733999999999
 24
58.748
 34
12.745677
100
AcDbRotatedDimension
1001
ACAD
1000
DSTYLE
1002
{
1070
   140
1040
4.0
1070
    77
1070
     0
1070
    40
1040
1.0
1070
   141
1040
0.0
1070
    41
1040
2.0
1002
}
  0
LINE
  5
3A1
330
373
100
AcDbEntity
  8
2
100
AcDbLine
 10
30.88734
 20
43.748
 30
12.745677
 11
30.88734
 21
52.167463
 31
12.745677
  0
LINE
  5
3A2
330
373
100
AcDbEntity
  8
3
100
AcDbLine
 10
31.044194
 20
50.119951
 30
12.745677
 11
31.044194
 21
43.045672
 31
12.745677
  0
DIMENSION
  5
3A3
330
373
100
AcDbEntity
  8
0
100
AcDbDimension
  2
*D2
 10
34.91057199999999
 20
61.53449699999999
 30
12.745677
 11
43.73760299999999
 21
61.53449699999999
 31
12.745677
 12
-100.2441699999999
 22
-106.0
 32
12.745677
 70
   128
 71
     5
 42
-1.0
  3
STANDARD
100
AcDbAlignedDimension
 13
25.38733999999999
 23
58.748
 33
12.745677
 14
34.91057199999999
 24
48.700508
 34
12.745677
100
AcDbRotatedDimension
1001
ACAD
1000
DSTYLE
1002
{
1070
   140
1040
4.0
1070
    77
1070
     0
1070
    40
1040
1.0
1070
   141
1040
0.0
1070
    41
1040
2.0
1002
}
  0
DIMENSION
  5
3A4
330
373
100
AcDbEntity
  8
0
100
AcDbDimension
  2
*D1
 10
25.38733999999999
 20
57.28775500000001
 30
12.745677
 11
40.543519
 21
57.28775500000001
 31
12.745677
 12
-100.2441699999999
 22
-106.0
 32
12.745677
 70
   128
  1
25
 71
     5
 42
-1.0
  3
STANDARD
100
AcDbAlignedDimension
 13
50.282515
 23
46.42726399999999
 33
12.745677
 14
25.38733999999999
 24
58.248
 34
12.745677
100
AcDbRotatedDimension
1001
ACAD
1000
DSTYLE
1002
{
1070
   140
1040
4.0
1070
    77
1070
     0
1070
    40
1040
1.0
1070
   141
1040
0.0
1070
    41
1040
2.0
1002
}
  0
ARC
  5
3A5
330
373
100
AcDbEntity
  8
3
100
AcDbCircle
 10
46.110395
 20
29.876314
 30
12.745677
 40
17.0687
100
AcDbArc
 50
75.85178899999999
 51
131.6141419999999
  0
LINE
  5
3A6
330
373
100
AcDbEntity
  8
2
100
AcDbLine
 10
32.43733999999999
 20
29.871825
 30
12.745677
 11
32.43733999999999
 21
42.248
 31
12.745677
  0
LINE
  5
3A7
330
373
100
AcDbEntity
  8
3
100
AcDbLine
 10
34.473195
 20
30.268066
 30
12.745677
 11
34.775863
 21
42.677424
 31
12.745677
  0
LINE
  5
3A8
330
373
100
AcDbEntity
  8
2
100
AcDbLine
 10
32.38734
 20
39.748
 30
12.745677
 11
25.38733999999999
 21
39.748
 31
12.745677
  0
LINE
  5
3A9
330
373
100
AcDbEntity
  8
2
100
AcDbLine
 10
32.38734
 20
42.248
 30
12.745677
 11
25.38733999999999
 21
42.248
 31
12.745677
  0
LINE
  5
3AA
330
373
100
AcDbEntity
  8
2
100
AcDbLine
 10
21.38733999999999
 20
42.248
 30
12.745677
 11
21.38733999999999
 21
39.748
 31
12.745677
  0
LINE
  5
3AB
330
373
100
AcDbEntity
  8
2
100
AcDbLine
 10
22.88733999999999
 20
42.248
 30
12.745677
 11
22.88733999999999
 21
39.748
 31
12.745677
  0
LINE
  5
3AC
330
373
100
AcDbEntity
  8
2
100
AcDbLine
 10
22.38734
 20
42.248
 30
12.745677
 11
22.38734
 21
43.748
 31
12.745677
  0
LINE
  5
3AD
330
373
100
AcDbEntity
  8
2
100
AcDbLine
 10
27.88734
 20
42.248
 30
12.745677
 11
27.88734
 21
39.748
 31
12.745677
  0
LINE
  5
3AE
330
373
100
AcDbEntity
  8
2
100
AcDbLine
 10
26.38734
 20
42.248
 30
12.745677
 11
26.38734
 21
39.748
 31
12.745677
  0
LINE
  5
3AF
330
373
100
AcDbEntity
  8
2
100
AcDbLine
 10
24.38734
 20
42.248
 30
12.745677
 11
24.38734
 21
39.748
 31
12.745677
  0
LINE
  5
3B0
330
373
100
AcDbEntity
  8
2
100
AcDbLine
 10
34.775863
 20
42.677424
 30
12.745677
 11
34.91057199999999
 21
48.200508
 31
12.745677
  0
ARC
  5
3B1
330
373
100
AcDbEntity
  8
3
100
AcDbCircle
 10
32.04419399999999
 20
43.045672
 30
12.745677
 40
1.0
100
AcDbArc
 50
180.0
 51
283.594366
  0
LINE
  5
3B2
330
373
100
AcDbEntity
  8
2
100
AcDbLine
 10
28.38734
 20
43.748
 30
12.745677
 11
30.88734
 21
43.748
 31
12.745677
  0
LINE
  5
3B3
330
373
100
AcDbEntity
  8
2
100
AcDbLine
 10
29.38734
 20
42.248
 30
12.745677
 11
29.38734
 21
39.748
 31
12.745677
  0
LINE
  5
3B4
330
373
100
AcDbEntity
  8
2
100
AcDbLine
 10
30.88734
 20
42.248
 30
12.745677
 11
30.88734
 21
39.748
 31
12.745677
  0
LINE
  5
3B5
330
373
100
AcDbEntity
  8
2
100
AcDbLine
 10
28.38734
 20
42.248
 30
12.745677
 11
28.38734
 21
43.748
 31
12.745677
  0
LINE
  5
3B6
330
373
100
AcDbEntity
  8
2
100
AcDbLine
 10
32.43733999999999
 20
42.248
 30
12.745677
 11
32.13734
 21
42.248
 31
12.745677
  0
LINE
  5
3B7
330
373
100
AcDbEntity
  8
3
100
AcDbLine
 10
34.836759
 20
42.69214999999999
 30
12.745677
 11
32.279241
 21
42.07368699999999
 31
12.745677
  0
TEXT
  5
3B8
330
373
100
AcDbEntity
  8
3
100
AcDbText
 10
35.49611999999999
 20
100.378949
 30
12.745677
 40
3.0
  1
A
 41
0.7
  7
BIGFONT
100
AcDbText
  0
TEXT
  5
3B9
330
373
100
AcDbEntity
  8
3
100
AcDbText
 10
60.429248
 20
100.976693
 30
12.745677
 40
3.0
  1
B
 41
0.7
  7
BIGFONT
100
AcDbText
  0
DIMENSION
  5
3BA
330
373
100
AcDbEntity
  8
0
100
AcDbDimension
  2
*D14
 10
88.436578
 20
61.345588
 30
12.745677
 11
108.0950709999999
 21
75.26149100000001
 31
12.745677
 12
-100.2441699999999
 22
-106.0
 32
12.745677
 70
   132
  1
R2
 71
     5
 42
-1.0
  3
STANDARD
100
AcDbRadialDimension
 15
89.833972
 25
62.76498899999999
 35
12.745677
 40
0.0
1001
ACAD
1000
DSTYLE
1002
{
1070
   140
1040
4.0
1070
    77
1070
     0
1070
    40
1040
1.0
1070
   141
1040
0.0
1070
    41
1040
2.0
1002
}
  0
LINE
  5
3BB
330
373
100
AcDbEntity
  8
3
100
AcDbLine
 10
90.38734000000001
 20
61.74800000000001
 30
12.745677
 11
90.13734000000001
 21
54.57107
 31
12.745677
  0
ARC
  5
3BC
330
373
100
AcDbEntity
  8
2
100
AcDbCircle
 10
89.13734000000001
 20
55.57107
 30
12.745677
 40
1.0
100
AcDbArc
 50
270.0
 51
0.0
  0
ARC
  5
3BD
330
373
100
AcDbEntity
  8
3
100
AcDbCircle
 10
89.13734000000001
 20
54.57107
 30
12.745677
 40
1.0
100
AcDbArc
 50
281.086413
 51
0.0
  0
LINE
  5
3BE
330
373
100
AcDbEntity
  8
3
100
AcDbLine
 10
89.32962899999999
 20
53.589732
 30
12.745677
 11
83.027303
 21
52.30583
 31
12.745677
  0
ARC
  5
3BF
330
373
100
AcDbEntity
  8
3
100
AcDbCircle
 10
82.931158
 20
52.79649899999999
 30
12.745677
 40
0.5
100
AcDbArc
 50
191.086413
 51
281.086413
  0
LINE
  5
3C0
330
373
100
AcDbEntity
  8
3
100
AcDbLine
 10
82.25967999999999
 20
53.62310400000001
 30
12.745677
 11
82.44048900000001
 21
52.700355
 31
12.745677
  0
ARC
  5
3C1
330
373
100
AcDbEntity
  8
3
100
AcDbCircle
 10
88.436578
 20
61.345588
 30
12.745677
 40
1.991834999999999
100
AcDbArc
 50
11.655716
 51
96.434198
  0
TEXT
  5
3C2
330
373
100
AcDbEntity
  8
3
100
AcDbText
 10
85.26180399999999
 20
101.833631
 30
12.745677
 40
3.0
  1
C
 41
0.7
  7
BIGFONT
100
AcDbText
  0
ARC
  5
3C3
330
373
100
AcDbEntity
  8
3
100
AcDbCircle
 10
88.38734
 20
111.431731
 30
12.745677
 40
2.0
100
AcDbArc
 50
271.930268
 51
0.0
  0
LINE
  5
3C4
330
373
100
AcDbEntity
  8
3
100
AcDbLine
 10
90.38734000000001
 20
111.9637299999999
 30
12.745677
 11
90.38734000000001
 21
111.431731
 31
12.745677
  0
LINE
  5
3C5
330
373
100
AcDbEntity
  8
3
100
AcDbLine
 10
88.454706
 20
119.563134
 30
12.745677
 11
31.839031
 21
121.471212
 31
12.745677
  0
TEXT
  5
3C6
330
373
100
AcDbEntity
  8
3
100
AcDbText
 10
35.412358
 20
126.1092439999999
 30
12.745677
 40
3.0
  1
A
 41
0.7
  7
BIGFONT
100
AcDbText
  0
TEXT
  5
3C7
330
373
100
AcDbEntity
  8
3
100
AcDbText
 10
60.33708100000001
 20
124.741908
 30
12.745677
 40
3.0
  1
B
 41
0.7
  7
BIGFONT
100
AcDbText
  0
ARC
  5
3C8
330
373
100
AcDbEntity
  8
3
100
AcDbCircle
 10
88.38734
 20
117.5642689999999
 30
12.745677
 40
2.0
100
AcDbArc
 50
0.0
 51
88.06973199999999
  0
LINE
  5
3C9
330
373
100
AcDbEntity
  8
3
100
AcDbLine
 10
90.38734000000001
 20
117.03227
 30
12.745677
 11
90.38734000000001
 21
117.5642689999999
 31
12.745677
  0
TEXT
  5
3CA
330
373
100
AcDbEntity
  8
3
100
AcDbText
 10
85.270209
 20
124.378082
 30
12.745677
 40
3.0
  1
C
 41
0.7
  7
BIGFONT
100
AcDbText
  0
ENDBLK
  5
3CC
330
373
100
AcDbEntity
  8
0
100
AcDbBlockEnd
  0
BLOCK
  5
5F9
330
5EF
100
AcDbEntity
  8
0
100
AcDbBlockBegin
  2
*D22
 70
     1
 10
0.0
 20
0.0
 30
0.0
  3
*D22
  1

  0
LINE
  5
5F0
330
5EF
100
AcDbEntity
  8
0
  6
ByBlock
 62
     0
100
AcDbLine
 10
185.1368869999999
 20
133.5515889999999
 30
0.0
 11
197.4
 21
133.5515889999999
 31
0.0
  0
LINE
  5
5F1
330
5EF
100
AcDbEntity
  8
0
  6
ByBlock
 62
     0
100
AcDbLine
 10
185.1368869999999
 20
128.5515889999999
 30
0.0
 11
197.4
 21
128.5515889999999
 31
0.0
  0
LINE
  5
5F2
330
5EF
100
AcDbEntity
  8
0
  6
ByBlock
 62
     0
100
AcDbLine
 10
196.9
 20
132.5515889999999
 30
0.0
 11
196.9
 21
129.5515889999999
 31
0.0
  0
SOLID
  5
5F3
330
5EF
100
AcDbEntity
  8
0
  6
ByBlock
 62
     0
100
AcDbTrace
 10
196.733333
 20
132.5515889999999
 30
0.0
 11
197.0666669999999
 21
132.5515889999999
 31
0.0
 12
196.9
 22
133.5515889999999
 32
0.0
 13
196.9
 23
133.5515889999999
 33
0.0
  0
SOLID
  5
5F4
330
5EF
100
AcDbEntity
  8
0
  6
ByBlock
 62
     0
100
AcDbTrace
 10
196.733333
 20
129.5515889999999
 30
0.0
 11
197.0666669999999
 21
129.5515889999999
 31
0.0
 12
196.9
 22
128.5515889999999
 32
0.0
 13
196.9
 23
128.5515889999999
 33
0.0
  0
MTEXT
  5
5F5
330
5EF
100
AcDbEntity
  8
0
  6
ByBlock
 62
     0
100
AcDbMText
 10
195.3
 20
131.1999999999999
 30
0.0
 40
3.0
 41
0.0
 71
     5
 72
     1
  1
\A1;5
 11
0.0
 21
1.0
 31
0.0
 73
     1
 44
1.0
  0
POINT
  5
5F6
330
5EF
100
AcDbEntity
  8
DEFPOINTS
  6
ByBlock
 62
     0
100
AcDbPoint
 10
184.636887
 20
133.5515889999999
 30
0.0
  0
POINT
  5
5F7
330
5EF
100
AcDbEntity
  8
DEFPOINTS
  6
ByBlock
 62
     0
100
AcDbPoint
 10
184.636887
 20
128.5515889999999
 30
0.0
  0
POINT
  5
5F8
330
5EF
100
AcDbEntity
  8
DEFPOINTS
  6
ByBlock
 62
     0
100
AcDbPoint
 10
196.9
 20
128.5515889999999
 30
0.0
  0
ENDBLK
  5
5FA
330
5EF
100
AcDbEntity
  8
0
100
AcDbBlockEnd
  0
BLOCK
  5
628
330
5FC
100
AcDbEntity
  8
0
100
AcDbBlockBegin
  2
A$C78F16135
 70
     0
 10
0.0
 20
0.0
 30
0.0
  3
A$C78F16135
  1

  0
LINE
  5
5FD
330
5FC
100
AcDbEntity
  8
1
100
AcDbLine
 10
37.5
 20
9.431739999999999
 30
0.0
 11
49.76311299999999
 21
9.431739999999999
 31
0.0
  0
LINE
  5
5FE
330
5FC
100
AcDbEntity
  8
3
100
AcDbLine
 10
44.0
 20
6.931739999999999
 30
0.0
 11
42.0
 21
6.43174
 31
0.0
  0
LINE
  5
5FF
330
5FC
100
AcDbEntity
  8
3
100
AcDbLine
 10
44.0
 20
11.93173999999999
 30
0.0
 11
42.0
 21
12.43174
 31
0.0
  0
LINE
  5
600
330
5FC
100
AcDbEntity
  8
3
100
AcDbLine
 10
3.0
 20
5.43174
 30
0.0
 11
2.0
 21
6.43174
 31
0.0
  0
LINE
  5
601
330
5FC
100
AcDbEntity
  8
0
100
AcDbLine
 10
14.0
 20
5.43174
 30
0.0
 11
14.0
 21
9.431739999999999
 31
0.0
  0
LINE
  5
602
330
5FC
100
AcDbEntity
  8
3
100
AcDbLine
 10
15.0
 20
2.931739999999999
 30
0.0
 11
15.0
 21
9.431739999999999
 31
0.0
  0
LINE
  5
603
330
5FC
100
AcDbEntity
  8
0
100
AcDbLine
 10
3.0
 20
5.43174
 30
0.0
 11
3.0
 21
9.431739999999999
 31
0.0
  0
LINE
  5
604
330
5FC
100
AcDbEntity
  8
3
100
AcDbLine
 10
33.5
 20
9.431739999999999
 30
0.0
 11
33.5
 21
2.931739999999999
 31
0.0
  0
LINE
  5
605
330
5FC
100
AcDbEntity
  8
3
100
AcDbLine
 10
33.0
 20
2.43174
 30
0.0
 11
15.5
 21
2.43174
 31
0.0
  0
LINE
  5
606
330
5FC
100
AcDbEntity
  8
3
100
AcDbLine
 10
15.0
 20
5.43174
 30
0.0
 11
3.0
 21
5.43174
 31
0.0
  0
SOLID
  5
607
330
5FC
100
AcDbEntity
  8
0
100
AcDbTrace
 10
16.97919999999999
 20
0.04499
 30
0.0
 11
17.349
 21
0.59969
 31
0.0
 12
15.5
 22
1.43174
 32
0.0
 13
15.5
 23
1.43174
 33
0.0
  0
LINE
  5
608
330
5FC
100
AcDbEntity
  8
3
100
AcDbLine
 10
15.5
 20
2.43174
 30
0.0
 11
15.0
 21
2.931739999999999
 31
0.0
  0
SOLID
  5
609
330
5FC
100
AcDbEntity
  8
0
100
AcDbTrace
 10
32.12650599999999
 20
0.7211260000000001
 30
0.0
 11
32.431219
 21
1.314079999999999
 31
0.0
 12
30.5
 22
1.93174
 32
0.0
 13
30.5
 23
1.93174
 33
0.0
  0
LINE
  5
60A
330
5FC
100
AcDbEntity
  8
3
100
AcDbLine
 10
33.5
 20
2.931739999999999
 30
0.0
 11
33.0
 21
2.43174
 31
0.0
  0
SOLID
  5
60B
330
5FC
100
AcDbEntity
  8
0
100
AcDbTrace
 10
34.616027
 20
0.0
 30
0.0
 11
35.209239
 21
0.304211
 31
0.0
 12
34.0
 22
1.93174
 32
0.0
 13
34.0
 23
1.93174
 33
0.0
  0
LINE
  5
60C
330
5FC
100
AcDbEntity
  8
3
100
AcDbLine
 10
33.0
 20
16.43173999999999
 30
0.0
 11
15.5
 21
16.43173999999999
 31
0.0
  0
LINE
  5
60D
330
5FC
100
AcDbEntity
  8
1
100
AcDbLine
 10
5.0
 20
9.431739999999999
 30
0.0
 11
37.5
 21
9.431739999999999
 31
0.0
  0
LINE
  5
60E
330
5FC
100
AcDbEntity
  8
0
100
AcDbLine
 10
2.0
 20
12.43174
 30
0.0
 11
14.0
 21
12.43174
 31
0.0
  0
LINE
  5
60F
330
5FC
100
AcDbEntity
  8
3
100
AcDbLine
 10
15.0
 20
13.43174
 30
0.0
 11
3.0
 21
13.43174
 31
0.0
  0
LINE
  5
610
330
5FC
100
AcDbEntity
  8
0
100
AcDbLine
 10
2.0
 20
6.43174
 30
0.0
 11
14.0
 21
6.43174
 31
0.0
  0
SOLID
  5
611
330
5FC
100
AcDbEntity
  8
0
100
AcDbTrace
 10
7.999314
 20
15.69518599999999
 30
0.0
 11
7.481477
 21
15.275318
 31
0.0
 12
9.0
 22
13.93174
 32
0.0
 13
9.0
 23
13.93174
 33
0.0
  0
LINE
  5
612
330
5FC
100
AcDbEntity
  8
1
100
AcDbLine
 10
5.5
 20
9.431739999999999
 30
0.0
 11
0.0
 21
9.431739999999999
 31
0.0
  0
LINE
  5
613
330
5FC
100
AcDbEntity
  8
0
100
AcDbLine
 10
3.0
 20
13.43174
 30
0.0
 11
3.0
 21
9.431739999999999
 31
0.0
  0
LINE
  5
614
330
5FC
100
AcDbEntity
  8
3
100
AcDbLine
 10
2.0
 20
12.43174
 30
0.0
 11
2.0
 21
9.431739999999999
 31
0.0
  0
LINE
  5
615
330
5FC
100
AcDbEntity
  8
3
100
AcDbLine
 10
2.0
 20
6.43174
 30
0.0
 11
2.0
 21
9.431739999999999
 31
0.0
  0
LINE
  5
616
330
5FC
100
AcDbEntity
  8
3
100
AcDbLine
 10
3.0
 20
13.43174
 30
0.0
 11
2.0
 21
12.43174
 31
0.0
  0
LINE
  5
617
330
5FC
100
AcDbEntity
  8
0
100
AcDbLine
 10
2.0
 20
17.43173999999999
 30
0.0
 11
2.0
 21
14.43173999999999
 31
0.0
  0
LINE
  5
618
330
5FC
100
AcDbEntity
  8
3
100
AcDbLine
 10
15.0
 20
15.93174
 30
0.0
 11
15.0
 21
9.431739999999999
 31
0.0
  0
LINE
  5
619
330
5FC
100
AcDbEntity
  8
0
100
AcDbLine
 10
14.0
 20
13.43174
 30
0.0
 11
14.0
 21
9.431739999999999
 31
0.0
  0
LINE
  5
61A
330
5FC
100
AcDbEntity
  8
3
100
AcDbLine
 10
15.5
 20
16.43173999999999
 30
0.0
 11
15.0
 21
15.93174
 31
0.0
  0
LINE
  5
61B
330
5FC
100
AcDbEntity
  8
3
100
AcDbLine
 10
33.5
 20
9.431739999999999
 30
0.0
 11
33.5
 21
15.93174
 31
0.0
  0
LINE
  5
61C
330
5FC
100
AcDbEntity
  8
3
100
AcDbLine
 10
42.0
 20
6.43174
 30
0.0
 11
33.5
 21
6.43174
 31
0.0
  0
LINE
  5
61D
330
5FC
100
AcDbEntity
  8
3
100
AcDbLine
 10
42.0
 20
12.43174
 30
0.0
 11
33.5
 21
12.43174
 31
0.0
  0
LINE
  5
61E
330
5FC
100
AcDbEntity
  8
3
100
AcDbLine
 10
42.0
 20
12.43174
 30
0.0
 11
42.0
 21
9.431739999999999
 31
0.0
  0
LINE
  5
61F
330
5FC
100
AcDbEntity
  8
3
100
AcDbLine
 10
42.0
 20
6.43174
 30
0.0
 11
42.0
 21
9.431739999999999
 31
0.0
  0
LINE
  5
620
330
5FC
100
AcDbEntity
  8
3
100
AcDbLine
 10
33.5
 20
15.93174
 30
0.0
 11
33.0
 21
16.43173999999999
 31
0.0
  0
DIMENSION
  5
621
330
5FC
100
AcDbEntity
  8
0
100
AcDbDimension
  2
*D22
 10
56.263113
 20
6.931739999999999
 30
0.0
 11
56.263113
 21
9.580150999999998
 31
0.0
 12
-140.636887
 22
-121.619849
 32
0.0
 70
   128
 71
     5
 42
-1.0
  3
STANDARD
100
AcDbAlignedDimension
 13
44.0
 23
11.93173999999999
 33
0.0
 14
44.0
 24
6.931739999999999
 34
0.0
 50
90.0
100
AcDbRotatedDimension
1001
ACAD
1000
DSTYLE
1002
{
1070
    78
1070
     8
1070
   288
1070
     1
1070
   284
1070
     8
1070
   140
1040
3.0
1070
    73
1070
     0
1070
   272
1070
     2
1070
    77
1070
     1
1070
   147
1040
0.1
1070
    42
1040
0.5
1070
    44
1040
0.5
1070
    43
1040
0.4
1070
   271
1070
     2
1070
   141
1040
0.1
1070
    41
1040
1.0
1002
}
  0
LINE
  5
622
330
5FC
100
AcDbEntity
  8
3
100
AcDbLine
 10
46.0
 20
9.431739999999999
 30
0.0
 11
46.0
 21
11.93173999999999
 31
0.0
  0
LINE
  5
623
330
5FC
100
AcDbEntity
  8
3
100
AcDbLine
 10
44.0
 20
12.43174
 30
0.0
 11
44.0
 21
9.431739999999999
 31
0.0
  0
LINE
  5
624
330
5FC
100
AcDbEntity
  8
3
100
AcDbLine
 10
46.0
 20
6.931739999999999
 30
0.0
 11
44.0
 21
6.43174
 31
0.0
  0
LINE
  5
625
330
5FC
100
AcDbEntity
  8
3
100
AcDbLine
 10
44.0
 20
6.43174
 30
0.0
 11
44.0
 21
9.431739999999999
 31
0.0
  0
LINE
  5
626
330
5FC
100
AcDbEntity
  8
3
100
AcDbLine
 10
46.0
 20
9.431739999999999
 30
0.0
 11
46.0
 21
6.931739999999999
 31
0.0
  0
LINE
  5
627
330
5FC
100
AcDbEntity
  8
3
100
AcDbLine
 10
46.0
 20
11.93173999999999
 30
0.0
 11
44.0
 21
12.43174
 31
0.0
  0
ENDBLK
  5
629
330
5FC
100
AcDbEntity
  8
0
100
AcDbBlockEnd
  0
BLOCK
  5
C83
330
C78
100
AcDbEntity
  8
0
100
AcDbBlockBegin
  2
*D24
 70
     1
 10
0.0
 20
0.0
 30
0.0
  3
*D24
  1

  0
LINE
  5
C79
330
C78
100
AcDbEntity
  8
0
  6
ByBlock
 62
     0
100
AcDbLine
 10
174.55
 20
124.0
 30
0.0
 11
187.8270629999999
 21
124.0
 31
0.0
  0
LINE
  5
C7A
330
C78
100
AcDbEntity
  8
0
  6
ByBlock
 62
     0
100
AcDbLine
 10
174.55
 20
106.0
 30
0.0
 11
187.8270629999999
 21
106.0
 31
0.0
  0
LINE
  5
C7B
330
C78
100
AcDbEntity
  8
0
  6
ByBlock
 62
     0
100
AcDbLine
 10
187.327063
 20
122.0
 30
0.0
 11
187.327063
 21
117.1491419999999
 31
0.0
  0
LINE
  5
C7C
330
C78
100
AcDbEntity
  8
0
  6
ByBlock
 62
     0
100
AcDbLine
 10
187.327063
 20
108.0
 30
0.0
 11
187.327063
 21
112.9691419999999
 31
0.0
  0
SOLID
  5
C7D
330
C78
100
AcDbEntity
  8
0
  6
ByBlock
 62
     0
100
AcDbTrace
 10
186.993729
 20
122.0
 30
0.0
 11
187.6603959999999
 21
122.0
 31
0.0
 12
187.327063
 22
124.0
 32
0.0
 13
187.327063
 23
124.0
 33
0.0
  0
SOLID
  5
C7E
330
C78
100
AcDbEntity
  8
0
  6
ByBlock
 62
     0
100
AcDbTrace
 10
186.993729
 20
108.0
 30
0.0
 11
187.6603959999999
 21
108.0
 31
0.0
 12
187.327063
 22
106.0
 32
0.0
 13
187.327063
 23
106.0
 33
0.0
  0
MTEXT
  5
C7F
330
C78
100
AcDbEntity
  8
0
  6
ByBlock
 62
     0
100
AcDbMText
 10
187.327063
 20
115.059142
 30
0.0
 40
4.0
 41
0.0
 71
     5
 72
     1
  1
\A1;18
  7
EXTFONT
 11
0.0
 21
1.0
 31
0.0
 73
     1
 44
1.0
  0
POINT
  5
C80
330
C78
100
AcDbEntity
  8
DEFPOINTS
  6
ByBlock
 62
     0
100
AcDbPoint
 10
174.05
 20
124.0
 30
0.0
  0
POINT
  5
C81
330
C78
100
AcDbEntity
  8
DEFPOINTS
  6
ByBlock
 62
     0
100
AcDbPoint
 10
174.05
 20
106.0
 30
0.0
  0
POINT
  5
C82
330
C78
100
AcDbEntity
  8
DEFPOINTS
  6
ByBlock
 62
     0
100
AcDbPoint
 10
187.327063
 20
106.0
 30
0.0
  0
ENDBLK
  5
C84
330
C78
100
AcDbEntity
  8
0
100
AcDbBlockEnd
  0
BLOCK
  5
C90
330
C85
100
AcDbEntity
  8
0
100
AcDbBlockBegin
  2
*D25
 70
     1
 10
0.0
 20
0.0
 30
0.0
  3
*D25
  1

  0
LINE
  5
C86
330
C85
100
AcDbEntity
  8
0
  6
ByBlock
 62
     0
100
AcDbLine
 10
174.2499999999999
 20
125.2999999999999
 30
0.0
 11
174.2499999999999
 21
149.3183549999999
 31
0.0
  0
LINE
  5
C87
330
C85
100
AcDbEntity
  8
0
  6
ByBlock
 62
     0
100
AcDbLine
 10
177.75
 20
124.5
 30
0.0
 11
177.75
 21
149.3183549999999
 31
0.0
  0
LINE
  5
C88
330
C85
100
AcDbEntity
  8
0
  6
ByBlock
 62
     0
100
AcDbLine
 10
172.25
 20
148.818355
 30
0.0
 11
170.25
 21
148.818355
 31
0.0
  0
LINE
  5
C89
330
C85
100
AcDbEntity
  8
0
  6
ByBlock
 62
     0
100
AcDbLine
 10
179.75
 20
148.818355
 30
0.0
 11
184.6388039999999
 21
148.818355
 31
0.0
  0
SOLID
  5
C8A
330
C85
100
AcDbEntity
  8
0
  6
ByBlock
 62
     0
100
AcDbTrace
 10
172.25
 20
149.1516879999999
 30
0.0
 11
172.25
 21
148.485022
 31
0.0
 12
174.2499999999999
 22
148.818355
 32
0.0
 13
174.2499999999999
 23
148.818355
 33
0.0
  0
SOLID
  5
C8B
330
C85
100
AcDbEntity
  8
0
  6
ByBlock
 62
     0
100
AcDbTrace
 10
179.75
 20
149.1516879999999
 30
0.0
 11
179.75
 21
148.485022
 31
0.0
 12
177.75
 22
148.818355
 32
0.0
 13
177.75
 23
148.818355
 33
0.0
  0
MTEXT
  5
C8C
330
C85
100
AcDbEntity
  8
0
  6
ByBlock
 62
     0
100
AcDbMText
 10
187.728804
 20
148.818355
 30
0.0
 40
4.0
 41
0.0
 71
     5
 72
     1
  1
\A1;3.5
  7
EXTFONT
 73
     1
 44
1.0
  0
POINT
  5
C8D
330
C85
100
AcDbEntity
  8
DEFPOINTS
  6
ByBlock
 62
     0
100
AcDbPoint
 10
174.2499999999999
 20
124.7999999999999
 30
0.0
  0
POINT
  5
C8E
330
C85
100
AcDbEntity
  8
DEFPOINTS
  6
ByBlock
 62
     0
100
AcDbPoint
 10
177.75
 20
124.0
 30
0.0
  0
POINT
  5
C8F
330
C85
100
AcDbEntity
  8
DEFPOINTS
  6
ByBlock
 62
     0
100
AcDbPoint
 10
177.75
 20
148.818355
 30
0.0
  0
ENDBLK
  5
C91
330
C85
100
AcDbEntity
  8
0
100
AcDbBlockEnd
  0
BLOCK
  5
C9D
330
C92
100
AcDbEntity
  8
0
100
AcDbBlockBegin
  2
*D26
 70
     1
 10
0.0
 20
0.0
 30
0.0
  3
*D26
  1

  0
LINE
  5
C93
330
C92
100
AcDbEntity
  8
0
  6
ByBlock
 62
     0
100
AcDbLine
 10
174.2499999999999
 20
125.8
 30
0.0
 11
174.2499999999999
 21
145.7916759999999
 31
0.0
  0
LINE
  5
C94
330
C92
100
AcDbEntity
  8
0
  6
ByBlock
 62
     0
100
AcDbLine
 10
173.75
 20
125.2999999999999
 30
0.0
 11
173.75
 21
145.7916759999999
 31
0.0
  0
LINE
  5
C95
330
C92
100
AcDbEntity
  8
0
  6
ByBlock
 62
     0
100
AcDbLine
 10
176.25
 20
145.2916759999999
 30
0.0
 11
178.2499999999999
 21
145.2916759999999
 31
0.0
  0
LINE
  5
C96
330
C92
100
AcDbEntity
  8
0
  6
ByBlock
 62
     0
100
AcDbLine
 10
171.75
 20
145.2916759999999
 30
0.0
 11
165.226293
 21
145.2916759999999
 31
0.0
  0
SOLID
  5
C97
330
C92
100
AcDbEntity
  8
0
  6
ByBlock
 62
     0
100
AcDbTrace
 10
176.25
 20
145.625009
 30
0.0
 11
176.25
 21
144.9583429999999
 31
0.0
 12
174.2499999999999
 22
145.2916759999999
 32
0.0
 13
174.2499999999999
 23
145.2916759999999
 33
0.0
  0
SOLID
  5
C98
330
C92
100
AcDbEntity
  8
0
  6
ByBlock
 62
     0
100
AcDbTrace
 10
171.75
 20
145.625009
 30
0.0
 11
171.75
 21
144.9583429999999
 31
0.0
 12
173.75
 22
145.2916759999999
 32
0.0
 13
173.75
 23
145.2916759999999
 33
0.0
  0
MTEXT
  5
C99
330
C92
100
AcDbEntity
  8
0
  6
ByBlock
 62
     0
100
AcDbMText
 10
162.386293
 20
145.2916759999999
 30
0.0
 40
4.0
 41
0.0
 71
     5
 72
     1
  1
\A1;0.5
  7
EXTFONT
 73
     1
 44
1.0
  0
POINT
  5
C9A
330
C92
100
AcDbEntity
  8
DEFPOINTS
  6
ByBlock
 62
     0
100
AcDbPoint
 10
174.2499999999999
 20
125.2999999999999
 30
0.0
  0
POINT
  5
C9B
330
C92
100
AcDbEntity
  8
DEFPOINTS
  6
ByBlock
 62
     0
100
AcDbPoint
 10
173.75
 20
124.7999999999999
 30
0.0
  0
POINT
  5
C9C
330
C92
100
AcDbEntity
  8
DEFPOINTS
  6
ByBlock
 62
     0
100
AcDbPoint
 10
173.75
 20
145.2916759999999
 30
0.0
  0
ENDBLK
  5
C9E
330
C92
100
AcDbEntity
  8
0
100
AcDbBlockEnd
  0
BLOCK
  5
CAA
330
C9F
100
AcDbEntity
  8
0
100
AcDbBlockBegin
  2
*D27
 70
     1
 10
0.0
 20
0.0
 30
0.0
  3
*D27
  1

  0
LINE
  5
CA0
330
C9F
100
AcDbEntity
  8
0
  6
ByBlock
 62
     0
100
AcDbLine
 10
173.75
 20
125.8
 30
0.0
 11
173.75
 21
138.0971029999999
 31
0.0
  0
LINE
  5
CA1
330
C9F
100
AcDbEntity
  8
0
  6
ByBlock
 62
     0
100
AcDbLine
 10
170.75
 20
125.5
 30
0.0
 11
170.75
 21
138.0971029999999
 31
0.0
  0
LINE
  5
CA2
330
C9F
100
AcDbEntity
  8
0
  6
ByBlock
 62
     0
100
AcDbLine
 10
175.75
 20
137.597103
 30
0.0
 11
177.75
 21
137.597103
 31
0.0
  0
LINE
  5
CA3
330
C9F
100
AcDbEntity
  8
0
  6
ByBlock
 62
     0
100
AcDbLine
 10
168.75
 20
137.597103
 30
0.0
 11
164.759457
 21
137.597103
 31
0.0
  0
SOLID
  5
CA4
330
C9F
100
AcDbEntity
  8
0
  6
ByBlock
 62
     0
100
AcDbTrace
 10
175.75
 20
137.930436
 30
0.0
 11
175.75
 21
137.2637689999999
 31
0.0
 12
173.75
 22
137.597103
 32
0.0
 13
173.75
 23
137.597103
 33
0.0
  0
SOLID
  5
CA5
330
C9F
100
AcDbEntity
  8
0
  6
ByBlock
 62
     0
100
AcDbTrace
 10
168.75
 20
137.930436
 30
0.0
 11
168.75
 21
137.2637689999999
 31
0.0
 12
170.75
 22
137.597103
 32
0.0
 13
170.75
 23
137.597103
 33
0.0
  0
MTEXT
  5
CA6
330
C9F
100
AcDbEntity
  8
0
  6
ByBlock
 62
     0
100
AcDbMText
 10
163.6694569999999
 20
137.597103
 30
0.0
 40
4.0
 41
0.0
 71
     5
 72
     1
  1
\A1;3
  7
EXTFONT
 73
     1
 44
1.0
  0
POINT
  5
CA7
330
C9F
100
AcDbEntity
  8
DEFPOINTS
  6
ByBlock
 62
     0
100
AcDbPoint
 10
173.75
 20
125.2999999999999
 30
0.0
  0
POINT
  5
CA8
330
C9F
100
AcDbEntity
  8
DEFPOINTS
  6
ByBlock
 62
     0
100
AcDbPoint
 10
170.75
 20
125.0
 30
0.0
  0
POINT
  5
CA9
330
C9F
100
AcDbEntity
  8
DEFPOINTS
  6
ByBlock
 62
     0
100
AcDbPoint
 10
170.75
 20
137.597103
 30
0.0
  0
ENDBLK
  5
CAB
330
C9F
100
AcDbEntity
  8
0
100
AcDbBlockEnd
  0
BLOCK
  5
CB7
330
CAC
100
AcDbEntity
  8
0
100
AcDbBlockBegin
  2
*D28
 70
     1
 10
0.0
 20
0.0
 30
0.0
  3
*D28
  1

  0
LINE
  5
CAD
330
CAC
100
AcDbEntity
  8
0
  6
ByBlock
 62
     0
100
AcDbLine
 10
170.75
 20
125.48
 30
0.0
 11
170.75
 21
159.25
 31
0.0
  0
LINE
  5
CAE
330
CAC
100
AcDbEntity
  8
0
  6
ByBlock
 62
     0
100
AcDbLine
 10
173.75
 20
125.2999999999999
 30
0.0
 11
173.75
 21
159.25
 31
0.0
  0
LINE
  5
CAF
330
CAC
100
AcDbEntity
  8
0
  6
ByBlock
 62
     0
100
AcDbLine
 10
168.75
 20
158.75
 30
0.0
 11
166.7499999999999
 21
158.75
 31
0.0
  0
LINE
  5
CB0
330
CAC
100
AcDbEntity
  8
0
  6
ByBlock
 62
     0
100
AcDbLine
 10
175.75
 20
158.75
 30
0.0
 11
177.75
 21
158.75
 31
0.0
  0
SOLID
  5
CB1
330
CAC
100
AcDbEntity
  8
0
  6
ByBlock
 62
     0
100
AcDbTrace
 10
168.75
 20
159.083333
 30
0.0
 11
168.75
 21
158.4166669999999
 31
0.0
 12
170.75
 22
158.75
 32
0.0
 13
170.75
 23
158.75
 33
0.0
  0
SOLID
  5
CB2
330
CAC
100
AcDbEntity
  8
0
  6
ByBlock
 62
     0
100
AcDbTrace
 10
175.75
 20
159.083333
 30
0.0
 11
175.75
 21
158.4166669999999
 31
0.0
 12
173.75
 22
158.75
 32
0.0
 13
173.75
 23
158.75
 33
0.0
  0
MTEXT
  5
CB3
330
CAC
100
AcDbEntity
  8
0
  6
ByBlock
 62
     0
100
AcDbMText
 10
172.25
 20
158.75
 30
0.0
 40
4.0
 41
0.0
 71
     5
 72
     1
  1
\A1;3
  7
EXTFONT
 73
     1
 44
1.0
  0
POINT
  5
CB4
330
CAC
100
AcDbEntity
  8
DEFPOINTS
  6
ByBlock
 62
     0
100
AcDbPoint
 10
170.75
 20
124.98
 30
0.0
  0
POINT
  5
CB5
330
CAC
100
AcDbEntity
  8
DEFPOINTS
  6
ByBlock
 62
     0
100
AcDbPoint
 10
173.75
 20
124.7999999999999
 30
0.0
  0
POINT
  5
CB6
330
CAC
100
AcDbEntity
  8
DEFPOINTS
  6
ByBlock
 62
     0
100
AcDbPoint
 10
173.75
 20
158.75
 30
0.0
  0
ENDBLK
  5
CB8
330
CAC
100
AcDbEntity
  8
0
100
AcDbBlockEnd
  0
BLOCK
  5
CC4
330
CB9
100
AcDbEntity
  8
0
100
AcDbBlockBegin
  2
*D29
 70
     1
 10
0.0
 20
0.0
 30
0.0
  3
*D29
  1

  0
LINE
  5
CBA
330
CB9
100
AcDbEntity
  8
0
  6
ByBlock
 62
     0
100
AcDbLine
 10
141.25
 20
127.0
 30
0.0
 11
141.25
 21
155.632923
 31
0.0
  0
LINE
  5
CBB
330
CB9
100
AcDbEntity
  8
0
  6
ByBlock
 62
     0
100
AcDbLine
 10
171.05
 20
125.48
 30
0.0
 11
171.05
 21
155.632923
 31
0.0
  0
LINE
  5
CBC
330
CB9
100
AcDbEntity
  8
0
  6
ByBlock
 62
     0
100
AcDbLine
 10
143.25
 20
155.132923
 30
0.0
 11
152.4286919999999
 21
155.132923
 31
0.0
  0
LINE
  5
CBD
330
CB9
100
AcDbEntity
  8
0
  6
ByBlock
 62
     0
100
AcDbLine
 10
169.05
 20
155.132923
 30
0.0
 11
161.6086919999999
 21
155.132923
 31
0.0
  0
SOLID
  5
CBE
330
CB9
100
AcDbEntity
  8
0
  6
ByBlock
 62
     0
100
AcDbTrace
 10
143.25
 20
155.466256
 30
0.0
 11
143.25
 21
154.7995889999999
 31
0.0
 12
141.25
 22
155.132923
 32
0.0
 13
141.25
 23
155.132923
 33
0.0
  0
SOLID
  5
CBF
330
CB9
100
AcDbEntity
  8
0
  6
ByBlock
 62
     0
100
AcDbTrace
 10
169.05
 20
155.466256
 30
0.0
 11
169.05
 21
154.7995889999999
 31
0.0
 12
171.05
 22
155.132923
 32
0.0
 13
171.05
 23
155.132923
 33
0.0
  0
MTEXT
  5
CC0
330
CB9
100
AcDbEntity
  8
0
  6
ByBlock
 62
     0
100
AcDbMText
 10
157.0186919999999
 20
155.132923
 30
0.0
 40
4.0
 41
0.0
 71
     5
 72
     1
  1
\A1;29.8
  7
EXTFONT
 73
     1
 44
1.0
  0
POINT
  5
CC1
330
CB9
100
AcDbEntity
  8
DEFPOINTS
  6
ByBlock
 62
     0
100
AcDbPoint
 10
141.25
 20
126.5
 30
0.0
  0
POINT
  5
CC2
330
CB9
100
AcDbEntity
  8
DEFPOINTS
  6
ByBlock
 62
     0
100
AcDbPoint
 10
171.05
 20
124.98
 30
0.0
  0
POINT
  5
CC3
330
CB9
100
AcDbEntity
  8
DEFPOINTS
  6
ByBlock
 62
     0
100
AcDbPoint
 10
171.05
 20
155.132923
 30
0.0
  0
ENDBLK
  5
CC5
330
CB9
100
AcDbEntity
  8
0
100
AcDbBlockEnd
  0
BLOCK
  5
CD1
330
CC6
100
AcDbEntity
  8
0
100
AcDbBlockBegin
  2
*D30
 70
     1
 10
0.0
 20
0.0
 30
0.0
  3
*D30
  1

  0
LINE
  5
CC7
330
CC6
100
AcDbEntity
  8
0
  6
ByBlock
 62
     0
100
AcDbLine
 10
141.25
 20
103.0
 30
0.0
 11
141.25
 21
91.45691300000001
 31
0.0
  0
LINE
  5
CC8
330
CC6
100
AcDbEntity
  8
0
  6
ByBlock
 62
     0
100
AcDbLine
 10
174.05
 20
104.7
 30
0.0
 11
174.05
 21
91.45691300000001
 31
0.0
  0
LINE
  5
CC9
330
CC6
100
AcDbEntity
  8
0
  6
ByBlock
 62
     0
100
AcDbLine
 10
143.25
 20
91.956913
 30
0.0
 11
153.036502
 21
91.956913
 31
0.0
  0
LINE
  5
CCA
330
CC6
100
AcDbEntity
  8
0
  6
ByBlock
 62
     0
100
AcDbLine
 10
172.05
 20
91.956913
 30
0.0
 11
162.2165019999999
 21
91.956913
 31
0.0
  0
SOLID
  5
CCB
330
CC6
100
AcDbEntity
  8
0
  6
ByBlock
 62
     0
100
AcDbTrace
 10
143.25
 20
92.290246
 30
0.0
 11
143.25
 21
91.62358000000001
 31
0.0
 12
141.25
 22
91.956913
 32
0.0
 13
141.25
 23
91.956913
 33
0.0
  0
SOLID
  5
CCC
330
CC6
100
AcDbEntity
  8
0
  6
ByBlock
 62
     0
100
AcDbTrace
 10
172.05
 20
92.290246
 30
0.0
 11
172.05
 21
91.62358000000001
 31
0.0
 12
174.05
 22
91.956913
 32
0.0
 13
174.05
 23
91.956913
 33
0.0
  0
MTEXT
  5
CCD
330
CC6
100
AcDbEntity
  8
0
  6
ByBlock
 62
     0
100
AcDbMText
 10
157.6265019999999
 20
91.956913
 30
0.0
 40
4.0
 41
0.0
 71
     5
 72
     1
  1
\A1;32.8
  7
EXTFONT
 73
     1
 44
1.0
  0
POINT
  5
CCE
330
CC6
100
AcDbEntity
  8
DEFPOINTS
  6
ByBlock
 62
     0
100
AcDbPoint
 10
141.25
 20
103.4999999999999
 30
0.0
  0
POINT
  5
CCF
330
CC6
100
AcDbEntity
  8
DEFPOINTS
  6
ByBlock
 62
     0
100
AcDbPoint
 10
174.05
 20
105.2
 30
0.0
  0
POINT
  5
CD0
330
CC6
100
AcDbEntity
  8
DEFPOINTS
  6
ByBlock
 62
     0
100
AcDbPoint
 10
174.05
 20
91.956913
 30
0.0
  0
ENDBLK
  5
CD2
330
CC6
100
AcDbEntity
  8
0
100
AcDbBlockEnd
  0
BLOCK
  5
CDE
330
CD3
100
AcDbEntity
  8
0
100
AcDbBlockBegin
  2
*D31
 70
     1
 10
0.0
 20
0.0
 30
0.0
  3
*D31
  1

  0
LINE
  5
CD4
330
CD3
100
AcDbEntity
  8
0
  6
ByBlock
 62
     0
100
AcDbLine
 10
141.7499999999999
 20
105.02
 30
0.0
 11
147.3280419999999
 21
105.02
 31
0.0
  0
LINE
  5
CD5
330
CD3
100
AcDbEntity
  8
0
  6
ByBlock
 62
     0
100
AcDbLine
 10
141.7499999999999
 20
124.98
 30
0.0
 11
147.3280419999999
 21
124.98
 31
0.0
  0
LINE
  5
CD6
330
CD3
100
AcDbEntity
  8
0
  6
ByBlock
 62
     0
100
AcDbLine
 10
146.8280419999999
 20
107.02
 30
0.0
 11
146.8280419999999
 21
122.98
 31
0.0
  0
LINE
  5
CD7
330
CD3
100
AcDbEntity
  8
0
  6
ByBlock
 62
     0
100
AcDbLine
 10
146.8280419999999
 20
124.98
 30
0.0
 11
146.8280419999999
 21
129.688879
 31
0.0
  0
LINE
  5
CD8
330
CD3
100
AcDbEntity
  8
0
  6
ByBlock
 62
     0
100
AcDbLine
 10
146.8280419999999
 20
129.688879
 30
0.0
 11
146.9180419999999
 21
129.688879
 31
0.0
  0
SOLID
  5
CD9
330
CD3
100
AcDbEntity
  8
0
  6
ByBlock
 62
     0
100
AcDbTrace
 10
146.4947079999999
 20
107.02
 30
0.0
 11
147.1613749999999
 21
107.02
 31
0.0
 12
146.8280419999999
 22
105.02
 32
0.0
 13
146.8280419999999
 23
105.02
 33
0.0
  0
SOLID
  5
CDA
330
CD3
100
AcDbEntity
  8
0
  6
ByBlock
 62
     0
100
AcDbTrace
 10
146.4947079999999
 20
122.98
 30
0.0
 11
147.1613749999999
 21
122.98
 31
0.0
 12
146.8280419999999
 22
124.98
 32
0.0
 13
146.8280419999999
 23
124.98
 33
0.0
  0
POINT
  5
CDB
330
CD3
100
AcDbEntity
  8
DEFPOINTS
  6
ByBlock
 62
     0
100
AcDbPoint
 10
141.25
 20
105.02
 30
0.0
  0
POINT
  5
CDC
330
CD3
100
AcDbEntity
  8
DEFPOINTS
  6
ByBlock
 62
     0
100
AcDbPoint
 10
141.25
 20
124.98
 30
0.0
  0
POINT
  5
CDD
330
CD3
100
AcDbEntity
  8
DEFPOINTS
  6
ByBlock
 62
     0
100
AcDbPoint
 10
146.8280419999999
 20
124.98
 30
0.0
  0
ENDBLK
  5
CDF
330
CD3
100
AcDbEntity
  8
0
100
AcDbBlockEnd
  0
BLOCK
  5
CEB
330
CE0
100
AcDbEntity
  8
0
100
AcDbBlockBegin
  2
*D32
 70
     1
 10
0.0
 20
0.0
 30
0.0
  3
*D32
  1

  0
LINE
  5
CE1
330
CE0
100
AcDbEntity
  8
0
  6
ByBlock
 62
     0
100
AcDbLine
 10
175.05
 20
124.7999999999999
 30
0.0
 11
199.7383129999999
 21
124.7999999999999
 31
0.0
  0
LINE
  5
CE2
330
CE0
100
AcDbEntity
  8
0
  6
ByBlock
 62
     0
100
AcDbLine
 10
175.05
 20
105.2
 30
0.0
 11
199.7383129999999
 21
105.2
 31
0.0
  0
LINE
  5
CE3
330
CE0
100
AcDbEntity
  8
0
  6
ByBlock
 62
     0
100
AcDbLine
 10
199.2383129999999
 20
122.7999999999999
 30
0.0
 11
199.2383129999999
 21
120.278342
 31
0.0
  0
LINE
  5
CE4
330
CE0
100
AcDbEntity
  8
0
  6
ByBlock
 62
     0
100
AcDbLine
 10
199.2383129999999
 20
107.2
 30
0.0
 11
199.2383129999999
 21
112.0983419999999
 31
0.0
  0
SOLID
  5
CE5
330
CE0
100
AcDbEntity
  8
0
  6
ByBlock
 62
     0
100
AcDbTrace
 10
198.9049789999999
 20
122.7999999999999
 30
0.0
 11
199.5716459999999
 21
122.7999999999999
 31
0.0
 12
199.2383129999999
 22
124.7999999999999
 32
0.0
 13
199.2383129999999
 23
124.7999999999999
 33
0.0
  0
SOLID
  5
CE6
330
CE0
100
AcDbEntity
  8
0
  6
ByBlock
 62
     0
100
AcDbTrace
 10
198.9049789999999
 20
107.2
 30
0.0
 11
199.5716459999999
 21
107.2
 31
0.0
 12
199.2383129999999
 22
105.2
 32
0.0
 13
199.2383129999999
 23
105.2
 33
0.0
  0
MTEXT
  5
CE7
330
CE0
100
AcDbEntity
  8
0
  6
ByBlock
 62
     0
100
AcDbMText
 10
199.2383129999999
 20
116.1883419999999
 30
0.0
 40
4.0
 41
0.0
 71
     5
 72
     1
  1
\A1;19.6
  7
EXTFONT
 11
0.0
 21
1.0
 31
0.0
 73
     1
 44
1.0
  0
POINT
  5
CE8
330
CE0
100
AcDbEntity
  8
DEFPOINTS
  6
ByBlock
 62
     0
100
AcDbPoint
 10
174.55
 20
124.7999999999999
 30
0.0
  0
POINT
  5
CE9
330
CE0
100
AcDbEntity
  8
DEFPOINTS
  6
ByBlock
 62
     0
100
AcDbPoint
 10
174.55
 20
105.2
 30
0.0
  0
POINT
  5
CEA
330
CE0
100
AcDbEntity
  8
DEFPOINTS
  6
ByBlock
 62
     0
100
AcDbPoint
 10
199.2383129999999
 20
105.2
 30
0.0
  0
ENDBLK
  5
CEC
330
CE0
100
AcDbEntity
  8
0
100
AcDbBlockEnd
  0
BLOCK
  5
D19
330
CED
100
AcDbEntity
  8
0
100
AcDbBlockBegin
  2
A$C375C091B
 70
     0
 10
0.0
 20
0.0
 30
0.0
  3
A$C375C091B
  1

  0
DIMENSION
  5
CEE
330
CED
100
AcDbEntity
  8
0
100
AcDbDimension
  2
*D30
 10
32.79999999999999
 20
4.044121999999999
 30
0.0
 11
16.37650299999999
 21
4.044121999999999
 31
0.0
 12
-141.25
 22
-87.912791
 32
0.0
 70
   128
 71
     5
 42
-1.0
  3
STANDARD
100
AcDbAlignedDimension
 13
0.0
 23
15.58720899999999
 33
0.0
 14
32.79999999999999
 24
17.287209
 34
0.0
100
AcDbRotatedDimension
1001
ACAD
1000
DSTYLE
1002
{
1070
    78
1070
     8
1070
   288
1070
     1
1070
   284
1070
     8
1070
   140
1040
4.0
1070
   340
1005
22
1070
    73
1070
     0
1070
   272
1070
     2
1070
    42
1040
0.5
1070
    44
1040
0.5
1070
   271
1070
     2
1070
    41
1040
2.0
1002
}
  0
ELLIPSE
  5
CEF
330
CED
100
AcDbEntity
  8
0
100
AcDbEllipse
 10
16.005064
 20
4.558777
 30
0.0
 11
-9.803757001005976
 21
0.1462406906463229
 31
0.0
210
0.0
220
0.0
230
0.9999999999999998
 40
0.4647940000000001
 41
0.0
 42
6.283185307179585
  0
ELLIPSE
  5
CF0
330
CED
100
AcDbEntity
  8
0
100
AcDbEllipse
 10
16.005064
 20
4.266295999999999
 30
0.0
 11
-8.925808656409627
 21
-0.1462409197721115
 31
0.0
210
0.0
220
0.0
230
1.0
 40
0.396703
 41
0.0
 42
6.283185307179585
  0
DIMENSION
  5
CF1
330
CED
100
AcDbEntity
  8
0
100
AcDbDimension
  2
*D28
 10
32.79999999999999
 20
70.837209
 30
0.0
 11
31.3
 21
70.837209
 31
0.0
 12
-140.9499999999999
 22
-87.912791
 32
0.0
 70
   128
 71
     5
 42
-1.0
  3
STANDARD
100
AcDbAlignedDimension
 13
29.8
 23
37.067209
 33
0.0
 14
32.79999999999999
 24
36.887209
 34
0.0
100
AcDbRotatedDimension
1001
ACAD
1000
DSTYLE
1002
{
1070
    78
1070
     8
1070
   288
1070
     1
1070
   284
1070
     8
1070
   140
1040
4.0
1070
   340
1005
22
1070
    73
1070
     0
1070
   272
1070
     1
1070
    42
1040
0.5
1070
    44
1040
0.5
1070
   271
1070
     1
1070
    41
1040
2.0
1002
}
  0
DIMENSION
  5
CF2
330
CED
100
AcDbEntity
  8
0
100
AcDbDimension
  2
*D32
 10
57.98831299999999
 20
17.287209
 30
0.0
 11
57.98831299999999
 21
28.275551
 31
0.0
 12
-141.25
 22
-87.912791
 32
0.0
 70
   128
 71
     5
 42
-1.0
  3
STANDARD
100
AcDbAlignedDimension
 13
33.3
 23
36.887209
 33
0.0
 14
33.3
 24
17.287209
 34
0.0
 50
90.0
100
AcDbRotatedDimension
1001
ACAD
1000
DSTYLE
1002
{
1070
    78
1070
     8
1070
   288
1070
     1
1070
   284
1070
     8
1070
   140
1040
4.0
1070
   340
1005
22
1070
    73
1070
     0
1070
   272
1070
     2
1070
    42
1040
0.5
1070
    44
1040
0.5
1070
   271
1070
     2
1070
    41
1040
2.0
1002
}
  0
LEADER
  5
CF3
330
CED
100
AcDbEntity
  8
0
100
AcDbLeader
  3
STANDARD
 76
     3
 10
35.32027
 20
17.742871
 30
0.0
 10
40.18262299999999
 20
10.800638
 30
0.0
 10
45.39228699999999
 20
10.800638
 30
0.0
1001
ACAD
1000
DSTYLE
1002
{
1070
    78
1070
     8
1070
   288
1070
     1
1070
   284
1070
     8
1070
   140
1040
4.0
1070
   340
1005
22
1070
    73
1070
     0
1070
   272
1070
     1
1070
    42
1040
0.5
1070
    44
1040
0.5
1070
   271
1070
     1
1070
    41
1040
2.0
1002
}
  0
LWPOLYLINE
  5
CF4
330
CED
100
AcDbEntity
  8
0
100
AcDbPolyline
 90
        3
 70
     1
 43
0.0
 10
41.91808199999999
 20
10.90682499999999
 10
42.820422
 20
12.469724
 10
41.01574099999999
 20
12.469724
  0
DIMENSION
  5
CF5
330
CED
100
AcDbEntity
  8
0
100
AcDbDimension
  2
*D25
 10
36.79999999999999
 20
60.905564
 30
0.0
 11
46.778804
 21
60.905564
 31
0.0
 12
-140.9499999999999
 22
-87.912791
 32
0.0
 70
   128
 71
     5
 42
-1.0
  3
STANDARD
100
AcDbAlignedDimension
 13
33.3
 23
36.887209
 33
0.0
 14
36.79999999999999
 24
36.087209
 34
0.0
100
AcDbRotatedDimension
1001
ACAD
1000
DSTYLE
1002
{
1070
    78
1070
     8
1070
   288
1070
     1
1070
   284
1070
     8
1070
   140
1040
4.0
1070
   340
1005
22
1070
    73
1070
     0
1070
   272
1070
     1
1070
    42
1040
0.5
1070
    44
1040
0.5
1070
   271
1070
     1
1070
    41
1040
2.0
1002
}
  0
DIMENSION
  5
CF6
330
CED
100
AcDbEntity
  8
0
100
AcDbDimension
  2
*D24
 10
46.377063
 20
18.087209
 30
0.0
 11
46.377063
 21
27.146351
 31
0.0
 12
-140.9499999999999
 22
-87.912791
 32
0.0
 70
   128
 71
     5
 42
-1.0
  3
STANDARD
100
AcDbAlignedDimension
 13
33.1
 23
36.087209
 33
0.0
 14
33.1
 24
18.087209
 34
0.0
 50
90.0
100
AcDbRotatedDimension
1001
ACAD
1000
DSTYLE
1002
{
1070
    78
1070
     8
1070
   288
1070
     1
1070
   284
1070
     8
1070
   140
1040
4.0
1070
   340
1005
22
1070
    73
1070
     0
1070
   272
1070
     1
1070
    42
1040
0.5
1070
    44
1040
0.5
1070
   271
1070
     1
1070
    41
1040
2.0
1002
}
  0
DIMENSION
  5
CF7
330
CED
100
AcDbEntity
  8
0
100
AcDbDimension
  2
*D31
 10
5.578041999999999
 20
37.067209
 30
0.0
 11
5.578041999999999
 21
41.866088
 31
0.0
 12
-141.25
 22
-87.912791
 32
0.0
 70
   128
  1
 
 71
     5
 42
-1.0
  3
STANDARD
100
AcDbAlignedDimension
 13
0.0
 23
17.107209
 33
0.0
 14
0.0
 24
37.067209
 34
0.0
 50
90.0
100
AcDbRotatedDimension
1001
ACAD
1000
DSTYLE
1002
{
1070
    78
1070
     8
1070
   288
1070
     1
1070
   284
1070
     8
1070
   140
1040
4.0
1070
   340
1005
22
1070
    73
1070
     0
1070
   272
1070
     2
1070
    42
1040
0.5
1070
    44
1040
0.5
1070
   271
1070
     2
1070
    41
1040
2.0
1002
}
  0
ELLIPSE
  5
CF8
330
CED
100
AcDbEntity
  8
0
100
AcDbEllipse
 10
13.652057
 20
44.13117800000001
 30
0.0
 11
-11.75689838058963
 21
0.2831362337982455
 31
0.0
210
0.0
220
0.0
230
1.0
 40
0.4317270000000001
 41
0.0
 42
6.283185307179585
  0
DIMENSION
  5
CF9
330
CED
100
AcDbEntity
  8
0
100
AcDbDimension
  2
*D29
 10
29.8
 20
67.22013199999999
 30
0.0
 11
15.768692
 21
67.22013199999999
 31
0.0
 12
-141.25
 22
-87.912791
 32
0.0
 70
   128
 71
     5
 42
-1.0
  3
STANDARD
100
AcDbAlignedDimension
 13
0.0
 23
38.587209
 33
0.0
 14
29.8
 24
37.067209
 34
0.0
100
AcDbRotatedDimension
1001
ACAD
1000
DSTYLE
1002
{
1070
    78
1070
     8
1070
   288
1070
     1
1070
   284
1070
     8
1070
   140
1040
4.0
1070
   340
1005
22
1070
    73
1070
     0
1070
   272
1070
     2
1070
    42
1040
0.5
1070
    44
1040
0.5
1070
   271
1070
     2
1070
    41
1040
2.0
1002
}
  0
DIMENSION
  5
CFA
330
CED
100
AcDbEntity
  8
0
100
AcDbDimension
  2
*D27
 10
29.8
 20
49.684312
 30
0.0
 11
22.719457
 21
49.684312
 31
0.0
 12
-140.9499999999999
 22
-87.912791
 32
0.0
 70
   128
 71
     5
 42
-1.0
  3
STANDARD
100
AcDbAlignedDimension
 13
32.79999999999999
 23
37.387209
 33
0.0
 14
29.8
 24
37.087209
 34
0.0
100
AcDbRotatedDimension
1001
ACAD
1000
DSTYLE
1002
{
1070
    78
1070
     8
1070
   288
1070
     1
1070
   284
1070
     8
1070
   140
1040
4.0
1070
   340
1005
22
1070
    73
1070
     0
1070
   272
1070
     1
1070
    42
1040
0.5
1070
    44
1040
0.5
1070
   271
1070
     1
1070
    41
1040
2.0
1002
}
  0
DIMENSION
  5
CFB
330
CED
100
AcDbEntity
  8
0
100
AcDbDimension
  2
*D26
 10
32.79999999999999
 20
57.378885
 30
0.0
 11
21.436293
 21
57.378885
 31
0.0
 12
-140.9499999999999
 22
-87.912791
 32
0.0
 70
   128
 71
     5
 42
-1.0
  3
STANDARD
100
AcDbAlignedDimension
 13
33.3
 23
37.387209
 33
0.0
 14
32.79999999999999
 24
36.887209
 34
0.0
100
AcDbRotatedDimension
1001
ACAD
1000
DSTYLE
1002
{
1070
    78
1070
     8
1070
   288
1070
     1
1070
   284
1070
     8
1070
   140
1040
4.0
1070
   340
1005
22
1070
    73
1070
     0
1070
   272
1070
     1
1070
    42
1040
0.5
1070
    44
1040
0.5
1070
   271
1070
     1
1070
    41
1040
2.0
1002
}
  0
LINE
  5
CFC
330
CED
100
AcDbEntity
  8
3
100
AcDbLine
 10
29.8
 20
37.067209
 30
0.0
 11
0.0
 21
37.067209
 31
0.0
  0
LINE
  5
CFD
330
CED
100
AcDbEntity
  8
3
100
AcDbLine
 10
29.8
 20
17.107209
 30
0.0
 11
0.0
 21
17.107209
 31
0.0
  0
TEXT
  5
CFE
330
CED
100
AcDbEntity
  8
0
100
AcDbText
 10
17.624256
 20
9.96293
 30
0.0
 40
2.399999999999999
  1
%%P0.1
 41
0.75
  7
EXTFONT
100
AcDbText
  0
LINE
  5
CFF
330
CED
100
AcDbEntity
  8
3
100
AcDbLine
 10
0.0
 20
15.58720899999999
 30
0.0
 11
0.0
 21
27.087209
 31
0.0
  0
LINE
  5
D00
330
CED
100
AcDbEntity
  8
3
100
AcDbLine
 10
0.0
 20
15.58720899999999
 30
0.0
 11
0.0
 21
27.087209
 31
0.0
  0
LINE
  5
D01
330
CED
100
AcDbEntity
  8
3
100
AcDbLine
 10
0.0
 20
38.587209
 30
0.0
 11
0.0
 21
27.087209
 31
0.0
  0
LINE
  5
D02
330
CED
100
AcDbEntity
  8
3
100
AcDbLine
 10
29.8
 20
27.087209
 30
0.0
 11
29.8
 21
17.107209
 31
0.0
  0
LINE
  5
D03
330
CED
100
AcDbEntity
  8
3
100
AcDbLine
 10
36.79999999999999
 20
27.087209
 30
0.0
 11
36.79999999999999
 21
18.087209
 31
0.0
  0
LINE
  5
D04
330
CED
100
AcDbEntity
  8
3
100
AcDbLine
 10
33.3
 20
17.287209
 30
0.0
 11
33.3
 21
27.087209
 31
0.0
  0
LINE
  5
D05
330
CED
100
AcDbEntity
  8
3
100
AcDbLine
 10
32.79999999999999
 20
27.087209
 30
0.0
 11
32.79999999999999
 21
17.287209
 31
0.0
  0
LINE
  5
D06
330
CED
100
AcDbEntity
  8
3
100
AcDbLine
 10
29.8
 20
18.087209
 30
0.0
 11
32.79999999999999
 21
18.087209
 31
0.0
  0
LINE
  5
D07
330
CED
100
AcDbEntity
  8
3
100
AcDbLine
 10
36.79999999999999
 20
18.087209
 30
0.0
 11
33.3
 21
17.287209
 31
0.0
  0
LINE
  5
D08
330
CED
100
AcDbEntity
  8
3
100
AcDbLine
 10
32.79999999999999
 20
17.287209
 30
0.0
 11
33.3
 21
17.287209
 31
0.0
  0
LINE
  5
D09
330
CED
100
AcDbEntity
  8
3
100
AcDbLine
 10
29.8
 20
36.087209
 30
0.0
 11
32.79999999999999
 21
36.087209
 31
0.0
  0
LINE
  5
D0A
330
CED
100
AcDbEntity
  8
3
100
AcDbLine
 10
29.8
 20
27.087209
 30
0.0
 11
29.8
 21
37.067209
 31
0.0
  0
LINE
  5
D0B
330
CED
100
AcDbEntity
  8
3
100
AcDbLine
 10
36.79999999999999
 20
27.087209
 30
0.0
 11
36.79999999999999
 21
36.087209
 31
0.0
  0
LINE
  5
D0C
330
CED
100
AcDbEntity
  8
3
100
AcDbLine
 10
33.3
 20
36.887209
 30
0.0
 11
33.3
 21
27.087209
 31
0.0
  0
LINE
  5
D0D
330
CED
100
AcDbEntity
  8
3
100
AcDbLine
 10
32.79999999999999
 20
27.087209
 30
0.0
 11
32.79999999999999
 21
36.887209
 31
0.0
  0
LINE
  5
D0E
330
CED
100
AcDbEntity
  8
3
100
AcDbLine
 10
36.79999999999999
 20
36.087209
 30
0.0
 11
33.3
 21
36.887209
 31
0.0
  0
LINE
  5
D0F
330
CED
100
AcDbEntity
  8
3
100
AcDbLine
 10
32.79999999999999
 20
36.887209
 30
0.0
 11
33.3
 21
36.887209
 31
0.0
  0
LINE
  5
D10
330
CED
100
AcDbEntity
  8
0
100
AcDbLine
 10
5.668041999999999
 20
41.776088
 30
0.0
 11
23.992461
 21
42.43235999999999
 31
0.0
  0
TEXT
  5
D11
330
CED
100
AcDbEntity
  8
0
100
AcDbText
 10
5.414919999999999
 20
43.021861
 30
0.0
 40
2.399999999999999
  1
19.92～19.96
 41
0.75
  7
EXTFONT
100
AcDbText
  0
LWPOLYLINE
  5
D12
330
CED
100
AcDbEntity
  8
0
100
AcDbPolyline
 90
        3
 70
     1
 43
0.0
 10
0.393369
 20
52.106624
 10
1.956268999999999
 20
51.204283
 10
1.956268999999999
 20
53.008964
  0
LWPOLYLINE
  5
D13
330
CED
100
AcDbEntity
  8
0
100
AcDbPolyline
 90
        3
 70
     1
 43
0.0
 10
0.393369
 20
50.301943
 10
1.956268999999999
 20
49.399602
 10
1.956268999999999
 20
51.204283
  0
LWPOLYLINE
  5
D14
330
CED
100
AcDbEntity
  8
0
100
AcDbPolyline
 90
        3
 70
     1
 43
0.0
 10
36.813707
 20
47.594172
 10
38.376607
 20
46.69183199999999
 10
38.376607
 20
48.496513
  0
LWPOLYLINE
  5
D15
330
CED
100
AcDbEntity
  8
0
100
AcDbPolyline
 90
        3
 70
     1
 43
0.0
 10
36.813707
 20
45.78949199999999
 10
38.376607
 20
44.887151
 10
38.376607
 20
46.69183199999999
  0
LWPOLYLINE
  5
D16
330
CED
100
AcDbEntity
  8
0
100
AcDbPolyline
 90
        3
 70
     1
 43
0.0
 10
43.722762
 20
10.90682499999999
 10
44.625103
 20
12.469724
 10
42.820422
 20
12.469724
  0
LWPOLYLINE
  5
D17
330
CED
100
AcDbEntity
  8
0
100
AcDbPolyline
 90
        3
 70
     1
 43
0.0
 10
51.363603
 20
37.291296
 10
52.265943
 20
38.854195
 10
50.461263
 20
38.854195
  0
LWPOLYLINE
  5
D18
330
CED
100
AcDbEntity
  8
0
100
AcDbPolyline
 90
        3
 70
     1
 43
0.0
 10
49.558922
 20
37.291296
 10
50.461263
 20
38.854195
 10
48.656582
 20
38.854195
  0
ENDBLK
  5
D1A
330
CED
100
AcDbEntity
  8
0
100
AcDbBlockEnd
  0
BLOCK
  5
EC0
330
EB5
100
AcDbEntity
  8
0
100
AcDbBlockBegin
  2
*D34
 70
     1
 10
0.0
 20
0.0
 30
0.0
  3
*D34
  1

  0
LINE
  5
EB6
330
EB5
100
AcDbEntity
  8
0
  6
ByBlock
 62
     0
100
AcDbLine
 10
119.0
 20
165.0
 30
0.0
 11
119.0
 21
190.483825
 31
0.0
  0
LINE
  5
EB7
330
EB5
100
AcDbEntity
  8
0
  6
ByBlock
 62
     0
100
AcDbLine
 10
117.5
 20
169.0
 30
0.0
 11
117.5
 21
190.483825
 31
0.0
  0
LINE
  5
EB8
330
EB5
100
AcDbEntity
  8
0
  6
ByBlock
 62
     0
100
AcDbLine
 10
116.0
 20
189.483825
 30
0.0
 11
114.5
 21
189.483825
 31
0.0
  0
LINE
  5
EB9
330
EB5
100
AcDbEntity
  8
0
  6
ByBlock
 62
     0
100
AcDbLine
 10
120.5
 20
189.483825
 30
0.0
 11
125.245909
 21
189.483825
 31
0.0
  0
SOLID
  5
EBA
330
EB5
100
AcDbEntity
  8
0
  6
ByBlock
 62
     0
100
AcDbTrace
 10
116.0
 20
189.7338249999999
 30
0.0
 11
116.0
 21
189.2338249999999
 31
0.0
 12
117.5
 22
189.483825
 32
0.0
 13
117.5
 23
189.483825
 33
0.0
  0
SOLID
  5
EBB
330
EB5
100
AcDbEntity
  8
0
  6
ByBlock
 62
     0
100
AcDbTrace
 10
120.5
 20
189.7338249999999
 30
0.0
 11
120.5
 21
189.2338249999999
 31
0.0
 12
119.0
 22
189.483825
 32
0.0
 13
119.0
 23
189.483825
 33
0.0
  0
MTEXT
  5
EBC
330
EB5
100
AcDbEntity
  8
0
  6
ByBlock
 62
     0
100
AcDbMText
 10
128.6692429999999
 20
189.483825
 30
0.0
 40
4.0
 41
0.0
 71
     5
 72
     1
  1
\A1;1.5
 73
     1
 44
1.0
  0
POINT
  5
EBD
330
EB5
100
AcDbEntity
  8
DEFPOINTS
  6
ByBlock
 62
     0
100
AcDbPoint
 10
119.0
 20
164.0
 30
0.0
  0
POINT
  5
EBE
330
EB5
100
AcDbEntity
  8
DEFPOINTS
  6
ByBlock
 62
     0
100
AcDbPoint
 10
117.5
 20
168.0
 30
0.0
  0
POINT
  5
EBF
330
EB5
100
AcDbEntity
  8
DEFPOINTS
  6
ByBlock
 62
     0
100
AcDbPoint
 10
117.5
 20
189.483825
 30
0.0
  0
ENDBLK
  5
EC1
330
EB5
100
AcDbEntity
  8
0
100
AcDbBlockEnd
  0
BLOCK
  5
ECD
330
EC2
100
AcDbEntity
  8
0
100
AcDbBlockBegin
  2
*D35
 70
     1
 10
0.0
 20
0.0
 30
0.0
  3
*D35
  1

  0
LINE
  5
EC3
330
EC2
100
AcDbEntity
  8
0
  6
ByBlock
 62
     0
100
AcDbLine
 10
122.5
 20
168.0
 30
0.0
 11
150.0
 21
168.0
 31
0.0
  0
LINE
  5
EC4
330
EC2
100
AcDbEntity
  8
0
  6
ByBlock
 62
     0
100
AcDbLine
 10
122.5
 20
160.0
 30
0.0
 11
150.0
 21
160.0
 31
0.0
  0
LINE
  5
EC5
330
EC2
100
AcDbEntity
  8
0
  6
ByBlock
 62
     0
100
AcDbLine
 10
149.0
 20
166.5
 30
0.0
 11
149.0
 21
165.923333
 31
0.0
  0
LINE
  5
EC6
330
EC2
100
AcDbEntity
  8
0
  6
ByBlock
 62
     0
100
AcDbLine
 10
149.0
 20
161.5
 30
0.0
 11
149.0
 21
163.0766669999999
 31
0.0
  0
SOLID
  5
EC7
330
EC2
100
AcDbEntity
  8
0
  6
ByBlock
 62
     0
100
AcDbTrace
 10
148.75
 20
166.5
 30
0.0
 11
149.2499999999999
 21
166.5
 31
0.0
 12
149.0
 22
168.0
 32
0.0
 13
149.0
 23
168.0
 33
0.0
  0
SOLID
  5
EC8
330
EC2
100
AcDbEntity
  8
0
  6
ByBlock
 62
     0
100
AcDbTrace
 10
148.75
 20
161.5
 30
0.0
 11
149.2499999999999
 21
161.5
 31
0.0
 12
149.0
 22
160.0
 32
0.0
 13
149.0
 23
160.0
 33
0.0
  0
MTEXT
  5
EC9
330
EC2
100
AcDbEntity
  8
0
  6
ByBlock
 62
     0
100
AcDbMText
 10
149.0
 20
164.5
 30
0.0
 40
4.0
 41
0.0
 71
     5
 72
     1
  1
\A1;8
 11
0.0
 21
1.0
 31
0.0
 73
     1
 44
1.0
  0
POINT
  5
ECA
330
EC2
100
AcDbEntity
  8
DEFPOINTS
  6
ByBlock
 62
     0
100
AcDbPoint
 10
121.5
 20
168.0
 30
0.0
  0
POINT
  5
ECB
330
EC2
100
AcDbEntity
  8
DEFPOINTS
  6
ByBlock
 62
     0
100
AcDbPoint
 10
121.5
 20
160.0
 30
0.0
  0
POINT
  5
ECC
330
EC2
100
AcDbEntity
  8
DEFPOINTS
  6
ByBlock
 62
     0
100
AcDbPoint
 10
149.0
 20
160.0
 30
0.0
  0
ENDBLK
  5
ECE
330
EC2
100
AcDbEntity
  8
0
100
AcDbBlockEnd
  0
BLOCK
  5
ED6
330
ECF
100
AcDbEntity
  8
0
100
AcDbBlockBegin
  2
*D36
 70
     1
 10
0.0
 20
0.0
 30
0.0
  3
*D36
  1

  0
LINE
  5
ED0
330
ECF
100
AcDbEntity
  8
0
  6
ByBlock
 62
     0
100
AcDbLine
 10
79.5
 20
174.0
 30
0.0
 11
81.0
 21
174.0
 31
0.0
  0
LINE
  5
ED1
330
ECF
100
AcDbEntity
  8
0
  6
ByBlock
 62
     0
100
AcDbLine
 10
81.0
 20
174.0
 30
0.0
 11
122.7770919999999
 21
162.3683269999999
 31
0.0
  0
MTEXT
  5
ED2
330
ECF
100
AcDbEntity
  8
0
  6
ByBlock
 62
     0
100
AcDbMText
 10
76.076667
 20
174.0
 30
0.0
 40
4.0
 41
0.0
 71
     5
 72
     1
  1
\A1;R6
 73
     1
 44
1.0
  0
SOLID
  5
ED3
330
ECF
100
AcDbEntity
  8
0
  6
ByBlock
 62
     0
100
AcDbTrace
 10
121.399111
 20
163.0114969999999
 30
0.0
 11
121.2650009999999
 21
162.529818
 31
0.0
 12
122.7770919999999
 22
162.3683269999999
 32
0.0
 13
122.7770919999999
 23
162.3683269999999
 33
0.0
  0
POINT
  5
ED4
330
ECF
100
AcDbEntity
  8
DEFPOINTS
  6
ByBlock
 62
     0
100
AcDbPoint
 10
122.7770919999999
 20
162.3683269999999
 30
0.0
  0
POINT
  5
ED5
330
ECF
100
AcDbEntity
  8
DEFPOINTS
  6
ByBlock
 62
     0
100
AcDbPoint
 10
116.9166669999999
 20
164.0
 30
0.0
  0
ENDBLK
  5
ED7
330
ECF
100
AcDbEntity
  8
0
100
AcDbBlockEnd
  0
BLOCK
  5
EE3
330
ED8
100
AcDbEntity
  8
0
100
AcDbBlockBegin
  2
*D37
 70
     1
 10
0.0
 20
0.0
 30
0.0
  3
*D37
  1

  0
LINE
  5
ED9
330
ED8
100
AcDbEntity
  8
0
  6
ByBlock
 62
     0
100
AcDbLine
 10
107.0
 20
169.0
 30
0.0
 11
107.0
 21
199.208261
 31
0.0
  0
LINE
  5
EDA
330
ED8
100
AcDbEntity
  8
0
  6
ByBlock
 62
     0
100
AcDbLine
 10
123.0
 20
165.0
 30
0.0
 11
123.0
 21
199.208261
 31
0.0
  0
LINE
  5
EDB
330
ED8
100
AcDbEntity
  8
0
  6
ByBlock
 62
     0
100
AcDbLine
 10
108.4999999999999
 20
198.208261
 30
0.0
 11
112.375256
 21
198.208261
 31
0.0
  0
LINE
  5
EDC
330
ED8
100
AcDbEntity
  8
0
  6
ByBlock
 62
     0
100
AcDbLine
 10
121.5
 20
198.208261
 30
0.0
 11
117.8885889999999
 21
198.208261
 31
0.0
  0
SOLID
  5
EDD
330
ED8
100
AcDbEntity
  8
0
  6
ByBlock
 62
     0
100
AcDbTrace
 10
108.4999999999999
 20
198.458261
 30
0.0
 11
108.4999999999999
 21
197.958261
 31
0.0
 12
107.0
 22
198.208261
 32
0.0
 13
107.0
 23
198.208261
 33
0.0
  0
SOLID
  5
EDE
330
ED8
100
AcDbEntity
  8
0
  6
ByBlock
 62
     0
100
AcDbTrace
 10
121.5
 20
198.458261
 30
0.0
 11
121.5
 21
197.958261
 31
0.0
 12
123.0
 22
198.208261
 32
0.0
 13
123.0
 23
198.208261
 33
0.0
  0
MTEXT
  5
EDF
330
ED8
100
AcDbEntity
  8
0
  6
ByBlock
 62
     0
100
AcDbMText
 10
115.131923
 20
198.208261
 30
0.0
 40
4.0
 41
0.0
 71
     5
 72
     1
  1
\A1;16
 73
     1
 44
1.0
  0
POINT
  5
EE0
330
ED8
100
AcDbEntity
  8
DEFPOINTS
  6
ByBlock
 62
     0
100
AcDbPoint
 10
107.0
 20
168.0
 30
0.0
  0
POINT
  5
EE1
330
ED8
100
AcDbEntity
  8
DEFPOINTS
  6
ByBlock
 62
     0
100
AcDbPoint
 10
123.0
 20
164.0
 30
0.0
  0
POINT
  5
EE2
330
ED8
100
AcDbEntity
  8
DEFPOINTS
  6
ByBlock
 62
     0
100
AcDbPoint
 10
123.0
 20
198.208261
 30
0.0
  0
ENDBLK
  5
EE4
330
ED8
100
AcDbEntity
  8
0
100
AcDbBlockEnd
  0
BLOCK
  5
EF0
330
EE5
100
AcDbEntity
  8
0
100
AcDbBlockBegin
  2
*D38
 70
     1
 10
0.0
 20
0.0
 30
0.0
  3
*D38
  1

  0
LINE
  5
EE6
330
EE5
100
AcDbEntity
  8
0
  6
ByBlock
 62
     0
100
AcDbLine
 10
58.5
 20
167.0
 30
0.0
 11
58.5
 21
181.0002649999999
 31
0.0
  0
LINE
  5
EE7
330
EE5
100
AcDbEntity
  8
0
  6
ByBlock
 62
     0
100
AcDbLine
 10
60.5
 20
167.5
 30
0.0
 11
60.5
 21
181.0002649999999
 31
0.0
  0
LINE
  5
EE8
330
EE5
100
AcDbEntity
  8
0
  6
ByBlock
 62
     0
100
AcDbLine
 10
62.0
 20
180.0002649999999
 30
0.0
 11
63.5
 21
180.0002649999999
 31
0.0
  0
LINE
  5
EE9
330
EE5
100
AcDbEntity
  8
0
  6
ByBlock
 62
     0
100
AcDbLine
 10
57.0
 20
180.0002649999999
 30
0.0
 11
48.586604
 21
180.0002649999999
 31
0.0
  0
SOLID
  5
EEA
330
EE5
100
AcDbEntity
  8
0
  6
ByBlock
 62
     0
100
AcDbTrace
 10
62.0
 20
180.2502649999999
 30
0.0
 11
62.0
 21
179.750265
 31
0.0
 12
60.5
 22
180.0002649999999
 32
0.0
 13
60.5
 23
180.0002649999999
 33
0.0
  0
SOLID
  5
EEB
330
EE5
100
AcDbEntity
  8
0
  6
ByBlock
 62
     0
100
AcDbTrace
 10
57.0
 20
180.2502649999999
 30
0.0
 11
57.0
 21
179.750265
 31
0.0
 12
58.5
 22
180.0002649999999
 32
0.0
 13
58.5
 23
180.0002649999999
 33
0.0
  0
MTEXT
  5
EEC
330
EE5
100
AcDbEntity
  8
0
  6
ByBlock
 62
     0
100
AcDbMText
 10
47.16327099999999
 20
180.0002649999999
 30
0.0
 40
4.0
 41
0.0
 71
     5
 72
     1
  1
\A1;2
 73
     1
 44
1.0
  0
POINT
  5
EED
330
EE5
100
AcDbEntity
  8
DEFPOINTS
  6
ByBlock
 62
     0
100
AcDbPoint
 10
58.5
 20
166.0
 30
0.0
  0
POINT
  5
EEE
330
EE5
100
AcDbEntity
  8
DEFPOINTS
  6
ByBlock
 62
     0
100
AcDbPoint
 10
60.5
 20
166.5
 30
0.0
  0
POINT
  5
EEF
330
EE5
100
AcDbEntity
  8
DEFPOINTS
  6
ByBlock
 62
     0
100
AcDbPoint
 10
60.5
 20
180.0002649999999
 30
0.0
  0
ENDBLK
  5
EF1
330
EE5
100
AcDbEntity
  8
0
100
AcDbBlockEnd
  0
BLOCK
  5
EFD
330
EF2
100
AcDbEntity
  8
0
100
AcDbBlockBegin
  2
*D39
 70
     1
 10
0.0
 20
0.0
 30
0.0
  3
*D39
  1

  0
LINE
  5
EF3
330
EF2
100
AcDbEntity
  8
0
  6
ByBlock
 62
     0
100
AcDbLine
 10
60.5
 20
167.5
 30
0.0
 11
60.5
 21
185.896533
 31
0.0
  0
LINE
  5
EF4
330
EF2
100
AcDbEntity
  8
0
  6
ByBlock
 62
     0
100
AcDbLine
 10
62.5
 20
167.5
 30
0.0
 11
62.5
 21
185.896533
 31
0.0
  0
LINE
  5
EF5
330
EF2
100
AcDbEntity
  8
0
  6
ByBlock
 62
     0
100
AcDbLine
 10
59.0
 20
184.896533
 30
0.0
 11
57.5
 21
184.896533
 31
0.0
  0
LINE
  5
EF6
330
EF2
100
AcDbEntity
  8
0
  6
ByBlock
 62
     0
100
AcDbLine
 10
64.0
 20
184.896533
 30
0.0
 11
66.40608199999999
 21
184.896533
 31
0.0
  0
SOLID
  5
EF7
330
EF2
100
AcDbEntity
  8
0
  6
ByBlock
 62
     0
100
AcDbTrace
 10
59.0
 20
185.146533
 30
0.0
 11
59.0
 21
184.646533
 31
0.0
 12
60.5
 22
184.896533
 32
0.0
 13
60.5
 23
184.896533
 33
0.0
  0
SOLID
  5
EF8
330
EF2
100
AcDbEntity
  8
0
  6
ByBlock
 62
     0
100
AcDbTrace
 10
64.0
 20
185.146533
 30
0.0
 11
64.0
 21
184.646533
 31
0.0
 12
62.5
 22
184.896533
 32
0.0
 13
62.5
 23
184.896533
 33
0.0
  0
MTEXT
  5
EF9
330
EF2
100
AcDbEntity
  8
0
  6
ByBlock
 62
     0
100
AcDbMText
 10
67.82941499999999
 20
184.896533
 30
0.0
 40
4.0
 41
0.0
 71
     5
 72
     1
  1
\A1;2
 73
     1
 44
1.0
  0
POINT
  5
EFA
330
EF2
100
AcDbEntity
  8
DEFPOINTS
  6
ByBlock
 62
     0
100
AcDbPoint
 10
60.5
 20
166.5
 30
0.0
  0
POINT
  5
EFB
330
EF2
100
AcDbEntity
  8
DEFPOINTS
  6
ByBlock
 62
     0
100
AcDbPoint
 10
62.5
 20
166.5
 30
0.0
  0
POINT
  5
EFC
330
EF2
100
AcDbEntity
  8
DEFPOINTS
  6
ByBlock
 62
     0
100
AcDbPoint
 10
62.5
 20
184.896533
 30
0.0
  0
ENDBLK
  5
EFE
330
EF2
100
AcDbEntity
  8
0
100
AcDbBlockEnd
  0
BLOCK
  5
F0A
330
EFF
100
AcDbEntity
  8
0
100
AcDbBlockBegin
  2
*D40
 70
     1
 10
0.0
 20
0.0
 30
0.0
  3
*D40
  1

  0
LINE
  5
F00
330
EFF
100
AcDbEntity
  8
0
  6
ByBlock
 62
     0
100
AcDbLine
 10
58.5
 20
167.0
 30
0.0
 11
58.5
 21
209.612829
 31
0.0
  0
LINE
  5
F01
330
EFF
100
AcDbEntity
  8
0
  6
ByBlock
 62
     0
100
AcDbLine
 10
123.0
 20
165.0
 30
0.0
 11
123.0
 21
209.612829
 31
0.0
  0
LINE
  5
F02
330
EFF
100
AcDbEntity
  8
0
  6
ByBlock
 62
     0
100
AcDbLine
 10
60.0
 20
208.6128289999999
 30
0.0
 11
84.08946699999999
 21
208.6128289999999
 31
0.0
  0
LINE
  5
F03
330
EFF
100
AcDbEntity
  8
0
  6
ByBlock
 62
     0
100
AcDbLine
 10
121.5
 20
208.6128289999999
 30
0.0
 11
96.26946700000001
 21
208.6128289999999
 31
0.0
  0
SOLID
  5
F04
330
EFF
100
AcDbEntity
  8
0
  6
ByBlock
 62
     0
100
AcDbTrace
 10
60.0
 20
208.8628289999999
 30
0.0
 11
60.0
 21
208.362829
 31
0.0
 12
58.5
 22
208.6128289999999
 32
0.0
 13
58.5
 23
208.6128289999999
 33
0.0
  0
SOLID
  5
F05
330
EFF
100
AcDbEntity
  8
0
  6
ByBlock
 62
     0
100
AcDbTrace
 10
121.5
 20
208.8628289999999
 30
0.0
 11
121.5
 21
208.362829
 31
0.0
 12
123.0
 22
208.6128289999999
 32
0.0
 13
123.0
 23
208.6128289999999
 33
0.0
  0
MTEXT
  5
F06
330
EFF
100
AcDbEntity
  8
0
  6
ByBlock
 62
     0
100
AcDbMText
 10
90.17946700000001
 20
208.6128289999999
 30
0.0
 40
4.0
 41
0.0
 71
     5
 72
     1
  1
\A1;64.5
 73
     1
 44
1.0
  0
POINT
  5
F07
330
EFF
100
AcDbEntity
  8
DEFPOINTS
  6
ByBlock
 62
     0
100
AcDbPoint
 10
58.5
 20
166.0
 30
0.0
  0
POINT
  5
F08
330
EFF
100
AcDbEntity
  8
DEFPOINTS
  6
ByBlock
 62
     0
100
AcDbPoint
 10
123.0
 20
164.0
 30
0.0
  0
POINT
  5
F09
330
EFF
100
AcDbEntity
  8
DEFPOINTS
  6
ByBlock
 62
     0
100
AcDbPoint
 10
123.0
 20
208.6128289999999
 30
0.0
  0
ENDBLK
  5
F0B
330
EFF
100
AcDbEntity
  8
0
100
AcDbBlockEnd
  0
BLOCK
  5
F17
330
F0C
100
AcDbEntity
  8
0
100
AcDbBlockBegin
  2
*D41
 70
     1
 10
0.0
 20
0.0
 30
0.0
  3
*D41
  1

  0
LINE
  5
F0D
330
F0C
100
AcDbEntity
  8
0
  6
ByBlock
 62
     0
100
AcDbLine
 10
107.0
 20
169.0
 30
0.0
 11
107.0
 21
199.208261
 31
0.0
  0
LINE
  5
F0E
330
F0C
100
AcDbEntity
  8
0
  6
ByBlock
 62
     0
100
AcDbLine
 10
58.5
 20
167.0
 30
0.0
 11
58.5
 21
199.208261
 31
0.0
  0
LINE
  5
F0F
330
F0C
100
AcDbEntity
  8
0
  6
ByBlock
 62
     0
100
AcDbLine
 10
105.4999999999999
 20
198.208261
 30
0.0
 11
91.983156
 21
198.208261
 31
0.0
  0
LINE
  5
F10
330
F0C
100
AcDbEntity
  8
0
  6
ByBlock
 62
     0
100
AcDbLine
 10
60.0
 20
198.208261
 30
0.0
 11
79.803156
 21
198.208261
 31
0.0
  0
SOLID
  5
F11
330
F0C
100
AcDbEntity
  8
0
  6
ByBlock
 62
     0
100
AcDbTrace
 10
105.4999999999999
 20
198.458261
 30
0.0
 11
105.4999999999999
 21
197.958261
 31
0.0
 12
107.0
 22
198.208261
 32
0.0
 13
107.0
 23
198.208261
 33
0.0
  0
SOLID
  5
F12
330
F0C
100
AcDbEntity
  8
0
  6
ByBlock
 62
     0
100
AcDbTrace
 10
60.0
 20
198.458261
 30
0.0
 11
60.0
 21
197.958261
 31
0.0
 12
58.5
 22
198.208261
 32
0.0
 13
58.5
 23
198.208261
 33
0.0
  0
MTEXT
  5
F13
330
F0C
100
AcDbEntity
  8
0
  6
ByBlock
 62
     0
100
AcDbMText
 10
85.893156
 20
198.208261
 30
0.0
 40
4.0
 41
0.0
 71
     5
 72
     1
  1
\A1;48.5
 73
     1
 44
1.0
  0
POINT
  5
F14
330
F0C
100
AcDbEntity
  8
DEFPOINTS
  6
ByBlock
 62
     0
100
AcDbPoint
 10
107.0
 20
168.0
 30
0.0
  0
POINT
  5
F15
330
F0C
100
AcDbEntity
  8
DEFPOINTS
  6
ByBlock
 62
     0
100
AcDbPoint
 10
58.5
 20
166.0
 30
0.0
  0
POINT
  5
F16
330
F0C
100
AcDbEntity
  8
DEFPOINTS
  6
ByBlock
 62
     0
100
AcDbPoint
 10
58.5
 20
198.208261
 30
0.0
  0
ENDBLK
  5
F18
330
F0C
100
AcDbEntity
  8
0
100
AcDbBlockEnd
  0
BLOCK
  5
F25
330
F19
100
AcDbEntity
  8
0
100
AcDbBlockBegin
  2
*D42
 70
     1
 10
0.0
 20
0.0
 30
0.0
  3
*D42
  1

  0
LINE
  5
F1A
330
F19
100
AcDbEntity
  8
0
  6
ByBlock
 62
     0
100
AcDbLine
 10
61.5
 20
166.5
 30
0.0
 11
33.44265399999999
 21
166.5
 31
0.0
  0
LINE
  5
F1B
330
F19
100
AcDbEntity
  8
0
  6
ByBlock
 62
     0
100
AcDbLine
 10
61.5
 20
161.5
 30
0.0
 11
33.44265399999999
 21
161.5
 31
0.0
  0
LINE
  5
F1C
330
F19
100
AcDbEntity
  8
0
  6
ByBlock
 62
     0
100
AcDbLine
 10
34.44265399999999
 20
163.0
 30
0.0
 11
34.44265399999999
 21
165.0
 31
0.0
  0
LINE
  5
F1D
330
F19
100
AcDbEntity
  8
0
  6
ByBlock
 62
     0
100
AcDbLine
 10
34.44265399999999
 20
166.5
 30
0.0
 11
34.44265399999999
 21
174.7979809999999
 31
0.0
  0
LINE
  5
F1E
330
F19
100
AcDbEntity
  8
0
  6
ByBlock
 62
     0
100
AcDbLine
 10
34.44265399999999
 20
174.7979809999999
 30
0.0
 11
35.94265399999999
 21
174.7979809999999
 31
0.0
  0
SOLID
  5
F1F
330
F19
100
AcDbEntity
  8
0
  6
ByBlock
 62
     0
100
AcDbTrace
 10
34.192654
 20
163.0
 30
0.0
 11
34.69265399999999
 21
163.0
 31
0.0
 12
34.44265399999999
 22
161.5
 32
0.0
 13
34.44265399999999
 23
161.5
 33
0.0
  0
SOLID
  5
F20
330
F19
100
AcDbEntity
  8
0
  6
ByBlock
 62
     0
100
AcDbTrace
 10
34.192654
 20
165.0
 30
0.0
 11
34.69265399999999
 21
165.0
 31
0.0
 12
34.44265399999999
 22
166.5
 32
0.0
 13
34.44265399999999
 23
166.5
 33
0.0
  0
MTEXT
  5
F21
330
F19
100
AcDbEntity
  8
0
  6
ByBlock
 62
     0
100
AcDbMText
 10
37.365987
 20
174.7979809999999
 30
0.0
 40
4.0
 41
0.0
 71
     5
 72
     1
  1
\A1;5
 73
     1
 44
1.0
  0
POINT
  5
F22
330
F19
100
AcDbEntity
  8
DEFPOINTS
  6
ByBlock
 62
     0
100
AcDbPoint
 10
62.5
 20
166.5
 30
0.0
  0
POINT
  5
F23
330
F19
100
AcDbEntity
  8
DEFPOINTS
  6
ByBlock
 62
     0
100
AcDbPoint
 10
62.5
 20
161.5
 30
0.0
  0
POINT
  5
F24
330
F19
100
AcDbEntity
  8
DEFPOINTS
  6
ByBlock
 62
     0
100
AcDbPoint
 10
34.44265399999999
 20
161.5
 30
0.0
  0
ENDBLK
  5
F26
330
F19
100
AcDbEntity
  8
0
100
AcDbBlockEnd
  0
BLOCK
  5
F33
330
F27
100
AcDbEntity
  8
0
100
AcDbBlockBegin
  2
*D43
 70
     1
 10
0.0
 20
0.0
 30
0.0
  3
*D43
  1

  0
LINE
  5
F28
330
F27
100
AcDbEntity
  8
0
  6
ByBlock
 62
     0
100
AcDbLine
 10
59.5
 20
166.0
 30
0.0
 11
37.88204799999999
 21
166.0
 31
0.0
  0
LINE
  5
F29
330
F27
100
AcDbEntity
  8
0
  6
ByBlock
 62
     0
100
AcDbLine
 10
59.5
 20
162.0
 30
0.0
 11
37.88204799999999
 21
162.0
 31
0.0
  0
LINE
  5
F2A
330
F27
100
AcDbEntity
  8
0
  6
ByBlock
 62
     0
100
AcDbLine
 10
38.882048
 20
163.4999999999999
 30
0.0
 11
38.882048
 21
164.5
 31
0.0
  0
LINE
  5
F2B
330
F27
100
AcDbEntity
  8
0
  6
ByBlock
 62
     0
100
AcDbLine
 10
38.882048
 20
166.0
 30
0.0
 11
38.882048
 21
170.5137459999999
 31
0.0
  0
LINE
  5
F2C
330
F27
100
AcDbEntity
  8
0
  6
ByBlock
 62
     0
100
AcDbLine
 10
38.882048
 20
170.5137459999999
 30
0.0
 11
40.38204799999999
 21
170.5137459999999
 31
0.0
  0
SOLID
  5
F2D
330
F27
100
AcDbEntity
  8
0
  6
ByBlock
 62
     0
100
AcDbTrace
 10
38.632048
 20
163.4999999999999
 30
0.0
 11
39.13204799999999
 21
163.4999999999999
 31
0.0
 12
38.882048
 22
162.0
 32
0.0
 13
38.882048
 23
162.0
 33
0.0
  0
SOLID
  5
F2E
330
F27
100
AcDbEntity
  8
0
  6
ByBlock
 62
     0
100
AcDbTrace
 10
38.632048
 20
164.5
 30
0.0
 11
39.13204799999999
 21
164.5
 31
0.0
 12
38.882048
 22
166.0
 32
0.0
 13
38.882048
 23
166.0
 33
0.0
  0
MTEXT
  5
F2F
330
F27
100
AcDbEntity
  8
0
  6
ByBlock
 62
     0
100
AcDbMText
 10
41.80538099999999
 20
170.5137459999999
 30
0.0
 40
4.0
 41
0.0
 71
     5
 72
     1
  1
\A1;4
 73
     1
 44
1.0
  0
POINT
  5
F30
330
F27
100
AcDbEntity
  8
DEFPOINTS
  6
ByBlock
 62
     0
100
AcDbPoint
 10
60.5
 20
166.0
 30
0.0
  0
POINT
  5
F31
330
F27
100
AcDbEntity
  8
DEFPOINTS
  6
ByBlock
 62
     0
100
AcDbPoint
 10
60.5
 20
162.0
 30
0.0
  0
POINT
  5
F32
330
F27
100
AcDbEntity
  8
DEFPOINTS
  6
ByBlock
 62
     0
100
AcDbPoint
 10
38.882048
 20
162.0
 30
0.0
  0
ENDBLK
  5
F34
330
F27
100
AcDbEntity
  8
0
100
AcDbBlockEnd
  0
BLOCK
  5
F38
330
F35
100
AcDbEntity
  8
0
100
AcDbBlockBegin
  2
A$C43FD107B
 70
     0
 10
0.0
 20
0.0
 30
0.0
  3
A$C43FD107B
  1

  0
TEXT
  5
F36
330
F35
100
AcDbEntity
  8
3
100
AcDbText
 10
0.0
 20
0.0
 30
0.0
 40
5.0
  1
センターレス加工をすること。
 41
0.7
100
AcDbText
  0
TEXT
  5
F37
330
F35
100
AcDbEntity
  8
3
100
AcDbText
 10
0.0
 20
6.0
 30
0.0
 40
5.0
  1
2003.8.2以後の製作分より
 41
0.7
100
AcDbText
  0
ENDBLK
  5
F39
330
F35
100
AcDbEntity
  8
0
100
AcDbBlockEnd
  0
BLOCK
  5
F6D
330
F3A
100
AcDbEntity
  8
0
100
AcDbBlockBegin
  2
A$C72AD58F5
 70
     0
 10
0.0
 20
0.0
 30
0.0
  3
A$C72AD58F5
  1

  0
LINE
  5
F3B
330
F3A
100
AcDbEntity
  8
0
100
AcDbLine
 10
163.857256
 20
137.9814389999999
 30
0.0
 11
31.140877
 21
0.0
 31
0.0
  0
TEXT
  5
F3C
330
F3A
100
AcDbEntity
  8
3
100
AcDbText
 10
82.20855
 20
2.711949999999999
 30
0.0
 40
3.5
  1
材質：Ｓ45Ｃ　　又は　　ロット材
 41
0.5
  7
EXTFONT
100
AcDbText
  0
LEADER
  5
F3D
330
F3A
100
AcDbEntity
  8
0
100
AcDbLeader
  3
STANDARD
 76
     2
 10
96.5
 20
81.43960099999999
 30
0.0
 10
77.5
 20
46.439601
 30
0.0
1001
ACAD
1000
DSTYLE
1002
{
1070
    78
1070
     8
1070
   288
1070
     1
1070
   284
1070
     8
1070
   140
1040
4.0
1070
    73
1070
     0
1070
   272
1070
     2
1070
    42
1040
1.0
1070
    44
1040
1.0
1070
   271
1070
     2
1070
    41
1040
1.5
1002
}
  0
DIMENSION
  5
F3E
330
F3A
100
AcDbEntity
  8
0
100
AcDbDimension
  2
*D41
 10
48.0
 20
119.6478609999999
 30
0.0
 11
75.393155
 21
119.6478609999999
 31
0.0
 12
-10.5
 22
-78.560399
 32
0.0
 70
   128
 71
     5
 42
-1.0
  3
STANDARD
100
AcDbAlignedDimension
 13
96.5
 23
89.43960099999999
 33
0.0
 14
48.0
 24
87.439601
 34
0.0
100
AcDbRotatedDimension
1001
ACAD
1000
DSTYLE
1002
{
1070
    78
1070
     8
1070
   288
1070
     1
1070
   284
1070
     8
1070
   140
1040
4.0
1070
    73
1070
     0
1070
   272
1070
     2
1070
    42
1040
1.0
1070
    44
1040
1.0
1070
   271
1070
     2
1070
    41
1040
1.5
1002
}
  0
DIMENSION
  5
F3F
330
F3A
100
AcDbEntity
  8
0
100
AcDbDimension
  2
*D40
 10
112.5
 20
130.05243
 30
0.0
 11
79.679467
 21
130.05243
 31
0.0
 12
-10.5
 22
-78.560399
 32
0.0
 70
   128
 71
     5
 42
-1.0
  3
STANDARD
100
AcDbAlignedDimension
 13
48.0
 23
87.439601
 33
0.0
 14
112.5
 24
85.43960099999999
 34
0.0
100
AcDbRotatedDimension
1001
ACAD
1000
DSTYLE
1002
{
1070
    78
1070
     8
1070
   288
1070
     1
1070
   284
1070
     8
1070
   140
1040
4.0
1070
    73
1070
     0
1070
   272
1070
     2
1070
    42
1040
1.0
1070
    44
1040
1.0
1070
   271
1070
     2
1070
    41
1040
1.5
1002
}
  0
LINE
  5
F40
330
F3A
100
AcDbEntity
  8
3
100
AcDbLine
 10
96.5
 20
87.93960099999999
 30
0.0
 11
52.0
 21
87.93960099999999
 31
0.0
  0
LINE
  5
F41
330
F3A
100
AcDbEntity
  8
3
100
AcDbLine
 10
96.5
 20
82.93960099999999
 30
0.0
 11
52.0
 21
82.93960099999999
 31
0.0
  0
LEADER
  5
F42
330
F3A
100
AcDbEntity
  8
0
100
AcDbLeader
  3
STANDARD
 76
     2
 10
111.0
 20
80.939601
 30
0.0
 10
77.5
 20
46.439601
 30
0.0
1001
ACAD
1000
DSTYLE
1002
{
1070
    78
1070
     8
1070
   288
1070
     1
1070
   284
1070
     8
1070
   140
1040
4.0
1070
    73
1070
     0
1070
   272
1070
     2
1070
    42
1040
1.0
1070
    44
1040
1.0
1070
   271
1070
     2
1070
    41
1040
1.5
1002
}
  0
DIMENSION
  5
F43
330
F3A
100
AcDbEntity
  8
0
100
AcDbDimension
  2
*D36
 10
106.4166659999999
 20
85.43960099999999
 30
0.0
 11
65.57666600000001
 21
95.43960099999999
 31
0.0
 12
-10.5
 22
-78.560399
 32
0.0
 70
   132
  1
R6
 71
     5
 42
-1.0
  3
STANDARD
100
AcDbRadialDimension
 15
112.277092
 25
83.807928
 35
0.0
 40
0.0
1001
ACAD
1000
DSTYLE
1002
{
1070
    78
1070
     8
1070
   288
1070
     1
1070
   284
1070
     8
1070
   140
1040
4.0
1070
    73
1070
     0
1070
   272
1070
     2
1070
   287
1070
     4
1070
    42
1040
1.0
1070
    44
1040
1.0
1070
   271
1070
     2
1070
    41
1040
1.5
1002
}
  0
LINE
  5
F44
330
F3A
100
AcDbEntity
  8
1
100
AcDbLine
 10
43.0
 20
85.43960099999999
 30
0.0
 11
120.0
 21
85.43960099999999
 31
0.0
  0
TEXT
  5
F45
330
F3A
100
AcDbEntity
  8
0
100
AcDbText
 10
66.5
 20
44.439601
 30
0.0
 40
3.5
  1
糸面取り
 41
0.5
  7
EXTFONT
100
AcDbText
  0
DIMENSION
  5
F46
330
F3A
100
AcDbEntity
  8
0
100
AcDbDimension
  2
*D42
 10
23.942654
 20
82.93960099999999
 30
0.0
 11
26.865987
 21
96.23758100000001
 31
0.0
 12
-10.5
 22
-78.560399
 32
0.0
 70
   128
 71
     5
 42
-1.0
  3
STANDARD
100
AcDbAlignedDimension
 13
52.0
 23
87.93960099999999
 33
0.0
 14
52.0
 24
82.93960099999999
 34
0.0
 50
90.0
100
AcDbRotatedDimension
1001
ACAD
1000
DSTYLE
1002
{
1070
    78
1070
     8
1070
   288
1070
     1
1070
   284
1070
     8
1070
   140
1040
4.0
1070
    73
1070
     0
1070
   272
1070
     2
1070
    42
1040
1.0
1070
    44
1040
1.0
1070
   271
1070
     2
1070
    41
1040
1.5
1002
}
  0
CIRCLE
  5
F47
330
F3A
100
AcDbEntity
  8
3
100
AcDbCircle
 10
9.0
 20
85.43960099999999
 30
0.0
 40
2.0
  0
CIRCLE
  5
F48
330
F3A
100
AcDbEntity
  8
3
100
AcDbCircle
 10
9.0
 20
85.43960099999999
 30
0.0
 40
2.5
  0
CIRCLE
  5
F49
330
F3A
100
AcDbEntity
  8
3
100
AcDbCircle
 10
9.0
 20
85.43960099999999
 30
0.0
 40
4.0
  0
LINE
  5
F4A
330
F3A
100
AcDbEntity
  8
1
100
AcDbLine
 10
18.0
 20
85.43960099999999
 30
0.0
 11
0.0
 21
85.43960099999999
 31
0.0
  0
LINE
  5
F4B
330
F3A
100
AcDbEntity
  8
1
100
AcDbLine
 10
9.0
 20
94.939601
 30
0.0
 11
9.0
 21
76.439601
 31
0.0
  0
DIMENSION
  5
F4C
330
F3A
100
AcDbEntity
  8
0
100
AcDbDimension
  2
*D39
 10
52.0
 20
106.3361329999999
 30
0.0
 11
57.329415
 21
106.3361329999999
 31
0.0
 12
-10.5
 22
-78.560399
 32
0.0
 70
   128
 71
     5
 42
-1.0
  3
STANDARD
100
AcDbAlignedDimension
 13
50.0
 23
87.93960099999999
 33
0.0
 14
52.0
 24
87.93960099999999
 34
0.0
100
AcDbRotatedDimension
1001
ACAD
1000
DSTYLE
1002
{
1070
    78
1070
     8
1070
   288
1070
     1
1070
   284
1070
     8
1070
   140
1040
4.0
1070
    73
1070
     0
1070
   272
1070
     2
1070
    42
1040
1.0
1070
    44
1040
1.0
1070
   271
1070
     2
1070
    41
1040
1.5
1002
}
  0
DIMENSION
  5
F4D
330
F3A
100
AcDbEntity
  8
0
100
AcDbDimension
  2
*D43
 10
28.38204799999999
 20
83.439601
 30
0.0
 11
31.305381
 21
91.953347
 31
0.0
 12
-10.5
 22
-78.560399
 32
0.0
 70
   128
 71
     5
 42
-1.0
  3
STANDARD
100
AcDbAlignedDimension
 13
50.0
 23
87.439601
 33
0.0
 14
50.0
 24
83.439601
 34
0.0
 50
90.0
100
AcDbRotatedDimension
1001
ACAD
1000
DSTYLE
1002
{
1070
    78
1070
     8
1070
   288
1070
     1
1070
   284
1070
     8
1070
   140
1040
4.0
1070
    73
1070
     0
1070
   272
1070
     2
1070
    42
1040
1.0
1070
    44
1040
1.0
1070
   271
1070
     2
1070
    41
1040
1.5
1002
}
  0
DIMENSION
  5
F4E
330
F3A
100
AcDbEntity
  8
0
100
AcDbDimension
  2
*D38
 10
50.0
 20
101.439866
 30
0.0
 11
36.663271
 21
101.439866
 31
0.0
 12
-10.5
 22
-78.560399
 32
0.0
 70
   128
 71
     5
 42
-1.0
  3
STANDARD
100
AcDbAlignedDimension
 13
48.0
 23
87.439601
 33
0.0
 14
50.0
 24
87.93960099999999
 34
0.0
100
AcDbRotatedDimension
1001
ACAD
1000
DSTYLE
1002
{
1070
    78
1070
     8
1070
   288
1070
     1
1070
   284
1070
     8
1070
   140
1040
4.0
1070
    73
1070
     0
1070
   272
1070
     2
1070
    42
1040
1.0
1070
    44
1040
1.0
1070
   271
1070
     2
1070
    41
1040
1.5
1002
}
  0
LINE
  5
F4F
330
F3A
100
AcDbEntity
  8
3
100
AcDbLine
 10
52.0
 20
87.93960099999999
 30
0.0
 11
52.0
 21
85.43960099999999
 31
0.0
  0
LINE
  5
F50
330
F3A
100
AcDbEntity
  8
3
100
AcDbLine
 10
50.0
 20
87.439601
 30
0.0
 11
50.0
 21
85.43960099999999
 31
0.0
  0
LINE
  5
F51
330
F3A
100
AcDbEntity
  8
3
100
AcDbLine
 10
48.0
 20
87.439601
 30
0.0
 11
48.0
 21
85.43960099999999
 31
0.0
  0
LINE
  5
F52
330
F3A
100
AcDbEntity
  8
3
100
AcDbLine
 10
50.0
 20
82.93960099999999
 30
0.0
 11
48.0
 21
83.439601
 31
0.0
  0
LINE
  5
F53
330
F3A
100
AcDbEntity
  8
3
100
AcDbLine
 10
48.0
 20
83.439601
 30
0.0
 11
48.0
 21
85.43960099999999
 31
0.0
  0
LINE
  5
F54
330
F3A
100
AcDbEntity
  8
3
100
AcDbLine
 10
52.0
 20
82.93960099999999
 30
0.0
 11
50.0
 21
83.439601
 31
0.0
  0
LINE
  5
F55
330
F3A
100
AcDbEntity
  8
3
100
AcDbLine
 10
50.0
 20
83.439601
 30
0.0
 11
50.0
 21
82.93960099999999
 31
0.0
  0
LINE
  5
F56
330
F3A
100
AcDbEntity
  8
3
100
AcDbLine
 10
50.0
 20
83.439601
 30
0.0
 11
50.0
 21
85.43960099999999
 31
0.0
  0
LINE
  5
F57
330
F3A
100
AcDbEntity
  8
3
100
AcDbLine
 10
52.0
 20
82.93960099999999
 30
0.0
 11
52.0
 21
85.43960099999999
 31
0.0
  0
LINE
  5
F58
330
F3A
100
AcDbEntity
  8
3
100
AcDbLine
 10
50.0
 20
87.93960099999999
 30
0.0
 11
48.0
 21
87.439601
 31
0.0
  0
LINE
  5
F59
330
F3A
100
AcDbEntity
  8
3
100
AcDbLine
 10
52.0
 20
87.93960099999999
 30
0.0
 11
50.0
 21
87.439601
 31
0.0
  0
LINE
  5
F5A
330
F3A
100
AcDbEntity
  8
3
100
AcDbLine
 10
50.0
 20
87.439601
 30
0.0
 11
50.0
 21
87.93960099999999
 31
0.0
  0
INSERT
  5
F5B
330
F3A
100
AcDbEntity
  8
0
100
AcDbBlockReference
  2
A$C43FD107B
 10
120.6435139999999
 20
67.34658899999999
 30
0.0
  0
DIMENSION
  5
F5C
330
F3A
100
AcDbEntity
  8
0
100
AcDbDimension
  2
*D35
 10
138.5
 20
81.43960099999999
 30
0.0
 11
138.5
 21
85.939601
 31
0.0
 12
-10.5
 22
-78.560399
 32
0.0
 70
   128
 71
     5
 42
-1.0
  3
STANDARD
100
AcDbAlignedDimension
 13
111.0
 23
89.43960099999999
 33
0.0
 14
111.0
 24
81.43960099999999
 34
0.0
 50
90.0
100
AcDbRotatedDimension
1001
ACAD
1000
DSTYLE
1002
{
1070
    78
1070
     8
1070
   288
1070
     1
1070
   284
1070
     8
1070
   140
1040
4.0
1070
    73
1070
     0
1070
   272
1070
     2
1070
    42
1040
1.0
1070
    44
1040
1.0
1070
   271
1070
     2
1070
    41
1040
1.5
1002
}
  0
DIMENSION
  5
F5D
330
F3A
100
AcDbEntity
  8
0
100
AcDbDimension
  2
*D34
 10
111.0
 20
110.9234249999999
 30
0.0
 11
122.1692419999999
 21
110.9234249999999
 31
0.0
 12
-6.5
 22
-78.560399
 32
0.0
 70
   128
 71
     5
 42
-1.0
  3
STANDARD
100
AcDbAlignedDimension
 13
112.5
 23
85.43960099999999
 33
0.0
 14
111.0
 24
89.43960099999999
 34
0.0
100
AcDbRotatedDimension
1001
ACAD
1000
DSTYLE
1002
{
1070
    78
1070
     8
1070
   288
1070
     1
1070
   284
1070
     8
1070
   140
1040
4.0
1070
    73
1070
     0
1070
   272
1070
     2
1070
    42
1040
1.0
1070
    44
1040
1.0
1070
   271
1070
     2
1070
    41
1040
1.5
1002
}
  0
DIMENSION
  5
F5E
330
F3A
100
AcDbEntity
  8
0
100
AcDbDimension
  2
*D37
 10
112.5
 20
119.6478609999999
 30
0.0
 11
104.6319219999999
 21
119.6478609999999
 31
0.0
 12
-10.5
 22
-78.560399
 32
0.0
 70
   128
 71
     5
 42
-1.0
  3
STANDARD
100
AcDbAlignedDimension
 13
96.5
 23
89.43960099999999
 33
0.0
 14
112.5
 24
85.43960099999999
 34
0.0
100
AcDbRotatedDimension
1001
ACAD
1000
DSTYLE
1002
{
1070
    78
1070
     8
1070
   288
1070
     1
1070
   284
1070
     8
1070
   140
1040
4.0
1070
    73
1070
     0
1070
   272
1070
     2
1070
    42
1040
1.0
1070
    44
1040
1.0
1070
   271
1070
     2
1070
    41
1040
1.5
1002
}
  0
LINE
  5
F5F
330
F3A
100
AcDbEntity
  8
3
100
AcDbLine
 10
96.5
 20
89.43960099999999
 30
0.0
 11
111.0
 21
89.43960099999999
 31
0.0
  0
LINE
  5
F60
330
F3A
100
AcDbEntity
  8
3
100
AcDbLine
 10
111.0
 20
81.43960099999999
 30
0.0
 11
96.5
 21
81.43960099999999
 31
0.0
  0
LINE
  5
F61
330
F3A
100
AcDbEntity
  8
3
100
AcDbLine
 10
96.5
 20
85.43960099999999
 30
0.0
 11
96.5
 21
89.43960099999999
 31
0.0
  0
LINE
  5
F62
330
F3A
100
AcDbEntity
  8
3
100
AcDbLine
 10
96.5
 20
85.43960099999999
 30
0.0
 11
96.5
 21
82.93960099999999
 31
0.0
  0
LINE
  5
F63
330
F3A
100
AcDbEntity
  8
3
100
AcDbLine
 10
96.5
 20
85.43960099999999
 30
0.0
 11
96.5
 21
81.43960099999999
 31
0.0
  0
LINE
  5
F64
330
F3A
100
AcDbEntity
  8
0
100
AcDbLine
 10
111.0
 20
89.43960099999999
 30
0.0
 11
111.0
 21
81.43960099999999
 31
0.0
  0
ARC
  5
F65
330
F3A
100
AcDbEntity
  8
3
100
AcDbCircle
 10
106.4166659999999
 20
85.43960099999999
 30
0.0
 40
6.083333
100
AcDbArc
 50
318.88791
 51
41.11209
  0
TEXT
  5
F66
330
F3A
100
AcDbEntity
  8
0
100
AcDbText
 10
133.4999999999999
 20
86.43960099999999
 30
0.0
 40
1.75
  1
0.01
 50
90.0
 41
0.5
  7
EXTFONT
100
AcDbText
  0
LINE
  5
F67
330
F3A
100
AcDbEntity
  8
0
100
AcDbLine
 10
132.4999999999999
 20
85.939601
 30
0.0
 11
132.4999999999999
 21
84.43960099999999
 31
0.0
  0
LINE
  5
F68
330
F3A
100
AcDbEntity
  8
0
100
AcDbLine
 10
134.4999999999999
 20
85.939601
 30
0.0
 11
134.4999999999999
 21
84.43960099999999
 31
0.0
  0
TEXT
  5
F69
330
F3A
100
AcDbEntity
  8
0
100
AcDbText
 10
135.5999999999999
 20
86.43960099999999
 30
0.0
 40
1.75
  1
0.03
 50
90.0
 41
0.5
  7
EXTFONT
100
AcDbText
  0
LINE
  5
F6A
330
F3A
100
AcDbEntity
  8
1
100
AcDbLine
 10
160.4999999999999
 20
85.43960099999999
 30
0.0
 11
179.0
 21
85.43960099999999
 31
0.0
  0
CIRCLE
  5
F6B
330
F3A
100
AcDbEntity
  8
3
100
AcDbCircle
 10
169.5
 20
85.43960099999999
 30
0.0
 40
4.0
  0
LINE
  5
F6C
330
F3A
100
AcDbEntity
  8
1
100
AcDbLine
 10
169.5
 20
94.43960099999999
 30
0.0
 11
169.5
 21
76.439601
 31
0.0
  0
ENDBLK
  5
F6E
330
F3A
100
AcDbEntity
  8
0
100
AcDbBlockEnd
  0
BLOCK
  5
1140
330
1135
100
AcDbEntity
  8
0
100
AcDbBlockBegin
  2
*D46
 70
     1
 10
0.0
 20
0.0
 30
0.0
  3
*D46
  1

  0
LINE
  5
1136
330
1135
100
AcDbEntity
  8
0
  6
ByBlock
 62
     0
100
AcDbLine
 10
64.0
 20
181.0
 30
0.0
 11
64.0
 21
205.0
 31
0.0
  0
LINE
  5
1137
330
1135
100
AcDbEntity
  8
0
  6
ByBlock
 62
     0
100
AcDbLine
 10
87.0
 20
181.0
 30
0.0
 11
87.0
 21
205.0
 31
0.0
  0
LINE
  5
1138
330
1135
100
AcDbEntity
  8
0
  6
ByBlock
 62
     0
100
AcDbLine
 10
66.0
 20
204.4999999999999
 30
0.0
 11
73.41
 21
204.4999999999999
 31
0.0
  0
LINE
  5
1139
330
1135
100
AcDbEntity
  8
0
  6
ByBlock
 62
     0
100
AcDbLine
 10
85.0
 20
204.4999999999999
 30
0.0
 11
77.59
 21
204.4999999999999
 31
0.0
  0
SOLID
  5
113A
330
1135
100
AcDbEntity
  8
0
  6
ByBlock
 62
     0
100
AcDbTrace
 10
66.0
 20
204.833333
 30
0.0
 11
66.0
 21
204.166667
 31
0.0
 12
64.0
 22
204.4999999999999
 32
0.0
 13
64.0
 23
204.4999999999999
 33
0.0
  0
SOLID
  5
113B
330
1135
100
AcDbEntity
  8
0
  6
ByBlock
 62
     0
100
AcDbTrace
 10
85.0
 20
204.833333
 30
0.0
 11
85.0
 21
204.166667
 31
0.0
 12
87.0
 22
204.4999999999999
 32
0.0
 13
87.0
 23
204.4999999999999
 33
0.0
  0
MTEXT
  5
113C
330
1135
100
AcDbEntity
  8
0
  6
ByBlock
 62
     0
100
AcDbMText
 10
75.5
 20
204.4999999999999
 30
0.0
 40
4.0
 41
0.0
 71
     5
 72
     1
  1
\A1;23
  7
BIGFONT
 73
     1
 44
1.0
  0
POINT
  5
113D
330
1135
100
AcDbEntity
  8
DEFPOINTS
  6
ByBlock
 62
     0
100
AcDbPoint
 10
64.0
 20
180.4999999999999
 30
0.0
  0
POINT
  5
113E
330
1135
100
AcDbEntity
  8
DEFPOINTS
  6
ByBlock
 62
     0
100
AcDbPoint
 10
87.0
 20
180.4999999999999
 30
0.0
  0
POINT
  5
113F
330
1135
100
AcDbEntity
  8
DEFPOINTS
  6
ByBlock
 62
     0
100
AcDbPoint
 10
87.0
 20
204.4999999999999
 30
0.0
  0
ENDBLK
  5
1141
330
1135
100
AcDbEntity
  8
0
100
AcDbBlockEnd
  0
BLOCK
  5
114D
330
1142
100
AcDbEntity
  8
0
100
AcDbBlockBegin
  2
*D47
 70
     1
 10
0.0
 20
0.0
 30
0.0
  3
*D47
  1

  0
LINE
  5
1143
330
1142
100
AcDbEntity
  8
0
  6
ByBlock
 62
     0
100
AcDbLine
 10
83.0
 20
185.0
 30
0.0
 11
83.0
 21
191.5
 31
0.0
  0
LINE
  5
1144
330
1142
100
AcDbEntity
  8
0
  6
ByBlock
 62
     0
100
AcDbLine
 10
87.0
 20
181.0
 30
0.0
 11
87.0
 21
191.5
 31
0.0
  0
LINE
  5
1145
330
1142
100
AcDbEntity
  8
0
  6
ByBlock
 62
     0
100
AcDbLine
 10
81.0
 20
191.0
 30
0.0
 11
79.0
 21
191.0
 31
0.0
  0
LINE
  5
1146
330
1142
100
AcDbEntity
  8
0
  6
ByBlock
 62
     0
100
AcDbLine
 10
89.0
 20
191.0
 30
0.0
 11
91.0
 21
191.0
 31
0.0
  0
SOLID
  5
1147
330
1142
100
AcDbEntity
  8
0
  6
ByBlock
 62
     0
100
AcDbTrace
 10
81.0
 20
191.333333
 30
0.0
 11
81.0
 21
190.6666669999999
 31
0.0
 12
83.0
 22
191.0
 32
0.0
 13
83.0
 23
191.0
 33
0.0
  0
SOLID
  5
1148
330
1142
100
AcDbEntity
  8
0
  6
ByBlock
 62
     0
100
AcDbTrace
 10
89.0
 20
191.333333
 30
0.0
 11
89.0
 21
190.6666669999999
 31
0.0
 12
87.0
 22
191.0
 32
0.0
 13
87.0
 23
191.0
 33
0.0
  0
MTEXT
  5
1149
330
1142
100
AcDbEntity
  8
0
  6
ByBlock
 62
     0
100
AcDbMText
 10
85.0
 20
191.0
 30
0.0
 40
4.0
 41
0.0
 71
     5
 72
     1
  1
\A1;4
  7
BIGFONT
 73
     1
 44
1.0
  0
POINT
  5
114A
330
1142
100
AcDbEntity
  8
DEFPOINTS
  6
ByBlock
 62
     0
100
AcDbPoint
 10
83.0
 20
184.4999999999999
 30
0.0
  0
POINT
  5
114B
330
1142
100
AcDbEntity
  8
DEFPOINTS
  6
ByBlock
 62
     0
100
AcDbPoint
 10
87.0
 20
180.4999999999999
 30
0.0
  0
POINT
  5
114C
330
1142
100
AcDbEntity
  8
DEFPOINTS
  6
ByBlock
 62
     0
100
AcDbPoint
 10
87.0
 20
191.0
 30
0.0
  0
ENDBLK
  5
114E
330
1142
100
AcDbEntity
  8
0
100
AcDbBlockEnd
  0
BLOCK
  5
115A
330
114F
100
AcDbEntity
  8
0
100
AcDbBlockBegin
  2
*D48
 70
     1
 10
0.0
 20
0.0
 30
0.0
  3
*D48
  1

  0
LINE
  5
1150
330
114F
100
AcDbEntity
  8
0
  6
ByBlock
 62
     0
100
AcDbLine
 10
64.5
 20
181.4999999999999
 30
0.0
 11
34.0
 21
181.4999999999999
 31
0.0
  0
LINE
  5
1151
330
114F
100
AcDbEntity
  8
0
  6
ByBlock
 62
     0
100
AcDbLine
 10
64.5
 20
167.5
 30
0.0
 11
34.0
 21
167.5
 31
0.0
  0
LINE
  5
1152
330
114F
100
AcDbEntity
  8
0
  6
ByBlock
 62
     0
100
AcDbLine
 10
34.5
 20
179.4999999999999
 30
0.0
 11
34.5
 21
176.6899999999999
 31
0.0
  0
LINE
  5
1153
330
114F
100
AcDbEntity
  8
0
  6
ByBlock
 62
     0
100
AcDbLine
 10
34.5
 20
169.5
 30
0.0
 11
34.5
 21
173.31
 31
0.0
  0
SOLID
  5
1154
330
114F
100
AcDbEntity
  8
0
  6
ByBlock
 62
     0
100
AcDbTrace
 10
34.16666699999999
 20
179.4999999999999
 30
0.0
 11
34.833333
 21
179.4999999999999
 31
0.0
 12
34.5
 22
181.4999999999999
 32
0.0
 13
34.5
 23
181.4999999999999
 33
0.0
  0
SOLID
  5
1155
330
114F
100
AcDbEntity
  8
0
  6
ByBlock
 62
     0
100
AcDbTrace
 10
34.16666699999999
 20
169.5
 30
0.0
 11
34.833333
 21
169.5
 31
0.0
 12
34.5
 22
167.5
 32
0.0
 13
34.5
 23
167.5
 33
0.0
  0
MTEXT
  5
1156
330
114F
100
AcDbEntity
  8
0
  6
ByBlock
 62
     0
100
AcDbMText
 10
34.5
 20
175.0
 30
0.0
 40
4.0
 41
0.0
 71
     5
 72
     1
  1
\A1;14
  7
BIGFONT
 11
0.0
 21
1.0
 31
0.0
 73
     1
 44
1.0
  0
POINT
  5
1157
330
114F
100
AcDbEntity
  8
DEFPOINTS
  6
ByBlock
 62
     0
100
AcDbPoint
 10
65.0
 20
181.4999999999999
 30
0.0
  0
POINT
  5
1158
330
114F
100
AcDbEntity
  8
DEFPOINTS
  6
ByBlock
 62
     0
100
AcDbPoint
 10
65.0
 20
167.5
 30
0.0
  0
POINT
  5
1159
330
114F
100
AcDbEntity
  8
DEFPOINTS
  6
ByBlock
 62
     0
100
AcDbPoint
 10
34.5
 20
167.5
 30
0.0
  0
ENDBLK
  5
115B
330
114F
100
AcDbEntity
  8
0
100
AcDbBlockEnd
  0
BLOCK
  5
1165
330
115C
100
AcDbEntity
  8
0
100
AcDbBlockBegin
  2
*D49
 70
     1
 10
0.0
 20
0.0
 30
0.0
  3
*D49
  1

  0
LINE
  5
115D
330
115C
100
AcDbEntity
  8
0
  6
ByBlock
 62
     0
100
AcDbLine
 10
47.5
 20
157.0
 30
0.0
 11
49.5
 21
157.0
 31
0.0
  0
LINE
  5
115E
330
115C
100
AcDbEntity
  8
0
  6
ByBlock
 62
     0
100
AcDbLine
 10
49.5
 20
157.0
 30
0.0
 11
64.19690200000001
 21
167.904153
 31
0.0
  0
MTEXT
  5
115F
330
115C
100
AcDbEntity
  8
0
  6
ByBlock
 62
     0
100
AcDbMText
 10
45.81
 20
157.0
 30
0.0
 40
4.0
 41
0.0
 71
     5
 72
     1
  1
\A1;R1
  7
BIGFONT
 73
     1
 44
1.0
  0
SOLID
  5
1160
330
115C
100
AcDbEntity
  8
0
  6
ByBlock
 62
     0
100
AcDbTrace
 10
62.39209
 20
166.980159
 30
0.0
 11
62.78932199999999
 21
166.44476
 31
0.0
 12
64.19690200000001
 22
167.904153
 32
0.0
 13
64.19690200000001
 23
167.904153
 33
0.0
  0
LINE
  5
1161
330
115C
100
AcDbEntity
  8
0
  6
ByBlock
 62
     0
100
AcDbLine
 10
64.90999999999999
 20
168.5
 30
0.0
 11
65.09
 21
168.5
 31
0.0
  0
LINE
  5
1162
330
115C
100
AcDbEntity
  8
0
  6
ByBlock
 62
     0
100
AcDbLine
 10
65.0
 20
168.4099999999999
 30
0.0
 11
65.0
 21
168.59
 31
0.0
  0
POINT
  5
1163
330
115C
100
AcDbEntity
  8
DEFPOINTS
  6
ByBlock
 62
     0
100
AcDbPoint
 10
64.19690200000001
 20
167.904153
 30
0.0
  0
POINT
  5
1164
330
115C
100
AcDbEntity
  8
DEFPOINTS
  6
ByBlock
 62
     0
100
AcDbPoint
 10
65.0
 20
168.5
 30
0.0
  0
ENDBLK
  5
1166
330
115C
100
AcDbEntity
  8
0
100
AcDbBlockEnd
  0
BLOCK
  5
1170
330
1167
100
AcDbEntity
  8
0
100
AcDbBlockBegin
  2
*D50
 70
     1
 10
0.0
 20
0.0
 30
0.0
  3
*D50
  1

  0
LINE
  5
1168
330
1167
100
AcDbEntity
  8
0
  6
ByBlock
 62
     0
100
AcDbLine
 10
93.49999999999999
 20
158.4999999999999
 30
0.0
 11
91.5
 21
158.4999999999999
 31
0.0
  0
LINE
  5
1169
330
1167
100
AcDbEntity
  8
0
  6
ByBlock
 62
     0
100
AcDbLine
 10
91.5
 20
158.4999999999999
 30
0.0
 11
86.48191899999998
 21
167.6237839999999
 31
0.0
  0
MTEXT
  5
116A
330
1167
100
AcDbEntity
  8
0
  6
ByBlock
 62
     0
100
AcDbMText
 10
95.19
 20
158.4999999999999
 30
0.0
 40
4.0
 41
0.0
 71
     5
 72
     1
  1
\A1;R1
  7
BIGFONT
 73
     1
 44
1.0
  0
SOLID
  5
116B
330
1167
100
AcDbEntity
  8
0
  6
ByBlock
 62
     0
100
AcDbTrace
 10
87.73782800000001
 20
166.031992
 30
0.0
 11
87.153684
 21
165.7107129999999
 31
0.0
 12
86.48191899999998
 22
167.6237839999999
 32
0.0
 13
86.48191899999998
 23
167.6237839999999
 33
0.0
  0
LINE
  5
116C
330
1167
100
AcDbEntity
  8
0
  6
ByBlock
 62
     0
100
AcDbLine
 10
85.90999999999999
 20
168.5
 30
0.0
 11
86.08999999999999
 21
168.5
 31
0.0
  0
LINE
  5
116D
330
1167
100
AcDbEntity
  8
0
  6
ByBlock
 62
     0
100
AcDbLine
 10
86.0
 20
168.4099999999999
 30
0.0
 11
86.0
 21
168.59
 31
0.0
  0
POINT
  5
116E
330
1167
100
AcDbEntity
  8
DEFPOINTS
  6
ByBlock
 62
     0
100
AcDbPoint
 10
86.48191899999998
 20
167.6237839999999
 30
0.0
  0
POINT
  5
116F
330
1167
100
AcDbEntity
  8
DEFPOINTS
  6
ByBlock
 62
     0
100
AcDbPoint
 10
86.0
 20
168.5
 30
0.0
  0
ENDBLK
  5
1171
330
1167
100
AcDbEntity
  8
0
100
AcDbBlockEnd
  0
BLOCK
  5
117D
330
1172
100
AcDbEntity
  8
0
100
AcDbBlockBegin
  2
*D51
 70
     1
 10
0.0
 20
0.0
 30
0.0
  3
*D51
  1

  0
LINE
  5
1173
330
1172
100
AcDbEntity
  8
0
  6
ByBlock
 62
     0
100
AcDbLine
 10
78.5
 20
186.0
 30
0.0
 11
78.5
 21
199.5
 31
0.0
  0
LINE
  5
1174
330
1172
100
AcDbEntity
  8
0
  6
ByBlock
 62
     0
100
AcDbLine
 10
87.0
 20
181.0
 30
0.0
 11
87.0
 21
199.5
 31
0.0
  0
LINE
  5
1175
330
1172
100
AcDbEntity
  8
0
  6
ByBlock
 62
     0
100
AcDbLine
 10
80.5
 20
199.0
 30
0.0
 11
80.59000000000001
 21
199.0
 31
0.0
  0
LINE
  5
1176
330
1172
100
AcDbEntity
  8
0
  6
ByBlock
 62
     0
100
AcDbLine
 10
85.0
 20
199.0
 30
0.0
 11
84.90999999999999
 21
199.0
 31
0.0
  0
SOLID
  5
1177
330
1172
100
AcDbEntity
  8
0
  6
ByBlock
 62
     0
100
AcDbTrace
 10
80.5
 20
199.333333
 30
0.0
 11
80.5
 21
198.6666669999999
 31
0.0
 12
78.5
 22
199.0
 32
0.0
 13
78.5
 23
199.0
 33
0.0
  0
SOLID
  5
1178
330
1172
100
AcDbEntity
  8
0
  6
ByBlock
 62
     0
100
AcDbTrace
 10
85.0
 20
199.333333
 30
0.0
 11
85.0
 21
198.6666669999999
 31
0.0
 12
87.0
 22
199.0
 32
0.0
 13
87.0
 23
199.0
 33
0.0
  0
MTEXT
  5
1179
330
1172
100
AcDbEntity
  8
0
  6
ByBlock
 62
     0
100
AcDbMText
 10
83.0
 20
199.0
 30
0.0
 40
4.0
 41
0.0
 71
     5
 72
     1
  1
\A1;8.5
  7
BIGFONT
 73
     1
 44
1.0
  0
POINT
  5
117A
330
1172
100
AcDbEntity
  8
DEFPOINTS
  6
ByBlock
 62
     0
100
AcDbPoint
 10
78.5
 20
185.5
 30
0.0
  0
POINT
  5
117B
330
1172
100
AcDbEntity
  8
DEFPOINTS
  6
ByBlock
 62
     0
100
AcDbPoint
 10
87.0
 20
180.4999999999999
 30
0.0
  0
POINT
  5
117C
330
1172
100
AcDbEntity
  8
DEFPOINTS
  6
ByBlock
 62
     0
100
AcDbPoint
 10
87.0
 20
199.0
 30
0.0
  0
ENDBLK
  5
117E
330
1172
100
AcDbEntity
  8
0
100
AcDbBlockEnd
  0
BLOCK
  5
118A
330
117F
100
AcDbEntity
  8
0
100
AcDbBlockBegin
  2
*D52
 70
     1
 10
0.0
 20
0.0
 30
0.0
  3
*D52
  1

  0
LINE
  5
1180
330
117F
100
AcDbEntity
  8
0
  6
ByBlock
 62
     0
100
AcDbLine
 10
77.0
 20
167.0
 30
0.0
 11
77.0
 21
159.0
 31
0.0
  0
LINE
  5
1181
330
117F
100
AcDbEntity
  8
0
  6
ByBlock
 62
     0
100
AcDbLine
 10
80.0
 20
167.0
 30
0.0
 11
80.0
 21
159.0
 31
0.0
  0
LINE
  5
1182
330
117F
100
AcDbEntity
  8
0
  6
ByBlock
 62
     0
100
AcDbLine
 10
75.0
 20
159.4999999999999
 30
0.0
 11
73.0
 21
159.4999999999999
 31
0.0
  0
LINE
  5
1183
330
117F
100
AcDbEntity
  8
0
  6
ByBlock
 62
     0
100
AcDbLine
 10
82.0
 20
159.4999999999999
 30
0.0
 11
84.0
 21
159.4999999999999
 31
0.0
  0
SOLID
  5
1184
330
117F
100
AcDbEntity
  8
0
  6
ByBlock
 62
     0
100
AcDbTrace
 10
75.0
 20
159.833333
 30
0.0
 11
75.0
 21
159.1666669999999
 31
0.0
 12
77.0
 22
159.4999999999999
 32
0.0
 13
77.0
 23
159.4999999999999
 33
0.0
  0
SOLID
  5
1185
330
117F
100
AcDbEntity
  8
0
  6
ByBlock
 62
     0
100
AcDbTrace
 10
82.0
 20
159.833333
 30
0.0
 11
82.0
 21
159.1666669999999
 31
0.0
 12
80.0
 22
159.4999999999999
 32
0.0
 13
80.0
 23
159.4999999999999
 33
0.0
  0
MTEXT
  5
1186
330
117F
100
AcDbEntity
  8
0
  6
ByBlock
 62
     0
100
AcDbMText
 10
78.5
 20
159.4999999999999
 30
0.0
 40
4.0
 41
0.0
 71
     5
 72
     1
  1
\A1;3
  7
BIGFONT
 73
     1
 44
1.0
  0
POINT
  5
1187
330
117F
100
AcDbEntity
  8
DEFPOINTS
  6
ByBlock
 62
     0
100
AcDbPoint
 10
77.0
 20
167.5
 30
0.0
  0
POINT
  5
1188
330
117F
100
AcDbEntity
  8
DEFPOINTS
  6
ByBlock
 62
     0
100
AcDbPoint
 10
80.0
 20
167.5
 30
0.0
  0
POINT
  5
1189
330
117F
100
AcDbEntity
  8
DEFPOINTS
  6
ByBlock
 62
     0
100
AcDbPoint
 10
80.0
 20
159.4999999999999
 30
0.0
  0
ENDBLK
  5
118B
330
117F
100
AcDbEntity
  8
0
100
AcDbBlockEnd
  0
BLOCK
  5
1197
330
118C
100
AcDbEntity
  8
0
100
AcDbBlockBegin
  2
*D53
 70
     1
 10
0.0
 20
0.0
 30
0.0
  3
*D53
  1

  0
LINE
  5
118D
330
118C
100
AcDbEntity
  8
0
  6
ByBlock
 62
     0
100
AcDbLine
 10
80.5
 20
180.4999999999999
 30
0.0
 11
95.5
 21
180.4999999999999
 31
0.0
  0
LINE
  5
118E
330
118C
100
AcDbEntity
  8
0
  6
ByBlock
 62
     0
100
AcDbLine
 10
80.5
 20
168.5
 30
0.0
 11
95.5
 21
168.5
 31
0.0
  0
LINE
  5
118F
330
118C
100
AcDbEntity
  8
0
  6
ByBlock
 62
     0
100
AcDbLine
 10
95.0
 20
178.5
 30
0.0
 11
95.0
 21
176.1899999999999
 31
0.0
  0
LINE
  5
1190
330
118C
100
AcDbEntity
  8
0
  6
ByBlock
 62
     0
100
AcDbLine
 10
95.0
 20
170.5
 30
0.0
 11
95.0
 21
172.8099999999999
 31
0.0
  0
SOLID
  5
1191
330
118C
100
AcDbEntity
  8
0
  6
ByBlock
 62
     0
100
AcDbTrace
 10
94.66666700000001
 20
178.5
 30
0.0
 11
95.333333
 21
178.5
 31
0.0
 12
95.0
 22
180.4999999999999
 32
0.0
 13
95.0
 23
180.4999999999999
 33
0.0
  0
SOLID
  5
1192
330
118C
100
AcDbEntity
  8
0
  6
ByBlock
 62
     0
100
AcDbTrace
 10
94.66666700000001
 20
170.5
 30
0.0
 11
95.333333
 21
170.5
 31
0.0
 12
95.0
 22
168.5
 32
0.0
 13
95.0
 23
168.5
 33
0.0
  0
MTEXT
  5
1193
330
118C
100
AcDbEntity
  8
0
  6
ByBlock
 62
     0
100
AcDbMText
 10
95.0
 20
174.5
 30
0.0
 40
4.0
 41
0.0
 71
     5
 72
     1
  1
\A1;12
  7
BIGFONT
 11
0.0
 21
1.0
 31
0.0
 73
     1
 44
1.0
  0
POINT
  5
1194
330
118C
100
AcDbEntity
  8
DEFPOINTS
  6
ByBlock
 62
     0
100
AcDbPoint
 10
80.0
 20
180.4999999999999
 30
0.0
  0
POINT
  5
1195
330
118C
100
AcDbEntity
  8
DEFPOINTS
  6
ByBlock
 62
     0
100
AcDbPoint
 10
80.0
 20
168.5
 30
0.0
  0
POINT
  5
1196
330
118C
100
AcDbEntity
  8
DEFPOINTS
  6
ByBlock
 62
     0
100
AcDbPoint
 10
95.0
 20
168.5
 30
0.0
  0
ENDBLK
  5
1198
330
118C
100
AcDbEntity
  8
0
100
AcDbBlockEnd
  0
BLOCK
  5
11A4
330
1199
100
AcDbEntity
  8
0
100
AcDbBlockBegin
  2
*D54
 70
     1
 10
0.0
 20
0.0
 30
0.0
  3
*D54
  1

  0
LINE
  5
119A
330
1199
100
AcDbEntity
  8
0
  6
ByBlock
 62
     0
100
AcDbLine
 10
64.0
 20
152.5
 30
0.0
 11
64.0
 21
171.0
 31
0.0
  0
LINE
  5
119B
330
1199
100
AcDbEntity
  8
0
  6
ByBlock
 62
     0
100
AcDbLine
 10
80.0
 20
150.5
 30
0.0
 11
80.0
 21
171.0
 31
0.0
  0
LINE
  5
119C
330
1199
100
AcDbEntity
  8
0
  6
ByBlock
 62
     0
100
AcDbLine
 10
66.0
 20
170.5
 30
0.0
 11
70.81
 21
170.5
 31
0.0
  0
LINE
  5
119D
330
1199
100
AcDbEntity
  8
0
  6
ByBlock
 62
     0
100
AcDbLine
 10
78.0
 20
170.5
 30
0.0
 11
74.19
 21
170.5
 31
0.0
  0
SOLID
  5
119E
330
1199
100
AcDbEntity
  8
0
  6
ByBlock
 62
     0
100
AcDbTrace
 10
66.0
 20
170.833333
 30
0.0
 11
66.0
 21
170.1666669999999
 31
0.0
 12
64.0
 22
170.5
 32
0.0
 13
64.0
 23
170.5
 33
0.0
  0
SOLID
  5
119F
330
1199
100
AcDbEntity
  8
0
  6
ByBlock
 62
     0
100
AcDbTrace
 10
78.0
 20
170.833333
 30
0.0
 11
78.0
 21
170.1666669999999
 31
0.0
 12
80.0
 22
170.5
 32
0.0
 13
80.0
 23
170.5
 33
0.0
  0
MTEXT
  5
11A0
330
1199
100
AcDbEntity
  8
0
  6
ByBlock
 62
     0
100
AcDbMText
 10
72.5
 20
170.5
 30
0.0
 40
4.0
 41
0.0
 71
     5
 72
     1
  1
\A1;16
  7
BIGFONT
 73
     1
 44
1.0
  0
POINT
  5
11A1
330
1199
100
AcDbEntity
  8
DEFPOINTS
  6
ByBlock
 62
     0
100
AcDbPoint
 10
64.0
 20
152.0
 30
0.0
  0
POINT
  5
11A2
330
1199
100
AcDbEntity
  8
DEFPOINTS
  6
ByBlock
 62
     0
100
AcDbPoint
 10
80.0
 20
150.0
 30
0.0
  0
POINT
  5
11A3
330
1199
100
AcDbEntity
  8
DEFPOINTS
  6
ByBlock
 62
     0
100
AcDbPoint
 10
80.0
 20
170.5
 30
0.0
  0
ENDBLK
  5
11A5
330
1199
100
AcDbEntity
  8
0
100
AcDbBlockEnd
  0
BLOCK
  5
11B1
330
11A6
100
AcDbEntity
  8
0
100
AcDbBlockBegin
  2
*D55
 70
     1
 10
0.0
 20
0.0
 30
0.0
  3
*D55
  1

  0
LINE
  5
11A7
330
11A6
100
AcDbEntity
  8
0
  6
ByBlock
 62
     0
100
AcDbLine
 10
63.5
 20
150.0
 30
0.0
 11
41.5
 21
150.0
 31
0.0
  0
LINE
  5
11A8
330
11A6
100
AcDbEntity
  8
0
  6
ByBlock
 62
     0
100
AcDbLine
 10
63.5
 20
142.0
 30
0.0
 11
41.5
 21
142.0
 31
0.0
  0
LINE
  5
11A9
330
11A6
100
AcDbEntity
  8
0
  6
ByBlock
 62
     0
100
AcDbLine
 10
42.0
 20
148.0
 30
0.0
 11
42.0
 21
146.8899999999999
 31
0.0
  0
LINE
  5
11AA
330
11A6
100
AcDbEntity
  8
0
  6
ByBlock
 62
     0
100
AcDbLine
 10
42.0
 20
144.0
 30
0.0
 11
42.0
 21
145.11
 31
0.0
  0
SOLID
  5
11AB
330
11A6
100
AcDbEntity
  8
0
  6
ByBlock
 62
     0
100
AcDbTrace
 10
41.66666699999999
 20
148.0
 30
0.0
 11
42.333333
 21
148.0
 31
0.0
 12
42.0
 22
150.0
 32
0.0
 13
42.0
 23
150.0
 33
0.0
  0
SOLID
  5
11AC
330
11A6
100
AcDbEntity
  8
0
  6
ByBlock
 62
     0
100
AcDbTrace
 10
41.66666699999999
 20
144.0
 30
0.0
 11
42.333333
 21
144.0
 31
0.0
 12
42.0
 22
142.0
 32
0.0
 13
42.0
 23
142.0
 33
0.0
  0
MTEXT
  5
11AD
330
11A6
100
AcDbEntity
  8
0
  6
ByBlock
 62
     0
100
AcDbMText
 10
42.0
 20
146.0
 30
0.0
 40
4.0
 41
0.0
 71
     5
 72
     1
  1
\A1;8
  7
BIGFONT
 11
0.0
 21
1.0
 31
0.0
 73
     1
 44
1.0
  0
POINT
  5
11AE
330
11A6
100
AcDbEntity
  8
DEFPOINTS
  6
ByBlock
 62
     0
100
AcDbPoint
 10
64.0
 20
150.0
 30
0.0
  0
POINT
  5
11AF
330
11A6
100
AcDbEntity
  8
DEFPOINTS
  6
ByBlock
 62
     0
100
AcDbPoint
 10
64.0
 20
142.0
 30
0.0
  0
POINT
  5
11B0
330
11A6
100
AcDbEntity
  8
DEFPOINTS
  6
ByBlock
 62
     0
100
AcDbPoint
 10
42.0
 20
142.0
 30
0.0
  0
ENDBLK
  5
11B2
330
11A6
100
AcDbEntity
  8
0
100
AcDbBlockEnd
  0
BLOCK
  5
11BE
330
11B3
100
AcDbEntity
  8
0
100
AcDbBlockBegin
  2
*D56
 70
     1
 10
0.0
 20
0.0
 30
0.0
  3
*D56
  1

  0
LINE
  5
11B4
330
11B3
100
AcDbEntity
  8
0
  6
ByBlock
 62
     0
100
AcDbLine
 10
113.4371969999999
 20
202.7499999999999
 30
0.0
 11
113.4371969999999
 21
224.0
 31
0.0
  0
LINE
  5
11B5
330
11B3
100
AcDbEntity
  8
0
  6
ByBlock
 62
     0
100
AcDbLine
 10
114.937197
 20
202.7499999999999
 30
0.0
 11
114.937197
 21
224.0
 31
0.0
  0
LINE
  5
11B6
330
11B3
100
AcDbEntity
  8
0
  6
ByBlock
 62
     0
100
AcDbLine
 10
116.937197
 20
223.4999999999999
 30
0.0
 11
118.937197
 21
223.4999999999999
 31
0.0
  0
LINE
  5
11B7
330
11B3
100
AcDbEntity
  8
0
  6
ByBlock
 62
     0
100
AcDbLine
 10
111.437197
 20
223.4999999999999
 30
0.0
 11
108.59
 21
223.4999999999999
 31
0.0
  0
SOLID
  5
11B8
330
11B3
100
AcDbEntity
  8
0
  6
ByBlock
 62
     0
100
AcDbTrace
 10
116.937197
 20
223.833333
 30
0.0
 11
116.937197
 21
223.166667
 31
0.0
 12
114.937197
 22
223.4999999999999
 32
0.0
 13
114.937197
 23
223.4999999999999
 33
0.0
  0
SOLID
  5
11B9
330
11B3
100
AcDbEntity
  8
0
  6
ByBlock
 62
     0
100
AcDbTrace
 10
111.437197
 20
223.833333
 30
0.0
 11
111.437197
 21
223.166667
 31
0.0
 12
113.4371969999999
 22
223.4999999999999
 32
0.0
 13
113.4371969999999
 23
223.4999999999999
 33
0.0
  0
MTEXT
  5
11BA
330
11B3
100
AcDbEntity
  8
0
  6
ByBlock
 62
     0
100
AcDbMText
 10
106.4999999999999
 20
223.4999999999999
 30
0.0
 40
4.0
 41
0.0
 71
     5
 72
     1
  1
\A1;1.5
  7
BIGFONT
 73
     1
 44
1.0
  0
POINT
  5
11BB
330
11B3
100
AcDbEntity
  8
DEFPOINTS
  6
ByBlock
 62
     0
100
AcDbPoint
 10
113.4371969999999
 20
202.2499999999999
 30
0.0
  0
POINT
  5
11BC
330
11B3
100
AcDbEntity
  8
DEFPOINTS
  6
ByBlock
 62
     0
100
AcDbPoint
 10
114.937197
 20
202.2499999999999
 30
0.0
  0
POINT
  5
11BD
330
11B3
100
AcDbEntity
  8
DEFPOINTS
  6
ByBlock
 62
     0
100
AcDbPoint
 10
114.937197
 20
223.4999999999999
 30
0.0
  0
ENDBLK
  5
11BF
330
11B3
100
AcDbEntity
  8
0
100
AcDbBlockEnd
  0
BLOCK
  5
11CB
330
11C0
100
AcDbEntity
  8
0
100
AcDbBlockBegin
  2
*D57
 70
     1
 10
0.0
 20
0.0
 30
0.0
  3
*D57
  1

  0
LINE
  5
11C1
330
11C0
100
AcDbEntity
  8
0
  6
ByBlock
 62
     0
100
AcDbLine
 10
102.062803
 20
196.25
 30
0.0
 11
102.062803
 21
175.5
 31
0.0
  0
LINE
  5
11C2
330
11C0
100
AcDbEntity
  8
0
  6
ByBlock
 62
     0
100
AcDbLine
 10
103.562803
 20
196.25
 30
0.0
 11
103.562803
 21
175.5
 31
0.0
  0
LINE
  5
11C3
330
11C0
100
AcDbEntity
  8
0
  6
ByBlock
 62
     0
100
AcDbLine
 10
100.062803
 20
176.0
 30
0.0
 11
98.062803
 21
176.0
 31
0.0
  0
LINE
  5
11C4
330
11C0
100
AcDbEntity
  8
0
  6
ByBlock
 62
     0
100
AcDbLine
 10
105.562803
 20
176.0
 30
0.0
 11
109.9099999999999
 21
176.0
 31
0.0
  0
SOLID
  5
11C5
330
11C0
100
AcDbEntity
  8
0
  6
ByBlock
 62
     0
100
AcDbTrace
 10
100.062803
 20
176.333333
 30
0.0
 11
100.062803
 21
175.6666669999999
 31
0.0
 12
102.062803
 22
176.0
 32
0.0
 13
102.062803
 23
176.0
 33
0.0
  0
SOLID
  5
11C6
330
11C0
100
AcDbEntity
  8
0
  6
ByBlock
 62
     0
100
AcDbTrace
 10
105.562803
 20
176.333333
 30
0.0
 11
105.562803
 21
175.6666669999999
 31
0.0
 12
103.562803
 22
176.0
 32
0.0
 13
103.562803
 23
176.0
 33
0.0
  0
MTEXT
  5
11C7
330
11C0
100
AcDbEntity
  8
0
  6
ByBlock
 62
     0
100
AcDbMText
 10
112.0
 20
176.0
 30
0.0
 40
4.0
 41
0.0
 71
     5
 72
     1
  1
\A1;1.5
  7
BIGFONT
 73
     1
 44
1.0
  0
POINT
  5
11C8
330
11C0
100
AcDbEntity
  8
DEFPOINTS
  6
ByBlock
 62
     0
100
AcDbPoint
 10
102.062803
 20
196.75
 30
0.0
  0
POINT
  5
11C9
330
11C0
100
AcDbEntity
  8
DEFPOINTS
  6
ByBlock
 62
     0
100
AcDbPoint
 10
103.562803
 20
196.75
 30
0.0
  0
POINT
  5
11CA
330
11C0
100
AcDbEntity
  8
DEFPOINTS
  6
ByBlock
 62
     0
100
AcDbPoint
 10
103.562803
 20
176.0
 30
0.0
  0
ENDBLK
  5
11CC
330
11C0
100
AcDbEntity
  8
0
100
AcDbBlockEnd
  0
BLOCK
  5
11D8
330
11CD
100
AcDbEntity
  8
0
100
AcDbBlockBegin
  2
*D58
 70
     1
 10
0.0
 20
0.0
 30
0.0
  3
*D58
  1

  0
LINE
  5
11CE
330
11CD
100
AcDbEntity
  8
0
  6
ByBlock
 62
     0
100
AcDbLine
 10
64.0
 20
152.5
 30
0.0
 11
64.0
 21
176.5
 31
0.0
  0
LINE
  5
11CF
330
11CD
100
AcDbEntity
  8
0
  6
ByBlock
 62
     0
100
AcDbLine
 10
82.0
 20
150.0
 30
0.0
 11
82.0
 21
176.5
 31
0.0
  0
LINE
  5
11D0
330
11CD
100
AcDbEntity
  8
0
  6
ByBlock
 62
     0
100
AcDbLine
 10
66.0
 20
176.0
 30
0.0
 11
73.31
 21
176.0
 31
0.0
  0
LINE
  5
11D1
330
11CD
100
AcDbEntity
  8
0
  6
ByBlock
 62
     0
100
AcDbLine
 10
80.0
 20
176.0
 30
0.0
 11
76.69
 21
176.0
 31
0.0
  0
SOLID
  5
11D2
330
11CD
100
AcDbEntity
  8
0
  6
ByBlock
 62
     0
100
AcDbTrace
 10
66.0
 20
176.333333
 30
0.0
 11
66.0
 21
175.6666669999999
 31
0.0
 12
64.0
 22
176.0
 32
0.0
 13
64.0
 23
176.0
 33
0.0
  0
SOLID
  5
11D3
330
11CD
100
AcDbEntity
  8
0
  6
ByBlock
 62
     0
100
AcDbTrace
 10
80.0
 20
176.333333
 30
0.0
 11
80.0
 21
175.6666669999999
 31
0.0
 12
82.0
 22
176.0
 32
0.0
 13
82.0
 23
176.0
 33
0.0
  0
MTEXT
  5
11D4
330
11CD
100
AcDbEntity
  8
0
  6
ByBlock
 62
     0
100
AcDbMText
 10
75.0
 20
176.0
 30
0.0
 40
4.0
 41
0.0
 71
     5
 72
     1
  1
\A1;18
  7
BIGFONT
 73
     1
 44
1.0
  0
POINT
  5
11D5
330
11CD
100
AcDbEntity
  8
DEFPOINTS
  6
ByBlock
 62
     0
100
AcDbPoint
 10
64.0
 20
152.0
 30
0.0
  0
POINT
  5
11D6
330
11CD
100
AcDbEntity
  8
DEFPOINTS
  6
ByBlock
 62
     0
100
AcDbPoint
 10
82.0
 20
149.5
 30
0.0
  0
POINT
  5
11D7
330
11CD
100
AcDbEntity
  8
DEFPOINTS
  6
ByBlock
 62
     0
100
AcDbPoint
 10
82.0
 20
176.0
 30
0.0
  0
ENDBLK
  5
11D9
330
11CD
100
AcDbEntity
  8
0
100
AcDbBlockEnd
  0
BLOCK
  5
11E5
330
11DA
100
AcDbEntity
  8
0
100
AcDbBlockBegin
  2
*D59
 70
     1
 10
0.0
 20
0.0
 30
0.0
  3
*D59
  1

  0
LINE
  5
11DB
330
11DA
100
AcDbEntity
  8
0
  6
ByBlock
 62
     0
100
AcDbLine
 10
63.5
 20
150.0
 30
0.0
 11
41.5
 21
150.0
 31
0.0
  0
LINE
  5
11DC
330
11DA
100
AcDbEntity
  8
0
  6
ByBlock
 62
     0
100
AcDbLine
 10
63.5
 20
142.0
 30
0.0
 11
41.5
 21
142.0
 31
0.0
  0
LINE
  5
11DD
330
11DA
100
AcDbEntity
  8
0
  6
ByBlock
 62
     0
100
AcDbLine
 10
42.0
 20
148.0
 30
0.0
 11
42.0
 21
146.8899999999999
 31
0.0
  0
LINE
  5
11DE
330
11DA
100
AcDbEntity
  8
0
  6
ByBlock
 62
     0
100
AcDbLine
 10
42.0
 20
144.0
 30
0.0
 11
42.0
 21
145.11
 31
0.0
  0
SOLID
  5
11DF
330
11DA
100
AcDbEntity
  8
0
  6
ByBlock
 62
     0
100
AcDbTrace
 10
41.66666699999999
 20
148.0
 30
0.0
 11
42.333333
 21
148.0
 31
0.0
 12
42.0
 22
150.0
 32
0.0
 13
42.0
 23
150.0
 33
0.0
  0
SOLID
  5
11E0
330
11DA
100
AcDbEntity
  8
0
  6
ByBlock
 62
     0
100
AcDbTrace
 10
41.66666699999999
 20
144.0
 30
0.0
 11
42.333333
 21
144.0
 31
0.0
 12
42.0
 22
142.0
 32
0.0
 13
42.0
 23
142.0
 33
0.0
  0
MTEXT
  5
11E1
330
11DA
100
AcDbEntity
  8
0
  6
ByBlock
 62
     0
100
AcDbMText
 10
42.0
 20
146.0
 30
0.0
 40
4.0
 41
0.0
 71
     5
 72
     1
  1
\A1;8
  7
BIGFONT
 11
0.0
 21
1.0
 31
0.0
 73
     1
 44
1.0
  0
POINT
  5
11E2
330
11DA
100
AcDbEntity
  8
DEFPOINTS
  6
ByBlock
 62
     0
100
AcDbPoint
 10
64.0
 20
150.0
 30
0.0
  0
POINT
  5
11E3
330
11DA
100
AcDbEntity
  8
DEFPOINTS
  6
ByBlock
 62
     0
100
AcDbPoint
 10
64.0
 20
142.0
 30
0.0
  0
POINT
  5
11E4
330
11DA
100
AcDbEntity
  8
DEFPOINTS
  6
ByBlock
 62
     0
100
AcDbPoint
 10
42.0
 20
142.0
 30
0.0
  0
ENDBLK
  5
11E6
330
11DA
100
AcDbEntity
  8
0
100
AcDbBlockEnd
  0
BLOCK
  5
1259
330
11EA
100
AcDbEntity
  8
0
100
AcDbBlockBegin
  2
A$C2EAC175B
 70
     0
 10
0.0
 20
0.0
 30
0.0
  3
A$C2EAC175B
  1

  0
LEADER
  5
11EB
330
11EA
100
AcDbEntity
  8
0
100
AcDbLeader
  3
STANDARD
 76
     3
 10
96.458185
 20
69.0
 30
0.0
 10
102.958185
 20
76.0
 30
0.0
 10
129.458185
 20
76.0
 30
0.0
1001
ACAD
1000
DSTYLE
1002
{
1070
    78
1070
     8
1070
   288
1070
     1
1070
   284
1070
     8
1070
   140
1040
5.0
1070
   340
1005
23
1070
    73
1070
     0
1070
   272
1070
     2
1070
    42
1040
0.5
1070
    44
1040
0.5
1070
   271
1070
     2
1070
    41
1040
2.0
1002
}
  0
TEXT
  5
11EC
330
11EA
100
AcDbEntity
  8
0
100
AcDbText
 10
103.958185
 20
76.90000000000001
 30
0.0
 40
3.0
  1
深さ１．５ミリ２カ所
 41
0.7
  7
BIGFONT
100
AcDbText
  0
TEXT
  5
11ED
330
11EA
100
AcDbEntity
  8
0
100
AcDbText
 10
103.958185
 20
80.5
 30
0.0
 40
3.0
  1
５．５パイキリ孔
 41
0.7
  7
BIGFONT
100
AcDbText
  0
MTEXT
  5
11EE
102
{ACAD_REACTORS
330
11EF
102
}
330
11EA
100
AcDbEntity
  8
0
100
AcDbMText
 10
32.368185
 20
2.0
 30
0.0
 40
4.0
 41
0.0
 71
     6
 72
     1
  1
\A1;1C
  7
BIGFONT
 73
     1
 44
1.0
  0
LEADER
  5
11EF
330
11EA
100
AcDbEntity
  8
0
100
AcDbLeader
  3
STANDARD
 73
     0
 40
4.0
 41
3.733333
 76
     3
 10
44.458185
 20
10.5
 30
0.0
 10
34.458185
 20
2.0
 30
0.0
 10
32.458185
 20
2.0
 30
0.0
340
11EE
1001
ACAD
1000
DSTYLE
1002
{
1070
    78
1070
     8
1070
   288
1070
     1
1070
   284
1070
     8
1070
   140
1040
5.0
1070
   340
1005
23
1070
    73
1070
     0
1070
   272
1070
     2
1070
    42
1040
0.5
1070
    44
1040
0.5
1070
   271
1070
     2
1070
    41
1040
2.0
1002
}
  0
CIRCLE
  5
11F0
330
11EA
100
AcDbEntity
  8
3
100
AcDbCircle
 10
89.45818499999999
 20
14.5
 30
0.0
 40
7.0
  0
CIRCLE
  5
11F1
330
11EA
100
AcDbEntity
  8
2
100
AcDbCircle
 10
89.45818499999999
 20
14.5
 30
0.0
 40
6.0
  0
LINE
  5
11F2
330
11EA
100
AcDbEntity
  8
1
100
AcDbLine
 10
89.45818499999999
 20
24.0
 30
0.0
 11
89.45818499999999
 21
5.5
 31
0.0
  0
LINE
  5
11F3
330
11EA
100
AcDbEntity
  8
3
100
AcDbLine
 10
67.958185
 20
20.5
 30
0.0
 11
67.958185
 21
8.5
 31
0.0
  0
LINE
  5
11F4
330
11EA
100
AcDbEntity
  8
3
100
AcDbLine
 10
60.958185
 20
21.49999999999999
 30
0.0
 11
60.958185
 21
8.0
 31
0.0
  0
LINE
  5
11F5
330
11EA
100
AcDbEntity
  8
3
100
AcDbLine
 10
57.958185
 20
21.49999999999999
 30
0.0
 11
57.958185
 21
7.5
 31
0.0
  0
LINE
  5
11F6
330
11EA
100
AcDbEntity
  8
1
100
AcDbLine
 10
63.958185
 20
24.5
 30
0.0
 11
63.958185
 21
5.0
 31
0.0
  0
LINE
  5
11F7
330
11EA
100
AcDbEntity
  8
1
100
AcDbLine
 10
59.458185
 20
25.5
 30
0.0
 11
59.458185
 21
4.5
 31
0.0
  0
LINE
  5
11F8
330
11EA
100
AcDbEntity
  8
3
100
AcDbLine
 10
44.958185
 20
14.5
 30
0.0
 11
44.958185
 21
8.5
 31
0.0
  0
ARC
  5
11F9
330
11EA
100
AcDbEntity
  8
3
100
AcDbCircle
 10
66.958185
 20
8.5
 30
0.0
 40
1.0
100
AcDbArc
 50
270.0
 51
0.0
  0
LINE
  5
11FA
330
11EA
100
AcDbEntity
  8
3
100
AcDbLine
 10
45.958185
 20
7.5
 30
0.0
 11
57.958185
 21
7.5
 31
0.0
  0
ARC
  5
11FB
330
11EA
100
AcDbEntity
  8
3
100
AcDbCircle
 10
45.958185
 20
8.5
 30
0.0
 40
1.0
100
AcDbArc
 50
180.0
 51
270.0
  0
LINE
  5
11FC
330
11EA
100
AcDbEntity
  8
3
100
AcDbLine
 10
60.958185
 20
7.5
 30
0.0
 11
66.958185
 21
7.5
 31
0.0
  0
LINE
  5
11FD
330
11EA
100
AcDbEntity
  8
3
100
AcDbLine
 10
60.958185
 20
8.5
 30
0.0
 11
57.958185
 21
8.5
 31
0.0
  0
LINE
  5
11FE
330
11EA
100
AcDbEntity
  8
3
100
AcDbLine
 10
60.958185
 20
8.0
 30
0.0
 11
60.958185
 21
7.5
 31
0.0
  0
DIMENSION
  5
11FF
330
11EA
100
AcDbEntity
  8
0
100
AcDbDimension
  2
*D59
 10
22.958185
 20
64.0
 30
0.0
 11
22.958185
 21
68.0
 31
0.0
 12
-19.04181499999999
 22
-78.0
 32
0.0
 70
   128
 71
     5
 42
-1.0
  3
STANDARD
100
AcDbAlignedDimension
 13
44.958185
 23
72.0
 33
0.0
 14
44.958185
 24
64.0
 34
0.0
 50
90.0
100
AcDbRotatedDimension
1001
ACAD
1000
DSTYLE
1002
{
1070
    78
1070
     8
1070
   288
1070
     1
1070
   284
1070
     8
1070
   140
1040
5.0
1070
   340
1005
23
1070
    73
1070
     0
1070
   272
1070
     2
1070
    42
1040
0.5
1070
    44
1040
0.5
1070
   271
1070
     2
1070
    41
1040
2.0
1002
}
  0
DIMENSION
  5
1200
330
11EA
100
AcDbEntity
  8
0
100
AcDbDimension
  2
*D55
 10
22.958185
 20
10.5
 30
0.0
 11
22.958185
 21
14.5
 31
0.0
 12
-19.04181499999999
 22
-131.4999999999999
 32
0.0
 70
   128
 71
     5
 42
-1.0
  3
STANDARD
100
AcDbAlignedDimension
 13
44.958185
 23
18.5
 33
0.0
 14
44.958185
 24
10.5
 34
0.0
 50
90.0
100
AcDbRotatedDimension
1001
ACAD
1000
DSTYLE
1002
{
1070
    78
1070
     8
1070
   288
1070
     1
1070
   284
1070
     8
1070
   140
1040
5.0
1070
   340
1005
23
1070
    73
1070
     0
1070
   272
1070
     2
1070
    42
1040
0.5
1070
    44
1040
0.5
1070
   271
1070
     2
1070
    41
1040
2.0
1002
}
  0
DIMENSION
  5
1201
330
11EA
100
AcDbEntity
  8
0
100
AcDbDimension
  2
*D49
 10
45.958185
 20
62.0
 30
0.0
 11
26.76818499999999
 21
50.5
 31
0.0
 12
-19.04181499999999
 22
-106.4999999999999
 32
0.0
 70
   132
 71
     5
 42
-1.0
  3
STANDARD
100
AcDbRadialDimension
 15
45.155087
 25
61.404153
 35
0.0
 40
0.0
1001
ACAD
1000
DSTYLE
1002
{
1070
    78
1070
     8
1070
   288
1070
     1
1070
   284
1070
     8
1070
   140
1040
5.0
1070
   340
1005
23
1070
    73
1070
     0
1070
   272
1070
     2
1070
    42
1040
0.5
1070
    44
1040
0.5
1070
   271
1070
     2
1070
    41
1040
2.0
1002
}
  0
DIMENSION
  5
1202
330
11EA
100
AcDbEntity
  8
0
100
AcDbDimension
  2
*D48
 10
15.458185
 20
61.0
 30
0.0
 11
15.458185
 21
68.5
 31
0.0
 12
-19.04181499999999
 22
-106.4999999999999
 32
0.0
 70
   128
 71
     5
 42
-1.0
  3
STANDARD
100
AcDbAlignedDimension
 13
45.958185
 23
75.0
 33
0.0
 14
45.958185
 24
61.0
 34
0.0
 50
90.0
100
AcDbRotatedDimension
1001
ACAD
1000
DSTYLE
1002
{
1070
    78
1070
     8
1070
   288
1070
     1
1070
   284
1070
     8
1070
   140
1040
5.0
1070
   340
1005
23
1070
    73
1070
     0
1070
   272
1070
     2
1070
    42
1040
0.5
1070
    44
1040
0.5
1070
   271
1070
     2
1070
    41
1040
2.0
1002
}
  0
TEXT
  5
1203
330
11EA
100
AcDbEntity
  8
0
100
AcDbText
 10
20.058185
 20
16.3
 30
0.0
 40
2.399999999999999
  1
H8
 50
90.0
 41
0.6
  7
BIGFONT
100
AcDbText
  0
TEXT
  5
1204
330
11EA
100
AcDbEntity
  8
0
100
AcDbText
 10
22.04257099999999
 20
69.8
 30
0.0
 40
2.399999999999999
  1
H8
 50
90.0
 41
0.6
  7
BIGFONT
100
AcDbText
  0
TEXT
  5
1205
330
11EA
100
AcDbEntity
  8
0
100
AcDbText
 10
-0.384
 20
99.101739
 30
0.0
 40
4.799999999999999
  1
￥８４－
 41
0.6
  7
BIGFONT
100
AcDbText
  0
DIMENSION
  5
1206
330
11EA
100
AcDbEntity
  8
0
100
AcDbDimension
  2
*D46
 10
67.958185
 20
98.0
 30
0.0
 11
56.458185
 21
98.0
 31
0.0
 12
-19.04181499999999
 22
-106.4999999999999
 32
0.0
 71
     5
 42
-1.0
  3
STANDARD
100
AcDbAlignedDimension
 13
44.958185
 23
74.0
 33
0.0
 14
67.958185
 24
74.0
 34
0.0
100
AcDbRotatedDimension
1001
ACAD
1000
DSTYLE
1002
{
1070
    78
1070
     8
1070
   288
1070
     1
1070
   284
1070
     8
1070
   140
1040
5.0
1070
   340
1005
23
1070
    73
1070
     0
1070
   272
1070
     2
1070
   287
1070
     5
1070
    42
1040
0.5
1070
    44
1040
0.5
1070
   271
1070
     2
1070
    41
1040
2.0
1002
}
  0
DIMENSION
  5
1207
330
11EA
100
AcDbEntity
  8
0
100
AcDbDimension
  2
*D53
 10
75.958185
 20
62.0
 30
0.0
 11
75.958185
 21
68.0
 31
0.0
 12
-19.04181499999999
 22
-106.4999999999999
 32
0.0
 70
   128
 71
     5
 42
-1.0
  3
STANDARD
100
AcDbAlignedDimension
 13
60.958185
 23
74.0
 33
0.0
 14
60.958185
 24
62.0
 34
0.0
 50
90.0
100
AcDbRotatedDimension
1001
ACAD
1000
DSTYLE
1002
{
1070
    78
1070
     8
1070
   288
1070
     1
1070
   284
1070
     8
1070
   140
1040
5.0
1070
   340
1005
23
1070
    73
1070
     0
1070
   272
1070
     2
1070
    42
1040
0.5
1070
    44
1040
0.5
1070
   271
1070
     2
1070
    41
1040
2.0
1002
}
  0
DIMENSION
  5
1208
330
11EA
100
AcDbEntity
  8
0
100
AcDbDimension
  2
*D51
 10
67.958185
 20
92.5
 30
0.0
 11
63.958185
 21
92.5
 31
0.0
 12
-19.04181499999999
 22
-106.4999999999999
 32
0.0
 70
   128
 71
     5
 42
-1.0
  3
STANDARD
100
AcDbAlignedDimension
 13
59.458185
 23
79.0
 33
0.0
 14
67.958185
 24
74.0
 34
0.0
100
AcDbRotatedDimension
1001
ACAD
1000
DSTYLE
1002
{
1070
    78
1070
     8
1070
   288
1070
     1
1070
   284
1070
     8
1070
   140
1040
5.0
1070
   340
1005
23
1070
    73
1070
     0
1070
   272
1070
     2
1070
    42
1040
0.5
1070
    44
1040
0.5
1070
   271
1070
     2
1070
    41
1040
2.0
1002
}
  0
DIMENSION
  5
1209
330
11EA
100
AcDbEntity
  8
0
100
AcDbDimension
  2
*D50
 10
66.958185
 20
62.0
 30
0.0
 11
76.148185
 21
52.0
 31
0.0
 12
-19.04181499999999
 22
-106.4999999999999
 32
0.0
 70
   132
 71
     5
 42
-1.0
  3
STANDARD
100
AcDbRadialDimension
 15
67.440104
 25
61.12378399999999
 35
0.0
 40
0.0
1001
ACAD
1000
DSTYLE
1002
{
1070
    78
1070
     8
1070
   288
1070
     1
1070
   284
1070
     8
1070
   140
1040
5.0
1070
   340
1005
23
1070
    73
1070
     0
1070
   272
1070
     2
1070
    42
1040
0.5
1070
    44
1040
0.5
1070
   271
1070
     2
1070
    41
1040
2.0
1002
}
  0
DIMENSION
  5
120A
330
11EA
100
AcDbEntity
  8
0
100
AcDbDimension
  2
*D47
 10
67.958185
 20
84.50000000000001
 30
0.0
 11
65.958185
 21
84.50000000000001
 31
0.0
 12
-19.04181499999999
 22
-106.4999999999999
 32
0.0
 71
     5
 42
-1.0
  3
STANDARD
100
AcDbAlignedDimension
 13
63.958185
 23
78.0
 33
0.0
 14
67.958185
 24
74.0
 34
0.0
100
AcDbRotatedDimension
1001
ACAD
1000
DSTYLE
1002
{
1070
    78
1070
     8
1070
   288
1070
     1
1070
   284
1070
     8
1070
   140
1040
5.0
1070
   340
1005
23
1070
    73
1070
     0
1070
   272
1070
     2
1070
   287
1070
     5
1070
    42
1040
0.5
1070
    44
1040
0.5
1070
   271
1070
     2
1070
    41
1040
2.0
1002
}
  0
ARC
  5
120B
330
11EA
100
AcDbEntity
  8
3
100
AcDbCircle
 10
66.958185
 20
20.5
 30
0.0
 40
1.0
100
AcDbArc
 50
0.0
 51
90.0
  0
LINE
  5
120C
330
11EA
100
AcDbEntity
  8
1
100
AcDbLine
 10
42.458185
 20
14.5
 30
0.0
 11
71.458185
 21
14.5
 31
0.0
  0
ARC
  5
120D
330
11EA
100
AcDbEntity
  8
3
100
AcDbCircle
 10
66.958185
 20
62.0
 30
0.0
 40
1.0
100
AcDbArc
 50
270.0
 51
0.0
  0
ARC
  5
120E
330
11EA
100
AcDbEntity
  8
3
100
AcDbCircle
 10
66.958185
 20
74.0
 30
0.0
 40
1.0
100
AcDbArc
 50
0.0
 51
90.0
  0
LINE
  5
120F
330
11EA
100
AcDbEntity
  8
1
100
AcDbLine
 10
42.458185
 20
68.0
 30
0.0
 11
71.458185
 21
68.0
 31
0.0
  0
DIMENSION
  5
1210
330
11EA
100
AcDbEntity
  8
0
100
AcDbDimension
  2
*D52
 10
60.958185
 20
53.0
 30
0.0
 11
59.458185
 21
53.0
 31
0.0
 12
-19.04181499999999
 22
-106.4999999999999
 32
0.0
 70
   128
 71
     5
 42
-1.0
  3
STANDARD
100
AcDbAlignedDimension
 13
57.958185
 23
61.0
 33
0.0
 14
60.958185
 24
61.0
 34
0.0
100
AcDbRotatedDimension
1001
ACAD
1000
DSTYLE
1002
{
1070
    78
1070
     8
1070
   288
1070
     1
1070
   284
1070
     8
1070
   140
1040
5.0
1070
   340
1005
23
1070
    73
1070
     0
1070
   272
1070
     2
1070
    42
1040
0.5
1070
    44
1040
0.5
1070
   271
1070
     2
1070
    41
1040
2.0
1002
}
  0
DIMENSION
  5
1211
330
11EA
100
AcDbEntity
  8
0
100
AcDbDimension
  2
*D58
 10
62.958185
 20
44.5
 30
0.0
 11
55.958185
 21
44.5
 31
0.0
 12
-19.04181499999999
 22
-131.4999999999999
 32
0.0
 70
   128
 71
     5
 42
-1.0
  3
STANDARD
100
AcDbAlignedDimension
 13
44.958185
 23
20.5
 33
0.0
 14
62.958185
 24
18.0
 34
0.0
100
AcDbRotatedDimension
1001
ACAD
1000
DSTYLE
1002
{
1070
    78
1070
     8
1070
   288
1070
     1
1070
   284
1070
     8
1070
   140
1040
5.0
1070
   340
1005
23
1070
    73
1070
     0
1070
   272
1070
     2
1070
    42
1040
0.5
1070
    44
1040
0.5
1070
   271
1070
     2
1070
    41
1040
2.0
1002
}
  0
DIMENSION
  5
1212
330
11EA
100
AcDbEntity
  8
0
100
AcDbDimension
  2
*D54
 10
60.958185
 20
39.0
 30
0.0
 11
53.458185
 21
39.0
 31
0.0
 12
-19.04181499999999
 22
-131.4999999999999
 32
0.0
 70
   128
 71
     5
 42
-1.0
  3
STANDARD
100
AcDbAlignedDimension
 13
44.958185
 23
20.5
 33
0.0
 14
60.958185
 24
18.5
 34
0.0
100
AcDbRotatedDimension
1001
ACAD
1000
DSTYLE
1002
{
1070
    78
1070
     8
1070
   288
1070
     1
1070
   284
1070
     8
1070
   140
1040
5.0
1070
   340
1005
23
1070
    73
1070
     0
1070
   272
1070
     2
1070
    42
1040
0.5
1070
    44
1040
0.5
1070
   271
1070
     2
1070
    41
1040
2.0
1002
}
  0
LINE
  5
1213
330
11EA
100
AcDbEntity
  8
2
100
AcDbLine
 10
60.958185
 20
10.5
 30
0.0
 11
44.958185
 21
10.5
 31
0.0
  0
LINE
  5
1214
330
11EA
100
AcDbEntity
  8
2
100
AcDbLine
 10
44.958185
 20
18.5
 30
0.0
 11
60.958185
 21
18.5
 31
0.0
  0
LINE
  5
1215
330
11EA
100
AcDbEntity
  8
3
100
AcDbLine
 10
45.958185
 20
21.49999999999999
 30
0.0
 11
57.958185
 21
21.49999999999999
 31
0.0
  0
LINE
  5
1216
330
11EA
100
AcDbEntity
  8
3
100
AcDbLine
 10
44.958185
 20
14.5
 30
0.0
 11
44.958185
 21
20.5
 31
0.0
  0
ARC
  5
1217
330
11EA
100
AcDbEntity
  8
3
100
AcDbCircle
 10
45.958185
 20
20.5
 30
0.0
 40
1.0
100
AcDbArc
 50
90.0
 51
180.0
  0
LINE
  5
1218
330
11EA
100
AcDbEntity
  8
2
100
AcDbLine
 10
62.958185
 20
11.0
 30
0.0
 11
60.958185
 21
11.0
 31
0.0
  0
LINE
  5
1219
330
11EA
100
AcDbEntity
  8
2
100
AcDbLine
 10
60.958185
 20
18.0
 30
0.0
 11
62.958185
 21
18.0
 31
0.0
  0
CIRCLE
  5
121A
330
11EA
100
AcDbEntity
  8
3
100
AcDbCircle
 10
63.958185
 20
14.5
 30
0.0
 40
2.75
  0
LINE
  5
121B
330
11EA
100
AcDbEntity
  8
2
100
AcDbLine
 10
60.958185
 20
18.5
 30
0.0
 11
60.958185
 21
10.5
 31
0.0
  0
LINE
  5
121C
330
11EA
100
AcDbEntity
  8
2
100
AcDbLine
 10
62.958185
 20
11.0
 30
0.0
 11
64.958185
 21
14.5
 31
0.0
  0
LINE
  5
121D
330
11EA
100
AcDbEntity
  8
2
100
AcDbLine
 10
62.958185
 20
18.0
 30
0.0
 11
62.958185
 21
11.0
 31
0.0
  0
LINE
  5
121E
330
11EA
100
AcDbEntity
  8
2
100
AcDbLine
 10
64.958185
 20
14.5
 30
0.0
 11
62.958185
 21
18.0
 31
0.0
  0
LINE
  5
121F
330
11EA
100
AcDbEntity
  8
3
100
AcDbLine
 10
60.958185
 20
21.49999999999999
 30
0.0
 11
66.958185
 21
21.49999999999999
 31
0.0
  0
LINE
  5
1220
330
11EA
100
AcDbEntity
  8
3
100
AcDbLine
 10
60.958185
 20
20.5
 30
0.0
 11
57.958185
 21
20.5
 31
0.0
  0
LINE
  5
1221
330
11EA
100
AcDbEntity
  8
2
100
AcDbLine
 10
44.958185
 20
72.0
 30
0.0
 11
60.958185
 21
72.0
 31
0.0
  0
LINE
  5
1222
330
11EA
100
AcDbEntity
  8
2
100
AcDbLine
 10
60.958185
 20
64.0
 30
0.0
 11
44.958185
 21
64.0
 31
0.0
  0
LINE
  5
1223
330
11EA
100
AcDbEntity
  8
3
100
AcDbLine
 10
45.958185
 20
61.0
 30
0.0
 11
57.958185
 21
61.0
 31
0.0
  0
LINE
  5
1224
330
11EA
100
AcDbEntity
  8
3
100
AcDbLine
 10
45.958185
 20
75.0
 30
0.0
 11
57.958185
 21
75.0
 31
0.0
  0
ARC
  5
1225
330
11EA
100
AcDbEntity
  8
3
100
AcDbCircle
 10
45.958185
 20
74.0
 30
0.0
 40
1.0
100
AcDbArc
 50
90.0
 51
180.0
  0
LINE
  5
1226
330
11EA
100
AcDbEntity
  8
3
100
AcDbLine
 10
44.958185
 20
68.0
 30
0.0
 11
44.958185
 21
62.0
 31
0.0
  0
ARC
  5
1227
330
11EA
100
AcDbEntity
  8
3
100
AcDbCircle
 10
45.958185
 20
62.0
 30
0.0
 40
1.0
100
AcDbArc
 50
180.0
 51
270.0
  0
LINE
  5
1228
330
11EA
100
AcDbEntity
  8
3
100
AcDbLine
 10
44.958185
 20
68.0
 30
0.0
 11
44.958185
 21
74.0
 31
0.0
  0
LINE
  5
1229
330
11EA
100
AcDbEntity
  8
3
100
AcDbLine
 10
57.958185
 20
75.0
 30
0.0
 11
57.958185
 21
61.0
 31
0.0
  0
LINE
  5
122A
330
11EA
100
AcDbEntity
  8
3
100
AcDbLine
 10
60.958185
 20
75.0
 30
0.0
 11
60.958185
 21
61.5
 31
0.0
  0
LINE
  5
122B
330
11EA
100
AcDbEntity
  8
1
100
AcDbLine
 10
59.458185
 20
79.0
 30
0.0
 11
59.458185
 21
58.0
 31
0.0
  0
LINE
  5
122C
330
11EA
100
AcDbEntity
  8
1
100
AcDbLine
 10
63.958185
 20
78.0
 30
0.0
 11
63.958185
 21
58.5
 31
0.0
  0
LINE
  5
122D
330
11EA
100
AcDbEntity
  8
3
100
AcDbLine
 10
60.958185
 20
61.0
 30
0.0
 11
66.958185
 21
61.0
 31
0.0
  0
LINE
  5
122E
330
11EA
100
AcDbEntity
  8
3
100
AcDbLine
 10
60.958185
 20
62.0
 30
0.0
 11
57.958185
 21
62.0
 31
0.0
  0
LINE
  5
122F
330
11EA
100
AcDbEntity
  8
3
100
AcDbLine
 10
60.958185
 20
61.5
 30
0.0
 11
60.958185
 21
61.0
 31
0.0
  0
LINE
  5
1230
330
11EA
100
AcDbEntity
  8
2
100
AcDbLine
 10
60.958185
 20
71.5
 30
0.0
 11
62.958185
 21
71.5
 31
0.0
  0
LINE
  5
1231
330
11EA
100
AcDbEntity
  8
2
100
AcDbLine
 10
62.958185
 20
64.5
 30
0.0
 11
60.958185
 21
64.5
 31
0.0
  0
CIRCLE
  5
1232
330
11EA
100
AcDbEntity
  8
3
100
AcDbCircle
 10
63.958185
 20
68.0
 30
0.0
 40
2.75
  0
LINE
  5
1233
330
11EA
100
AcDbEntity
  8
2
100
AcDbLine
 10
60.958185
 20
72.0
 30
0.0
 11
60.958185
 21
64.0
 31
0.0
  0
LINE
  5
1234
330
11EA
100
AcDbEntity
  8
3
100
AcDbLine
 10
60.958185
 20
74.0
 30
0.0
 11
57.958185
 21
74.0
 31
0.0
  0
LINE
  5
1235
330
11EA
100
AcDbEntity
  8
2
100
AcDbLine
 10
62.958185
 20
71.5
 30
0.0
 11
62.958185
 21
64.5
 31
0.0
  0
LINE
  5
1236
330
11EA
100
AcDbEntity
  8
2
100
AcDbLine
 10
64.958185
 20
68.0
 30
0.0
 11
62.958185
 21
71.5
 31
0.0
  0
LINE
  5
1237
330
11EA
100
AcDbEntity
  8
2
100
AcDbLine
 10
62.958185
 20
64.5
 30
0.0
 11
64.958185
 21
68.0
 31
0.0
  0
LINE
  5
1238
330
11EA
100
AcDbEntity
  8
3
100
AcDbLine
 10
60.958185
 20
75.0
 30
0.0
 11
66.958185
 21
75.0
 31
0.0
  0
DIMENSION
  5
1239
330
11EA
100
AcDbEntity
  8
0
100
AcDbDimension
  2
*D57
 10
84.52098900000001
 20
44.5
 30
0.0
 11
92.95818500000001
 21
44.5
 31
0.0
 12
-19.04181499999999
 22
-131.4999999999999
 32
0.0
 70
   128
 71
     5
 42
-1.0
  3
STANDARD
100
AcDbAlignedDimension
 13
83.020989
 23
65.25
 33
0.0
 14
84.52098900000001
 24
65.25
 34
0.0
100
AcDbRotatedDimension
1001
ACAD
1000
DSTYLE
1002
{
1070
    78
1070
     8
1070
   288
1070
     1
1070
   284
1070
     8
1070
   140
1040
5.0
1070
   340
1005
23
1070
    73
1070
     0
1070
   272
1070
     2
1070
    42
1040
0.5
1070
    44
1040
0.5
1070
   271
1070
     2
1070
    41
1040
2.0
1002
}
  0
CIRCLE
  5
123A
330
11EA
100
AcDbEntity
  8
2
100
AcDbCircle
 10
89.45818499999999
 20
14.5
 30
0.0
 40
4.0
  0
LINE
  5
123B
330
11EA
100
AcDbEntity
  8
1
100
AcDbLine
 10
80.45818500000001
 20
14.5
 30
0.0
 11
97.95818500000001
 21
14.5
 31
0.0
  0
LINE
  5
123C
330
11EA
100
AcDbEntity
  8
2
100
AcDbLine
 10
84.52098900000001
 20
11.75
 30
0.0
 11
85.958185
 21
14.5
 31
0.0
  0
LINE
  5
123D
330
11EA
100
AcDbEntity
  8
2
100
AcDbLine
 10
84.52098900000001
 20
17.25
 30
0.0
 11
84.52098900000001
 21
11.75
 31
0.0
  0
LINE
  5
123E
330
11EA
100
AcDbEntity
  8
2
100
AcDbLine
 10
84.52098900000001
 20
11.75
 30
0.0
 11
83.020989
 21
11.75
 31
0.0
  0
LINE
  5
123F
330
11EA
100
AcDbEntity
  8
2
100
AcDbLine
 10
85.958185
 20
14.5
 30
0.0
 11
84.52098900000001
 21
17.25
 31
0.0
  0
LINE
  5
1240
330
11EA
100
AcDbEntity
  8
2
100
AcDbLine
 10
83.020989
 20
17.25
 30
0.0
 11
84.52098900000001
 21
17.25
 31
0.0
  0
LINE
  5
1241
330
11EA
100
AcDbEntity
  8
2
100
AcDbLine
 10
94.39538199999999
 20
17.25
 30
0.0
 11
94.39538199999999
 21
11.75
 31
0.0
  0
LINE
  5
1242
330
11EA
100
AcDbEntity
  8
2
100
AcDbLine
 10
94.39538199999999
 20
11.75
 30
0.0
 11
92.95818500000001
 21
14.5
 31
0.0
  0
LINE
  5
1243
330
11EA
100
AcDbEntity
  8
2
100
AcDbLine
 10
94.39538199999999
 20
11.75
 30
0.0
 11
95.89538199999999
 21
11.75
 31
0.0
  0
LINE
  5
1244
330
11EA
100
AcDbEntity
  8
2
100
AcDbLine
 10
95.89538199999999
 20
17.25
 30
0.0
 11
94.39538199999999
 21
17.25
 31
0.0
  0
LINE
  5
1245
330
11EA
100
AcDbEntity
  8
2
100
AcDbLine
 10
92.95818500000001
 20
14.5
 30
0.0
 11
94.39538199999999
 21
17.25
 31
0.0
  0
CIRCLE
  5
1246
330
11EA
100
AcDbEntity
  8
2
100
AcDbCircle
 10
89.45818499999999
 20
68.0
 30
0.0
 40
4.0
  0
DIMENSION
  5
1247
330
11EA
100
AcDbEntity
  8
0
100
AcDbDimension
  2
*D56
 10
95.89538199999999
 20
92.0
 30
0.0
 11
87.458185
 21
92.0
 31
0.0
 12
-19.04181499999999
 22
-131.4999999999999
 32
0.0
 70
   128
 71
     5
 42
-1.0
  3
STANDARD
100
AcDbAlignedDimension
 13
94.39538199999999
 23
70.75
 33
0.0
 14
95.89538199999999
 24
70.75
 34
0.0
100
AcDbRotatedDimension
1001
ACAD
1000
DSTYLE
1002
{
1070
    78
1070
     8
1070
   288
1070
     1
1070
   284
1070
     8
1070
   140
1040
5.0
1070
   340
1005
23
1070
    73
1070
     0
1070
   272
1070
     2
1070
    42
1040
0.5
1070
    44
1040
0.5
1070
   271
1070
     2
1070
    41
1040
2.0
1002
}
  0
CIRCLE
  5
1248
330
11EA
100
AcDbEntity
  8
2
100
AcDbCircle
 10
89.45818499999999
 20
68.0
 30
0.0
 40
6.0
  0
CIRCLE
  5
1249
330
11EA
100
AcDbEntity
  8
3
100
AcDbCircle
 10
89.45818499999999
 20
68.0
 30
0.0
 40
7.0
  0
LINE
  5
124A
330
11EA
100
AcDbEntity
  8
1
100
AcDbLine
 10
80.45818500000001
 20
68.0
 30
0.0
 11
97.95818500000001
 21
68.0
 31
0.0
  0
LINE
  5
124B
330
11EA
100
AcDbEntity
  8
3
100
AcDbLine
 10
67.958185
 20
74.0
 30
0.0
 11
67.958185
 21
62.0
 31
0.0
  0
LINE
  5
124C
330
11EA
100
AcDbEntity
  8
2
100
AcDbLine
 10
85.958185
 20
68.0
 30
0.0
 11
84.52098900000001
 21
70.75
 31
0.0
  0
LINE
  5
124D
330
11EA
100
AcDbEntity
  8
2
100
AcDbLine
 10
84.52098900000001
 20
70.75
 30
0.0
 11
84.52098900000001
 21
65.25
 31
0.0
  0
LINE
  5
124E
330
11EA
100
AcDbEntity
  8
2
100
AcDbLine
 10
84.52098900000001
 20
65.25
 30
0.0
 11
85.958185
 21
68.0
 31
0.0
  0
LINE
  5
124F
330
11EA
100
AcDbEntity
  8
2
100
AcDbLine
 10
84.52098900000001
 20
65.25
 30
0.0
 11
83.020989
 21
65.25
 31
0.0
  0
LINE
  5
1250
330
11EA
100
AcDbEntity
  8
2
100
AcDbLine
 10
83.020989
 20
70.75
 30
0.0
 11
84.52098900000001
 21
70.75
 31
0.0
  0
LINE
  5
1251
330
11EA
100
AcDbEntity
  8
1
100
AcDbLine
 10
89.45818499999999
 20
77.5
 30
0.0
 11
89.45818499999999
 21
59.0
 31
0.0
  0
LINE
  5
1252
330
11EA
100
AcDbEntity
  8
2
100
AcDbLine
 10
92.95818500000001
 20
68.0
 30
0.0
 11
94.39538199999999
 21
70.75
 31
0.0
  0
LINE
  5
1253
330
11EA
100
AcDbEntity
  8
2
100
AcDbLine
 10
94.39538199999999
 20
70.75
 30
0.0
 11
94.39538199999999
 21
65.25
 31
0.0
  0
LINE
  5
1254
330
11EA
100
AcDbEntity
  8
2
100
AcDbLine
 10
94.39538199999999
 20
65.25
 30
0.0
 11
95.89538199999999
 21
65.25
 31
0.0
  0
LINE
  5
1255
330
11EA
100
AcDbEntity
  8
2
100
AcDbLine
 10
94.39538199999999
 20
65.25
 30
0.0
 11
92.95818500000001
 21
68.0
 31
0.0
  0
LINE
  5
1256
330
11EA
100
AcDbEntity
  8
2
100
AcDbLine
 10
95.89538199999999
 20
70.75
 30
0.0
 11
94.39538199999999
 21
70.75
 31
0.0
  0
LINE
  5
1257
330
11EA
100
AcDbEntity
  8
4
100
AcDbLine
 10
135.6046719999999
 20
46.93589999999999
 30
0.0
 11
149.781371
 21
46.93589999999999
 31
0.0
  0
TEXT
  5
1258
330
11EA
100
AcDbEntity
  8
1
 62
     7
100
AcDbText
 10
136.794903
 20
48.298037
 30
0.0
 40
4.0
  1
PK40R
 41
0.5
  7
ROMANS
100
AcDbText
  0
ENDBLK
  5
125A
330
11EA
100
AcDbEntity
  8
0
100
AcDbBlockEnd
  0
BLOCK
  5
14B8
330
14B0
100
AcDbEntity
  8
0
100
AcDbBlockBegin
  2
*D61
 70
     1
 10
0.0
 20
0.0
 30
0.0
  3
*D61
  1

  0
LINE
  5
14B1
330
14B0
100
AcDbEntity
  8
0
  6
ByBlock
 62
     0
100
AcDbLine
 10
88.512591
 20
167.852711
 30
0.0
 11
94.32790200000001
 21
174.259538
 31
0.0
  0
MTEXT
  5
14B2
330
14B0
100
AcDbEntity
  8
0
  6
ByBlock
 62
     0
100
AcDbMText
 10
86.65984100000001
 20
165.811504
 30
0.0
 40
4.0
 41
0.0
 71
     5
 72
     1
  1
\A1;R1
 11
0.6720981024788381
 21
0.7404621129027098
 31
0.0
 73
     1
 44
1.0
  0
SOLID
  5
14B3
330
14B0
100
AcDbEntity
  8
0
  6
ByBlock
 62
     0
100
AcDbTrace
 10
92.736885
 20
173.002647
 30
0.0
 11
93.230526
 21
172.554581
 31
0.0
 12
94.32790200000001
 22
174.259538
 32
0.0
 13
94.32790200000001
 23
174.259538
 33
0.0
  0
LINE
  5
14B4
330
14B0
100
AcDbEntity
  8
0
  6
ByBlock
 62
     0
100
AcDbLine
 10
94.90999999999999
 20
175.0
 30
0.0
 11
95.09
 21
175.0
 31
0.0
  0
LINE
  5
14B5
330
14B0
100
AcDbEntity
  8
0
  6
ByBlock
 62
     0
100
AcDbLine
 10
95.0
 20
174.91
 30
0.0
 11
95.0
 21
175.09
 31
0.0
  0
POINT
  5
14B6
330
14B0
100
AcDbEntity
  8
DEFPOINTS
  6
ByBlock
 62
     0
100
AcDbPoint
 10
94.32790200000001
 20
174.259538
 30
0.0
  0
POINT
  5
14B7
330
14B0
100
AcDbEntity
  8
DEFPOINTS
  6
ByBlock
 62
     0
100
AcDbPoint
 10
95.0
 20
175.0
 30
0.0
  0
ENDBLK
  5
14B9
330
14B0
100
AcDbEntity
  8
0
100
AcDbBlockEnd
  0
BLOCK
  5
14C2
330
14BA
100
AcDbEntity
  8
0
100
AcDbBlockBegin
  2
*D62
 70
     1
 10
0.0
 20
0.0
 30
0.0
  3
*D62
  1

  0
LINE
  5
14BB
330
14BA
100
AcDbEntity
  8
0
  6
ByBlock
 62
     0
100
AcDbLine
 10
106.0485059999999
 20
167.282975
 30
0.0
 11
101.5474589999999
 21
174.1631669999999
 31
0.0
  0
MTEXT
  5
14BC
330
14BA
100
AcDbEntity
  8
0
  6
ByBlock
 62
     0
100
AcDbMText
 10
107.557667
 20
164.976106
 30
0.0
 40
4.0
 41
0.0
 71
     5
 72
     1
  1
\A1;R1
 11
0.5474587737435474
 21
-0.836832654149688
 31
0.0
 73
     1
 44
1.0
  0
SOLID
  5
14BD
330
14BA
100
AcDbEntity
  8
0
  6
ByBlock
 62
     0
100
AcDbTrace
 10
102.9213209999999
 20
172.671989
 30
0.0
 11
102.3634329999999
 21
172.3070159999999
 31
0.0
 12
101.5474589999999
 22
174.1631669999999
 32
0.0
 13
101.5474589999999
 23
174.1631669999999
 33
0.0
  0
LINE
  5
14BE
330
14BA
100
AcDbEntity
  8
0
  6
ByBlock
 62
     0
100
AcDbLine
 10
100.9099999999999
 20
175.0
 30
0.0
 11
101.09
 21
175.0
 31
0.0
  0
LINE
  5
14BF
330
14BA
100
AcDbEntity
  8
0
  6
ByBlock
 62
     0
100
AcDbLine
 10
101.0
 20
174.91
 30
0.0
 11
101.0
 21
175.09
 31
0.0
  0
POINT
  5
14C0
330
14BA
100
AcDbEntity
  8
DEFPOINTS
  6
ByBlock
 62
     0
100
AcDbPoint
 10
101.5474589999999
 20
174.1631669999999
 30
0.0
  0
POINT
  5
14C1
330
14BA
100
AcDbEntity
  8
DEFPOINTS
  6
ByBlock
 62
     0
100
AcDbPoint
 10
101.0
 20
175.0
 30
0.0
  0
ENDBLK
  5
14C3
330
14BA
100
AcDbEntity
  8
0
100
AcDbBlockEnd
  0
BLOCK
  5
14CC
330
14C4
100
AcDbEntity
  8
0
100
AcDbBlockBegin
  2
*D63
 70
     1
 10
0.0
 20
0.0
 30
0.0
  3
*D63
  1

  0
LINE
  5
14C5
330
14C4
100
AcDbEntity
  8
0
  6
ByBlock
 62
     0
100
AcDbLine
 10
122.7679889999999
 20
170.3314419999999
 30
0.0
 11
116.4712069999999
 21
182.1179779999999
 31
0.0
  0
MTEXT
  5
14C6
330
14C4
100
AcDbEntity
  8
0
  6
ByBlock
 62
     0
100
AcDbMText
 10
124.066951
 20
167.9
 30
0.0
 40
4.0
 41
0.0
 71
     5
 72
     1
  1
\A1;R1
 11
0.4712072720438222
 21
-0.8820225092212893
 31
0.0
 73
     1
 44
1.0
  0
SOLID
  5
14C7
330
14C4
100
AcDbEntity
  8
0
  6
ByBlock
 62
     0
100
AcDbTrace
 10
117.70763
 20
180.5110019999999
 30
0.0
 11
117.1196149999999
 21
180.1968639999999
 31
0.0
 12
116.4712069999999
 22
182.1179779999999
 32
0.0
 13
116.4712069999999
 23
182.1179779999999
 33
0.0
  0
LINE
  5
14C8
330
14C4
100
AcDbEntity
  8
0
  6
ByBlock
 62
     0
100
AcDbLine
 10
115.91
 20
183.0
 30
0.0
 11
116.09
 21
183.0
 31
0.0
  0
LINE
  5
14C9
330
14C4
100
AcDbEntity
  8
0
  6
ByBlock
 62
     0
100
AcDbLine
 10
116.0
 20
182.91
 30
0.0
 11
116.0
 21
183.0899999999999
 31
0.0
  0
POINT
  5
14CA
330
14C4
100
AcDbEntity
  8
DEFPOINTS
  6
ByBlock
 62
     0
100
AcDbPoint
 10
116.4712069999999
 20
182.1179779999999
 30
0.0
  0
POINT
  5
14CB
330
14C4
100
AcDbEntity
  8
DEFPOINTS
  6
ByBlock
 62
     0
100
AcDbPoint
 10
116.0
 20
183.0
 30
0.0
  0
ENDBLK
  5
14CD
330
14C4
100
AcDbEntity
  8
0
100
AcDbBlockEnd
  0
BLOCK
  5
14D9
330
14CE
100
AcDbEntity
  8
0
100
AcDbBlockBegin
  2
*D64
 70
     1
 10
0.0
 20
0.0
 30
0.0
  3
*D64
  1

  0
LINE
  5
14CF
330
14CE
100
AcDbEntity
  8
0
  6
ByBlock
 62
     0
100
AcDbLine
 10
90.0
 20
212.06
 30
0.0
 11
90.0
 21
234.18
 31
0.0
  0
LINE
  5
14D0
330
14CE
100
AcDbEntity
  8
0
  6
ByBlock
 62
     0
100
AcDbLine
 10
98.0
 20
212.06
 30
0.0
 11
98.0
 21
234.18
 31
0.0
  0
LINE
  5
14D1
330
14CE
100
AcDbEntity
  8
0
  6
ByBlock
 62
     0
100
AcDbLine
 10
92.0
 20
234.0
 30
0.0
 11
92.57666699999999
 21
234.0
 31
0.0
  0
LINE
  5
14D2
330
14CE
100
AcDbEntity
  8
0
  6
ByBlock
 62
     0
100
AcDbLine
 10
96.0
 20
234.0
 30
0.0
 11
95.42333300000001
 21
234.0
 31
0.0
  0
SOLID
  5
14D3
330
14CE
100
AcDbEntity
  8
0
  6
ByBlock
 62
     0
100
AcDbTrace
 10
92.0
 20
234.333333
 30
0.0
 11
92.0
 21
233.666667
 31
0.0
 12
90.0
 22
234.0
 32
0.0
 13
90.0
 23
234.0
 33
0.0
  0
SOLID
  5
14D4
330
14CE
100
AcDbEntity
  8
0
  6
ByBlock
 62
     0
100
AcDbTrace
 10
96.0
 20
234.333333
 30
0.0
 11
96.0
 21
233.666667
 31
0.0
 12
98.0
 22
234.0
 32
0.0
 13
98.0
 23
234.0
 33
0.0
  0
MTEXT
  5
14D5
330
14CE
100
AcDbEntity
  8
0
  6
ByBlock
 62
     0
100
AcDbMText
 10
94.0
 20
234.0
 30
0.0
 40
4.0
 41
0.0
 71
     5
 72
     1
  1
\A1;8
 73
     1
 44
1.0
  0
POINT
  5
14D6
330
14CE
100
AcDbEntity
  8
DEFPOINTS
  6
ByBlock
 62
     0
100
AcDbPoint
 10
90.0
 20
212.0
 30
0.0
  0
POINT
  5
14D7
330
14CE
100
AcDbEntity
  8
DEFPOINTS
  6
ByBlock
 62
     0
100
AcDbPoint
 10
98.0
 20
212.0
 30
0.0
  0
POINT
  5
14D8
330
14CE
100
AcDbEntity
  8
DEFPOINTS
  6
ByBlock
 62
     0
100
AcDbPoint
 10
98.0
 20
234.0
 30
0.0
  0
ENDBLK
  5
14DA
330
14CE
100
AcDbEntity
  8
0
100
AcDbBlockEnd
  0
BLOCK
  5
14E6
330
14DB
100
AcDbEntity
  8
0
100
AcDbBlockBegin
  2
*D65
 70
     1
 10
0.0
 20
0.0
 30
0.0
  3
*D65
  1

  0
LINE
  5
14DC
330
14DB
100
AcDbEntity
  8
0
  6
ByBlock
 62
     0
100
AcDbLine
 10
98.0
 20
217.56
 30
0.0
 11
98.0
 21
234.18
 31
0.0
  0
LINE
  5
14DD
330
14DB
100
AcDbEntity
  8
0
  6
ByBlock
 62
     0
100
AcDbLine
 10
113.0
 20
206.5599999999999
 30
0.0
 11
113.0
 21
234.18
 31
0.0
  0
LINE
  5
14DE
330
14DB
100
AcDbEntity
  8
0
  6
ByBlock
 62
     0
100
AcDbLine
 10
100.0
 20
234.0
 30
0.0
 11
102.743333
 21
234.0
 31
0.0
  0
LINE
  5
14DF
330
14DB
100
AcDbEntity
  8
0
  6
ByBlock
 62
     0
100
AcDbLine
 10
111.0
 20
234.0
 30
0.0
 11
108.256667
 21
234.0
 31
0.0
  0
SOLID
  5
14E0
330
14DB
100
AcDbEntity
  8
0
  6
ByBlock
 62
     0
100
AcDbTrace
 10
100.0
 20
234.333333
 30
0.0
 11
100.0
 21
233.666667
 31
0.0
 12
98.0
 22
234.0
 32
0.0
 13
98.0
 23
234.0
 33
0.0
  0
SOLID
  5
14E1
330
14DB
100
AcDbEntity
  8
0
  6
ByBlock
 62
     0
100
AcDbTrace
 10
111.0
 20
234.333333
 30
0.0
 11
111.0
 21
233.666667
 31
0.0
 12
113.0
 22
234.0
 32
0.0
 13
113.0
 23
234.0
 33
0.0
  0
MTEXT
  5
14E2
330
14DB
100
AcDbEntity
  8
0
  6
ByBlock
 62
     0
100
AcDbMText
 10
105.4999999999999
 20
234.0
 30
0.0
 40
4.0
 41
0.0
 71
     5
 72
     1
  1
\A1;15
 73
     1
 44
1.0
  0
POINT
  5
14E3
330
14DB
100
AcDbEntity
  8
DEFPOINTS
  6
ByBlock
 62
     0
100
AcDbPoint
 10
98.0
 20
217.5
 30
0.0
  0
POINT
  5
14E4
330
14DB
100
AcDbEntity
  8
DEFPOINTS
  6
ByBlock
 62
     0
100
AcDbPoint
 10
113.0
 20
206.4999999999999
 30
0.0
  0
POINT
  5
14E5
330
14DB
100
AcDbEntity
  8
DEFPOINTS
  6
ByBlock
 62
     0
100
AcDbPoint
 10
113.0
 20
234.0
 30
0.0
  0
ENDBLK
  5
14E7
330
14DB
100
AcDbEntity
  8
0
100
AcDbBlockEnd
  0
BLOCK
  5
14F3
330
14E8
100
AcDbEntity
  8
0
100
AcDbBlockBegin
  2
*D66
 70
     1
 10
0.0
 20
0.0
 30
0.0
  3
*D66
  1

  0
LINE
  5
14E9
330
14E8
100
AcDbEntity
  8
0
  6
ByBlock
 62
     0
100
AcDbLine
 10
90.0
 20
230.56
 30
0.0
 11
90.0
 21
242.68
 31
0.0
  0
LINE
  5
14EA
330
14E8
100
AcDbEntity
  8
0
  6
ByBlock
 62
     0
100
AcDbLine
 10
113.0
 20
228.06
 30
0.0
 11
113.0
 21
242.68
 31
0.0
  0
LINE
  5
14EB
330
14E8
100
AcDbEntity
  8
0
  6
ByBlock
 62
     0
100
AcDbLine
 10
92.0
 20
242.5
 30
0.0
 11
98.076667
 21
242.5
 31
0.0
  0
LINE
  5
14EC
330
14E8
100
AcDbEntity
  8
0
  6
ByBlock
 62
     0
100
AcDbLine
 10
111.0
 20
242.5
 30
0.0
 11
104.923333
 21
242.5
 31
0.0
  0
SOLID
  5
14ED
330
14E8
100
AcDbEntity
  8
0
  6
ByBlock
 62
     0
100
AcDbTrace
 10
92.0
 20
242.833333
 30
0.0
 11
92.0
 21
242.166667
 31
0.0
 12
90.0
 22
242.5
 32
0.0
 13
90.0
 23
242.5
 33
0.0
  0
SOLID
  5
14EE
330
14E8
100
AcDbEntity
  8
0
  6
ByBlock
 62
     0
100
AcDbTrace
 10
111.0
 20
242.833333
 30
0.0
 11
111.0
 21
242.166667
 31
0.0
 12
113.0
 22
242.5
 32
0.0
 13
113.0
 23
242.5
 33
0.0
  0
MTEXT
  5
14EF
330
14E8
100
AcDbEntity
  8
0
  6
ByBlock
 62
     0
100
AcDbMText
 10
101.5
 20
242.5
 30
0.0
 40
4.0
 41
0.0
 71
     5
 72
     1
  1
\A1;23
 73
     1
 44
1.0
  0
POINT
  5
14F0
330
14E8
100
AcDbEntity
  8
DEFPOINTS
  6
ByBlock
 62
     0
100
AcDbPoint
 10
90.0
 20
230.5
 30
0.0
  0
POINT
  5
14F1
330
14E8
100
AcDbEntity
  8
DEFPOINTS
  6
ByBlock
 62
     0
100
AcDbPoint
 10
113.0
 20
228.0
 30
0.0
  0
POINT
  5
14F2
330
14E8
100
AcDbEntity
  8
DEFPOINTS
  6
ByBlock
 62
     0
100
AcDbPoint
 10
113.0
 20
242.5
 30
0.0
  0
ENDBLK
  5
14F4
330
14E8
100
AcDbEntity
  8
0
100
AcDbBlockEnd
  0
BLOCK
  5
1500
330
14F5
100
AcDbEntity
  8
0
100
AcDbBlockBegin
  2
*D67
 70
     1
 10
0.0
 20
0.0
 30
0.0
  3
*D67
  1

  0
LINE
  5
14F6
330
14F5
100
AcDbEntity
  8
0
  6
ByBlock
 62
     0
100
AcDbLine
 10
113.0
 20
215.56
 30
0.0
 11
113.0
 21
242.68
 31
0.0
  0
LINE
  5
14F7
330
14F5
100
AcDbEntity
  8
0
  6
ByBlock
 62
     0
100
AcDbLine
 10
132.0
 20
198.06
 30
0.0
 11
132.0
 21
242.68
 31
0.0
  0
LINE
  5
14F8
330
14F5
100
AcDbEntity
  8
0
  6
ByBlock
 62
     0
100
AcDbLine
 10
115.0
 20
242.5
 30
0.0
 11
121.0766669999999
 21
242.5
 31
0.0
  0
LINE
  5
14F9
330
14F5
100
AcDbEntity
  8
0
  6
ByBlock
 62
     0
100
AcDbLine
 10
130.0
 20
242.5
 30
0.0
 11
123.923333
 21
242.5
 31
0.0
  0
SOLID
  5
14FA
330
14F5
100
AcDbEntity
  8
0
  6
ByBlock
 62
     0
100
AcDbTrace
 10
115.0
 20
242.833333
 30
0.0
 11
115.0
 21
242.166667
 31
0.0
 12
113.0
 22
242.5
 32
0.0
 13
113.0
 23
242.5
 33
0.0
  0
SOLID
  5
14FB
330
14F5
100
AcDbEntity
  8
0
  6
ByBlock
 62
     0
100
AcDbTrace
 10
130.0
 20
242.833333
 30
0.0
 11
130.0
 21
242.166667
 31
0.0
 12
132.0
 22
242.5
 32
0.0
 13
132.0
 23
242.5
 33
0.0
  0
MTEXT
  5
14FC
330
14F5
100
AcDbEntity
  8
0
  6
ByBlock
 62
     0
100
AcDbMText
 10
122.5
 20
242.5
 30
0.0
 40
4.0
 41
0.0
 71
     5
 72
     1
  1
\A1;L
 73
     1
 44
1.0
  0
POINT
  5
14FD
330
14F5
100
AcDbEntity
  8
DEFPOINTS
  6
ByBlock
 62
     0
100
AcDbPoint
 10
113.0
 20
215.5
 30
0.0
  0
POINT
  5
14FE
330
14F5
100
AcDbEntity
  8
DEFPOINTS
  6
ByBlock
 62
     0
100
AcDbPoint
 10
132.0
 20
198.0
 30
0.0
  0
POINT
  5
14FF
330
14F5
100
AcDbEntity
  8
DEFPOINTS
  6
ByBlock
 62
     0
100
AcDbPoint
 10
132.0
 20
242.5
 30
0.0
  0
ENDBLK
  5
1501
330
14F5
100
AcDbEntity
  8
0
100
AcDbBlockEnd
  0
BLOCK
  5
150D
330
1502
100
AcDbEntity
  8
0
100
AcDbBlockBegin
  2
*D68
 70
     1
 10
0.0
 20
0.0
 30
0.0
  3
*D68
  1

  0
LINE
  5
1503
330
1502
100
AcDbEntity
  8
0
  6
ByBlock
 62
     0
100
AcDbLine
 10
141.0
 20
199.06
 30
0.0
 11
141.0
 21
242.68
 31
0.0
  0
LINE
  5
1504
330
1502
100
AcDbEntity
  8
0
  6
ByBlock
 62
     0
100
AcDbLine
 10
177.0
 20
199.06
 30
0.0
 11
177.0
 21
242.68
 31
0.0
  0
LINE
  5
1505
330
1502
100
AcDbEntity
  8
0
  6
ByBlock
 62
     0
100
AcDbLine
 10
143.0
 20
242.5
 30
0.0
 11
155.5766669999999
 21
242.5
 31
0.0
  0
LINE
  5
1506
330
1502
100
AcDbEntity
  8
0
  6
ByBlock
 62
     0
100
AcDbLine
 10
175.0
 20
242.5
 30
0.0
 11
162.423333
 21
242.5
 31
0.0
  0
SOLID
  5
1507
330
1502
100
AcDbEntity
  8
0
  6
ByBlock
 62
     0
100
AcDbTrace
 10
143.0
 20
242.833333
 30
0.0
 11
143.0
 21
242.166667
 31
0.0
 12
141.0
 22
242.5
 32
0.0
 13
141.0
 23
242.5
 33
0.0
  0
SOLID
  5
1508
330
1502
100
AcDbEntity
  8
0
  6
ByBlock
 62
     0
100
AcDbTrace
 10
175.0
 20
242.833333
 30
0.0
 11
175.0
 21
242.166667
 31
0.0
 12
177.0
 22
242.5
 32
0.0
 13
177.0
 23
242.5
 33
0.0
  0
MTEXT
  5
1509
330
1502
100
AcDbEntity
  8
0
  6
ByBlock
 62
     0
100
AcDbMText
 10
159.0
 20
242.5
 30
0.0
 40
4.0
 41
0.0
 71
     5
 72
     1
  1
\A1;36
 73
     1
 44
1.0
  0
POINT
  5
150A
330
1502
100
AcDbEntity
  8
DEFPOINTS
  6
ByBlock
 62
     0
100
AcDbPoint
 10
141.0
 20
199.0
 30
0.0
  0
POINT
  5
150B
330
1502
100
AcDbEntity
  8
DEFPOINTS
  6
ByBlock
 62
     0
100
AcDbPoint
 10
177.0
 20
199.0
 30
0.0
  0
POINT
  5
150C
330
1502
100
AcDbEntity
  8
DEFPOINTS
  6
ByBlock
 62
     0
100
AcDbPoint
 10
177.0
 20
242.5
 30
0.0
  0
ENDBLK
  5
150E
330
1502
100
AcDbEntity
  8
0
100
AcDbBlockEnd
  0
BLOCK
  5
151A
330
150F
100
AcDbEntity
  8
0
100
AcDbBlockBegin
  2
*D69
 70
     1
 10
0.0
 20
0.0
 30
0.0
  3
*D69
  1

  0
LINE
  5
1510
330
150F
100
AcDbEntity
  8
0
  6
ByBlock
 62
     0
100
AcDbLine
 10
149.0
 20
196.56
 30
0.0
 11
149.0
 21
234.18
 31
0.0
  0
LINE
  5
1511
330
150F
100
AcDbEntity
  8
0
  6
ByBlock
 62
     0
100
AcDbLine
 10
169.0
 20
196.56
 30
0.0
 11
169.0
 21
234.18
 31
0.0
  0
LINE
  5
1512
330
150F
100
AcDbEntity
  8
0
  6
ByBlock
 62
     0
100
AcDbLine
 10
151.0
 20
234.0
 30
0.0
 11
155.9099999999999
 21
234.0
 31
0.0
  0
LINE
  5
1513
330
150F
100
AcDbEntity
  8
0
  6
ByBlock
 62
     0
100
AcDbLine
 10
167.0
 20
234.0
 30
0.0
 11
162.0899999999999
 21
234.0
 31
0.0
  0
SOLID
  5
1514
330
150F
100
AcDbEntity
  8
0
  6
ByBlock
 62
     0
100
AcDbTrace
 10
151.0
 20
234.333333
 30
0.0
 11
151.0
 21
233.666667
 31
0.0
 12
149.0
 22
234.0
 32
0.0
 13
149.0
 23
234.0
 33
0.0
  0
SOLID
  5
1515
330
150F
100
AcDbEntity
  8
0
  6
ByBlock
 62
     0
100
AcDbTrace
 10
167.0
 20
234.333333
 30
0.0
 11
167.0
 21
233.666667
 31
0.0
 12
169.0
 22
234.0
 32
0.0
 13
169.0
 23
234.0
 33
0.0
  0
MTEXT
  5
1516
330
150F
100
AcDbEntity
  8
0
  6
ByBlock
 62
     0
100
AcDbMText
 10
159.0
 20
234.0
 30
0.0
 40
4.0
 41
0.0
 71
     5
 72
     1
  1
\A1;20
 73
     1
 44
1.0
  0
POINT
  5
1517
330
150F
100
AcDbEntity
  8
DEFPOINTS
  6
ByBlock
 62
     0
100
AcDbPoint
 10
149.0
 20
196.5
 30
0.0
  0
POINT
  5
1518
330
150F
100
AcDbEntity
  8
DEFPOINTS
  6
ByBlock
 62
     0
100
AcDbPoint
 10
169.0
 20
196.5
 30
0.0
  0
POINT
  5
1519
330
150F
100
AcDbEntity
  8
DEFPOINTS
  6
ByBlock
 62
     0
100
AcDbPoint
 10
169.0
 20
234.0
 30
0.0
  0
ENDBLK
  5
151B
330
150F
100
AcDbEntity
  8
0
100
AcDbBlockEnd
  0
BLOCK
  5
151E
330
151C
100
AcDbEntity
  8
0
100
AcDbBlockBegin
  2
A$C2B8D5F0E
 70
     0
 10
0.0
 20
0.0
 30
0.0
  3
A$C2B8D5F0E
  1

  0
TEXT
  5
151D
330
151C
100
AcDbEntity
  8
0
100
AcDbText
 10
0.0
 20
0.0
 30
0.0
 40
3.5
  1
材質：Ｓ４５Ｃ又はＳ４５Ｃ快削又は快削鋼
 41
0.6
  7
BIGFONT
100
AcDbText
  0
ENDBLK
  5
151F
330
151C
100
AcDbEntity
  8
0
100
AcDbBlockEnd
  0
BLOCK
  5
15BF
330
1520
100
AcDbEntity
  8
0
100
AcDbBlockBegin
  2
A$C28A03580
 70
     0
 10
0.0
 20
0.0
 30
0.0
  3
A$C28A03580
  1

  0
LEADER
  5
1521
330
1520
100
AcDbEntity
  8
0
100
AcDbLeader
  3
STANDARD
 76
     3
 10
87.88999999999999
 20
47.5
 30
0.0
 10
95.89
 20
17.5
 30
0.0
 10
96.89
 20
17.5
 30
0.0
1001
ACAD
1000
DSTYLE
1002
{
1070
    78
1070
    12
1070
   284
1070
    12
1070
   140
1040
4.0
1070
    74
1070
     0
1070
    73
1070
     0
1070
    42
1040
0.06
1070
    41
1040
2.0
1002
}
  0
DIMENSION
  5
1522
330
1520
100
AcDbEntity
  8
0
100
AcDbDimension
  2
*D66
 10
107.39
 20
116.0
 30
0.0
 11
95.89
 21
116.0
 31
0.0
 12
-5.61
 22
-126.5
 32
0.0
 71
     5
 42
-1.0
  3
STANDARD
100
AcDbAlignedDimension
 13
84.39
 23
104.0
 33
0.0
 14
107.39
 24
101.5
 34
0.0
100
AcDbRotatedDimension
1001
ACAD
1000
DSTYLE
1002
{
1070
    78
1070
    12
1070
   284
1070
    12
1070
   140
1040
4.0
1070
    74
1070
     0
1070
    73
1070
     0
1070
    42
1040
0.06
1070
    41
1040
2.0
1002
}
  0
DIMENSION
  5
1523
330
1520
100
AcDbEntity
  8
0
100
AcDbDimension
  2
*D64
 10
92.39
 20
107.4999999999999
 30
0.0
 11
88.39
 21
107.4999999999999
 31
0.0
 12
-5.61
 22
-126.5
 32
0.0
 71
     5
 42
-1.0
  3
STANDARD
100
AcDbAlignedDimension
 13
84.39
 23
85.5
 33
0.0
 14
92.39
 24
85.5
 34
0.0
100
AcDbRotatedDimension
1001
ACAD
1000
DSTYLE
1002
{
1070
    78
1070
    12
1070
   284
1070
    12
1070
   140
1040
4.0
1070
    74
1070
     0
1070
    73
1070
     0
1070
    42
1040
0.06
1070
    41
1040
2.0
1002
}
  0
LINE
  5
1524
330
1520
100
AcDbEntity
  8
1
100
AcDbLine
 10
80.89
 20
65.5
 30
0.0
 11
128.8899999999999
 21
65.5
 31
0.0
  0
LINE
  5
1525
330
1520
100
AcDbEntity
  8
3
100
AcDbLine
 10
85.38999999999999
 20
83.49999999999999
 30
0.0
 11
91.39000000000001
 21
83.49999999999999
 31
0.0
  0
LINE
  5
1526
330
1520
100
AcDbEntity
  8
3
100
AcDbLine
 10
91.39000000000001
 20
67.5
 30
0.0
 11
85.38999999999999
 21
67.5
 31
0.0
  0
LINE
  5
1527
330
1520
100
AcDbEntity
  8
3
100
AcDbLine
 10
91.39000000000001
 20
69.5
 30
0.0
 11
85.38999999999999
 21
69.5
 31
0.0
  0
LINE
  5
1528
330
1520
100
AcDbEntity
  8
3
100
AcDbLine
 10
91.39000000000001
 20
71.5
 30
0.0
 11
85.38999999999999
 21
71.5
 31
0.0
  0
LINE
  5
1529
330
1520
100
AcDbEntity
  8
3
100
AcDbLine
 10
91.39000000000001
 20
73.5
 30
0.0
 11
85.38999999999999
 21
73.5
 31
0.0
  0
LINE
  5
152A
330
1520
100
AcDbEntity
  8
3
100
AcDbLine
 10
91.39000000000001
 20
75.5
 30
0.0
 11
85.38999999999999
 21
75.5
 31
0.0
  0
LINE
  5
152B
330
1520
100
AcDbEntity
  8
3
100
AcDbLine
 10
91.39000000000001
 20
77.5
 30
0.0
 11
85.38999999999999
 21
77.5
 31
0.0
  0
LINE
  5
152C
330
1520
100
AcDbEntity
  8
3
100
AcDbLine
 10
91.39000000000001
 20
79.5
 30
0.0
 11
85.38999999999999
 21
79.5
 31
0.0
  0
LINE
  5
152D
330
1520
100
AcDbEntity
  8
3
100
AcDbLine
 10
91.39000000000001
 20
81.5
 30
0.0
 11
85.38999999999999
 21
81.5
 31
0.0
  0
LINE
  5
152E
330
1520
100
AcDbEntity
  8
3
100
AcDbLine
 10
91.39000000000001
 20
61.5
 30
0.0
 11
85.38999999999999
 21
61.5
 31
0.0
  0
LINE
  5
152F
330
1520
100
AcDbEntity
  8
3
100
AcDbLine
 10
91.39000000000001
 20
63.5
 30
0.0
 11
85.38999999999999
 21
63.5
 31
0.0
  0
LINE
  5
1530
330
1520
100
AcDbEntity
  8
3
100
AcDbLine
 10
91.39000000000001
 20
49.5
 30
0.0
 11
85.38999999999999
 21
49.5
 31
0.0
  0
LINE
  5
1531
330
1520
100
AcDbEntity
  8
3
100
AcDbLine
 10
91.39000000000001
 20
51.5
 30
0.0
 11
85.38999999999999
 21
51.5
 31
0.0
  0
LINE
  5
1532
330
1520
100
AcDbEntity
  8
3
100
AcDbLine
 10
91.39000000000001
 20
53.5
 30
0.0
 11
85.38999999999999
 21
53.5
 31
0.0
  0
LINE
  5
1533
330
1520
100
AcDbEntity
  8
3
100
AcDbLine
 10
91.39000000000001
 20
55.5
 30
0.0
 11
85.38999999999999
 21
55.5
 31
0.0
  0
LINE
  5
1534
330
1520
100
AcDbEntity
  8
3
100
AcDbLine
 10
91.39000000000001
 20
57.5
 30
0.0
 11
85.38999999999999
 21
57.5
 31
0.0
  0
LINE
  5
1535
330
1520
100
AcDbEntity
  8
3
100
AcDbLine
 10
91.39000000000001
 20
59.5
 30
0.0
 11
85.38999999999999
 21
59.5
 31
0.0
  0
LINE
  5
1536
330
1520
100
AcDbEntity
  8
3
100
AcDbLine
 10
85.38999999999999
 20
47.5
 30
0.0
 11
91.39000000000001
 21
47.5
 31
0.0
  0
LEADER
  5
1537
330
1520
100
AcDbEntity
  8
0
100
AcDbLeader
  3
STANDARD
 76
     3
 10
18.89
 20
47.5
 30
0.0
 10
32.39
 20
14.5
 30
0.0
 10
35.89
 20
14.5
 30
0.0
1001
ACAD
1000
DSTYLE
1002
{
1070
    78
1070
    12
1070
   284
1070
    12
1070
   140
1040
4.0
1070
    74
1070
     0
1070
    73
1070
     0
1070
    42
1040
0.06
1070
    41
1040
2.0
1002
}
  0
TEXT
  5
1538
330
1520
100
AcDbEntity
  8
0
100
AcDbText
 10
36.89
 20
14.5
 30
0.0
 40
5.0
  1
ローレット３２番
 41
0.6
  7
BIGFONT
100
AcDbText
  0
TEXT
  5
1539
330
1520
100
AcDbEntity
  8
0
100
AcDbText
 10
36.89
 20
8.5
 30
0.0
 40
5.0
  1
（バリ無きこと）
 41
0.6
  7
BIGFONT
100
AcDbText
  0
TEXT
  5
153A
330
1520
100
AcDbEntity
  8
3
100
AcDbText
 10
-0.26
 20
112.65
 30
0.0
 40
6.5
  1
ナールド・サム・ノブ
 41
0.6
  7
BIGFONT
100
AcDbText
  0
LEADER
  5
153B
330
1520
100
AcDbEntity
  8
0
100
AcDbLeader
  3
STANDARD
 76
     3
 10
38.89
 20
65.0
 30
0.0
 10
57.39
 20
43.0
 30
0.0
 10
28.39
 20
43.0
 30
0.0
1001
ACAD
1000
DSTYLE
1002
{
1070
    78
1070
    12
1070
   284
1070
    12
1070
   140
1040
4.0
1070
    74
1070
     0
1070
    73
1070
     0
1070
    42
1040
0.06
1070
    41
1040
2.0
1002
}
  0
TEXT
  5
153C
330
1520
100
AcDbEntity
  8
0
100
AcDbText
 10
27.89
 20
43.0
 30
0.0
 40
5.0
  1
M10-P1.5
 41
0.6
  7
BIGFONT
100
AcDbText
  0
LINE
  5
153D
330
1520
100
AcDbEntity
  8
0
100
AcDbLine
 10
30.39
 20
77.5
 30
0.0
 11
32.39
 21
77.5
 31
0.0
  0
LINE
  5
153E
330
1520
100
AcDbEntity
  8
0
100
AcDbLine
 10
31.39
 20
75.5
 30
0.0
 11
30.39
 21
77.5
 31
0.0
  0
LINE
  5
153F
330
1520
100
AcDbEntity
  8
3
100
AcDbLine
 10
24.39
 20
55.5
 30
0.0
 11
37.39
 21
55.5
 31
0.0
  0
LINE
  5
1540
330
1520
100
AcDbEntity
  8
2
100
AcDbLine
 10
37.39
 20
61.5
 30
0.0
 11
16.39
 21
61.5
 31
0.0
  0
LINE
  5
1541
330
1520
100
AcDbEntity
  8
2
100
AcDbLine
 10
37.89
 20
60.5
 30
0.0
 11
15.89
 21
60.5
 31
0.0
  0
LINE
  5
1542
330
1520
100
AcDbEntity
  8
2
100
AcDbLine
 10
37.89
 20
70.5
 30
0.0
 11
15.89
 21
70.5
 31
0.0
  0
LINE
  5
1543
330
1520
100
AcDbEntity
  8
2
100
AcDbLine
 10
37.39
 20
69.5
 30
0.0
 11
16.39
 21
69.5
 31
0.0
  0
LINE
  5
1544
330
1520
100
AcDbEntity
  8
3
100
AcDbLine
 10
24.39
 20
75.5
 30
0.0
 11
37.39
 21
75.5
 31
0.0
  0
LINE
  5
1545
330
1520
100
AcDbEntity
  8
1
100
AcDbLine
 10
11.89
 20
65.5
 30
0.0
 11
41.39
 21
65.5
 31
0.0
  0
LINE
  5
1546
330
1520
100
AcDbEntity
  8
0
100
AcDbLine
 10
13.39
 20
73.5
 30
0.0
 11
13.39
 21
70.5
 31
0.0
  0
LINE
  5
1547
330
1520
100
AcDbEntity
  8
0
100
AcDbLine
 10
15.39
 20
72.0
 30
0.0
 11
13.39
 21
73.5
 31
0.0
  0
LINE
  5
1548
330
1520
100
AcDbEntity
  8
0
100
AcDbLine
 10
22.39
 20
65.5
 30
0.0
 11
22.39
 21
83.49999999999999
 31
0.0
  0
LINE
  5
1549
330
1520
100
AcDbEntity
  8
0
100
AcDbLine
 10
16.39
 20
65.5
 30
0.0
 11
16.39
 21
83.49999999999999
 31
0.0
  0
LINE
  5
154A
330
1520
100
AcDbEntity
  8
3
100
AcDbLine
 10
23.38999999999999
 20
65.5
 30
0.0
 11
23.38999999999999
 21
76.5
 31
0.0
  0
LINE
  5
154B
330
1520
100
AcDbEntity
  8
3
100
AcDbLine
 10
15.39
 20
65.5
 30
0.0
 11
15.39
 21
82.5
 31
0.0
  0
ARC
  5
154C
330
1520
100
AcDbEntity
  8
3
100
AcDbCircle
 10
16.39
 20
48.5
 30
0.0
 40
1.0
100
AcDbArc
 50
180.0
 51
270.0
  0
LINE
  5
154D
330
1520
100
AcDbEntity
  8
2
100
AcDbLine
 10
16.39
 20
61.5
 30
0.0
 11
15.39
 21
60.0
 31
0.0
  0
LINE
  5
154E
330
1520
100
AcDbEntity
  8
2
100
AcDbLine
 10
16.39
 20
69.5
 30
0.0
 11
15.39
 21
71.0
 31
0.0
  0
LINE
  5
154F
330
1520
100
AcDbEntity
  8
3
100
AcDbLine
 10
15.39
 20
65.5
 30
0.0
 11
15.39
 21
48.5
 31
0.0
  0
LINE
  5
1550
330
1520
100
AcDbEntity
  8
0
100
AcDbLine
 10
13.39
 20
70.5
 30
0.0
 11
15.39
 21
72.0
 31
0.0
  0
LINE
  5
1551
330
1520
100
AcDbEntity
  8
3
100
AcDbLine
 10
23.38999999999999
 20
48.5
 30
0.0
 11
23.38999999999999
 21
54.5
 31
0.0
  0
LINE
  5
1552
330
1520
100
AcDbEntity
  8
0
100
AcDbLine
 10
16.39
 20
65.5
 30
0.0
 11
16.39
 21
47.5
 31
0.0
  0
LINE
  5
1553
330
1520
100
AcDbEntity
  8
0
100
AcDbLine
 10
22.39
 20
65.5
 30
0.0
 11
22.39
 21
47.5
 31
0.0
  0
ARC
  5
1554
330
1520
100
AcDbEntity
  8
3
100
AcDbCircle
 10
22.39
 20
48.5
 30
0.0
 40
1.0
100
AcDbArc
 50
270.0
 51
0.0
  0
LINE
  5
1555
330
1520
100
AcDbEntity
  8
3
100
AcDbLine
 10
16.39
 20
47.5
 30
0.0
 11
22.39
 21
47.5
 31
0.0
  0
LINE
  5
1556
330
1520
100
AcDbEntity
  8
3
100
AcDbLine
 10
22.39
 20
49.5
 30
0.0
 11
16.39
 21
49.5
 31
0.0
  0
LINE
  5
1557
330
1520
100
AcDbEntity
  8
3
100
AcDbLine
 10
22.39
 20
61.5
 30
0.0
 11
16.39
 21
61.5
 31
0.0
  0
LINE
  5
1558
330
1520
100
AcDbEntity
  8
3
100
AcDbLine
 10
22.39
 20
59.5
 30
0.0
 11
16.39
 21
59.5
 31
0.0
  0
LINE
  5
1559
330
1520
100
AcDbEntity
  8
3
100
AcDbLine
 10
22.39
 20
57.5
 30
0.0
 11
16.39
 21
57.5
 31
0.0
  0
LINE
  5
155A
330
1520
100
AcDbEntity
  8
3
100
AcDbLine
 10
22.39
 20
55.5
 30
0.0
 11
16.39
 21
55.5
 31
0.0
  0
LINE
  5
155B
330
1520
100
AcDbEntity
  8
3
100
AcDbLine
 10
22.39
 20
53.5
 30
0.0
 11
16.39
 21
53.5
 31
0.0
  0
LINE
  5
155C
330
1520
100
AcDbEntity
  8
3
100
AcDbLine
 10
22.39
 20
51.5
 30
0.0
 11
16.39
 21
51.5
 31
0.0
  0
LINE
  5
155D
330
1520
100
AcDbEntity
  8
3
100
AcDbLine
 10
22.39
 20
63.5
 30
0.0
 11
16.39
 21
63.5
 31
0.0
  0
LINE
  5
155E
330
1520
100
AcDbEntity
  8
3
100
AcDbLine
 10
22.39
 20
71.5
 30
0.0
 11
16.39
 21
71.5
 31
0.0
  0
LINE
  5
155F
330
1520
100
AcDbEntity
  8
3
100
AcDbLine
 10
22.39
 20
69.5
 30
0.0
 11
16.39
 21
69.5
 31
0.0
  0
LINE
  5
1560
330
1520
100
AcDbEntity
  8
3
100
AcDbLine
 10
22.39
 20
67.5
 30
0.0
 11
16.39
 21
67.5
 31
0.0
  0
LINE
  5
1561
330
1520
100
AcDbEntity
  8
3
100
AcDbLine
 10
23.38999999999999
 20
65.5
 30
0.0
 11
23.38999999999999
 21
54.5
 31
0.0
  0
ARC
  5
1562
330
1520
100
AcDbEntity
  8
3
100
AcDbCircle
 10
24.39
 20
54.5
 30
0.0
 40
1.0
100
AcDbArc
 50
90.0
 51
180.0
  0
ARC
  5
1563
330
1520
100
AcDbEntity
  8
3
100
AcDbCircle
 10
16.39
 20
82.5
 30
0.0
 40
1.0
100
AcDbArc
 50
90.0
 51
180.0
  0
LINE
  5
1564
330
1520
100
AcDbEntity
  8
0
100
AcDbLine
 10
13.39
 20
77.0
 30
0.0
 11
15.39
 21
78.5
 31
0.0
  0
LINE
  5
1565
330
1520
100
AcDbEntity
  8
0
100
AcDbLine
 10
13.39
 20
80.0
 30
0.0
 11
13.39
 21
77.0
 31
0.0
  0
LINE
  5
1566
330
1520
100
AcDbEntity
  8
0
100
AcDbLine
 10
15.39
 20
75.0
 30
0.0
 11
13.39
 21
76.5
 31
0.0
  0
LINE
  5
1567
330
1520
100
AcDbEntity
  8
0
100
AcDbLine
 10
13.39
 20
73.5
 30
0.0
 11
15.39
 21
75.0
 31
0.0
  0
LINE
  5
1568
330
1520
100
AcDbEntity
  8
0
100
AcDbLine
 10
13.39
 20
76.5
 30
0.0
 11
13.39
 21
73.5
 31
0.0
  0
LINE
  5
1569
330
1520
100
AcDbEntity
  8
0
100
AcDbLine
 10
15.39
 20
78.5
 30
0.0
 11
13.39
 21
80.0
 31
0.0
  0
ARC
  5
156A
330
1520
100
AcDbEntity
  8
3
100
AcDbCircle
 10
22.39
 20
82.5
 30
0.0
 40
1.0
100
AcDbArc
 50
0.0
 51
90.0
  0
LINE
  5
156B
330
1520
100
AcDbEntity
  8
3
100
AcDbLine
 10
22.39
 20
81.5
 30
0.0
 11
16.39
 21
81.5
 31
0.0
  0
LINE
  5
156C
330
1520
100
AcDbEntity
  8
3
100
AcDbLine
 10
22.39
 20
79.5
 30
0.0
 11
16.39
 21
79.5
 31
0.0
  0
LINE
  5
156D
330
1520
100
AcDbEntity
  8
3
100
AcDbLine
 10
22.39
 20
77.5
 30
0.0
 11
16.39
 21
77.5
 31
0.0
  0
LINE
  5
156E
330
1520
100
AcDbEntity
  8
3
100
AcDbLine
 10
22.39
 20
75.5
 30
0.0
 11
16.39
 21
75.5
 31
0.0
  0
LINE
  5
156F
330
1520
100
AcDbEntity
  8
3
100
AcDbLine
 10
22.39
 20
73.5
 30
0.0
 11
16.39
 21
73.5
 31
0.0
  0
LINE
  5
1570
330
1520
100
AcDbEntity
  8
3
100
AcDbLine
 10
16.39
 20
83.49999999999999
 30
0.0
 11
22.39
 21
83.49999999999999
 31
0.0
  0
LINE
  5
1571
330
1520
100
AcDbEntity
  8
3
100
AcDbLine
 10
23.38999999999999
 20
82.5
 30
0.0
 11
23.38999999999999
 21
76.5
 31
0.0
  0
ARC
  5
1572
330
1520
100
AcDbEntity
  8
3
100
AcDbCircle
 10
24.39
 20
76.5
 30
0.0
 40
1.0
100
AcDbArc
 50
180.0
 51
270.0
  0
MTEXT
  5
1573
102
{ACAD_REACTORS
330
1574
102
}
330
1520
100
AcDbEntity
  8
0
100
AcDbMText
 10
46.29999999999999
 20
90.0
 30
0.0
 40
4.0
 41
0.0
 71
     6
 72
     1
  1
\A1;0.5C
 73
     1
 44
1.0
  0
LEADER
  5
1574
330
1520
100
AcDbEntity
  8
0
100
AcDbLeader
  3
STANDARD
 73
     0
 40
4.0
 41
11.333333
 76
     3
 10
39.39
 20
70.0
 30
0.0
 10
49.89
 20
90.0
 30
0.0
 10
46.39
 20
90.0
 30
0.0
340
1573
1001
ACAD
1000
DSTYLE
1002
{
1070
    78
1070
    12
1070
   284
1070
    12
1070
   140
1040
4.0
1070
    74
1070
     0
1070
    73
1070
     0
1070
    42
1040
0.06
1070
    41
1040
2.0
1002
}
  0
LINE
  5
1575
330
1520
100
AcDbEntity
  8
3
100
AcDbLine
 10
38.39
 20
74.5
 30
0.0
 11
38.39
 21
65.5
 31
0.0
  0
ARC
  5
1576
330
1520
100
AcDbEntity
  8
3
100
AcDbCircle
 10
37.39
 20
56.5
 30
0.0
 40
1.0
100
AcDbArc
 50
270.0
 51
0.0
  0
LINE
  5
1577
330
1520
100
AcDbEntity
  8
2
100
AcDbLine
 10
38.39
 20
60.0
 30
0.0
 11
37.39
 21
61.5
 31
0.0
  0
LINE
  5
1578
330
1520
100
AcDbEntity
  8
2
100
AcDbLine
 10
38.39
 20
71.0
 30
0.0
 11
37.39
 21
69.5
 31
0.0
  0
LINE
  5
1579
330
1520
100
AcDbEntity
  8
2
100
AcDbLine
 10
37.39
 20
61.5
 30
0.0
 11
37.39
 21
65.5
 31
0.0
  0
LINE
  5
157A
330
1520
100
AcDbEntity
  8
2
100
AcDbLine
 10
37.39
 20
69.5
 30
0.0
 11
37.39
 21
65.5
 31
0.0
  0
LINE
  5
157B
330
1520
100
AcDbEntity
  8
3
100
AcDbLine
 10
38.39
 20
56.5
 30
0.0
 11
38.39
 21
65.5
 31
0.0
  0
ARC
  5
157C
330
1520
100
AcDbEntity
  8
3
100
AcDbCircle
 10
37.39
 20
74.5
 30
0.0
 40
1.0
100
AcDbArc
 50
0.0
 51
90.0
  0
LINE
  5
157D
330
1520
100
AcDbEntity
  8
0
100
AcDbLine
 10
32.39
 20
77.5
 30
0.0
 11
31.39
 21
75.5
 31
0.0
  0
LINE
  5
157E
330
1520
100
AcDbEntity
  8
0
100
AcDbLine
 10
84.39
 20
72.0
 30
0.0
 11
82.39
 21
73.5
 31
0.0
  0
LINE
  5
157F
330
1520
100
AcDbEntity
  8
0
100
AcDbLine
 10
82.39
 20
73.5
 30
0.0
 11
82.39
 21
70.5
 31
0.0
  0
LINE
  5
1580
330
1520
100
AcDbEntity
  8
3
100
AcDbLine
 10
84.39
 20
65.5
 30
0.0
 11
84.39
 21
82.5
 31
0.0
  0
LINE
  5
1581
330
1520
100
AcDbEntity
  8
0
100
AcDbLine
 10
85.38999999999999
 20
65.5
 30
0.0
 11
85.38999999999999
 21
83.49999999999999
 31
0.0
  0
DIMENSION
  5
1582
330
1520
100
AcDbEntity
  8
0
100
AcDbDimension
  2
*D61
 10
85.38999999999999
 20
48.5
 30
0.0
 11
77.04984
 21
39.31150499999999
 31
0.0
 12
-9.609999999999999
 22
-126.5
 32
0.0
 70
   132
 71
     5
 42
-1.0
  3
STANDARD
100
AcDbRadialDimension
 15
84.71790099999999
 25
47.75953799999999
 35
0.0
 40
0.0
1001
ACAD
1000
DSTYLE
1002
{
1070
    78
1070
    12
1070
   288
1070
     1
1070
   284
1070
    12
1070
   140
1040
4.0
1070
    74
1070
     0
1070
    73
1070
     0
1070
    42
1040
0.06
1070
    41
1040
2.0
1002
}
  0
LINE
  5
1583
330
1520
100
AcDbEntity
  8
0
100
AcDbLine
 10
85.38999999999999
 20
65.5
 30
0.0
 11
85.38999999999999
 21
47.5
 31
0.0
  0
LINE
  5
1584
330
1520
100
AcDbEntity
  8
3
100
AcDbLine
 10
84.39
 20
65.5
 30
0.0
 11
84.39
 21
48.5
 31
0.0
  0
ARC
  5
1585
330
1520
100
AcDbEntity
  8
3
100
AcDbCircle
 10
85.38999999999999
 20
48.5
 30
0.0
 40
1.0
100
AcDbArc
 50
180.0
 51
270.0
  0
LINE
  5
1586
330
1520
100
AcDbEntity
  8
0
100
AcDbLine
 10
82.39
 20
70.5
 30
0.0
 11
84.39
 21
72.0
 31
0.0
  0
LINE
  5
1587
330
1520
100
AcDbEntity
  8
0
100
AcDbLine
 10
84.39
 20
78.5
 30
0.0
 11
82.39
 21
80.0
 31
0.0
  0
LINE
  5
1588
330
1520
100
AcDbEntity
  8
0
100
AcDbLine
 10
82.39
 20
77.0
 30
0.0
 11
84.39
 21
78.5
 31
0.0
  0
LINE
  5
1589
330
1520
100
AcDbEntity
  8
0
100
AcDbLine
 10
82.39
 20
73.5
 30
0.0
 11
84.39
 21
75.0
 31
0.0
  0
LINE
  5
158A
330
1520
100
AcDbEntity
  8
0
100
AcDbLine
 10
84.39
 20
75.0
 30
0.0
 11
82.39
 21
76.5
 31
0.0
  0
LINE
  5
158B
330
1520
100
AcDbEntity
  8
0
100
AcDbLine
 10
82.39
 20
80.0
 30
0.0
 11
82.39
 21
77.0
 31
0.0
  0
LINE
  5
158C
330
1520
100
AcDbEntity
  8
0
100
AcDbLine
 10
82.39
 20
76.5
 30
0.0
 11
82.39
 21
73.5
 31
0.0
  0
ARC
  5
158D
330
1520
100
AcDbEntity
  8
3
100
AcDbCircle
 10
85.38999999999999
 20
82.5
 30
0.0
 40
1.0
100
AcDbArc
 50
90.0
 51
180.0
  0
INSERT
  5
158E
330
1520
100
AcDbEntity
  8
0
100
AcDbBlockReference
  2
A$C2B8D5F0E
 10
104.8899999999999
 20
0.0
 30
0.0
  0
TEXT
  5
158F
330
1520
100
AcDbEntity
  8
0
100
AcDbText
 10
97.89000000000001
 20
12.5
 30
0.0
 40
5.0
  1
（バリ無きこと）
 41
0.6
  7
BIGFONT
100
AcDbText
  0
TEXT
  5
1590
330
1520
100
AcDbEntity
  8
0
100
AcDbText
 10
97.89000000000001
 20
18.5
 30
0.0
 40
5.0
  1
ローレット３２番
 41
0.6
  7
BIGFONT
100
AcDbText
  0
DIMENSION
  5
1591
330
1520
100
AcDbEntity
  8
0
100
AcDbDimension
  2
*D69
 10
169.39
 20
107.4999999999999
 30
0.0
 11
159.3899999999999
 21
107.4999999999999
 31
0.0
 12
0.39
 22
-126.5
 32
0.0
 71
     5
 42
-1.0
  3
STANDARD
100
AcDbAlignedDimension
 13
149.39
 23
70.0
 33
0.0
 14
169.39
 24
70.0
 34
0.0
100
AcDbRotatedDimension
1001
ACAD
1000
DSTYLE
1002
{
1070
    78
1070
    12
1070
   284
1070
    12
1070
   140
1040
4.0
1070
    74
1070
     0
1070
    73
1070
     0
1070
    42
1040
0.06
1070
    41
1040
2.0
1002
}
  0
DIMENSION
  5
1592
330
1520
100
AcDbEntity
  8
0
100
AcDbDimension
  2
*D68
 10
177.3899999999999
 20
116.0
 30
0.0
 11
159.3899999999999
 21
116.0
 31
0.0
 12
0.39
 22
-126.5
 32
0.0
 71
     5
 42
-1.0
  3
STANDARD
100
AcDbAlignedDimension
 13
141.3899999999999
 23
72.5
 33
0.0
 14
177.3899999999999
 24
72.5
 34
0.0
100
AcDbRotatedDimension
1001
ACAD
1000
DSTYLE
1002
{
1070
    78
1070
    12
1070
   284
1070
    12
1070
   140
1040
4.0
1070
    74
1070
     0
1070
    73
1070
     0
1070
    42
1040
0.06
1070
    41
1040
2.0
1002
}
  0
LINE
  5
1593
330
1520
100
AcDbEntity
  8
1
100
AcDbLine
 10
138.8899999999999
 20
65.5
 30
0.0
 11
179.8899999999999
 21
65.5
 31
0.0
  0
CIRCLE
  5
1594
330
1520
100
AcDbEntity
  8
3
100
AcDbCircle
 10
159.3899999999999
 20
65.5
 30
0.0
 40
10.0
  0
CIRCLE
  5
1595
330
1520
100
AcDbEntity
  8
3
100
AcDbCircle
 10
159.3899999999999
 20
65.5
 30
0.0
 40
18.0
  0
CIRCLE
  5
1596
330
1520
100
AcDbEntity
  8
0
100
AcDbCircle
 10
159.3899999999999
 20
65.5
 30
0.0
 40
17.0
  0
DIMENSION
  5
1597
330
1520
100
AcDbEntity
  8
0
100
AcDbDimension
  2
*D67
 10
126.39
 20
116.0
 30
0.0
 11
116.89
 21
116.0
 31
0.0
 12
-5.61
 22
-126.5
 32
0.0
  1
L
 71
     5
 42
-1.0
  3
STANDARD
100
AcDbAlignedDimension
 13
107.39
 23
89.0
 33
0.0
 14
126.39
 24
71.5
 34
0.0
100
AcDbRotatedDimension
1001
ACAD
1000
DSTYLE
1002
{
1070
    78
1070
    12
1070
   284
1070
    12
1070
   140
1040
4.0
1070
    74
1070
     0
1070
    73
1070
     0
1070
    42
1040
0.06
1070
    41
1040
2.0
1002
}
  0
TEXT
  5
1598
330
1520
100
AcDbEntity
  8
3
100
AcDbText
 10
115.2399999999999
 20
46.74999999999999
 30
0.0
 40
6.5
  1
（細めに）
 41
0.6
  7
BIGFONT
100
AcDbText
  0
TEXT
  5
1599
330
1520
100
AcDbEntity
  8
0
100
AcDbText
 10
109.39
 20
55.0
 30
0.0
 40
5.0
  1
M10-P1.5
 41
0.6
  7
BIGFONT
100
AcDbText
  0
LINE
  5
159A
330
1520
100
AcDbEntity
  8
3
100
AcDbLine
 10
107.39
 20
60.5
 30
0.0
 11
125.39
 21
60.5
 31
0.0
  0
LINE
  5
159B
330
1520
100
AcDbEntity
  8
0
100
AcDbLine
 10
126.39
 20
61.5
 30
0.0
 11
108.8899999999999
 21
61.5
 31
0.0
  0
LINE
  5
159C
330
1520
100
AcDbEntity
  8
0
100
AcDbLine
 10
126.39
 20
69.5
 30
0.0
 11
108.8899999999999
 21
69.5
 31
0.0
  0
LINE
  5
159D
330
1520
100
AcDbEntity
  8
3
100
AcDbLine
 10
107.39
 20
70.5
 30
0.0
 11
125.39
 21
70.5
 31
0.0
  0
LINE
  5
159E
330
1520
100
AcDbEntity
  8
3
100
AcDbLine
 10
107.39
 20
74.5
 30
0.0
 11
107.39
 21
65.5
 31
0.0
  0
LINE
  5
159F
330
1520
100
AcDbEntity
  8
3
100
AcDbLine
 10
92.39
 20
65.5
 30
0.0
 11
92.39
 21
76.5
 31
0.0
  0
LINE
  5
15A0
330
1520
100
AcDbEntity
  8
0
100
AcDbLine
 10
91.39000000000001
 20
65.5
 30
0.0
 11
91.39000000000001
 21
83.49999999999999
 31
0.0
  0
LINE
  5
15A1
330
1520
100
AcDbEntity
  8
3
100
AcDbLine
 10
93.39
 20
55.5
 30
0.0
 11
106.39
 21
55.5
 31
0.0
  0
LINE
  5
15A2
330
1520
100
AcDbEntity
  8
3
100
AcDbLine
 10
92.39
 20
48.5
 30
0.0
 11
92.39
 21
54.5
 31
0.0
  0
LINE
  5
15A3
330
1520
100
AcDbEntity
  8
0
100
AcDbLine
 10
91.39000000000001
 20
65.5
 30
0.0
 11
91.39000000000001
 21
47.5
 31
0.0
  0
DIMENSION
  5
15A4
330
1520
100
AcDbEntity
  8
0
100
AcDbDimension
  2
*D62
 10
91.39000000000001
 20
48.5
 30
0.0
 11
97.94766700000002
 21
38.476107
 31
0.0
 12
-9.609999999999999
 22
-126.5
 32
0.0
 70
   132
 71
     5
 42
-1.0
  3
STANDARD
100
AcDbRadialDimension
 15
91.937458
 25
47.663168
 35
0.0
 40
0.0
1001
ACAD
1000
DSTYLE
1002
{
1070
    78
1070
    12
1070
   288
1070
     1
1070
   284
1070
    12
1070
   140
1040
4.0
1070
    74
1070
     0
1070
    73
1070
     0
1070
    42
1040
0.06
1070
    41
1040
2.0
1002
}
  0
ARC
  5
15A5
330
1520
100
AcDbEntity
  8
3
100
AcDbCircle
 10
91.39000000000001
 20
48.5
 30
0.0
 40
1.0
100
AcDbArc
 50
270.0
 51
0.0
  0
LINE
  5
15A6
330
1520
100
AcDbEntity
  8
3
100
AcDbLine
 10
92.39
 20
65.5
 30
0.0
 11
92.39
 21
54.5
 31
0.0
  0
ARC
  5
15A7
330
1520
100
AcDbEntity
  8
3
100
AcDbCircle
 10
93.39
 20
54.5
 30
0.0
 40
1.0
100
AcDbArc
 50
90.0
 51
180.0
  0
DIMENSION
  5
15A8
330
1520
100
AcDbEntity
  8
0
100
AcDbDimension
  2
*D63
 10
106.39
 20
56.5
 30
0.0
 11
114.4569509999999
 21
41.400001
 31
0.0
 12
-9.609999999999999
 22
-126.5
 32
0.0
 70
   132
 71
     5
 42
-1.0
  3
STANDARD
100
AcDbRadialDimension
 15
106.861207
 25
55.617978
 35
0.0
 40
0.0
1001
ACAD
1000
DSTYLE
1002
{
1070
    78
1070
    12
1070
   288
1070
     1
1070
   284
1070
    12
1070
   140
1040
4.0
1070
    74
1070
     0
1070
    73
1070
     0
1070
    42
1040
0.06
1070
    41
1040
2.0
1002
}
  0
LINE
  5
15A9
330
1520
100
AcDbEntity
  8
0
100
AcDbLine
 10
108.8899999999999
 20
60.5
 30
0.0
 11
108.8899999999999
 21
65.5
 31
0.0
  0
LINE
  5
15AA
330
1520
100
AcDbEntity
  8
3
100
AcDbLine
 10
107.39
 20
56.5
 30
0.0
 11
107.39
 21
65.5
 31
0.0
  0
ARC
  5
15AB
330
1520
100
AcDbEntity
  8
3
100
AcDbCircle
 10
106.39
 20
56.5
 30
0.0
 40
1.0
100
AcDbArc
 50
270.0
 51
0.0
  0
LINE
  5
15AC
330
1520
100
AcDbEntity
  8
0
100
AcDbLine
 10
108.8899999999999
 20
70.5
 30
0.0
 11
108.8899999999999
 21
65.5
 31
0.0
  0
DIMENSION
  5
15AD
330
1520
100
AcDbEntity
  8
0
100
AcDbDimension
  2
*D65
 10
107.39
 20
107.4999999999999
 30
0.0
 11
99.89
 21
107.4999999999999
 31
0.0
 12
-5.61
 22
-126.5
 32
0.0
 71
     5
 42
-1.0
  3
STANDARD
100
AcDbAlignedDimension
 13
92.39
 23
91.0
 33
0.0
 14
107.39
 24
80.0
 34
0.0
100
AcDbRotatedDimension
1001
ACAD
1000
DSTYLE
1002
{
1070
    78
1070
    12
1070
   284
1070
    12
1070
   140
1040
4.0
1070
    74
1070
     0
1070
    73
1070
     0
1070
    42
1040
0.06
1070
    41
1040
2.0
1002
}
  0
LINE
  5
15AE
330
1520
100
AcDbEntity
  8
3
100
AcDbLine
 10
93.39
 20
75.5
 30
0.0
 11
106.39
 21
75.5
 31
0.0
  0
LINE
  5
15AF
330
1520
100
AcDbEntity
  8
3
100
AcDbLine
 10
92.39
 20
82.5
 30
0.0
 11
92.39
 21
76.5
 31
0.0
  0
ARC
  5
15B0
330
1520
100
AcDbEntity
  8
3
100
AcDbCircle
 10
93.39
 20
76.5
 30
0.0
 40
1.0
100
AcDbArc
 50
180.0
 51
270.0
  0
ARC
  5
15B1
330
1520
100
AcDbEntity
  8
3
100
AcDbCircle
 10
91.39000000000001
 20
82.5
 30
0.0
 40
1.0
100
AcDbArc
 50
0.0
 51
90.0
  0
LINE
  5
15B2
330
1520
100
AcDbEntity
  8
0
100
AcDbLine
 10
100.39
 20
75.5
 30
0.0
 11
99.39
 21
77.5
 31
0.0
  0
LINE
  5
15B3
330
1520
100
AcDbEntity
  8
0
100
AcDbLine
 10
99.39
 20
77.5
 30
0.0
 11
101.39
 21
77.5
 31
0.0
  0
LINE
  5
15B4
330
1520
100
AcDbEntity
  8
0
100
AcDbLine
 10
101.39
 20
77.5
 30
0.0
 11
100.39
 21
75.5
 31
0.0
  0
ARC
  5
15B5
330
1520
100
AcDbEntity
  8
3
100
AcDbCircle
 10
106.39
 20
74.5
 30
0.0
 40
1.0
100
AcDbArc
 50
0.0
 51
90.0
  0
LINE
  5
15B6
330
1520
100
AcDbEntity
  8
3
100
AcDbLine
 10
126.39
 20
61.5
 30
0.0
 11
126.39
 21
65.5
 31
0.0
  0
LINE
  5
15B7
330
1520
100
AcDbEntity
  8
0
100
AcDbLine
 10
125.39
 20
60.5
 30
0.0
 11
125.39
 21
65.5
 31
0.0
  0
LINE
  5
15B8
330
1520
100
AcDbEntity
  8
3
100
AcDbLine
 10
125.39
 20
60.5
 30
0.0
 11
126.39
 21
61.5
 31
0.0
  0
LINE
  5
15B9
330
1520
100
AcDbEntity
  8
0
100
AcDbLine
 10
125.39
 20
70.5
 30
0.0
 11
125.39
 21
65.5
 31
0.0
  0
LINE
  5
15BA
330
1520
100
AcDbEntity
  8
3
100
AcDbLine
 10
126.39
 20
69.5
 30
0.0
 11
126.39
 21
65.5
 31
0.0
  0
LINE
  5
15BB
330
1520
100
AcDbEntity
  8
3
100
AcDbLine
 10
125.39
 20
70.5
 30
0.0
 11
126.39
 21
69.5
 31
0.0
  0
LINE
  5
15BC
330
1520
100
AcDbEntity
  8
1
100
AcDbLine
 10
159.3899999999999
 20
88.0
 30
0.0
 11
159.3899999999999
 21
43.5
 31
0.0
  0
CIRCLE
  5
15BD
330
1520
100
AcDbEntity
  8
0
100
AcDbCircle
 10
159.3899999999999
 20
65.5
 30
0.0
 40
4.0
  0
CIRCLE
  5
15BE
330
1520
100
AcDbEntity
  8
3
100
AcDbCircle
 10
159.3899999999999
 20
65.5
 30
0.0
 40
5.0
  0
ENDBLK
  5
15C0
330
1520
100
AcDbEntity
  8
0
100
AcDbBlockEnd
  0
BLOCK
  5
1C0C
330
1BF7
100
AcDbEntity
  8
0
100
AcDbBlockBegin
  2
A$C51075B6D
 70
     0
 10
0.0
 20
0.0
 30
0.0
  3
A$C51075B6D
  1

  0
LINE
  5
1BF8
330
1BF7
100
AcDbEntity
  8
0
100
AcDbLine
 10
21.08987699999999
 20
88.0
 30
0.0
 11
126.089877
 21
88.0
 31
0.0
  0
LINE
  5
1BF9
330
1BF7
100
AcDbEntity
  8
3
100
AcDbLine
 10
37.589877
 20
20.0
 30
0.0
 11
37.589877
 21
53.5
 31
0.0
  0
LINE
  5
1BFA
330
1BF7
100
AcDbEntity
  8
1
100
AcDbLine
 10
58.089877
 20
19.0
 30
0.0
 11
58.089877
 21
52.5
 31
0.0
  0
LINE
  5
1BFB
330
1BF7
100
AcDbEntity
  8
3
100
AcDbLine
 10
16.58987699999999
 20
20.0
 30
0.0
 11
16.58987699999999
 21
53.5
 31
0.0
  0
LINE
  5
1BFC
330
1BF7
100
AcDbEntity
  8
1
100
AcDbLine
 10
92.08987699999999
 20
0.0
 30
0.0
 11
92.08987699999999
 21
91.0
 31
0.0
  0
LINE
  5
1BFD
330
1BF7
100
AcDbEntity
  8
1
100
AcDbLine
 10
27.089877
 20
83.0
 30
0.0
 11
27.089877
 21
3.0
 31
0.0
  0
LINE
  5
1BFE
330
1BF7
100
AcDbEntity
  8
1
100
AcDbLine
 10
27.089877
 20
19.0
 30
0.0
 11
58.089877
 21
19.0
 31
0.0
  0
LINE
  5
1BFF
330
1BF7
100
AcDbEntity
  8
1
100
AcDbLine
 10
27.089877
 20
0.0
 30
0.0
 11
92.08987699999999
 21
0.0
 31
0.0
  0
LINE
  5
1C00
330
1BF7
100
AcDbEntity
  8
3
100
AcDbLine
 10
27.089877
 20
20.0
 30
0.0
 11
16.58987699999999
 21
20.0
 31
0.0
  0
LINE
  5
1C01
330
1BF7
100
AcDbEntity
  8
3
100
AcDbLine
 10
27.089877
 20
19.0
 30
0.0
 11
20.33987699999999
 21
19.0
 31
0.0
  0
LINE
  5
1C02
330
1BF7
100
AcDbEntity
  8
3
100
AcDbLine
 10
20.33987699999999
 20
19.0
 30
0.0
 11
20.33987699999999
 21
20.0
 31
0.0
  0
LINE
  5
1C03
330
1BF7
100
AcDbEntity
  8
3
100
AcDbLine
 10
27.089877
 20
20.0
 30
0.0
 11
37.589877
 21
20.0
 31
0.0
  0
LINE
  5
1C04
330
1BF7
100
AcDbEntity
  8
3
100
AcDbLine
 10
27.089877
 20
19.0
 30
0.0
 11
33.839877
 21
19.0
 31
0.0
  0
LINE
  5
1C05
330
1BF7
100
AcDbEntity
  8
3
100
AcDbLine
 10
33.839877
 20
19.0
 30
0.0
 11
33.839877
 21
20.0
 31
0.0
  0
LINE
  5
1C06
330
1BF7
100
AcDbEntity
  8
1
100
AcDbLine
 10
58.089877
 20
52.5
 30
0.0
 11
3.089876999999999
 21
52.5
 31
0.0
  0
LINE
  5
1C07
330
1BF7
100
AcDbEntity
  8
1
100
AcDbLine
 10
92.08987699999999
 20
68.0
 30
0.0
 11
0.0
 21
34.482026
 31
0.0
  0
LINE
  5
1C08
330
1BF7
100
AcDbEntity
  8
3
100
AcDbLine
 10
16.58987699999999
 20
53.5
 30
0.0
 11
27.089877
 21
53.5
 31
0.0
  0
LINE
  5
1C09
330
1BF7
100
AcDbEntity
  8
3
100
AcDbLine
 10
37.589877
 20
53.5
 30
0.0
 11
27.089877
 21
53.5
 31
0.0
  0
CIRCLE
  5
1C0A
330
1BF7
100
AcDbEntity
  8
3
100
AcDbCircle
 10
92.08987699999999
 20
68.0
 30
0.0
 40
10.0
  0
LINE
  5
1C0B
330
1BF7
100
AcDbEntity
  8
0
100
AcDbLine
 10
126.089877
 20
88.0
 30
0.0
 11
126.089877
 21
19.0
 31
0.0
  0
ENDBLK
  5
1C0D
330
1BF7
100
AcDbEntity
  8
0
100
AcDbBlockEnd
  0
BLOCK
  5
1D5E
330
1D5D
100
AcDbEntity
  8
0
100
AcDbBlockBegin
  2
*U73
 70
     1
 10
0.0
 20
0.0
 30
0.0
  3
*U73
  1

  0
ENDBLK
  5
1D5F
330
1D5D
100
AcDbEntity
  8
0
100
AcDbBlockEnd
  0
ENDSEC
  0
SECTION
  2
ENTITIES
  0
LINE
  5
1C10
330
18
100
AcDbEntity
  8
3
100
AcDbLine
 10
114.3485139999999
 20
82.122437
 30
0.0
 11
114.3485139999999
 21
104.122437
 31
0.0
  0
LINE
  5
1C12
330
18
100
AcDbEntity
  8
3
100
AcDbLine
 10
93.34851399999999
 20
82.122437
 30
0.0
 11
93.34851399999999
 21
104.122437
 31
0.0
  0
LINE
  5
1C14
330
18
100
AcDbEntity
  8
1
100
AcDbLine
 10
103.8485139999999
 20
122.618306
 30
0.0
 11
103.8485139999999
 21
49.480566
 31
0.0
  0
LINE
  5
1C17
330
18
100
AcDbEntity
  8
3
100
AcDbLine
 10
103.8485139999999
 20
82.122437
 30
0.0
 11
93.34851399999999
 21
82.122437
 31
0.0
  0
LINE
  5
1C18
330
18
100
AcDbEntity
  8
3
100
AcDbLine
 10
103.8485139999999
 20
81.122437
 30
0.0
 11
97.09851399999999
 21
81.122437
 31
0.0
  0
LINE
  5
1C19
330
18
100
AcDbEntity
  8
3
100
AcDbLine
 10
97.09851399999999
 20
81.122437
 30
0.0
 11
97.09851399999999
 21
82.122437
 31
0.0
  0
LINE
  5
1C1A
330
18
100
AcDbEntity
  8
3
100
AcDbLine
 10
103.8485139999999
 20
82.122437
 30
0.0
 11
114.3485139999999
 21
82.122437
 31
0.0
  0
LINE
  5
1C1B
330
18
100
AcDbEntity
  8
3
100
AcDbLine
 10
103.8485139999999
 20
81.122437
 30
0.0
 11
110.598514
 21
81.122437
 31
0.0
  0
LINE
  5
1C1C
330
18
100
AcDbEntity
  8
3
100
AcDbLine
 10
110.598514
 20
81.122437
 30
0.0
 11
110.598514
 21
82.122437
 31
0.0
  0
LINE
  5
1C1E
330
18
100
AcDbEntity
  8
1
100
AcDbLine
 10
168.848514
 20
130.471583
 30
0.0
 11
103.8485139999999
 21
106.8135169999999
 31
0.0
  0
LINE
  5
1C1F
330
18
100
AcDbEntity
  8
3
100
AcDbLine
 10
97.53417200000001
 20
115.622437
 30
0.0
 11
103.8485139999999
 21
115.622437
 31
0.0
  0
LINE
  5
1C20
330
18
100
AcDbEntity
  8
3
100
AcDbLine
 10
110.1628559999999
 20
115.622437
 30
0.0
 11
103.8485139999999
 21
115.622437
 31
0.0
  0
ARC
  5
1C21
330
18
100
AcDbEntity
  8
3
100
AcDbCircle
 10
168.848514
 20
130.471583
 30
0.0
 40
10.0
100
AcDbArc
 50
223.5781779999999
 51
176.421822
  0
LINE
  5
1C26
330
18
100
AcDbEntity
  8
3
100
AcDbLine
 10
114.3485139999999
 20
104.122437
 30
0.0
 11
110.1628559999999
 21
115.622437
 31
0.0
  0
LINE
  5
1C57
330
18
100
AcDbEntity
  8
3
100
AcDbLine
 10
158.868008
 20
131.095687
 30
0.0
 11
110.88727
 21
113.632126
 31
0.0
  0
LINE
  5
1C58
330
18
100
AcDbEntity
  8
3
100
AcDbLine
 10
161.6041689999999
 20
123.5781459999999
 30
0.0
 11
113.623431
 21
106.114585
 31
0.0
  0
LINE
  5
1C59
330
18
100
AcDbEntity
  8
3
100
AcDbLine
 10
158.868008
 20
131.095687
 30
0.0
 11
161.6041689999999
 21
123.5781459999999
 31
0.0
  0
LINE
  5
1C5A
330
18
100
AcDbEntity
  8
3
100
AcDbLine
 10
93.34851399999999
 20
104.122437
 30
0.0
 11
97.53417200000001
 21
115.622437
 31
0.0
  0
LINE
  5
1C5B
330
18
100
AcDbEntity
  8
3
100
AcDbLine
 10
93.34851399999999
 20
104.122437
 30
0.0
 11
114.3485139999999
 21
104.122437
 31
0.0
  0
LINE
  5
1C5C
330
18
100
AcDbEntity
  8
1
100
AcDbLine
 10
37.27890999999999
 20
144.3930029999999
 30
0.0
 11
37.27890999999999
 21
50.393003
 31
0.0
  0
LINE
  5
1C5D
330
18
100
AcDbEntity
  8
3
100
AcDbLine
 10
26.77890999999999
 20
82.122437
 30
0.0
 11
26.77890999999999
 21
104.122437
 31
0.0
  0
LINE
  5
1C5E
330
18
100
AcDbEntity
  8
3
100
AcDbLine
 10
37.27890999999999
 20
82.122437
 30
0.0
 11
26.77890999999999
 21
82.122437
 31
0.0
  0
LINE
  5
1C5F
330
18
100
AcDbEntity
  8
3
100
AcDbLine
 10
37.27890999999999
 20
81.122437
 30
0.0
 11
30.52890999999999
 21
81.122437
 31
0.0
  0
LINE
  5
1C60
330
18
100
AcDbEntity
  8
3
100
AcDbLine
 10
30.52890999999999
 20
81.122437
 30
0.0
 11
30.52890999999999
 21
82.122437
 31
0.0
  0
LINE
  5
1C61
330
18
100
AcDbEntity
  8
3
100
AcDbLine
 10
26.77890999999999
 20
104.122437
 30
0.0
 11
30.964568
 21
115.622437
 31
0.0
  0
LINE
  5
1C62
330
18
100
AcDbEntity
  8
3
100
AcDbLine
 10
30.964568
 20
115.622437
 30
0.0
 11
37.27890999999999
 21
115.622437
 31
0.0
  0
LINE
  5
1C63
330
18
100
AcDbEntity
  8
3
100
AcDbLine
 10
47.77890999999999
 20
82.122437
 30
0.0
 11
47.77890999999999
 21
104.122437
 31
0.0
  0
LINE
  5
1C64
330
18
100
AcDbEntity
  8
3
100
AcDbLine
 10
37.27890999999999
 20
81.122437
 30
0.0
 11
44.02890999999999
 21
81.122437
 31
0.0
  0
LINE
  5
1C65
330
18
100
AcDbEntity
  8
3
100
AcDbLine
 10
37.27890999999999
 20
82.122437
 30
0.0
 11
47.77890999999999
 21
82.122437
 31
0.0
  0
LINE
  5
1C66
330
18
100
AcDbEntity
  8
3
100
AcDbLine
 10
44.02890999999999
 20
81.122437
 30
0.0
 11
44.02890999999999
 21
82.122437
 31
0.0
  0
LINE
  5
1C67
330
18
100
AcDbEntity
  8
3
100
AcDbLine
 10
47.77890999999999
 20
104.122437
 30
0.0
 11
43.593253
 21
115.622437
 31
0.0
  0
LINE
  5
1C68
330
18
100
AcDbEntity
  8
3
100
AcDbLine
 10
43.593253
 20
115.622437
 30
0.0
 11
37.27890999999999
 21
115.622437
 31
0.0
  0
ARC
  5
1C6B
330
18
100
AcDbEntity
  8
3
100
AcDbCircle
 10
37.27890999999999
 20
130.471583
 30
0.0
 40
10.0
100
AcDbArc
 50
293.5781779999999
 51
246.421822
  0
LINE
  5
1C6D
330
18
100
AcDbEntity
  8
3
100
AcDbLine
 10
41.27890999999999
 20
127.3369159999999
 30
0.0
 11
41.27890999999999
 21
115.622437
 31
0.0
  0
LINE
  5
1C6F
330
18
100
AcDbEntity
  8
3
100
AcDbLine
 10
33.27890999999999
 20
115.622437
 30
0.0
 11
33.27890999999999
 21
127.3369159999999
 31
0.0
  0
ELLIPSE
  5
1C72
330
18
100
AcDbEntity
  8
3
100
AcDbEllipse
 10
37.27890999999999
 20
127.3369159999999
 30
0.0
 11
-4.0
 21
0.0
 31
0.0
210
0.0
220
0.0
230
1.0
 40
0.9396929999999999
 41
3.141592653589792
 42
6.283185307179585
  0
LINE
  5
1C73
330
18
100
AcDbEntity
  8
3
100
AcDbLine
 10
26.77890999999999
 20
104.122437
 30
0.0
 11
47.77890999999999
 21
104.122437
 31
0.0
  0
LINE
  5
1C7F
330
18
100
AcDbEntity
  8
3
100
AcDbLine
 10
99.848514
 20
57.122437
 30
0.0
 11
99.848514
 21
81.122437
 31
0.0
  0
LINE
  5
1C80
330
18
100
AcDbEntity
  8
0
100
AcDbLine
 10
100.8485139999999
 20
56.122437
 30
0.0
 11
100.8485139999999
 21
80.122437
 31
0.0
  0
LINE
  5
1C81
330
18
100
AcDbEntity
  8
0
100
AcDbLine
 10
106.8485139999999
 20
56.122437
 30
0.0
 11
106.8485139999999
 21
80.122437
 31
0.0
  0
LINE
  5
1C82
330
18
100
AcDbEntity
  8
3
100
AcDbLine
 10
107.8485139999999
 20
81.122437
 30
0.0
 11
107.8485139999999
 21
57.122437
 31
0.0
  0
LINE
  5
1C83
330
18
100
AcDbEntity
  8
3
100
AcDbLine
 10
106.8485139999999
 20
56.122437
 30
0.0
 11
100.8485139999999
 21
56.122437
 31
0.0
  0
LINE
  5
1C84
330
18
100
AcDbEntity
  8
0
100
AcDbLine
 10
107.8485139999999
 20
57.122437
 30
0.0
 11
99.848514
 21
57.122437
 31
0.0
  0
LINE
  5
1C85
330
18
100
AcDbEntity
  8
3
100
AcDbLine
 10
99.848514
 20
57.122437
 30
0.0
 11
100.8485139999999
 21
56.122437
 31
0.0
  0
LINE
  5
1C86
330
18
100
AcDbEntity
  8
3
100
AcDbLine
 10
107.8485139999999
 20
57.122437
 30
0.0
 11
106.8485139999999
 21
56.122437
 31
0.0
  0
LINE
  5
1C87
330
18
100
AcDbEntity
  8
0
100
AcDbLine
 10
107.8485139999999
 20
80.122437
 30
0.0
 11
99.848514
 21
80.122437
 31
0.0
  0
LINE
  5
1C88
330
18
100
AcDbEntity
  8
3
100
AcDbLine
 10
103.8485139999999
 20
81.122437
 30
0.0
 11
106.8485139999999
 21
81.122437
 31
0.0
  0
LINE
  5
1C95
330
18
100
AcDbEntity
  8
3
100
AcDbLine
 10
33.27890999999999
 20
57.122437
 30
0.0
 11
33.27890999999999
 21
81.122437
 31
0.0
  0
LINE
  5
1C96
330
18
100
AcDbEntity
  8
0
100
AcDbLine
 10
34.27890999999999
 20
56.122437
 30
0.0
 11
34.27890999999999
 21
80.122437
 31
0.0
  0
LINE
  5
1C97
330
18
100
AcDbEntity
  8
0
100
AcDbLine
 10
40.27890999999999
 20
56.122437
 30
0.0
 11
40.27890999999999
 21
80.122437
 31
0.0
  0
LINE
  5
1C98
330
18
100
AcDbEntity
  8
3
100
AcDbLine
 10
41.27890999999999
 20
81.122437
 30
0.0
 11
41.27890999999999
 21
57.122437
 31
0.0
  0
LINE
  5
1C99
330
18
100
AcDbEntity
  8
0
100
AcDbLine
 10
41.27890999999999
 20
57.122437
 30
0.0
 11
33.27890999999999
 21
57.122437
 31
0.0
  0
LINE
  5
1C9A
330
18
100
AcDbEntity
  8
3
100
AcDbLine
 10
41.27890999999999
 20
57.122437
 30
0.0
 11
40.27890999999999
 21
56.122437
 31
0.0
  0
LINE
  5
1C9B
330
18
100
AcDbEntity
  8
3
100
AcDbLine
 10
40.27890999999999
 20
56.122437
 30
0.0
 11
34.27890999999999
 21
56.122437
 31
0.0
  0
LINE
  5
1C9C
330
18
100
AcDbEntity
  8
3
100
AcDbLine
 10
33.27890999999999
 20
57.122437
 30
0.0
 11
34.27890999999999
 21
56.122437
 31
0.0
  0
LINE
  5
1C9D
330
18
100
AcDbEntity
  8
0
100
AcDbLine
 10
41.27890999999999
 20
80.122437
 30
0.0
 11
33.27890999999999
 21
80.122437
 31
0.0
  0
LINE
  5
1C9E
330
18
100
AcDbEntity
  8
3
100
AcDbLine
 10
37.27890999999999
 20
81.122437
 30
0.0
 11
40.27890999999999
 21
81.122437
 31
0.0
  0
ENDSEC
  0
SECTION
  2
OBJECTS
  0
DICTIONARY
  5
C
330
0
100
AcDbDictionary
281
     1
  3
ACAD_GROUP
350
D
  3
ACAD_LAYOUT
350
1CAA
  3
ACAD_MLINESTYLE
350
1B
  3
ACAD_PLOTSETTINGS
350
1CAB
  3
ACAD_PLOTSTYLENAME
350
1CA8
  3
ACDBVARIABLEDICTIONARY
350
865
  3
AcmDictionary
350
1D67
  3
AMG
350
1CAF
  3
AMGSNAPSETTINGS
350
1D7F
  3
DWGPROPS
350
1D6A
  3
MAPISURF_MODULE
350
1D3A
  0
DICTIONARY
  5
1D86
330
18
100
AcDbDictionary
280
     1
281
     1
  3
ACAD_INDEX
360
1D87
  0
DICTIONARY
  5
D
102
{ACAD_REACTORS
330
C
102
}
330
C
100
AcDbDictionary
281
     1
  0
DICTIONARY
  5
1CAA
102
{ACAD_REACTORS
330
C
102
}
330
C
100
AcDbDictionary
281
     1
  3
Model
350
1CAC
  3
ﾚｲｱｳﾄ1
350
1CAD
  0
DICTIONARY
  5
1B
102
{ACAD_REACTORS
330
C
102
}
330
C
100
AcDbDictionary
281
     1
  3
STANDARD
350
1C
  0
DICTIONARY
  5
1CAB
102
{ACAD_REACTORS
330
C
102
}
330
C
100
AcDbDictionary
281
     1
  0
ACDBDICTIONARYWDFLT
  5
1CA8
102
{ACAD_REACTORS
330
C
102
}
330
C
100
AcDbDictionary
281
     1
  3
Normal
350
1CA9
100
AcDbDictionaryWithDefault
340
1CA9
  0
DICTIONARY
  5
865
102
{ACAD_REACTORS
330
C
102
}
330
C
100
AcDbDictionary
281
     1
  3
DIMASSOC
350
1D91
  3
INDEXCTL
350
1D90
  3
SORTENTS
350
866
  0
DICTIONARY
  5
1D67
102
{ACAD_REACTORS
330
C
102
}
330
C
100
AcDbDictionary
281
     1
  3
AcmBOMDATA
350
1D68
  0
DICTIONARY
  5
1CAF
102
{ACAD_REACTORS
330
C
102
}
330
C
100
AcDbDictionary
281
     1
  3
AcMgSettings
350
1CB0
  3
AMGLAYCFG
350
1D74
  0
DICTIONARY
  5
1D7F
102
{ACAD_REACTORS
330
C
102
}
330
C
100
AcDbDictionary
281
     1
  3
DIMENSION
350
1D84
  3
FEA
350
1D83
  3
HATCH (1)
350
1D80
  3
HATCH (2)
350
1D81
  3
SIMPLE WELD
350
1D85
  3
SYMBOLS
350
1D82
  0
XRECORD
  5
1D6A
102
{ACAD_REACTORS
330
C
102
}
330
C
100
AcDbXrecord
280
     1
  1
DWGPROPS COOKIE
  2

  3

  4

  6

  7

  8

  9

300
AmdtFileType=84
301
=
302
=
303
=
304
=
305
=
306
=
307
=
308
=
309
=
 40
1.756532766203703
 41
2453182.407910879
 42
2453594.729174803
  1

 90
        1
  0
DICTIONARY
  5
1D87
102
{ACAD_REACTORS
330
1D86
102
}
330
1D86
100
AcDbDictionary
281
     1
  3
*A1
350
1D88
  0
LAYOUT
  5
1CAC
102
{ACAD_REACTORS
330
1CAA
102
}
330
1CAA
100
AcDbPlotSettings
  1

  2
\\KONISHIDENXP\SHARP MX-2700FG
  4

  6

 40
0.0
 41
0.0
 42
0.0
 43
0.0
 44
0.0
 45
0.0
 46
0.0
 47
0.0
 48
0.0
 49
0.0
140
0.0
141
0.0
142
1.0
143
1.0
 70
  1712
 72
     0
 73
     0
 74
     0
  7

 75
     0
147
1.0
148
0.0
149
0.0
100
AcDbLayout
  1
Model
 70
     1
 71
     0
 10
0.0
 20
0.0
 11
12.0
 21
9.0
 12
0.0
 22
0.0
 32
0.0
 14
0.0
 24
0.0
 34
0.0
 15
0.0
 25
0.0
 35
0.0
146
0.0
 13
0.0
 23
0.0
 33
0.0
 16
1.0
 26
0.0
 36
0.0
 17
0.0
 27
1.0
 37
0.0
 76
     0
330
18
  0
LAYOUT
  5
1CAD
102
{ACAD_REACTORS
330
1CAA
102
}
330
1CAA
100
AcDbPlotSettings
  1

  2
\\KONISHIDENXP\SHARP MX-2700FG
  4

  6

 40
0.0
 41
0.0
 42
0.0
 43
0.0
 44
0.0
 45
0.0
 46
0.0
 47
0.0
 48
0.0
 49
0.0
140
0.0
141
0.0
142
1.0
143
1.0
 70
   688
 72
     0
 73
     0
 74
     5
  7

 75
    16
147
1.0
148
0.0
149
0.0
100
AcDbLayout
  1
ﾚｲｱｳﾄ1
 70
     1
 71
     1
 10
0.0
 20
0.0
 11
420.0
 21
297.0
 12
0.0
 22
0.0
 32
0.0
 14
1.000000000000000E+20
 24
1.000000000000000E+20
 34
1.000000000000000E+20
 15
-1.000000000000000E+20
 25
-1.000000000000000E+20
 35
-1.000000000000000E+20
146
0.0
 13
0.0
 23
0.0
 33
0.0
 16
1.0
 26
0.0
 36
0.0
 17
0.0
 27
1.0
 37
0.0
 76
     0
330
15
  0
MLINESTYLE
  5
1C
102
{ACAD_REACTORS
330
1B
102
}
330
1B
100
AcDbMlineStyle
  2
STANDARD
 70
     0
  3

 62
   256
 51
90.0
 52
90.0
 71
     2
 49
0.5
 62
   256
  6
BYLAYER
 49
-0.5
 62
   256
  6
BYLAYER
  0
ACDBPLACEHOLDER
  5
1CA9
102
{ACAD_REACTORS
330
1CA8
102
}
330
1CA8
  0
DICTIONARYVAR
  5
1D91
102
{ACAD_REACTORS
330
865
102
}
330
865
100
DictionaryVariables
280
     0
  1
1
  0
DICTIONARYVAR
  5
1D90
102
{ACAD_REACTORS
330
865
102
}
330
865
100
DictionaryVariables
280
     0
  1
1
  0
DICTIONARYVAR
  5
866
102
{ACAD_REACTORS
330
865
102
}
330
865
100
DictionaryVariables
280
     0
  1
96
  0
ACMDATADICTIONARY
  5
1D68
102
{ACAD_REACTORS
330
1D67
102
}
330
1D67
100
AcDbDictionary
281
     1
  3
*A1
350
1D69
100
AcmDataDictionary
  0
DICTIONARY
  5
1CB0
102
{ACAD_REACTORS
330
1CAF
102
}
330
1CAF
100
AcDbDictionary
281
     1
  3
DWGSETTINGS
350
1CB1
  0
ACAMGFILTERDAT
  5
1D84
102
{ACAD_REACTORS
330
1D7F
102
}
330
1D7F
100
AcAmgFilterDat
 70
    15
  1
DIMENSION,AMDT_*_DIM
  2
*
  3
*
  4
*
  5
*
290
     1
  0
ACAMGFILTERDAT
  5
1D83
102
{ACAD_REACTORS
330
1D7F
102
}
330
1D7F
100
AcAmgFilterDat
 70
    15
  1
*
  2
AM_FEA-AM_*
  3
*
  4
*
  5
*
290
     1
  0
ACAMGFILTERDAT
  5
1D80
102
{ACAD_REACTORS
330
1D7F
102
}
330
1D7F
100
AcAmgFilterDat
 70
    15
  1
HATCH
  2
*
  3
*
  4
*
  5
*
290
     1
  0
ACAMGFILTERDAT
  5
1D81
102
{ACAD_REACTORS
330
1D7F
102
}
330
1D7F
100
AcAmgFilterDat
 70
    15
  1
LINE
  2
8,8N,*-8,*-8N,AM_8,AM_8N,*-AM_8,*-AM_8N
  3
*
  4
*
  5
INSERT,STDPART2D
290
     1
  0
ACAMGFILTERDAT
  5
1D85
102
{ACAD_REACTORS
330
1D7F
102
}
330
1D7F
100
AcAmgFilterDat
 70
    15
  1
ARC
  2
AM_5
  3
*
  4
2
  5
INSERT
290
     0
  0
ACAMGFILTERDAT
  5
1D82
102
{ACAD_REACTORS
330
1D7F
102
}
330
1D7F
100
AcAmgFilterDat
 70
    15
  1
ACMFCFRAME,ACMDATUMTARGET,ACMDATUMID,ACMWELDSYM,ACMSURFSYM,ACMFEATID,ACMPARTREF,ACMBALLOON,AMDTEDGESYM,AMGSCREWCALCTABLE
  2
*
  3
*
  4
*
  5
*
290
     1
  0
LAYER_INDEX
  5
1D88
102
{ACAD_REACTORS
330
1D87
102
}
330
1D87
100
AcDbIndex
 40
2456449.449512442
100
AcDbLayerIndex
  8
0
360
1D89
 90
        8
  8
3
360
1D8A
 90
       46
  8
1
360
1D8B
 90
        3
  8
2
360
1D8C
 90
        0
  8
DEFPOINTS
360
1D8D
 90
        0
  8
4
360
1D8E
 90
        0
  8
5
360
1D8F
 90
        0
  0
ACMDATAENTRYBLOCK
  5
1D69
102
{ACAD_REACTORS
330
1D68
102
}
330
1D68
100
AcmDataEntry
100
AcmDataEntryBlock
  0
IDBUFFER
  5
1D89
330
0
100
AcDbIdBuffer
330
1C80
330
1C81
330
1C84
330
1C87
330
1C96
330
1C97
330
1C99
330
1C9D
  0
IDBUFFER
  5
1D8A
330
0
100
AcDbIdBuffer
330
1C5B
330
1C5D
330
1C5E
330
1C5F
330
1C60
330
1C61
330
1C62
330
1C63
330
1C64
330
1C65
330
1C66
330
1C67
330
1C68
330
1C6B
330
1C6D
330
1C6F
330
1C72
330
1C73
330
1C7F
330
1C82
330
1C83
330
1C85
330
1C86
330
1C88
330
1C95
330
1C98
330
1C9A
330
1C9B
330
1C9C
330
1C9E
330
1C10
330
1C12
330
1C17
330
1C18
330
1C19
330
1C1A
330
1C1B
330
1C1C
330
1C1F
330
1C20
330
1C21
330
1C26
330
1C57
330
1C58
330
1C59
330
1C5A
  0
IDBUFFER
  5
1D8B
330
0
100
AcDbIdBuffer
330
1C14
330
1C1E
330
1C5C
  0
IDBUFFER
  5
1D8C
330
0
100
AcDbIdBuffer
  0
IDBUFFER
  5
1D8D
330
0
100
AcDbIdBuffer
  0
IDBUFFER
  5
1D8E
330
0
100
AcDbIdBuffer
  0
IDBUFFER
  5
1D8F
330
0
100
AcDbIdBuffer
  0
ENDSEC
  0
EOF
