  0
SECTION
  2
HEADER
  9
$ACADVER
  1
AC1015
  9
$ACADMAINTVER
 70
    13
  9
$DWGCODEPAGE
  3
ANSI_932
  9
$INSBASE
 10
0.0
 20
0.0
 30
0.0
  9
$EXTMIN
 10
214.303935
 20
96.375223
 30
0.0
  9
$EXTMAX
 10
316.6651649999999
 20
195.885252
 30
8.243809999999999
  9
$LIMMIN
 10
0.0
 20
0.0
  9
$LIMMAX
 10
420.0
 20
297.0
  9
$ORTHOMODE
 70
     1
  9
$REGENMODE
 70
     1
  9
$FILLMODE
 70
     1
  9
$QTEXTMODE
 70
     0
  9
$MIRRTEXT
 70
     1
  9
$LTSCALE
 40
1.0
  9
$ATTMODE
 70
     1
  9
$TEXTSIZE
 40
2.5
  9
$TRACEWID
 40
1.0
  9
$TEXTSTYLE
  7
STANDARD
  9
$CLAYER
  8
3
  9
$CELTYPE
  6
BYLAYER
  9
$CECOLOR
 62
   256
  9
$CELTSCALE
 40
1.0
  9
$DISPSILH
 70
     0
  9
$DIMSCALE
 40
1.0
  9
$DIMASZ
 40
2.5
  9
$DIMEXO
 40
0.625
  9
$DIMDLI
 40
3.75
  9
$DIMRND
 40
0.0
  9
$DIMDLE
 40
0.0
  9
$DIMEXE
 40
1.25
  9
$DIMTP
 40
0.0
  9
$DIMTM
 40
0.0
  9
$DIMTXT
 40
2.5
  9
$DIMCEN
 40
2.5
  9
$DIMTSZ
 40
0.0
  9
$DIMTOL
 70
     0
  9
$DIMLIM
 70
     0
  9
$DIMTIH
 70
     0
  9
$DIMTOH
 70
     0
  9
$DIMSE1
 70
     0
  9
$DIMSE2
 70
     0
  9
$DIMTAD
 70
     1
  9
$DIMZIN
 70
     8
  9
$DIMBLK
  1

  9
$DIMASO
 70
     1
  9
$DIMSHO
 70
     1
  9
$DIMPOST
  1

  9
$DIMAPOST
  1

  9
$DIMALT
 70
     0
  9
$DIMALTD
 70
     4
  9
$DIMALTF
 40
0.0394
  9
$DIMLFAC
 40
1.0
  9
$DIMTOFL
 70
     1
  9
$DIMTVP
 40
0.0
  9
$DIMTIX
 70
     0
  9
$DIMSOXD
 70
     0
  9
$DIMSAH
 70
     0
  9
$DIMBLK1
  1

  9
$DIMBLK2
  1

  9
$DIMSTYLE
  2
STANDARD
  9
$DIMCLRD
 70
     0
  9
$DIMCLRE
 70
     0
  9
$DIMCLRT
 70
     0
  9
$DIMTFAC
 40
1.0
  9
$DIMGAP
 40
0.625
  9
$DIMJUST
 70
     0
  9
$DIMSD1
 70
     0
  9
$DIMSD2
 70
     0
  9
$DIMTOLJ
 70
     1
  9
$DIMTZIN
 70
     0
  9
$DIMALTZ
 70
     0
  9
$DIMALTTZ
 70
     0
  9
$DIMUPT
 70
     0
  9
$DIMDEC
 70
     4
  9
$DIMTDEC
 70
     4
  9
$DIMALTU
 70
     8
  9
$DIMALTTD
 70
     4
  9
$DIMTXSTY
  7
STANDARD
  9
$DIMAUNIT
 70
     0
  9
$DIMADEC
 70
     0
  9
$DIMALTRND
 40
0.0
  9
$DIMAZIN
 70
     0
  9
$DIMDSEP
 70
    46
  9
$DIMATFIT
 70
     3
  9
$DIMFRAC
 70
     0
  9
$DIMLDRBLK
  1

  9
$DIMLUNIT
 70
     2
  9
$DIMLWD
 70
    -2
  9
$DIMLWE
 70
    -2
  9
$DIMTMOVE
 70
     0
  9
$LUNITS
 70
     2
  9
$LUPREC
 70
     2
  9
$SKETCHINC
 40
1.0
  9
$FILLETRAD
 40
1.0
  9
$AUNITS
 70
     0
  9
$AUPREC
 70
     0
  9
$MENU
  1
.
  9
$ELEVATION
 40
0.0
  9
$PELEVATION
 40
0.0
  9
$THICKNESS
 40
0.0
  9
$LIMCHECK
 70
     0
  9
$CHAMFERA
 40
0.5
  9
$CHAMFERB
 40
0.5
  9
$CHAMFERC
 40
20.0
  9
$CHAMFERD
 40
0.0
  9
$SKPOLY
 70
     0
  9
$TDCREATE
 40
2452822.416695023
  9
$TDUCREATE
 40
2452822.041695023
  9
$TDUPDATE
 40
2454455.638578367
  9
$TDUUPDATE
 40
2454455.263578367
  9
$TDINDWG
 40
0.0752841435
  9
$TDUSRTIMER
 40
0.0752841435
  9
$USRTIMER
 70
     1
  9
$ANGBASE
 50
0.0
  9
$ANGDIR
 70
     0
  9
$PDMODE
 70
     0
  9
$PDSIZE
 40
0.0
  9
$PLINEWID
 40
0.0
  9
$SPLFRAME
 70
     0
  9
$SPLINETYPE
 70
     6
  9
$SPLINESEGS
 70
     8
  9
$HANDSEED
  5
117C
  9
$SURFTAB1
 70
     6
  9
$SURFTAB2
 70
     6
  9
$SURFTYPE
 70
     6
  9
$SURFU
 70
     6
  9
$SURFV
 70
     6
  9
$UCSBASE
  2

  9
$UCSNAME
  2

  9
$UCSORG
 10
0.0
 20
0.0
 30
0.0
  9
$UCSXDIR
 10
1.0
 20
0.0
 30
0.0
  9
$UCSYDIR
 10
0.0
 20
1.0
 30
0.0
  9
$UCSORTHOREF
  2

  9
$UCSORTHOVIEW
 70
     0
  9
$UCSORGTOP
 10
0.0
 20
0.0
 30
0.0
  9
$UCSORGBOTTOM
 10
0.0
 20
0.0
 30
0.0
  9
$UCSORGLEFT
 10
0.0
 20
0.0
 30
0.0
  9
$UCSORGRIGHT
 10
0.0
 20
0.0
 30
0.0
  9
$UCSORGFRONT
 10
0.0
 20
0.0
 30
0.0
  9
$UCSORGBACK
 10
0.0
 20
0.0
 30
0.0
  9
$PUCSBASE
  2

  9
$PUCSNAME
  2

  9
$PUCSORG
 10
0.0
 20
0.0
 30
0.0
  9
$PUCSXDIR
 10
1.0
 20
0.0
 30
0.0
  9
$PUCSYDIR
 10
0.0
 20
1.0
 30
0.0
  9
$PUCSORTHOREF
  2

  9
$PUCSORTHOVIEW
 70
     0
  9
$PUCSORGTOP
 10
0.0
 20
0.0
 30
0.0
  9
$PUCSORGBOTTOM
 10
0.0
 20
0.0
 30
0.0
  9
$PUCSORGLEFT
 10
0.0
 20
0.0
 30
0.0
  9
$PUCSORGRIGHT
 10
0.0
 20
0.0
 30
0.0
  9
$PUCSORGFRONT
 10
0.0
 20
0.0
 30
0.0
  9
$PUCSORGBACK
 10
0.0
 20
0.0
 30
0.0
  9
$USERI1
 70
     0
  9
$USERI2
 70
     0
  9
$USERI3
 70
     0
  9
$USERI4
 70
     0
  9
$USERI5
 70
     0
  9
$USERR1
 40
0.0
  9
$USERR2
 40
0.0
  9
$USERR3
 40
0.0
  9
$USERR4
 40
0.0
  9
$USERR5
 40
0.0
  9
$WORLDVIEW
 70
     1
  9
$SHADEDGE
 70
     3
  9
$SHADEDIF
 70
    70
  9
$TILEMODE
 70
     1
  9
$MAXACTVP
 70
    48
  9
$PINSBASE
 10
0.0
 20
0.0
 30
0.0
  9
$PLIMCHECK
 70
     0
  9
$PEXTMIN
 10
1.000000000000000E+20
 20
1.000000000000000E+20
 30
1.000000000000000E+20
  9
$PEXTMAX
 10
-1.000000000000000E+20
 20
-1.000000000000000E+20
 30
-1.000000000000000E+20
  9
$PLIMMIN
 10
0.0
 20
0.0
  9
$PLIMMAX
 10
420.0
 20
297.0
  9
$UNITMODE
 70
     0
  9
$VISRETAIN
 70
     1
  9
$PLINEGEN
 70
     0
  9
$PSLTSCALE
 70
     1
  9
$TREEDEPTH
 70
  3020
  9
$CMLSTYLE
  2
STANDARD
  9
$CMLJUST
 70
     0
  9
$CMLSCALE
 40
20.0
  9
$PROXYGRAPHICS
 70
     1
  9
$MEASUREMENT
 70
     1
  9
$CELWEIGHT
370
    -1
  9
$ENDCAPS
280
     0
  9
$JOINSTYLE
280
     0
  9
$LWDISPLAY
290
     0
  9
$INSUNITS
 70
     0
  9
$HYPERLINKBASE
  1

  9
$STYLESHEET
  1

  9
$XEDIT
290
     1
  9
$CEPSNTYPE
380
     0
  9
$PSTYLEMODE
290
     1
  9
$FINGERPRINTGUID
  2
{92E1F0FD-F51E-4193-8D8E-203076737E77}
  9
$VERSIONGUID
  2
{57413D43-6386-46A2-B60A-C0D1BC4AE95A}
  9
$EXTNAMES
290
     1
  9
$PSVPSCALE
 40
0.0
  9
$OLESTARTUP
290
     0
  0
ENDSEC
  0
SECTION
  2
CLASSES
  0
CLASS
  1
XRECORD
  2
AcDbXrecord
  3
AutoCAD 2000
 90
    32768
280
     0
281
     0
  0
CLASS
  1
LWPOLYLINE
  2
AcDbPolyline
  3
AutoCAD 2000
 90
    32768
280
     0
281
     1
  0
CLASS
  1
ACDBDICTIONARYWDFLT
  2
AcDbDictionaryWithDefault
  3
AutoCAD 2000
 90
        0
280
     0
281
     0
  0
CLASS
  1
ACDBPLACEHOLDER
  2
AcDbPlaceHolder
  3
AutoCAD 2000
 90
        0
280
     0
281
     0
  0
CLASS
  1
LAYOUT
  2
AcDbLayout
  3
AutoCAD 2000
 90
        0
280
     0
281
     0
  0
CLASS
  1
AMGSETTINGSOBJ
  2
AmgSettingsObj
  3
"AcadM|Product Description: AutoCAD Mechanical 2000|Company: Autodesk"
 90
        0
280
     0
281
     0
  0
CLASS
  1
ACME_DOCUMENT
  2
AcMeDbDoc
  3
AcMeServices
 90
        0
280
     0
281
     0
  0
CLASS
  1
ACMESCOPE
  2
AcMeScope
  3
AcMeServices
 90
        0
280
     0
281
     0
  0
CLASS
  1
ACMECOMMANDHISTORY
  2
AcMeCommandHistory
  3
AcMeServices
 90
        0
280
     0
281
     0
  0
CLASS
  1
ACIMSYSVARMAN
  2
AcImSysVarManager
  3
AcMeServices
 90
        0
280
     0
281
     0
  0
CLASS
  1
ACIMREALSYSVAR
  2
AcImRealSysVar
  3
AcMeServices
 90
        0
280
     0
281
     0
  0
CLASS
  1
ACIMINTSYSVAR
  2
AcImIntSysVar
  3
AcMeServices
 90
        0
280
     0
281
     0
  0
CLASS
  1
ACMEDRAWINGMAN
  2
AcMeDrawingMan
  3
AcMeServices
 90
        0
280
     0
281
     0
  0
CLASS
  1
ACMEVIEW
  2
AcMeView
  3
AcMeServices
 90
        0
280
     0
281
     0
  0
CLASS
  1
ACDBENTITYCACHE
  2
AcMeEntityCache
  3
AcMeServices
 90
        0
280
     0
281
     0
  0
CLASS
  1
GSMANAGER
  2
AcMeGSManager
  3
AcMeServices
 90
        0
280
     0
281
     0
  0
CLASS
  1
AMDTINTERNALREACTOR
  2
AmdtInternalReactor
  3
AcMeServices
 90
        0
280
     0
281
     0
  0
CLASS
  1
ACMESTATEMGR
  2
AcMeStateMgr
  3
AcMeServices
 90
        0
280
     0
281
     0
  0
CLASS
  1
ACGREFMASTER
  2
AcGrefMaster
  3
AcAttribServices
 90
        0
280
     0
281
     0
  0
CLASS
  1
AM_DRAWING_MGR
  2
AcDmDwgMgr
  3
AcMechDwgViewMgmt
 90
        0
280
     0
281
     0
  0
CLASS
  1
AM_DWG_DOCUMENT
  2
AcDmDwgDocument
  3
AcMechDwgViewMgmt
 90
        0
280
     0
281
     0
  0
CLASS
  1
AM_DWG_SHEET
  2
AcDmSheet
  3
AcMechDwgViewMgmt
 90
        0
280
     0
281
     0
  0
CLASS
  1
AM_VIEWDIMPARMAP
  2
AcDmViewDimParMap
  3
AcMechDwgViewMgmt
 90
        0
280
     0
281
     0
  0
CLASS
  1
AM_DWGMGR_NAME
  2
AcDmDwgMgrName
  3
AcMechDwgViewMgmt
 90
        0
280
     0
281
     0
  0
CLASS
  1
ACME_DATABASE
  2
AcMeDbDatabase
  3
AcMeServices
 90
        0
280
     0
281
     0
  0
CLASS
  1
ACRFINSADJUSTERMGR
  2
AcRfInsAdjusterMgr
  3
AcMeServices
 90
        0
280
     0
281
     0
  0
CLASS
  1
ACGREFACADMASTER
  2
AcGrefacadMaster
  3
AcGrefServices
 90
        0
280
     0
281
     0
  0
CLASS
  1
AMDTMENUSTATEMGR
  2
AmdtMenuStateMgr
  3
McadcomServices
 90
        0
280
     0
281
     0
  0
CLASS
  1
AMDTMCOMMENUSTATE
  2
AmdtMcomMenuState
  3
McadcomServices
 90
        0
280
     0
281
     0
  0
CLASS
  1
AMIMASTER
  2
AmiMaster
  3
AmiServices
 90
        0
280
     0
281
     0
  0
CLASS
  1
ASAPP
  2
AcAsAppObject
  3
AutoSurfServices
 90
        0
280
     0
281
     0
  0
CLASS
  1
IM_STATIC_MAN
  2
AcImStaticVarManager
  3
AcMeServices
 90
        0
280
     0
281
     0
  0
CLASS
  1
ACIMSTRSYSVAR
  2
AcImStrSysVar
  3
AcMeServices
 90
        0
280
     0
281
     0
  0
CLASS
  1
ACIMDBLSTATICVAR
  2
AcImDblStaticVar
  3
AcMeServices
 90
        0
280
     0
281
     0
  0
CLASS
  1
ACIMSTRSTATICVAR
  2
AcImStrStaticVar
  3
AcMeServices
 90
        0
280
     0
281
     0
  0
CLASS
  1
ACIMINTSTATICVAR
  2
AcImIntStaticVar
  3
AcMeServices
 90
        0
280
     0
281
     0
  0
CLASS
  1
ACASGREFMASTER
  2
AcAsGrefMaster
  3
AutoSurfResolverServices
 90
        0
280
     0
281
     0
  0
CLASS
  1
ACADGREFMODULE
  2
AcAdGrefModule
  3
AdGrefServices
 90
        0
280
     0
281
     0
  0
CLASS
  1
AMDTMAPISURFMOUDULE
  2
AmdtMApiSurfModule
  3
MApiSurfServices
 90
        0
280
     0
281
     0
  0
CLASS
  1
MAPIAMMOUDLE
  2
MApiAmModule
  3
MApiAmServices
 90
        0
280
     0
281
     0
  0
CLASS
  1
AMDTADMENUSTATE
  2
AmdtAdMenuState
  3
DesignerServices
 90
        0
280
     0
281
     0
  0
CLASS
  1
ADAPPL
  2
AcAdAppl
  3
DesignerServices
 90
        0
280
     0
281
     0
  0
CLASS
  1
DEPMGR
  2
AcAdDepMgr
  3
DesignerServices
 90
        0
280
     0
281
     0
  0
CLASS
  1
PARAMMGR
  2
AcAdParamMgr
  3
DesignerServices
 90
        0
280
     0
281
     0
  0
CLASS
  1
PARAMSCOPE
  2
AcAdParamScope
  3
DesignerServices
 90
        0
280
     0
281
     0
  0
CLASS
  1
NAMEDAPPL
  2
AcAdNamedAppl
  3
DesignerServices
 90
        0
280
     0
281
     0
  0
CLASS
  1
AMDTDMMENUSTATE
  2
AmdtDmMenuState
  3
AcMechDwgViewMgmt
 90
        0
280
     0
281
     0
  0
CLASS
  1
MAPIADMODULE
  2
MApiAdModule
  3
MApiAdServices
 90
        0
280
     0
281
     0
  0
CLASS
  1
AMDTAMMENUSTATE
  2
AmdtAmMenuState
  3
DesignerAssemblies
 90
        0
280
     0
281
     0
  0
CLASS
  1
ACAMPROJECT
  2
AcAmProject
  3
DesignerAssemblies
 90
        0
280
     0
281
     0
  0
CLASS
  1
ACAMGRCOMPDEF
  2
AcAmGrCompDef
  3
DesignerAssemblies
 90
        0
280
     0
281
     0
  0
CLASS
  1
ACCMCONTEXT
  2
AcCmContext
  3
DesignerAssemblies
 90
        0
280
     0
281
     0
  0
CLASS
  1
ACAMCOMPDEF
  2
AcAmCompDef
  3
DesignerAssemblies
 90
        0
280
     0
281
     0
  0
CLASS
  1
ACAMCOMPDEFMGR
  2
AcAmCompDefMgr
  3
DesignerAssemblies
 90
        0
280
     0
281
     0
  0
CLASS
  1
AMCONTEXTMGR
  2
AcAmContextMgr
  3
DesignerAssemblies
 90
        0
280
     0
281
     0
  0
CLASS
  1
ACAMCONTEXTMODELER
  2
AcAmContextModeler
  3
DesignerAssemblies
 90
        0
280
     0
281
     0
  0
CLASS
  1
ACMDATADICTIONARY
  2
AcmDataDictionary
  3
"AcmSymBB|Product Description: AutoCAD Mechanical 2000|Company: Autodesk"
 90
        0
280
     0
281
     0
  0
CLASS
  1
ACMDATAENTRYBLOCK
  2
AcmDataEntryBlock
  3
"AcmSymBB|Product Description: AutoCAD Mechanical 2000|Company: Autodesk"
 90
        0
280
     0
281
     0
  0
CLASS
  1
CATALOGSTATE
  2
AcAmCatalogState
  3
DesignerAssemblies
 90
        0
280
     0
281
     0
  0
CLASS
  1
ACAMGRCOMPDEFSET
  2
AcAmGrCompDefSet
  3
DesignerAssemblies
 90
        0
280
     0
281
     0
  0
CLASS
  1
AMDTBROWSERDBTAB
  2
AmdtBrowserDbTab
  3
McadcomServices
 90
        0
280
     0
281
     0
  0
CLASS
  1
CBROWSERAPPOBJECT
  2
CBrowserAppObject
  3
McadcomServices
 90
        0
280
     0
281
     0
  0
CLASS
  1
DM_PLACEHOLDER
  2
AcDmSelsetPlaceholder
  3
AcMechDwgViewMgmt
 90
        0
280
     0
281
     0
  0
CLASS
  1
ACMSTANDARDISO
  2
AcmStandardISO
  3
"Amdt_StdImp|Product Description: AutoCAD Mechanical 2000|Company: Autodesk"
 90
        0
280
     0
281
     0
  0
CLASS
  1
AMGOBJPROPCFG
  2
AmgObjPropCfg
  3
"AmgLay|Product Description: AutoCAD Mechanical 2000|Company: Autodesk"
 90
        1
280
     0
281
     0
  0
CLASS
  1
AMDTEDGESTANDARDISO
  2
AmdtEdgeStdISO
  3
"Amdt_StdImp|Product Description: AutoCAD Mechanical 2000|Company: Autodesk"
 90
        0
280
     0
281
     0
  0
CLASS
  1
ACMSURFSTANDARDISO
  2
AcmSurfTextStdISO
  3
"Amdt_StdImp|Product Description: AutoCAD Mechanical 2000|Company: Autodesk"
 90
        0
280
     0
281
     0
  0
CLASS
  1
ACMFCFSTANDARDISO
  2
AcmFCFStdISO
  3
"Amdt_StdImp|Product Description: AutoCAD Mechanical 2000|Company: Autodesk"
 90
        0
280
     0
281
     0
  0
CLASS
  1
ACMWELDSTANDARDISO
  2
AcmWeldingStdISO
  3
"Amdt_StdImp|Product Description: AutoCAD Mechanical 2000|Company: Autodesk"
 90
        0
280
     0
281
     0
  0
CLASS
  1
ACMIDSTANDARDISO
  2
AcmIdStdISO
  3
"Amdt_StdImp|Product Description: AutoCAD Mechanical 2000|Company: Autodesk"
 90
        0
280
     0
281
     0
  0
CLASS
  1
ACMDATUMSTANDARDISO
  2
AcmDatumStdISO
  3
"Amdt_StdImp|Product Description: AutoCAD Mechanical 2000|Company: Autodesk"
 90
        0
280
     0
281
     0
  0
CLASS
  1
ACMBOMSTANDARDISO
  2
AcmBOMStdISO
  3
"Amdt_StdImp|Product Description: AutoCAD Mechanical 2000|Company: Autodesk"
 90
        0
280
     0
281
     0
  0
CLASS
  1
ACMDETAILSTANDARDISO
  2
AmdtDetailSymStdISO
  3
"Amdt_StdImp|Product Description: AutoCAD Mechanical 2000|Company: Autodesk"
 90
        0
280
     0
281
     0
  0
CLASS
  1
ACMSECTIONSTANDARDISO
  2
AmdtSectionSymStdISO
  3
"Amdt_StdImp|Product Description: AutoCAD Mechanical 2000|Company: Autodesk"
 90
        0
280
     0
281
     0
  0
CLASS
  1
ACMCENTERLINESTANDARDISO
  2
AmdtCenterLineStdISO
  3
"Amdt_StdImp|Product Description: AutoCAD Mechanical 2000|Company: Autodesk"
 90
        0
280
     0
281
     0
  0
CLASS
  1
ACMTHREADLINESTANDARDISO
  2
AmdtThreadLineStdISO
  3
"Amdt_StdImp|Product Description: AutoCAD Mechanical 2000|Company: Autodesk"
 90
        0
280
     0
281
     0
  0
CLASS
  1
ACMNOTESTANDARDISO
  2
AmdtNoteStdISO
  3
"Amdt_StdImp|Product Description: AutoCAD Mechanical 2000|Company: Autodesk"
 90
        0
280
     0
281
     0
  0
CLASS
  1
ACAMGLAYSTD
  2
AcAmgLayStd
  3
"AcAmgLayStd|Product Description: AutoCAD Mechanical 2000|Company: Autodesk"
 90
        0
280
     0
281
     0
  0
CLASS
  1
ACAMGDIMSTD
  2
AcAmgDimStd
  3
"AcAmgDimStd|Product Description: AutoCAD Mechanical 2000|Company: Autodesk"
 90
        0
280
     0
281
     0
  0
CLASS
  1
ACAMGHOLECHARTSTDISO
  2
AcAmgHoleChartStdISO
  3
ACMSYMBB_MODULE_NAME
 90
        0
280
     0
281
     0
  0
CLASS
  1
ACAMGTITLESTD
  2
AcAmgTitleStd
  3
"TITLEAPP"
 90
        0
280
     0
281
     0
  0
CLASS
  1
ACAMGFILTERDAT
  2
AcAmgFilterDat
  3
"AcadM|Product Description: AutoCAD Mechanical 2000|Company: Autodesk"
 90
        0
280
     0
281
     0
  0
CLASS
  1
LAYER_INDEX
  2
AcDbLayerIndex
  3
AutoCAD 2000
 90
        0
280
     0
281
     0
  0
CLASS
  1
IDBUFFER
  2
AcDbIdBuffer
  3
AutoCAD 2000
 90
        0
280
     0
281
     0
  0
CLASS
  1
DICTIONARYVAR
  2
AcDbDictionaryVar
  3
AutoCAD 2000
 90
        0
280
     0
281
     0
  0
ENDSEC
  0
SECTION
  2
TABLES
  0
TABLE
  2
VPORT
  5
8
330
0
100
AcDbSymbolTable
 70
     5
  0
VPORT
  5
117B
330
8
100
AcDbSymbolTableRecord
100
AcDbViewportTableRecord
  2
*Active
 70
     0
 10
0.0
 20
0.0
 11
1.0
 21
1.0
 12
-14.40568146589686
 22
-52.15536359403819
 13
0.0
 23
0.0
 14
10.0
 24
10.0
 15
10.0
 25
10.0
 16
0.0
 26
0.0
 36
1.0
 17
282.4101450583918
 27
202.446532
 37
0.0
 40
130.6518201950597
 41
1.481761006289308
 42
50.0
 43
0.0
 44
0.0
 50
0.0
 51
0.0
 71
     0
 72
 20000
 73
     1
 74
     1
 75
     0
 76
     0
 77
     0
 78
     0
281
     0
 65
     0
110
0.0
120
0.0
130
0.0
111
1.0
121
0.0
131
0.0
112
0.0
122
1.0
132
0.0
 79
     0
146
0.0
  0
ENDTAB
  0
TABLE
  2
LTYPE
  5
5
330
0
100
AcDbSymbolTable
 70
    18
  0
LTYPE
  5
12
330
5
100
AcDbSymbolTableRecord
100
AcDbLinetypeTableRecord
  2
BYBLOCK
 70
     0
  3

 72
    65
 73
     0
 40
0.0
  0
LTYPE
  5
13
330
5
100
AcDbSymbolTableRecord
100
AcDbLinetypeTableRecord
  2
BYLAYER
 70
     0
  3

 72
    65
 73
     0
 40
0.0
  0
LTYPE
  5
14
330
5
100
AcDbSymbolTableRecord
100
AcDbLinetypeTableRecord
  2
CONTINUOUS
 70
     0
  3
Solid line
 72
    65
 73
     0
 40
0.0
  0
LTYPE
  5
54
330
5
100
AcDbSymbolTableRecord
100
AcDbLinetypeTableRecord
  2
TENSEN
 70
     0
  3

 72
    65
 73
     2
 40
4.0
 49
3.0
 74
     0
 49
-1.0
 74
     0
  0
LTYPE
  5
55
330
5
100
AcDbSymbolTableRecord
100
AcDbLinetypeTableRecord
  2
ITTEN1
 70
     0
  3

 72
    65
 73
     4
 40
8.199999999999999
 49
5.0
 74
     0
 49
-1.0
 74
     0
 49
1.199999999999999
 74
     0
 49
-1.0
 74
     0
  0
LTYPE
  5
1092
330
5
100
AcDbSymbolTableRecord
100
AcDbLinetypeTableRecord
  2
HIDDEN
 70
     0
  3
Hidden __ __ __ __ __ __ __ __ __ __ __ __ __ _
 72
    65
 73
     2
 40
9.524999999999998
 49
6.349999999999999
 74
     0
 49
-3.174999999999999
 74
     0
  0
LTYPE
  5
1093
330
5
100
AcDbSymbolTableRecord
100
AcDbLinetypeTableRecord
  2
PHANTOM2
 70
     0
  3
Phantom (.5x) ___ _ _ ___ _ _ ___ _ _ ___ _ _
 72
    65
 73
     6
 40
31.75
 49
15.875
 74
     0
 49
-3.174999999999999
 74
     0
 49
3.174999999999999
 74
     0
 49
-3.174999999999999
 74
     0
 49
3.174999999999999
 74
     0
 49
-3.174999999999999
 74
     0
  0
LTYPE
  5
1094
330
5
100
AcDbSymbolTableRecord
100
AcDbLinetypeTableRecord
  2
CENTER
 70
     0
  3
Center ____ _ ____ _ ____ _ ____ _ ____ _ ____
 72
    65
 73
     4
 40
50.8
 49
31.75
 74
     0
 49
-6.349999999999999
 74
     0
 49
6.349999999999999
 74
     0
 49
-6.349999999999999
 74
     0
  0
LTYPE
  5
10F6
330
5
100
AcDbSymbolTableRecord
100
AcDbLinetypeTableRecord
  2
ASULTYPE
 70
     0
  3
実線
 72
    65
 73
     2
 40
3.0
 49
2.5
 74
     0
 49
0.5
 74
     0
  0
LTYPE
  5
10F7
330
5
100
AcDbSymbolTableRecord
100
AcDbLinetypeTableRecord
  2
ASVLTYPE
 70
     0
  3
__ __ __ __ __ __ __ __ __ __ __ __ __ __ __ __ __ __ __ __ __
 72
    65
 73
     2
 40
0.75
 49
0.5
 74
     0
 49
-0.25
 74
     0
  0
LTYPE
  5
113B
330
5
100
AcDbSymbolTableRecord
100
AcDbLinetypeTableRecord
  2
AM_ISO02W050
 70
     0
  3
__ __ __ __ __ __ __ __ __ __ __ __ __ __ __
 72
    65
 73
     2
 40
7.5
 49
6.0
 74
     0
 49
-1.5
 74
     0
  0
LTYPE
  5
113C
330
5
100
AcDbSymbolTableRecord
100
AcDbLinetypeTableRecord
  2
AM_ISO08W050
 70
     0
  3
____ . ____ . ____ . ____ . ____ . ____ . ____
 72
    65
 73
     4
 40
18.0
 49
12.0
 74
     0
 49
-1.5
 74
     0
 49
3.0
 74
     0
 49
-1.5
 74
     0
  0
LTYPE
  5
113D
330
5
100
AcDbSymbolTableRecord
100
AcDbLinetypeTableRecord
  2
AM_ISO09W050
 70
     0
  3
_____ . . _____ . . _____ . . ____ .. ____
 72
    65
 73
     6
 40
22.5
 49
12.0
 74
     0
 49
-1.5
 74
     0
 49
3.0
 74
     0
 49
-1.5
 74
     0
 49
3.0
 74
     0
 49
-1.5
 74
     0
  0
LTYPE
  5
113E
330
5
100
AcDbSymbolTableRecord
100
AcDbLinetypeTableRecord
  2
Amconstr
 70
     0
  3
_______________________
 72
    65
 73
     2
 40
9999.0
 49
9999.0
 74
     0
 49
0.0
 74
     0
  0
LTYPE
  5
113F
330
5
100
AcDbSymbolTableRecord
100
AcDbLinetypeTableRecord
  2
AM_ISO08W050x2
 70
     0
  3
__ . __ . __ . __ . __ . __
 72
    65
 73
     4
 40
9.0
 49
6.0
 74
     0
 49
-0.75
 74
     0
 49
1.5
 74
     0
 49
-0.75
 74
     0
  0
LTYPE
  5
1140
330
5
100
AcDbSymbolTableRecord
100
AcDbLinetypeTableRecord
  2
AM_ISO02W050x2
 70
     0
  3
 _ _ _ _ _ _ _ _ _ _ _ _
 72
    65
 73
     2
 40
3.75
 49
3.0
 74
     0
 49
-0.75
 74
     0
  0
LTYPE
  5
1143
330
5
100
AcDbSymbolTableRecord
100
AcDbLinetypeTableRecord
  2
Amzigzag
 70
     0
  3
/\/-/\/-/\/-/\/-/\/-/\/
 72
    65
 73
     2
 40
11.00009999999999
 49
0.0001
 74
     4
 75
   135
340
1142
 46
0.04
 50
0.0
 44
0.0
 45
0.0
 49
-11.0
 74
     0
  0
LTYPE
  5
1152
330
5
100
AcDbSymbolTableRecord
100
AcDbLinetypeTableRecord
  2
ACISOWELD
 70
     0
  3
_ _ _ _ _
 72
    65
 73
     2
 40
2.0
 49
2.0
 74
     0
 49
-1.0
 74
     0
  0
LTYPE
  5
1153
330
5
100
AcDbSymbolTableRecord
100
AcDbLinetypeTableRecord
  2
ACISOTGB
 70
     0
  3
__ . . __ . .
 72
    65
 73
     6
 40
9.0
 49
4.0
 74
     0
 49
-1.0
 74
     0
 49
1.0
 74
     0
 49
-1.0
 74
     0
 49
1.0
 74
     0
 49
-1.0
 74
     0
  0
LTYPE
  5
1154
330
5
100
AcDbSymbolTableRecord
100
AcDbLinetypeTableRecord
  2
ACISOTGL
 70
     0
  3
_ _ _ _ _
 72
    65
 73
     2
 40
3.0
 49
2.0
 74
     0
 49
-1.0
 74
     0
  0
ENDTAB
  0
TABLE
  2
LAYER
  5
2
330
0
100
AcDbSymbolTable
 70
     5
  0
LAYER
  5
E
330
2
100
AcDbSymbolTableRecord
100
AcDbLayerTableRecord
  2
0
 70
     0
 62
     7
  6
CONTINUOUS
370
    -3
390
1067
  0
LAYER
  5
56
330
2
100
AcDbSymbolTableRecord
100
AcDbLayerTableRecord
  2
1
 70
     0
 62
     1
  6
ITTEN1
370
    -3
390
1067
  0
LAYER
  5
57
330
2
100
AcDbSymbolTableRecord
100
AcDbLayerTableRecord
  2
2
 70
     0
 62
     2
  6
TENSEN
370
    -3
390
1067
  0
LAYER
  5
58
330
2
100
AcDbSymbolTableRecord
100
AcDbLayerTableRecord
  2
3
 70
     0
 62
     3
  6
CONTINUOUS
370
    -3
390
1067
  0
LAYER
  5
59
330
2
100
AcDbSymbolTableRecord
100
AcDbLayerTableRecord
  2
DEFPOINTS
 70
     0
 62
     7
  6
CONTINUOUS
290
     0
370
    -3
390
1067
  0
ENDTAB
  0
TABLE
  2
STYLE
  5
3
330
0
100
AcDbSymbolTable
 70
     5
  0
STYLE
  5
F
330
3
100
AcDbSymbolTableRecord
100
AcDbTextStyleTableRecord
  2
STANDARD
 70
     0
 40
0.0
 41
1.0
 50
0.0
 71
     0
 42
2.5
  3
txt
  4

  0
STYLE
  5
5C
330
3
100
AcDbSymbolTableRecord
100
AcDbTextStyleTableRecord
  2
BIGFONT
 70
     0
 40
7.0
 41
0.7
 50
0.0
 71
     0
 42
7.0
  3
txt.shx
  4
bigfont.shx
  0
STYLE
  5
1142
330
3
100
AcDbSymbolTableRecord
100
AcDbTextStyleTableRecord
  2

 70
     1
 40
0.0
 41
1.0
 50
0.0
 71
     0
 42
2.5
  3
ltypeshp.shx
  4

  0
STYLE
  5
1144
330
3
100
AcDbSymbolTableRecord
100
AcDbTextStyleTableRecord
  2
ACISOTS
 70
     0
 40
1.0
 41
1.0
 50
0.0
 71
     0
 42
2.5
  3
isocp.shx
  4
extfont.shx
  0
STYLE
  5
1151
330
3
100
AcDbSymbolTableRecord
100
AcDbTextStyleTableRecord
  2
ACISOGDT
 70
     0
 40
0.0
 41
1.0
 50
0.0
 71
     0
 42
2.5
  3
amgdt.shx
  4

  0
ENDTAB
  0
TABLE
  2
VIEW
  5
6
330
0
100
AcDbSymbolTable
 70
     0
  0
ENDTAB
  0
TABLE
  2
UCS
  5
7
330
0
100
AcDbSymbolTable
 70
     0
  0
ENDTAB
  0
TABLE
  2
APPID
  5
9
330
0
100
AcDbSymbolTable
 70
    13
  0
APPID
  5
10
330
9
100
AcDbSymbolTableRecord
100
AcDbRegAppTableRecord
  2
ACAD
 70
     0
  0
APPID
  5
1070
330
9
100
AcDbSymbolTableRecord
100
AcDbRegAppTableRecord
  2
GENIUS_GENDIM_13
 70
     0
  0
APPID
  5
1071
330
9
100
AcDbSymbolTableRecord
100
AcDbRegAppTableRecord
  2
GENIUS_GENDTOL_13
 70
     0
  0
APPID
  5
1072
330
9
100
AcDbSymbolTableRecord
100
AcDbRegAppTableRecord
  2
GENIUS_GE3DTOL_13
 70
     0
  0
APPID
  5
1075
330
9
100
AcDbSymbolTableRecord
100
AcDbRegAppTableRecord
  2
MCAD_NO_VIS
 70
     0
  0
APPID
  5
1076
330
9
100
AcDbSymbolTableRecord
100
AcDbRegAppTableRecord
  2
ACAD_TEMP_GRAPHIC
 70
     0
  0
APPID
  5
10A9
330
9
100
AcDbSymbolTableRecord
100
AcDbRegAppTableRecord
  2
AD_DRAW
 70
     0
  0
APPID
  5
10AC
330
9
100
AcDbSymbolTableRecord
100
AcDbRegAppTableRecord
  2
ACATTRIBSERVICES
 70
     0
  0
APPID
  5
10F8
330
9
100
AcDbSymbolTableRecord
100
AcDbRegAppTableRecord
  2
ASURF_PCURVE_APPNAME
 70
     0
  0
APPID
  5
10FD
330
9
100
AcDbSymbolTableRecord
100
AcDbRegAppTableRecord
  2
AMG_3D2D_5.0
 70
     0
  0
APPID
  5
1128
330
9
100
AcDbSymbolTableRecord
100
AcDbRegAppTableRecord
  2
DESIGNERASSEMBLIES
 70
     0
  0
APPID
  5
1130
330
9
100
AcDbSymbolTableRecord
100
AcDbRegAppTableRecord
  2
ACADM_DIM_EDIT
 70
     0
  0
APPID
  5
1131
330
9
100
AcDbSymbolTableRecord
100
AcDbRegAppTableRecord
  2
AMDT_DM_ADJ
 70
     0
  0
ENDTAB
  0
TABLE
  2
DIMSTYLE
  5
A
330
0
100
AcDbSymbolTable
 70
     8
100
AcDbDimStyleTable
 71
     0
  0
DIMSTYLE
105
1D
102
{ACAD_REACTORS
330
5E
330
5F
330
C2
330
CF
330
1E1
330
1E2
330
320
330
378
330
37D
330
4B6
330
4B7
330
5B4
330
5B5
330
60E
330
70B
330
76E
330
83C
330
897
330
986
330
996
330
9CE
330
9CF
330
B35
330
D03
330
D04
330
D05
330
D06
330
D07
330
D08
330
D11
330
D25
330
D26
330
D27
330
D28
330
D2F
330
D30
330
D31
330
D32
330
D55
330
D56
330
D85
330
D8D
102
}
330
A
100
AcDbSymbolTableRecord
100
AcDbDimStyleTableRecord
  2
STANDARD
 70
     0
340
F
  0
DIMSTYLE
105
1159
330
A
100
AcDbSymbolTableRecord
100
AcDbDimStyleTableRecord
  2
AM_ISO
 70
     0
  4
"
 41
2.5
 42
1.0
 43
10.0
 44
1.0
 47
0.1
 48
0.1
 73
     0
 74
     0
 77
     1
 78
     8
 79
     2
140
3.5
141
0.0
143
0.0393701
146
0.71
147
1.5
172
     1
176
   256
177
   256
178
     2
271
     2
272
     3
274
     4
283
     0
284
     8
340
F
371
    -1
372
    -1
  0
DIMSTYLE
105
115A
330
A
100
AcDbSymbolTableRecord
100
AcDbDimStyleTableRecord
  2
AM_ISO$3
 70
     0
  4
"
 41
2.5
 42
1.0
 43
10.0
 44
1.0
 47
0.1
 48
0.1
 73
     0
 77
     1
 78
     8
 79
     2
140
3.5
141
0.0
143
0.0393701
146
0.71
147
1.5
176
   256
177
   256
178
     2
271
     2
272
     3
274
     4
283
     0
284
     8
288
     1
289
     0
340
F
371
    -1
372
    -1
  0
DIMSTYLE
105
115B
330
A
100
AcDbSymbolTableRecord
100
AcDbDimStyleTableRecord
  2
AM_ISO$4
 70
     0
  4
"
 41
2.5
 42
1.0
 43
10.0
 44
1.0
 47
0.1
 48
0.1
 73
     0
 77
     1
 78
     8
 79
     2
140
3.5
141
0.0
143
0.0393701
146
0.71
147
1.5
176
   256
177
   256
178
     2
271
     2
272
     3
274
     4
283
     0
284
     8
288
     1
289
     0
340
F
371
    -1
372
    -1
  0
DIMSTYLE
105
115C
330
A
100
AcDbSymbolTableRecord
100
AcDbDimStyleTableRecord
  2
AM_ISO$6
 70
     0
  4
"
 41
2.5
 42
1.0
 43
10.0
 44
1.0
 47
0.1
 48
0.1
 73
     0
 74
     0
 78
     8
 79
     2
140
3.5
141
0.0
143
0.0393701
146
0.71
147
1.5
172
     1
176
   256
177
   256
178
     2
271
     2
272
     3
274
     4
283
     0
284
     8
340
F
371
    -1
372
    -1
  0
DIMSTYLE
105
115D
330
A
100
AcDbSymbolTableRecord
100
AcDbDimStyleTableRecord
  2
AM_ISO$7
 70
     0
  4
"
 41
2.5
 42
1.0
 43
10.0
 44
1.0
 47
0.1
 48
0.1
 73
     0
 74
     0
 77
     1
 78
     8
 79
     2
140
5.0
141
0.0
143
0.0393701
146
0.71
147
1.5
172
     1
176
   256
177
   256
178
     2
271
     2
272
     3
274
     4
283
     0
284
     8
340
F
371
    -1
372
    -1
  0
DIMSTYLE
105
115E
330
A
100
AcDbSymbolTableRecord
100
AcDbDimStyleTableRecord
  2
AM_ISO$SF
 70
     0
  4
"
 41
2.5
 42
1.0
 43
10.0
 44
1.0
 47
0.1
 48
0.1
 73
     0
 74
     0
 75
     1
 76
     1
 77
     1
 78
     8
 79
     2
140
3.5
141
0.0
143
0.0393701
146
0.71
147
1.5
172
     1
176
   256
177
   256
178
     2
271
     2
272
     3
274
     4
283
     0
284
     8
340
F
371
    -1
372
    -1
  0
DIMSTYLE
105
1163
330
A
100
AcDbSymbolTableRecord
100
AcDbDimStyleTableRecord
  2
AM_ISO$SH
 70
     0
  4
"
 41
2.5
 42
1.0
 43
10.0
 44
1.0
 47
0.1
 48
0.1
 73
     0
 74
     0
 75
     1
 76
     1
 77
     1
 78
     8
 79
     2
140
3.5
141
0.0
143
0.0393701
144
2.0
146
0.71
147
1.5
172
     1
173
     1
176
   256
177
   256
178
     2
271
     2
272
     3
274
     4
283
     0
284
     8
340
F
343
115F
371
    -1
372
    -1
  0
ENDTAB
  0
TABLE
  2
BLOCK_RECORD
  5
1
330
0
100
AcDbSymbolTable
 70
    54
  0
BLOCK_RECORD
  5
18
102
{ACAD_XDICTIONARY
360
116E
102
}
330
1
100
AcDbSymbolTableRecord
100
AcDbBlockTableRecord
  2
*MODEL_SPACE
340
106A
  0
BLOCK_RECORD
  5
15
330
1
100
AcDbSymbolTableRecord
100
AcDbBlockTableRecord
  2
*PAPER_SPACE
340
106B
  0
BLOCK_RECORD
  5
20
330
1
100
AcDbSymbolTableRecord
100
AcDbBlockTableRecord
  2
*D0
340
0
  0
BLOCK_RECORD
  5
2D
330
1
100
AcDbSymbolTableRecord
100
AcDbBlockTableRecord
  2
*D1
340
0
  0
BLOCK_RECORD
  5
3A
330
1
100
AcDbSymbolTableRecord
100
AcDbBlockTableRecord
  2
*D2
340
0
  0
BLOCK_RECORD
  5
47
330
1
100
AcDbSymbolTableRecord
100
AcDbBlockTableRecord
  2
*D3
340
0
  0
BLOCK_RECORD
  5
5D
330
1
100
AcDbSymbolTableRecord
100
AcDbBlockTableRecord
  2
A$C4F953287
340
0
  0
BLOCK_RECORD
  5
1C5
330
1
100
AcDbSymbolTableRecord
100
AcDbBlockTableRecord
  2
*D5
340
0
  0
BLOCK_RECORD
  5
1D2
330
1
100
AcDbSymbolTableRecord
100
AcDbBlockTableRecord
  2
*D6
340
0
  0
BLOCK_RECORD
  5
1DF
330
1
100
AcDbSymbolTableRecord
100
AcDbBlockTableRecord
  2
A$C35F207D7
340
0
  0
BLOCK_RECORD
  5
2F8
330
1
100
AcDbSymbolTableRecord
100
AcDbBlockTableRecord
  2
*D8
340
0
  0
BLOCK_RECORD
  5
305
330
1
100
AcDbSymbolTableRecord
100
AcDbBlockTableRecord
  2
*D9
340
0
  0
BLOCK_RECORD
  5
312
330
1
100
AcDbSymbolTableRecord
100
AcDbBlockTableRecord
  2
*D10
340
0
  0
BLOCK_RECORD
  5
31F
330
1
100
AcDbSymbolTableRecord
100
AcDbBlockTableRecord
  2
A$C1AE72FE9
340
0
  0
BLOCK_RECORD
  5
456
330
1
100
AcDbSymbolTableRecord
100
AcDbBlockTableRecord
  2
*D12
340
0
  0
BLOCK_RECORD
  5
463
330
1
100
AcDbSymbolTableRecord
100
AcDbBlockTableRecord
  2
*D13
340
0
  0
BLOCK_RECORD
  5
470
330
1
100
AcDbSymbolTableRecord
100
AcDbBlockTableRecord
  2
A$C0CFF4D5E
340
0
  0
BLOCK_RECORD
  5
58C
330
1
100
AcDbSymbolTableRecord
100
AcDbBlockTableRecord
  2
*D15
340
0
  0
BLOCK_RECORD
  5
599
330
1
100
AcDbSymbolTableRecord
100
AcDbBlockTableRecord
  2
*D16
340
0
  0
BLOCK_RECORD
  5
5A6
330
1
100
AcDbSymbolTableRecord
100
AcDbBlockTableRecord
  2
*D17
340
0
  0
BLOCK_RECORD
  5
5B3
330
1
100
AcDbSymbolTableRecord
100
AcDbBlockTableRecord
  2
A$C418C508D
340
0
  0
BLOCK_RECORD
  5
6F0
330
1
100
AcDbSymbolTableRecord
100
AcDbBlockTableRecord
  2
*D19
340
0
  0
BLOCK_RECORD
  5
6FD
330
1
100
AcDbSymbolTableRecord
100
AcDbBlockTableRecord
  2
*D20
340
0
  0
BLOCK_RECORD
  5
70A
330
1
100
AcDbSymbolTableRecord
100
AcDbBlockTableRecord
  2
A$C7E974A43
340
0
  0
BLOCK_RECORD
  5
823
330
1
100
AcDbSymbolTableRecord
100
AcDbBlockTableRecord
  2
*D22
340
0
  0
BLOCK_RECORD
  5
82F
330
1
100
AcDbSymbolTableRecord
100
AcDbBlockTableRecord
  2
*D23
340
0
  0
BLOCK_RECORD
  5
83B
330
1
100
AcDbSymbolTableRecord
100
AcDbBlockTableRecord
  2
A$C71157D8E
340
0
  0
BLOCK_RECORD
  5
94A
330
1
100
AcDbSymbolTableRecord
100
AcDbBlockTableRecord
  2
*D25
340
0
  0
BLOCK_RECORD
  5
956
330
1
100
AcDbSymbolTableRecord
100
AcDbBlockTableRecord
  2
*D26
340
0
  0
BLOCK_RECORD
  5
962
330
1
100
AcDbSymbolTableRecord
100
AcDbBlockTableRecord
  2
*D27
340
0
  0
BLOCK_RECORD
  5
96E
330
1
100
AcDbSymbolTableRecord
100
AcDbBlockTableRecord
  2
*D28
340
0
  0
BLOCK_RECORD
  5
97A
330
1
100
AcDbSymbolTableRecord
100
AcDbBlockTableRecord
  2
A$C39FF7109
340
0
  0
BLOCK_RECORD
  5
AEC
330
1
100
AcDbSymbolTableRecord
100
AcDbBlockTableRecord
  2
*D30
340
0
  0
BLOCK_RECORD
  5
AF9
330
1
100
AcDbSymbolTableRecord
100
AcDbBlockTableRecord
  2
A$C11050335
340
0
  0
BLOCK_RECORD
  5
C20
330
1
100
AcDbSymbolTableRecord
100
AcDbBlockTableRecord
  2
*D32
340
0
  0
BLOCK_RECORD
  5
C2D
330
1
100
AcDbSymbolTableRecord
100
AcDbBlockTableRecord
  2
*D33
340
0
  0
BLOCK_RECORD
  5
C3B
330
1
100
AcDbSymbolTableRecord
100
AcDbBlockTableRecord
  2
*D34
340
0
  0
BLOCK_RECORD
  5
C49
330
1
100
AcDbSymbolTableRecord
100
AcDbBlockTableRecord
  2
*D35
340
0
  0
BLOCK_RECORD
  5
C52
330
1
100
AcDbSymbolTableRecord
100
AcDbBlockTableRecord
  2
*D36
340
0
  0
BLOCK_RECORD
  5
C5B
330
1
100
AcDbSymbolTableRecord
100
AcDbBlockTableRecord
  2
*D37
340
0
  0
BLOCK_RECORD
  5
C67
330
1
100
AcDbSymbolTableRecord
100
AcDbBlockTableRecord
  2
*D38
340
0
  0
BLOCK_RECORD
  5
C74
330
1
100
AcDbSymbolTableRecord
100
AcDbBlockTableRecord
  2
*D39
340
0
  0
BLOCK_RECORD
  5
C81
330
1
100
AcDbSymbolTableRecord
100
AcDbBlockTableRecord
  2
*D40
340
0
  0
BLOCK_RECORD
  5
C8A
330
1
100
AcDbSymbolTableRecord
100
AcDbBlockTableRecord
  2
*D41
340
0
  0
BLOCK_RECORD
  5
C97
330
1
100
AcDbSymbolTableRecord
100
AcDbBlockTableRecord
  2
*D42
340
0
  0
BLOCK_RECORD
  5
CA4
330
1
100
AcDbSymbolTableRecord
100
AcDbBlockTableRecord
  2
*D43
340
0
  0
BLOCK_RECORD
  5
CB1
330
1
100
AcDbSymbolTableRecord
100
AcDbBlockTableRecord
  2
*D44
340
0
  0
BLOCK_RECORD
  5
CBF
330
1
100
AcDbSymbolTableRecord
100
AcDbBlockTableRecord
  2
*D45
340
0
  0
BLOCK_RECORD
  5
CCD
330
1
100
AcDbSymbolTableRecord
100
AcDbBlockTableRecord
  2
*D46
340
0
  0
BLOCK_RECORD
  5
CDA
330
1
100
AcDbSymbolTableRecord
100
AcDbBlockTableRecord
  2
*D47
340
0
  0
BLOCK_RECORD
  5
CE7
330
1
100
AcDbSymbolTableRecord
100
AcDbBlockTableRecord
  2
*D48
340
0
  0
BLOCK_RECORD
  5
CF0
330
1
100
AcDbSymbolTableRecord
100
AcDbBlockTableRecord
  2
*D49
340
0
  0
BLOCK_RECORD
  5
CF9
330
1
100
AcDbSymbolTableRecord
100
AcDbBlockTableRecord
  2
*D50
340
0
  0
BLOCK_RECORD
  5
D02
330
1
100
AcDbSymbolTableRecord
100
AcDbBlockTableRecord
  2
A$C150826DF
340
0
  0
BLOCK_RECORD
  5
111F
330
1
100
AcDbSymbolTableRecord
100
AcDbBlockTableRecord
  2
*U52
340
0
  0
BLOCK_RECORD
  5
115F
330
1
100
AcDbSymbolTableRecord
100
AcDbBlockTableRecord
  2
GENAXEH
340
0
  0
ENDTAB
  0
ENDSEC
  0
SECTION
  2
BLOCKS
  0
BLOCK
  5
19
330
18
100
AcDbEntity
  8
0
100
AcDbBlockBegin
  2
*MODEL_SPACE
 70
     0
 10
0.0
 20
0.0
 30
0.0
  3
*MODEL_SPACE
  1

  0
ENDBLK
  5
1A
330
18
100
AcDbEntity
  8
0
100
AcDbBlockEnd
  0
BLOCK
  5
16
330
15
100
AcDbEntity
 67
     1
  8
0
100
AcDbBlockBegin
  2
*PAPER_SPACE
 70
     0
 10
0.0
 20
0.0
 30
0.0
  3
*PAPER_SPACE
  1

  0
ENDBLK
  5
17
330
15
100
AcDbEntity
 67
     1
  8
0
100
AcDbBlockEnd
  0
BLOCK
  5
2B
330
20
100
AcDbEntity
  8
0
100
AcDbBlockBegin
  2
*D0
 70
     1
 10
0.0
 20
0.0
 30
0.0
  3
*D0
  1

  0
LINE
  5
21
330
20
100
AcDbEntity
  8
0
  6
ByBlock
 62
     0
100
AcDbLine
 10
168.0
 20
182.003847
 30
0.0
 11
168.0
 21
193.427611
 31
0.0
  0
LINE
  5
22
330
20
100
AcDbEntity
  8
0
  6
ByBlock
 62
     0
100
AcDbLine
 10
192.0
 20
180.5013199999999
 30
0.0
 11
192.0
 21
193.427611
 31
0.0
  0
LINE
  5
23
330
20
100
AcDbEntity
  8
0
  6
ByBlock
 62
     0
100
AcDbLine
 10
170.5
 20
192.427611
 30
0.0
 11
177.7274959999999
 21
192.427611
 31
0.0
  0
LINE
  5
24
330
20
100
AcDbEntity
  8
0
  6
ByBlock
 62
     0
100
AcDbLine
 10
189.4999999999999
 20
192.427611
 30
0.0
 11
185.6441629999999
 21
192.427611
 31
0.0
  0
SOLID
  5
25
330
20
100
AcDbEntity
  8
0
  6
ByBlock
 62
     0
100
AcDbTrace
 10
170.5
 20
192.844277
 30
0.0
 11
170.5
 21
192.010944
 31
0.0
 12
168.0
 22
192.427611
 32
0.0
 13
168.0
 23
192.427611
 33
0.0
  0
SOLID
  5
26
330
20
100
AcDbEntity
  8
0
  6
ByBlock
 62
     0
100
AcDbTrace
 10
189.4999999999999
 20
192.844277
 30
0.0
 11
189.4999999999999
 21
192.010944
 31
0.0
 12
192.0
 22
192.427611
 32
0.0
 13
192.0
 23
192.427611
 33
0.0
  0
MTEXT
  5
27
330
20
100
AcDbEntity
  8
0
  6
ByBlock
 62
     0
100
AcDbMText
 10
181.685829
 20
192.427611
 30
0.0
 40
4.0
 41
0.0
 71
     5
 72
     1
  1
\A1;24
 73
     1
 44
1.0
  0
POINT
  5
28
330
20
100
AcDbEntity
  8
DEFPOINTS
  6
ByBlock
 62
     0
100
AcDbPoint
 10
168.0
 20
181.003847
 30
0.0
  0
POINT
  5
29
330
20
100
AcDbEntity
  8
DEFPOINTS
  6
ByBlock
 62
     0
100
AcDbPoint
 10
192.0
 20
179.5013199999999
 30
0.0
  0
POINT
  5
2A
330
20
100
AcDbEntity
  8
DEFPOINTS
  6
ByBlock
 62
     0
100
AcDbPoint
 10
192.0
 20
192.427611
 30
0.0
  0
ENDBLK
  5
2C
330
20
100
AcDbEntity
  8
0
100
AcDbBlockEnd
  0
BLOCK
  5
38
330
2D
100
AcDbEntity
  8
0
100
AcDbBlockBegin
  2
*D1
 70
     1
 10
0.0
 20
0.0
 30
0.0
  3
*D1
  1

  0
LINE
  5
2E
330
2D
100
AcDbEntity
  8
0
  6
ByBlock
 62
     0
100
AcDbLine
 10
182.0
 20
181.5013199999999
 30
0.0
 11
182.0
 21
187.9614459999999
 31
0.0
  0
LINE
  5
2F
330
2D
100
AcDbEntity
  8
0
  6
ByBlock
 62
     0
100
AcDbLine
 10
192.0
 20
180.5013199999999
 30
0.0
 11
192.0
 21
187.9614459999999
 31
0.0
  0
LINE
  5
30
330
2D
100
AcDbEntity
  8
0
  6
ByBlock
 62
     0
100
AcDbLine
 10
184.4999999999999
 20
186.961446
 30
0.0
 11
185.125
 21
186.961446
 31
0.0
  0
LINE
  5
31
330
2D
100
AcDbEntity
  8
0
  6
ByBlock
 62
     0
100
AcDbLine
 10
189.4999999999999
 20
186.961446
 30
0.0
 11
188.8749999999999
 21
186.961446
 31
0.0
  0
SOLID
  5
32
330
2D
100
AcDbEntity
  8
0
  6
ByBlock
 62
     0
100
AcDbTrace
 10
184.4999999999999
 20
187.3781129999999
 30
0.0
 11
184.4999999999999
 21
186.544779
 31
0.0
 12
182.0
 22
186.961446
 32
0.0
 13
182.0
 23
186.961446
 33
0.0
  0
SOLID
  5
33
330
2D
100
AcDbEntity
  8
0
  6
ByBlock
 62
     0
100
AcDbTrace
 10
189.4999999999999
 20
187.3781129999999
 30
0.0
 11
189.4999999999999
 21
186.544779
 31
0.0
 12
192.0
 22
186.961446
 32
0.0
 13
192.0
 23
186.961446
 33
0.0
  0
MTEXT
  5
34
330
2D
100
AcDbEntity
  8
0
  6
ByBlock
 62
     0
100
AcDbMText
 10
187.2869649999999
 20
186.961446
 30
0.0
 40
4.0
 41
0.0
 71
     5
 72
     1
  1
\A1;10
 73
     1
 44
1.0
  0
POINT
  5
35
330
2D
100
AcDbEntity
  8
DEFPOINTS
  6
ByBlock
 62
     0
100
AcDbPoint
 10
182.0
 20
180.5013199999999
 30
0.0
  0
POINT
  5
36
330
2D
100
AcDbEntity
  8
DEFPOINTS
  6
ByBlock
 62
     0
100
AcDbPoint
 10
192.0
 20
179.5013199999999
 30
0.0
  0
POINT
  5
37
330
2D
100
AcDbEntity
  8
DEFPOINTS
  6
ByBlock
 62
     0
100
AcDbPoint
 10
192.0
 20
186.961446
 30
0.0
  0
ENDBLK
  5
39
330
2D
100
AcDbEntity
  8
0
100
AcDbBlockEnd
  0
BLOCK
  5
45
330
3A
100
AcDbEntity
  8
0
100
AcDbBlockBegin
  2
*D2
 70
     1
 10
0.0
 20
0.0
 30
0.0
  3
*D2
  1

  0
LINE
  5
3B
330
3A
100
AcDbEntity
  8
0
  6
ByBlock
 62
     0
100
AcDbLine
 10
193.0
 20
179.5013199999999
 30
0.0
 11
206.708477
 21
179.5013199999999
 31
0.0
  0
LINE
  5
3C
330
3A
100
AcDbEntity
  8
0
  6
ByBlock
 62
     0
100
AcDbLine
 10
193.0
 20
161.5013199999999
 30
0.0
 11
206.708477
 21
161.5013199999999
 31
0.0
  0
LINE
  5
3D
330
3A
100
AcDbEntity
  8
0
  6
ByBlock
 62
     0
100
AcDbLine
 10
205.7084769999999
 20
177.0013199999999
 30
0.0
 11
205.7084769999999
 21
175.730386
 31
0.0
  0
LINE
  5
3E
330
3A
100
AcDbEntity
  8
0
  6
ByBlock
 62
     0
100
AcDbLine
 10
205.7084769999999
 20
164.00132
 30
0.0
 11
205.7084769999999
 21
165.147053
 31
0.0
  0
SOLID
  5
3F
330
3A
100
AcDbEntity
  8
0
  6
ByBlock
 62
     0
100
AcDbTrace
 10
205.2918099999999
 20
177.0013199999999
 30
0.0
 11
206.1251429999999
 21
177.0013199999999
 31
0.0
 12
205.7084769999999
 22
179.5013199999999
 32
0.0
 13
205.7084769999999
 23
179.5013199999999
 33
0.0
  0
SOLID
  5
40
330
3A
100
AcDbEntity
  8
0
  6
ByBlock
 62
     0
100
AcDbTrace
 10
205.2918099999999
 20
164.00132
 30
0.0
 11
206.1251429999999
 21
164.00132
 31
0.0
 12
205.7084769999999
 22
161.5013199999999
 32
0.0
 13
205.7084769999999
 23
161.5013199999999
 33
0.0
  0
MTEXT
  5
41
330
3A
100
AcDbEntity
  8
0
  6
ByBlock
 62
     0
100
AcDbMText
 10
205.7084769999999
 20
170.43872
 30
0.0
 40
4.0
 41
0.0
 71
     5
 72
     1
  1
\A1;\U+220518
 11
0.0
 21
1.0
 31
0.0
 73
     1
 44
1.0
  0
POINT
  5
42
330
3A
100
AcDbEntity
  8
DEFPOINTS
  6
ByBlock
 62
     0
100
AcDbPoint
 10
192.0
 20
179.5013199999999
 30
0.0
  0
POINT
  5
43
330
3A
100
AcDbEntity
  8
DEFPOINTS
  6
ByBlock
 62
     0
100
AcDbPoint
 10
192.0
 20
161.5013199999999
 30
0.0
  0
POINT
  5
44
330
3A
100
AcDbEntity
  8
DEFPOINTS
  6
ByBlock
 62
     0
100
AcDbPoint
 10
205.7084769999999
 20
161.5013199999999
 30
0.0
  0
ENDBLK
  5
46
330
3A
100
AcDbEntity
  8
0
100
AcDbBlockEnd
  0
BLOCK
  5
52
330
47
100
AcDbEntity
  8
0
100
AcDbBlockBegin
  2
*D3
 70
     1
 10
0.0
 20
0.0
 30
0.0
  3
*D3
  1

  0
LINE
  5
48
330
47
100
AcDbEntity
  8
0
  6
ByBlock
 62
     0
100
AcDbLine
 10
155.4400989999999
 20
204.1957889999999
 30
0.0
 11
155.4400989999999
 21
251.0230229999999
 31
0.0
  0
LINE
  5
49
330
47
100
AcDbEntity
  8
0
  6
ByBlock
 62
     0
100
AcDbLine
 10
192.0
 20
180.5013199999999
 30
0.0
 11
192.0
 21
251.0230229999999
 31
0.0
  0
LINE
  5
4A
330
47
100
AcDbEntity
  8
0
  6
ByBlock
 62
     0
100
AcDbLine
 10
157.940099
 20
250.023023
 30
0.0
 11
170.7520879999999
 21
250.023023
 31
0.0
  0
LINE
  5
4B
330
47
100
AcDbEntity
  8
0
  6
ByBlock
 62
     0
100
AcDbLine
 10
189.4999999999999
 20
250.023023
 30
0.0
 11
178.668755
 21
250.023023
 31
0.0
  0
SOLID
  5
4C
330
47
100
AcDbEntity
  8
0
  6
ByBlock
 62
     0
100
AcDbTrace
 10
157.940099
 20
250.4396899999999
 30
0.0
 11
157.940099
 21
249.606356
 31
0.0
 12
155.4400989999999
 22
250.023023
 32
0.0
 13
155.4400989999999
 23
250.023023
 33
0.0
  0
SOLID
  5
4D
330
47
100
AcDbEntity
  8
0
  6
ByBlock
 62
     0
100
AcDbTrace
 10
189.4999999999999
 20
250.4396899999999
 30
0.0
 11
189.4999999999999
 21
249.606356
 31
0.0
 12
192.0
 22
250.023023
 32
0.0
 13
192.0
 23
250.023023
 33
0.0
  0
MTEXT
  5
4E
330
47
100
AcDbEntity
  8
0
  6
ByBlock
 62
     0
100
AcDbMText
 10
174.710421
 20
250.023023
 30
0.0
 40
4.0
 41
0.0
 71
     5
 72
     1
  1
\A1;36
 73
     1
 44
1.0
  0
POINT
  5
4F
330
47
100
AcDbEntity
  8
DEFPOINTS
  6
ByBlock
 62
     0
100
AcDbPoint
 10
155.4400989999999
 20
203.195789
 30
0.0
  0
POINT
  5
50
330
47
100
AcDbEntity
  8
DEFPOINTS
  6
ByBlock
 62
     0
100
AcDbPoint
 10
192.0
 20
179.5013199999999
 30
0.0
  0
POINT
  5
51
330
47
100
AcDbEntity
  8
DEFPOINTS
  6
ByBlock
 62
     0
100
AcDbPoint
 10
192.0
 20
250.023023
 30
0.0
  0
ENDBLK
  5
53
330
47
100
AcDbEntity
  8
0
100
AcDbBlockEnd
  0
BLOCK
  5
D8
330
5D
100
AcDbEntity
  8
0
100
AcDbBlockBegin
  2
A$C4F953287
 70
     0
 10
0.0
 20
0.0
 30
0.0
  3
A$C4F953287
  1

  0
DIMENSION
  5
5E
330
5D
100
AcDbEntity
  8
0
100
AcDbDimension
  2
*D3
 10
162.987185
 20
123.349936
 30
9.567247
 11
145.697606
 21
123.349936
 31
9.567247
 12
-29.012815
 22
-126.673087
 32
9.567247
 70
   128
  1
36
 71
     5
 42
-1.0
  3
STANDARD
100
AcDbAlignedDimension
 13
126.427283
 23
76.522702
 33
9.567247
 14
162.987185
 24
52.82823399999999
 34
9.567247
100
AcDbRotatedDimension
1001
ACAD
1000
DSTYLE
1002
{
1070
   140
1040
4.0
1070
   272
1070
     1
1070
    77
1070
     0
1070
    40
1040
1.0
1070
   271
1070
     1
1070
   141
1040
0.0
1002
}
  0
DIMENSION
  5
5F
330
5D
100
AcDbEntity
  8
0
100
AcDbDimension
  2
*D0
 10
162.987185
 20
65.754524
 30
9.567247
 11
152.6730139999999
 21
65.754524
 31
9.567247
 12
-29.012815
 22
-126.673087
 32
9.567247
 70
   128
 71
     5
 42
-1.0
  3
STANDARD
100
AcDbAlignedDimension
 13
138.987185
 23
54.330761
 33
9.567247
 14
162.987185
 24
52.82823399999999
 34
9.567247
100
AcDbRotatedDimension
1001
ACAD
1000
DSTYLE
1002
{
1070
   140
1040
4.0
1070
   272
1070
     1
1070
    77
1070
     0
1070
    40
1040
1.0
1070
   271
1070
     1
1070
   141
1040
0.0
1002
}
  0
ARC
  5
60
330
5D
100
AcDbEntity
  8
3
100
AcDbCircle
 10
143.7086759999999
 20
47.98867399999999
 30
9.567247
 40
7.906614
100
AcDbArc
 50
84.38004900000001
 51
126.6665629999999
  0
ARC
  5
61
330
5D
100
AcDbEntity
  8
3
100
AcDbCircle
 10
143.7086759999999
 20
39.665153
 30
9.567247
 40
7.906614
100
AcDbArc
 50
233.333437
 51
275.6199509999999
  0
LINE
  5
62
330
5D
100
AcDbEntity
  8
3
100
AcDbLine
 10
136.7769849999999
 20
27.482958
 30
9.567247
 11
145.9670539999999
 21
31.909765
 31
9.567247
  0
LINE
  5
63
330
5D
100
AcDbEntity
  8
3
100
AcDbLine
 10
152.3920219999999
 20
53.826913
 30
9.567247
 11
138.987185
 21
68.714493
 31
9.567247
  0
LINE
  5
64
330
5D
100
AcDbEntity
  8
1
100
AcDbLine
 10
144.482966
 20
54.803088
 30
9.567247
 11
133.487185
 21
67.826913
 31
9.567247
  0
ARC
  5
65
330
5D
100
AcDbEntity
  8
2
100
AcDbCircle
 10
144.487185
 20
41.306539
 30
9.567247
 40
3.709156999999999
100
AcDbArc
 50
90.065167
 51
118.1515469999999
  0
ARC
  5
66
330
5D
100
AcDbEntity
  8
2
100
AcDbCircle
 10
144.487185
 20
37.19396599999999
 30
9.567247
 40
4.30263
100
AcDbArc
 50
253.11091
 51
269.943822
  0
LINE
  5
67
330
5D
100
AcDbEntity
  8
1
100
AcDbLine
 10
122.697986
 20
43.826913
 30
9.567247
 11
169.197986
 21
43.826913
 31
9.567247
  0
LINE
  5
68
330
5D
100
AcDbEntity
  8
3
100
AcDbLine
 10
138.987185
 20
54.330761
 30
9.567247
 11
138.987185
 21
33.32306599999999
 31
9.567247
  0
LINE
  5
69
330
5D
100
AcDbEntity
  8
3
100
AcDbLine
 10
126.5044159999999
 20
77.808915
 30
9.567247
 11
126.5044159999999
 21
9.844911999999998
 31
9.567247
  0
LINE
  5
6A
330
5D
100
AcDbEntity
  8
3
100
AcDbLine
 10
127.491013
 20
64.076913
 30
9.567247
 11
127.491013
 21
10.609192
 31
9.567247
  0
ARC
  5
6B
330
5D
100
AcDbEntity
  8
3
100
AcDbCircle
 10
144.254628
 20
31.85007399999999
 30
9.567247
 40
14.339743
100
AcDbArc
 50
170.476761
 51
192.170638
  0
ARC
  5
6C
330
5D
100
AcDbEntity
  8
2
100
AcDbCircle
 10
145.212185
 20
37.785247
 30
9.567247
 40
5.105783999999999
100
AcDbArc
 50
208.7821149999999
 51
247.2434599999999
  0
LINE
  5
6D
330
5D
100
AcDbEntity
  8
1
100
AcDbLine
 10
44.487185
 20
43.826913
 30
9.567247
 11
81.76287
 21
22.30578599999999
 31
9.567247
  0
LINE
  5
6E
330
5D
100
AcDbEntity
  8
1
100
AcDbLine
 10
44.487185
 20
43.826913
 30
9.567247
 11
6.677003
 21
21.997194
 31
9.567247
  0
ARC
  5
6F
330
5D
100
AcDbEntity
  8
3
100
AcDbCircle
 10
58.76205500000001
 20
35.585313
 30
9.567247
 40
10.384921
100
AcDbArc
 50
296.5479029999999
 51
3.452097
  0
ARC
  5
70
330
5D
100
AcDbEntity
  8
3
100
AcDbCircle
 10
49.911406
 20
33.297795
 30
9.567247
 40
0.6314560000000001
100
AcDbArc
 50
163.0909579999999
 51
220.066877
  0
ARC
  5
71
330
5D
100
AcDbEntity
  8
3
100
AcDbCircle
 10
41.842341
 20
45.353914
 30
9.567247
 40
14.024269
100
AcDbArc
 50
302.159972
 51
357.8400279999999
  0
ARC
  5
72
330
5D
100
AcDbEntity
  8
3
100
AcDbCircle
 10
30.212315
 20
35.585313
 30
9.567247
 40
10.384921
100
AcDbArc
 50
176.5479029999999
 51
243.4520969999999
  0
ARC
  5
73
330
5D
100
AcDbEntity
  8
3
100
AcDbCircle
 10
39.062964
 20
33.297795
 30
9.567247
 40
0.6314560000000001
100
AcDbArc
 50
319.933123
 51
16.909042
  0
ARC
  5
74
330
5D
100
AcDbEntity
  8
3
100
AcDbCircle
 10
47.132028
 20
45.353914
 30
9.567247
 40
14.024269
100
AcDbArc
 50
182.159972
 51
237.8400279999999
  0
LINE
  5
75
330
5D
100
AcDbEntity
  8
1
100
AcDbLine
 10
133.487185
 20
22.623982
 30
9.567247
 11
133.487185
 21
43.826913
 31
9.567247
  0
ARC
  5
76
330
5D
100
AcDbEntity
  8
3
100
AcDbCircle
 10
44.487185
 20
43.826913
 30
9.567247
 40
33.5
100
AcDbArc
 50
110.9902429999999
 51
69.009757
  0
CIRCLE
  5
77
330
5D
100
AcDbEntity
  8
3
100
AcDbCircle
 10
44.487185
 20
43.826913
 30
9.567247
 40
40.0
  0
LINE
  5
78
330
5D
100
AcDbEntity
  8
1
100
AcDbLine
 10
44.487185
 20
1.326913
 30
9.567247
 11
44.487185
 21
85.826913
 31
9.567247
  0
LINE
  5
79
330
5D
100
AcDbEntity
  8
1
100
AcDbLine
 10
133.487185
 20
16.54757199999999
 30
9.567247
 11
133.487185
 21
22.623982
 31
9.567247
  0
ARC
  5
7A
330
5D
100
AcDbEntity
  8
3
100
AcDbCircle
 10
44.487185
 20
43.826913
 30
9.567247
 40
24.0
100
AcDbArc
 50
225.7138609999999
 51
314.286139
  0
LINE
  5
7B
330
5D
100
AcDbEntity
  8
3
100
AcDbLine
 10
39.546213
 20
32.891338
 30
9.567247
 11
27.72937399999999
 21
26.646233
 31
9.567247
  0
ARC
  5
7C
330
5D
100
AcDbEntity
  8
3
100
AcDbCircle
 10
26.062331
 20
30.086783
 30
9.567247
 40
3.823141999999999
100
AcDbArc
 50
262.61345
 51
295.8514879999999
  0
LINE
  5
7D
330
5D
100
AcDbEntity
  8
3
100
AcDbLine
 10
139.985256
 20
10.168589
 30
9.567247
 11
139.986337
 21
29.028886
 31
9.567247
  0
ARC
  5
7E
330
5D
100
AcDbEntity
  8
3
100
AcDbCircle
 10
62.912039
 20
30.086783
 30
9.567247
 40
3.823141999999999
100
AcDbArc
 50
244.148512
 51
277.3865499999999
  0
ARC
  5
7F
330
5D
100
AcDbEntity
  8
3
100
AcDbCircle
 10
44.487185
 20
43.826913
 30
9.567247
 40
12.0
100
AcDbArc
 50
245.685335
 51
294.314665
  0
LINE
  5
80
330
5D
100
AcDbEntity
  8
3
100
AcDbLine
 10
49.428156
 20
32.891338
 30
9.567247
 11
61.244996
 21
26.646233
 31
9.567247
  0
ARC
  5
81
330
5D
100
AcDbEntity
  8
3
100
AcDbCircle
 10
145.104319
 20
16.697645
 30
9.567247
 40
8.171369999999999
100
AcDbArc
 50
174.77187
 51
229.586839
  0
ARC
  5
82
330
5D
100
AcDbEntity
  8
3
100
AcDbCircle
 10
139.4827149999999
 20
10.09535599999999
 30
9.567247
 40
0.5
100
AcDbArc
 50
357.78824
 51
49.586839
  0
LINE
  5
83
330
5D
100
AcDbEntity
  8
3
100
AcDbLine
 10
136.987185
 20
17.63755
 30
9.567247
 11
136.987185
 21
27.60351599999999
 31
9.567247
  0
ARC
  5
84
330
5D
100
AcDbEntity
  8
3
100
AcDbCircle
 10
133.8107929999999
 20
32.259593
 30
9.567247
 40
5.622681
100
AcDbArc
 50
266.7005709999999
 51
301.8394259999999
  0
ARC
  5
85
330
5D
100
AcDbEntity
  8
3
100
AcDbCircle
 10
133.487185
 20
29.826913
 30
9.567247
 40
3.400367999999999
100
AcDbArc
 50
197.102729
 51
233.9726269999999
  0
ARC
  5
86
330
5D
100
AcDbEntity
  8
3
100
AcDbCircle
 10
133.088717
 20
29.654977
 30
9.567247
 40
3.035015
100
AcDbArc
 50
238.150829
 51
277.544164
  0
LINE
  5
87
330
5D
100
AcDbEntity
  8
3
100
AcDbLine
 10
127.342255
 20
10.420902
 30
9.567247
 11
126.948509
 21
10.377622
 31
9.567247
  0
ARC
  5
88
330
5D
100
AcDbEntity
  8
3
100
AcDbCircle
 10
133.237185
 20
10.326913
 30
9.567247
 40
6.75
100
AcDbArc
 50
184.094842
 51
1.363124999999999
  0
ARC
  5
89
330
5D
100
AcDbEntity
  8
3
100
AcDbCircle
 10
127.0031399999999
 20
9.880614999999998
 30
9.567247
 40
0.5
100
AcDbArc
 50
96.27276100000001
 51
184.094842
  0
LINE
  5
8A
330
5D
100
AcDbEntity
  8
1
100
AcDbLine
 10
133.237185
 20
10.326913
 30
9.567247
 11
133.237185
 21
0.0
 31
9.567247
  0
ARC
  5
8B
330
5D
100
AcDbEntity
  8
3
100
AcDbCircle
 10
139.487185
 20
10.306111
 30
9.567247
 40
12.0
100
AcDbArc
 50
134.872625
 51
178.55274
  0
ARC
  5
8C
330
5D
100
AcDbEntity
  8
3
100
AcDbCircle
 10
127.2910769999999
 20
10.614243
 30
9.567247
 40
0.2
100
AcDbArc
 50
284.8264799999999
 51
358.5527399999999
  0
ARC
  5
8D
330
5D
100
AcDbEntity
  8
3
100
AcDbCircle
 10
127.487185
 20
10.306111
 30
9.567247
 40
12.0
100
AcDbArc
 50
38.64507
 51
45.127375
  0
ARC
  5
8E
330
5D
100
AcDbEntity
  8
3
100
AcDbCircle
 10
133.487185
 20
16.326913
 30
9.567247
 40
3.5
100
AcDbArc
 50
45.002386
 51
90.0
  0
ARC
  5
8F
330
5D
100
AcDbEntity
  8
3
100
AcDbCircle
 10
133.487185
 20
16.326913
 30
9.567247
 40
3.5
100
AcDbArc
 50
90.0
 51
134.997614
  0
ARC
  5
90
330
5D
100
AcDbEntity
  8
3
100
AcDbCircle
 10
136.4690239999999
 20
17.487794
 30
9.567247
 40
0.5
100
AcDbArc
 50
354.77187
 51
38.64507
  0
LINE
  5
91
330
5D
100
AcDbEntity
  8
1
100
AcDbLine
 10
54.14639799999999
 20
72.326913
 30
9.567247
 11
34.73718499999999
 21
72.326913
 31
9.567247
  0
CIRCLE
  5
92
330
5D
100
AcDbEntity
  8
3
100
AcDbCircle
 10
44.487185
 20
43.826913
 30
9.567247
 40
10.393661
  0
ARC
  5
93
330
5D
100
AcDbEntity
  8
3
100
AcDbCircle
 10
33.15697
 20
72.087905
 30
9.567247
 40
3.089474
100
AcDbArc
 50
4.436955
 51
102.520913
  0
ARC
  5
94
330
5D
100
AcDbEntity
  8
3
100
AcDbCircle
 10
44.487185
 20
43.826913
 30
9.567247
 40
12.0
100
AcDbArc
 50
125.685335
 51
174.3146649999999
  0
ARC
  5
95
330
5D
100
AcDbEntity
  8
3
100
AcDbCircle
 10
44.487185
 20
43.826913
 30
9.567247
 40
24.0
100
AcDbArc
 50
105.713861
 51
194.286139
  0
LINE
  5
96
330
5D
100
AcDbEntity
  8
1
100
AcDbLine
 10
89.697986
 20
43.826913
 30
9.567247
 11
-0.5128149999999999
 21
43.826913
 31
9.567247
  0
ARC
  5
97
330
5D
100
AcDbEntity
  8
3
100
AcDbCircle
 10
23.37545599999999
 20
34.740587
 30
9.567247
 40
3.823141999999999
100
AcDbArc
 50
124.148512
 51
157.38655
  0
LINE
  5
98
330
5D
100
AcDbEntity
  8
3
100
AcDbLine
 10
32.546213
 20
45.015694
 30
9.567247
 11
21.229374
 21
37.904563
 31
9.567247
  0
ARC
  5
99
330
5D
100
AcDbEntity
  8
3
100
AcDbCircle
 10
32.65659
 20
44.393959
 30
9.567247
 40
0.6314560000000001
100
AcDbArc
 50
43.090958
 51
100.066877
  0
ARC
  5
9A
330
5D
100
AcDbEntity
  8
3
100
AcDbCircle
 10
44.487185
 20
72.326913
 30
9.567247
 40
8.25
100
AcDbArc
 50
180.0
 51
0.0
  0
ARC
  5
9B
330
5D
100
AcDbEntity
  8
3
100
AcDbCircle
 10
44.487185
 20
43.826913
 30
9.567247
 40
24.0
100
AcDbArc
 50
345.713861
 51
74.28613900000001
  0
LINE
  5
9C
330
5D
100
AcDbEntity
  8
3
100
AcDbLine
 10
56.42815600000001
 20
45.015694
 30
9.567247
 11
67.744996
 21
37.904563
 31
9.567247
  0
ARC
  5
9D
330
5D
100
AcDbEntity
  8
3
100
AcDbCircle
 10
44.487185
 20
43.826913
 30
9.567247
 40
12.0
100
AcDbArc
 50
5.685335
 51
54.314665
  0
ARC
  5
9E
330
5D
100
AcDbEntity
  8
3
100
AcDbCircle
 10
56.317779
 20
44.393959
 30
9.567247
 40
0.6314560000000001
100
AcDbArc
 50
79.93312299999999
 51
136.909042
  0
ARC
  5
9F
330
5D
100
AcDbEntity
  8
3
100
AcDbCircle
 10
44.487185
 20
40.772911
 30
9.567247
 40
14.024269
100
AcDbArc
 50
62.15997199999999
 51
117.8400279999999
  0
LINE
  5
A0
330
5D
100
AcDbEntity
  8
3
100
AcDbLine
 10
37.48718499999999
 20
53.57370799999999
 30
9.567247
 11
37.98718499999999
 21
66.92994300000001
 31
9.567247
  0
ARC
  5
A1
330
5D
100
AcDbEntity
  8
3
100
AcDbCircle
 10
38.08081099999999
 20
53.788986
 30
9.567247
 40
0.6314560000000001
100
AcDbArc
 50
199.9331229999999
 51
256.909042
  0
ARC
  5
A2
330
5D
100
AcDbEntity
  8
3
100
AcDbCircle
 10
41.80030999999999
 20
66.65337
 30
9.567247
 40
3.823141999999999
100
AcDbArc
 50
171.6633779999999
 51
175.8514879999999
  0
LINE
  5
A3
330
5D
100
AcDbEntity
  8
3
100
AcDbLine
 10
51.487185
 20
53.57370799999999
 30
9.567247
 11
50.987185
 21
66.92994300000001
 31
9.567247
  0
ARC
  5
A4
330
5D
100
AcDbEntity
  8
3
100
AcDbCircle
 10
50.89355799999999
 20
53.788986
 30
9.567247
 40
0.6314560000000001
100
AcDbArc
 50
283.090958
 51
340.0668769999999
  0
ARC
  5
A5
330
5D
100
AcDbEntity
  8
3
100
AcDbCircle
 10
47.17405999999999
 20
66.65337
 30
9.567247
 40
3.823141999999999
100
AcDbArc
 50
4.148512
 51
8.336622
  0
ARC
  5
A6
330
5D
100
AcDbEntity
  8
3
100
AcDbCircle
 10
65.59891400000001
 20
34.740587
 30
9.567247
 40
3.823141999999999
100
AcDbArc
 50
22.61344999999999
 51
55.851488
  0
ARC
  5
A7
330
5D
100
AcDbEntity
  8
3
100
AcDbCircle
 10
55.817399
 20
72.087905
 30
9.567247
 40
3.089474
100
AcDbArc
 50
77.47908699999999
 51
175.5630449999999
  0
LINE
  5
A8
330
5D
100
AcDbEntity
  8
3
100
AcDbLine
 10
138.987185
 20
76.373926
 30
9.567247
 11
138.987185
 21
68.714493
 31
9.567247
  0
LWPOLYLINE
  5
A9
330
5D
100
AcDbEntity
  8
0
100
AcDbPolyline
 90
        3
 70
     1
 43
0.0
 38
9.567247
 10
138.639304
 20
50.95076599999999
 10
136.014304
 20
52.466311
 10
136.014304
 20
49.435222
  0
LINE
  5
AA
330
5D
100
AcDbEntity
  8
3
100
AcDbLine
 10
136.987185
 20
40.78534699999999
 30
9.567247
 11
136.987185
 21
58.59579
 31
9.567247
  0
LINE
  5
AB
330
5D
100
AcDbEntity
  8
2
100
AcDbLine
 10
138.987185
 20
42.08784399999999
 30
9.567247
 11
142.737185
 21
44.57691299999999
 31
9.567247
  0
ARC
  5
AC
330
5D
100
AcDbEntity
  8
2
100
AcDbCircle
 10
146.799685
 20
39.256601
 30
9.567247
 40
6.693999999999999
100
AcDbArc
 50
127.364737
 51
168.6244969999999
  0
LINE
  5
AD
330
5D
100
AcDbEntity
  8
3
100
AcDbLine
 10
131.9728499999999
 20
37.519767
 30
9.567247
 11
138.987185
 21
42.08784399999999
 31
9.567247
  0
ARC
  5
AE
330
5D
100
AcDbEntity
  8
3
100
AcDbCircle
 10
133.487185
 20
35.07691299999999
 30
9.567247
 40
2.850438999999999
100
AcDbArc
 50
122.749199
 51
142.1250159999999
  0
ARC
  5
AF
330
5D
100
AcDbEntity
  8
3
100
AcDbCircle
 10
135.996931
 20
33.323664
 30
9.567247
 40
5.952683
100
AcDbArc
 50
157.7575539999999
 51
171.314821
  0
ARC
  5
B0
330
5D
100
AcDbEntity
  8
3
100
AcDbCircle
 10
135.862185
 20
33.20191299999999
 30
9.567247
 40
5.87633
100
AcDbArc
 50
141.911227
 51
156.16126
  0
ARC
  5
B1
330
5D
100
AcDbEntity
  8
2
100
AcDbCircle
 10
148.007247
 20
38.66811
 30
9.567247
 40
8.001087
100
AcDbArc
 50
166.19796
 51
204.682704
  0
LWPOLYLINE
  5
B2
330
5D
100
AcDbEntity
  8
0
100
AcDbPolyline
 90
        3
 70
     1
 43
0.0
 38
9.567247
 10
138.639304
 20
47.91967699999999
 10
136.014304
 20
49.435222
 10
136.014304
 20
46.404133
  0
LINE
  5
B3
330
5D
100
AcDbEntity
  8
3
100
AcDbLine
 10
126.9891129999999
 20
64.076913
 30
9.567247
 11
132.627303
 21
64.076913
 31
9.567247
  0
LINE
  5
B4
330
5D
100
AcDbEntity
  8
3
100
AcDbLine
 10
126.9891129999999
 20
64.076913
 30
9.567247
 11
126.5044159999999
 21
64.076913
 31
9.567247
  0
LINE
  5
B5
330
5D
100
AcDbEntity
  8
3
100
AcDbLine
 10
139.909074
 20
54.92247299999999
 30
9.567247
 11
132.627303
 21
64.076913
 31
9.567247
  0
ARC
  5
B6
330
5D
100
AcDbEntity
  8
3
100
AcDbCircle
 10
145.104319
 20
70.956181
 30
9.567247
 40
8.171369999999999
100
AcDbArc
 50
128.7723189999999
 51
138.4697439999999
  0
LINE
  5
B7
330
5D
100
AcDbEntity
  8
3
100
AcDbLine
 10
139.985256
 20
77.48523699999999
 30
9.567247
 11
139.9858219999999
 21
67.60539399999998
 31
9.567247
  0
ARC
  5
B8
330
5D
100
AcDbEntity
  8
3
100
AcDbCircle
 10
133.237185
 20
77.326913
 30
9.567247
 40
6.75
100
AcDbArc
 50
358.6368749999999
 51
175.9051579999999
  0
LINE
  5
B9
330
5D
100
AcDbEntity
  8
1
100
AcDbLine
 10
123.487185
 20
72.326913
 30
9.567247
 11
142.987185
 21
72.326913
 31
9.567247
  0
ARC
  5
BA
330
5D
100
AcDbEntity
  8
3
100
AcDbCircle
 10
143.3686419999999
 20
52.556814
 30
9.567247
 40
20.79015599999999
100
AcDbArc
 50
273.072448
 51
295.723062
  0
ARC
  5
BB
330
5D
100
AcDbEntity
  8
2
100
AcDbCircle
 10
144.785256
 20
46.45940399999999
 30
9.567247
 40
13.57143299999999
100
AcDbArc
 50
268.7236879999999
 51
299.182099
  0
LINE
  5
BC
330
5D
100
AcDbEntity
  8
1
100
AcDbLine
 10
144.482966
 20
28.826913
 30
9.567247
 11
144.482966
 21
59.552334
 31
9.567247
  0
TEXT
  5
BD
330
5D
100
AcDbEntity
  8
0
100
AcDbText
 10
152.865003
 20
69.58890500000001
 30
9.567247
 40
3.43
  1
%%P0.1
 41
0.7
  7
BIGFONT
100
AcDbText
  0
TEXT
  5
BE
330
5D
100
AcDbEntity
  8
0
100
AcDbText
 10
173.757534
 20
45.81439
 30
9.567247
 40
3.43
  1
-0.1
 50
90.0
 41
0.7
  7
BIGFONT
100
AcDbText
  0
LWPOLYLINE
  5
BF
330
5D
100
AcDbEntity
  8
0
100
AcDbPolyline
 90
        3
 70
     1
 43
0.0
 38
9.567247
 10
169.941558
 20
52.973151
 10
171.4571019999999
 20
55.598151
 10
168.426013
 20
55.598151
  0
MTEXT
  5
C0
102
{ACAD_REACTORS
330
C1
102
}
330
5D
100
AcDbEntity
  8
0
100
AcDbMText
 10
177.112185
 20
67.326913
 30
9.567247
 40
4.0
 41
0.0
 71
     4
 72
     1
  1
\A1;R1
 73
     1
 44
1.0
  0
LEADER
  5
C1
330
5D
100
AcDbEntity
  8
0
100
AcDbLeader
  3
STANDARD
 73
     0
 40
4.0
 41
5.333333
 76
     3
 10
162.987185
 20
52.82691299999999
 30
9.567247
 10
175.487185
 20
67.326913
 30
9.567247
 10
177.022185
 20
67.326913
 30
9.567247
340
C0
1001
ACAD
1000
DSTYLE
1002
{
1070
   140
1040
4.0
1070
   272
1070
     1
1070
    77
1070
     0
1070
    40
1040
1.0
1070
   271
1070
     1
1070
   141
1040
0.0
1002
}
  0
DIMENSION
  5
C2
330
5D
100
AcDbEntity
  8
0
100
AcDbDimension
  2
*D2
 10
176.695661
 20
34.828234
 30
9.567247
 11
176.695661
 21
43.76563299999999
 31
9.567247
 12
-29.012815
 22
-126.673087
 32
9.567247
 70
   128
  1
%%C18
 71
     5
 42
-1.0
  3
STANDARD
100
AcDbAlignedDimension
 13
162.987185
 23
52.82823399999999
 33
9.567247
 14
162.987185
 24
34.828234
 34
9.567247
 50
90.0
100
AcDbRotatedDimension
1001
ACAD
1000
DSTYLE
1002
{
1070
   140
1040
4.0
1070
   272
1070
     1
1070
    77
1070
     0
1070
    40
1040
1.0
1070
   271
1070
     1
1070
   141
1040
0.0
1002
}
  0
LINE
  5
C3
330
5D
100
AcDbEntity
  8
3
100
AcDbLine
 10
162.987185
 20
52.82823399999999
 30
9.567247
 11
162.987185
 21
43.828234
 31
9.567247
  0
LINE
  5
C4
330
5D
100
AcDbEntity
  8
3
100
AcDbLine
 10
162.987185
 20
34.828234
 30
9.567247
 11
152.987185
 21
34.828234
 31
9.567247
  0
ARC
  5
C5
330
5D
100
AcDbEntity
  8
2
100
AcDbCircle
 10
149.8355209999999
 20
41.51976499999999
 30
9.567247
 40
2.32966
100
AcDbArc
 50
10.343914
 51
51.30264099999999
  0
LINE
  5
C6
330
5D
100
AcDbEntity
  8
2
100
AcDbLine
 10
152.080557
 20
35.91735399999999
 30
9.567247
 11
152.3920219999999
 21
38.82691299999999
 31
9.567247
  0
LINE
  5
C7
330
5D
100
AcDbEntity
  8
3
100
AcDbLine
 10
152.987185
 20
34.828234
 30
9.567247
 11
152.987185
 21
33.828234
 31
9.567247
  0
ARC
  5
C8
330
5D
100
AcDbEntity
  8
2
100
AcDbCircle
 10
150.098326
 20
36.066525
 30
9.567247
 40
1.954688999999999
100
AcDbArc
 50
311.851917
 51
348.0160399999999
  0
LINE
  5
C9
330
5D
100
AcDbEntity
  8
2
100
AcDbLine
 10
152.080557
 20
35.91735399999999
 30
9.567247
 11
152.0104139999999
 21
35.660658
 31
9.567247
  0
LINE
  5
CA
330
5D
100
AcDbEntity
  8
3
100
AcDbLine
 10
152.987185
 20
33.82691299999999
 30
9.567247
 11
152.3920219999999
 21
33.82691299999999
 31
9.567247
  0
LINE
  5
CB
330
5D
100
AcDbEntity
  8
2
100
AcDbLine
 10
152.3920219999999
 20
38.82691299999999
 30
9.567247
 11
152.127318
 21
41.93807
 31
9.567247
  0
ARC
  5
CC
330
5D
100
AcDbEntity
  8
2
100
AcDbCircle
 10
144.471375
 20
30.312414
 30
9.567247
 40
14.703285
100
AcDbArc
 50
62.361775
 51
89.95483099999999
  0
LINE
  5
CD
330
5D
100
AcDbEntity
  8
3
100
AcDbLine
 10
162.987185
 20
43.828234
 30
9.567247
 11
162.987185
 21
34.828234
 31
9.567247
  0
TEXT
  5
CE
330
5D
100
AcDbEntity
  8
0
100
AcDbText
 10
169.641534
 20
45.81439
 30
9.567247
 40
3.43
  1
0
 50
90.0
 41
0.7
  7
BIGFONT
100
AcDbText
  0
DIMENSION
  5
CF
330
5D
100
AcDbEntity
  8
0
100
AcDbDimension
  2
*D1
 10
162.987185
 20
60.288359
 30
9.567247
 11
158.27415
 21
60.288359
 31
9.567247
 12
-29.012815
 22
-126.673087
 32
9.567247
 70
   128
 71
     5
 42
-1.0
  3
STANDARD
100
AcDbAlignedDimension
 13
152.987185
 23
53.82823399999999
 33
9.567247
 14
162.987185
 24
52.82823399999999
 34
9.567247
100
AcDbRotatedDimension
1001
ACAD
1000
DSTYLE
1002
{
1070
   140
1040
4.0
1070
   272
1070
     1
1070
    77
1070
     0
1070
    40
1040
1.0
1070
   271
1070
     1
1070
   141
1040
0.0
1002
}
  0
LINE
  5
D0
330
5D
100
AcDbEntity
  8
3
100
AcDbLine
 10
152.987185
 20
52.82823399999999
 30
9.567247
 11
162.987185
 21
52.82823399999999
 31
9.567247
  0
ARC
  5
D1
330
5D
100
AcDbEntity
  8
3
100
AcDbCircle
 10
143.3686419999999
 20
35.097012
 30
9.567247
 40
20.79015599999999
100
AcDbArc
 50
64.276938
 51
86.927552
  0
LINE
  5
D2
330
5D
100
AcDbEntity
  8
3
100
AcDbLine
 10
152.987185
 20
53.82823399999999
 30
9.567247
 11
152.987185
 21
52.82823399999999
 31
9.567247
  0
LINE
  5
D3
330
5D
100
AcDbEntity
  8
3
100
AcDbLine
 10
152.987185
 20
53.826913
 30
9.567247
 11
152.3920219999999
 21
53.826913
 31
9.567247
  0
LWPOLYLINE
  5
D4
330
5D
100
AcDbEntity
  8
0
100
AcDbPolyline
 90
        3
 70
     1
 43
0.0
 38
9.567247
 10
172.9726469999999
 20
52.973151
 10
174.488191
 20
55.598151
 10
171.4571019999999
 20
55.598151
  0
LWPOLYLINE
  5
D5
330
5D
100
AcDbEntity
  8
0
100
AcDbPolyline
 90
        3
 70
     1
 43
0.0
 38
9.567247
 10
163.0617009999999
 20
73.553212
 10
165.686701
 20
72.03766800000001
 10
165.686701
 20
75.06875699999999
  0
LWPOLYLINE
  5
D6
330
5D
100
AcDbEntity
  8
0
100
AcDbPolyline
 90
        3
 70
     1
 43
0.0
 38
9.567247
 10
163.0617009999999
 20
76.584301
 10
165.686701
 20
75.06875699999999
 10
165.686701
 20
78.09984599999999
  0
TEXT
  5
D7
330
5D
100
AcDbEntity
  8
0
100
AcDbText
 10
149.8847659999999
 20
125.271376
 30
9.567247
 40
2.799999999999999
  1
%%P0.3
 41
0.7
  7
BIGFONT
100
AcDbText
  0
ENDBLK
  5
D9
330
5D
100
AcDbEntity
  8
0
100
AcDbBlockEnd
  0
BLOCK
  5
1D0
330
1C5
100
AcDbEntity
  8
0
100
AcDbBlockBegin
  2
*D5
 70
     1
 10
0.0
 20
0.0
 30
0.0
  3
*D5
  1

  0
LINE
  5
1C6
330
1C5
100
AcDbEntity
  8
0
  6
ByBlock
 62
     0
100
AcDbLine
 10
244.0
 20
225.0
 30
0.0
 11
244.0
 21
232.910558
 31
0.0
  0
LINE
  5
1C7
330
1C5
100
AcDbEntity
  8
0
  6
ByBlock
 62
     0
100
AcDbLine
 10
234.0
 20
227.0
 30
0.0
 11
234.0
 21
232.910558
 31
0.0
  0
LINE
  5
1C8
330
1C5
100
AcDbEntity
  8
0
  6
ByBlock
 62
     0
100
AcDbLine
 10
242.0
 20
231.9105579999999
 30
0.0
 11
241.3749999999999
 21
231.9105579999999
 31
0.0
  0
LINE
  5
1C9
330
1C5
100
AcDbEntity
  8
0
  6
ByBlock
 62
     0
100
AcDbLine
 10
236.0
 20
231.9105579999999
 30
0.0
 11
236.6249999999999
 21
231.9105579999999
 31
0.0
  0
SOLID
  5
1CA
330
1C5
100
AcDbEntity
  8
0
  6
ByBlock
 62
     0
100
AcDbTrace
 10
242.0
 20
232.2438919999999
 30
0.0
 11
242.0
 21
231.577225
 31
0.0
 12
244.0
 22
231.9105579999999
 32
0.0
 13
244.0
 23
231.9105579999999
 33
0.0
  0
SOLID
  5
1CB
330
1C5
100
AcDbEntity
  8
0
  6
ByBlock
 62
     0
100
AcDbTrace
 10
236.0
 20
232.2438919999999
 30
0.0
 11
236.0
 21
231.577225
 31
0.0
 12
234.0
 22
231.9105579999999
 32
0.0
 13
234.0
 23
231.9105579999999
 33
0.0
  0
MTEXT
  5
1CC
330
1C5
100
AcDbEntity
  8
0
  6
ByBlock
 62
     0
100
AcDbMText
 10
239.216893
 20
231.9105579999999
 30
0.0
 40
4.0
 41
0.0
 71
     5
 72
     1
  1
\A1;10
 73
     1
 44
1.0
  0
POINT
  5
1CD
330
1C5
100
AcDbEntity
  8
DEFPOINTS
  6
ByBlock
 62
     0
100
AcDbPoint
 10
244.0
 20
224.0
 30
0.0
  0
POINT
  5
1CE
330
1C5
100
AcDbEntity
  8
DEFPOINTS
  6
ByBlock
 62
     0
100
AcDbPoint
 10
234.0
 20
226.0
 30
0.0
  0
POINT
  5
1CF
330
1C5
100
AcDbEntity
  8
DEFPOINTS
  6
ByBlock
 62
     0
100
AcDbPoint
 10
234.0
 20
231.9105579999999
 30
0.0
  0
ENDBLK
  5
1D1
330
1C5
100
AcDbEntity
  8
0
100
AcDbBlockEnd
  0
BLOCK
  5
1DD
330
1D2
100
AcDbEntity
  8
0
100
AcDbBlockBegin
  2
*D6
 70
     1
 10
0.0
 20
0.0
 30
0.0
  3
*D6
  1

  0
LINE
  5
1D3
330
1D2
100
AcDbEntity
  8
0
  6
ByBlock
 62
     0
100
AcDbLine
 10
244.0
 20
225.4999999999999
 30
0.0
 11
244.0
 21
241.0000939999999
 31
0.0
  0
LINE
  5
1D4
330
1D2
100
AcDbEntity
  8
0
  6
ByBlock
 62
     0
100
AcDbLine
 10
217.0
 20
227.3947759999999
 30
0.0
 11
217.0
 21
241.0000939999999
 31
0.0
  0
LINE
  5
1D5
330
1D2
100
AcDbEntity
  8
0
  6
ByBlock
 62
     0
100
AcDbLine
 10
242.0
 20
240.0000939999999
 30
0.0
 11
236.9405519999999
 21
240.0000939999999
 31
0.0
  0
LINE
  5
1D6
330
1D2
100
AcDbEntity
  8
0
  6
ByBlock
 62
     0
100
AcDbLine
 10
219.0
 20
240.0000939999999
 30
0.0
 11
229.023885
 21
240.0000939999999
 31
0.0
  0
SOLID
  5
1D7
330
1D2
100
AcDbEntity
  8
0
  6
ByBlock
 62
     0
100
AcDbTrace
 10
242.0
 20
240.3334279999999
 30
0.0
 11
242.0
 21
239.6667609999999
 31
0.0
 12
244.0
 22
240.0000939999999
 32
0.0
 13
244.0
 23
240.0000939999999
 33
0.0
  0
SOLID
  5
1D8
330
1D2
100
AcDbEntity
  8
0
  6
ByBlock
 62
     0
100
AcDbTrace
 10
219.0
 20
240.3334279999999
 30
0.0
 11
219.0
 21
239.6667609999999
 31
0.0
 12
217.0
 22
240.0000939999999
 32
0.0
 13
217.0
 23
240.0000939999999
 33
0.0
  0
MTEXT
  5
1D9
330
1D2
100
AcDbEntity
  8
0
  6
ByBlock
 62
     0
100
AcDbMText
 10
232.982218
 20
240.0000939999999
 30
0.0
 40
4.0
 41
0.0
 71
     5
 72
     1
  1
\A1;27
 73
     1
 44
1.0
  0
POINT
  5
1DA
330
1D2
100
AcDbEntity
  8
DEFPOINTS
  6
ByBlock
 62
     0
100
AcDbPoint
 10
244.0
 20
224.5
 30
0.0
  0
POINT
  5
1DB
330
1D2
100
AcDbEntity
  8
DEFPOINTS
  6
ByBlock
 62
     0
100
AcDbPoint
 10
217.0
 20
226.3947759999999
 30
0.0
  0
POINT
  5
1DC
330
1D2
100
AcDbEntity
  8
DEFPOINTS
  6
ByBlock
 62
     0
100
AcDbPoint
 10
217.0
 20
240.0000939999999
 30
0.0
  0
ENDBLK
  5
1DE
330
1D2
100
AcDbEntity
  8
0
100
AcDbBlockEnd
  0
BLOCK
  5
24F
330
1DF
100
AcDbEntity
  8
0
100
AcDbBlockBegin
  2
A$C35F207D7
 70
     0
 10
0.0
 20
0.0
 30
0.0
  3
A$C35F207D7
  1

  0
TEXT
  5
1E0
330
1DF
100
AcDbEntity
  8
0
100
AcDbText
 10
164.3688139999999
 20
88.59130699999999
 30
10.82326499999999
 40
4.9
  1
%%P0.1
 41
0.7
  7
BIGFONT
100
AcDbText
  0
DIMENSION
  5
1E1
330
1DF
100
AcDbEntity
  8
0
100
AcDbDimension
  2
*D6
 10
149.919861
 20
83.00009399999998
 30
10.82326499999999
 11
165.902079
 21
83.00009399999998
 31
10.82326499999999
 12
-67.080139
 22
-157.0
 32
10.82326499999999
 70
   128
 71
     5
 42
-1.0
  3
STANDARD
100
AcDbAlignedDimension
 13
176.919861
 23
67.5
 33
10.82326499999999
 14
149.919861
 24
69.394776
 34
10.82326499999999
100
AcDbRotatedDimension
1001
ACAD
1000
DSTYLE
1002
{
1070
   140
1040
4.0
1070
    77
1070
     0
1070
    40
1040
1.0
1070
   141
1040
0.0
1070
    41
1040
2.0
1002
}
  0
DIMENSION
  5
1E2
330
1DF
100
AcDbEntity
  8
0
100
AcDbDimension
  2
*D5
 10
166.919861
 20
74.91055799999999
 30
10.82326499999999
 11
172.1367539999999
 21
74.91055799999999
 31
10.82326499999999
 12
-67.080139
 22
-157.0
 32
10.82326499999999
 70
   128
 71
     5
 42
-1.0
  3
STANDARD
100
AcDbAlignedDimension
 13
176.919861
 23
67.0
 33
10.82326499999999
 14
166.919861
 24
69.0
 34
10.82326499999999
100
AcDbRotatedDimension
1001
ACAD
1000
DSTYLE
1002
{
1070
   140
1040
4.0
1070
    77
1070
     0
1070
    40
1040
1.0
1070
   141
1040
0.0
1070
    41
1040
2.0
1002
}
  0
LINE
  5
1E3
330
1DF
100
AcDbEntity
  8
3
100
AcDbLine
 10
176.919861
 20
42.5
 30
10.82326499999999
 11
166.919861
 21
42.5
 31
10.82326499999999
  0
LINE
  5
1E4
330
1DF
100
AcDbEntity
  8
3
100
AcDbLine
 10
176.919861
 20
67.5
 30
10.82326499999999
 11
166.919861
 21
67.5
 31
10.82326499999999
  0
ARC
  5
1E5
330
1DF
100
AcDbEntity
  8
3
100
AcDbCircle
 10
156.7560679999999
 20
49.612069
 30
10.82326499999999
 40
21.890513
100
AcDbArc
 50
62.334989
 51
90.880016
  0
ARC
  5
1E6
330
1DF
100
AcDbEntity
  8
3
100
AcDbCircle
 10
156.7560679999999
 20
60.38793100000001
 30
10.82326499999999
 40
21.890513
100
AcDbArc
 50
269.1199839999999
 51
297.6650109999999
  0
LINE
  5
1E7
330
1DF
100
AcDbEntity
  8
1
100
AcDbLine
 10
132.669861
 20
55.0
 30
10.82326499999999
 11
180.608007
 21
55.0
 31
10.82326499999999
  0
LINE
  5
1E8
330
1DF
100
AcDbEntity
  8
3
100
AcDbLine
 10
149.919861
 20
40.60522399999999
 30
10.82326499999999
 11
149.919861
 21
69.394776
 31
10.82326499999999
  0
ARC
  5
1E9
330
1DF
100
AcDbEntity
  8
2
100
AcDbCircle
 10
152.501576
 20
47.75
 30
10.82326499999999
 40
12.018309
100
AcDbArc
 50
341.8187549999999
 51
18.181245
  0
LINE
  5
1EA
330
1DF
100
AcDbEntity
  8
3
100
AcDbLine
 10
135.419861
 20
12.5
 30
10.82326499999999
 11
135.419861
 21
97.5
 31
10.82326499999999
  0
LINE
  5
1EB
330
1DF
100
AcDbEntity
  8
3
100
AcDbLine
 10
136.4204879999999
 20
12.81168899999999
 30
10.82326499999999
 11
136.4204879999999
 21
84.25
 31
10.82326499999999
  0
LINE
  5
1EC
330
1DF
100
AcDbEntity
  8
3
100
AcDbLine
 10
140.950276
 20
45.26859
 30
10.82326499999999
 11
149.919861
 21
51.1613
 31
10.82326499999999
  0
ARC
  5
1ED
330
1DF
100
AcDbEntity
  8
2
100
AcDbCircle
 10
167.621543
 20
47.09994199999999
 30
10.82326499999999
 40
16.20221499999999
100
AcDbArc
 50
167.3842449999999
 51
195.144226
  0
LINE
  5
1EE
330
1DF
100
AcDbEntity
  8
1
100
AcDbLine
 10
52.419861
 20
55.0
 30
10.82326499999999
 11
2.959823
 21
26.444234
 31
10.82326499999999
  0
LINE
  5
1EF
330
1DF
100
AcDbEntity
  8
1
100
AcDbLine
 10
52.419861
 20
55.0
 30
10.82326499999999
 11
101.172766
 21
26.85249699999999
 31
10.82326499999999
  0
ARC
  5
1F0
330
1DF
100
AcDbEntity
  8
3
100
AcDbCircle
 10
52.419861
 20
55.0
 30
10.82326499999999
 40
31.0
100
AcDbArc
 50
343.0503049999999
 51
76.94969499999999
  0
ARC
  5
1F1
330
1DF
100
AcDbEntity
  8
3
100
AcDbCircle
 10
43.38337199999999
 20
60.21722
 30
10.82326499999999
 40
25.71217199999999
100
AcDbArc
 50
313.740589
 51
346.2594109999999
  0
LINE
  5
1F2
330
1DF
100
AcDbEntity
  8
3
100
AcDbLine
 10
69.06697499999999
 20
54.626388
 30
10.82326499999999
 11
82.07325500000001
 21
45.962509
 31
10.82326499999999
  0
ARC
  5
1F3
330
1DF
100
AcDbEntity
  8
3
100
AcDbCircle
 10
61.45635099999999
 20
60.21722
 30
10.82326499999999
 40
25.71217199999999
100
AcDbArc
 50
193.7405889999999
 51
226.259411
  0
LINE
  5
1F4
330
1DF
100
AcDbEntity
  8
3
100
AcDbLine
 10
35.77274699999999
 20
54.626388
 30
10.82326499999999
 11
22.766467
 21
45.962509
 31
10.82326499999999
  0
LINE
  5
1F5
330
1DF
100
AcDbEntity
  8
3
100
AcDbLine
 10
147.4221179999999
 20
49.520369
 30
10.82326499999999
 11
147.4589799999999
 21
75.502189
 31
10.82326499999999
  0
ARC
  5
1F6
330
1DF
100
AcDbEntity
  8
3
100
AcDbCircle
 10
52.419861
 20
55.0
 30
10.82326499999999
 40
42.5
100
AcDbArc
 50
106.400686
 51
73.599314
  0
ARC
  5
1F7
330
1DF
100
AcDbEntity
  8
3
100
AcDbCircle
 10
52.419861
 20
55.0
 30
10.82326499999999
 40
31.0
100
AcDbArc
 50
103.050305
 51
196.9496949999999
  0
CIRCLE
  5
1F8
330
1DF
100
AcDbEntity
  8
3
100
AcDbCircle
 10
52.419861
 20
55.0
 30
10.82326499999999
 40
14.277582
  0
CIRCLE
  5
1F9
330
1DF
100
AcDbEntity
  8
3
100
AcDbCircle
 10
52.419861
 20
55.0
 30
10.82326499999999
 40
50.0
  0
LINE
  5
1FA
330
1DF
100
AcDbEntity
  8
1
100
AcDbLine
 10
52.419861
 20
0.0
 30
10.82326499999999
 11
52.419861
 21
109.4999999999999
 31
10.82326499999999
  0
LINE
  5
1FB
330
1DF
100
AcDbEntity
  8
1
100
AcDbLine
 10
143.4198609999999
 20
26.22241799999999
 30
10.82326499999999
 11
143.4198609999999
 21
55.0
 31
10.82326499999999
  0
LINE
  5
1FC
330
1DF
100
AcDbEntity
  8
1
100
AcDbLine
 10
156.419861
 20
55.0
 30
10.82326499999999
 11
156.419861
 21
35.426039
 31
10.82326499999999
  0
ARC
  5
1FD
330
1DF
100
AcDbEntity
  8
3
100
AcDbCircle
 10
52.419861
 20
55.0
 30
10.82326499999999
 40
16.65130599999999
100
AcDbArc
 50
238.714325
 51
301.285675
  0
ARC
  5
1FE
330
1DF
100
AcDbEntity
  8
3
100
AcDbCircle
 10
52.419861
 20
55.0
 30
10.82326499999999
 40
31.0
100
AcDbArc
 50
223.0503049999999
 51
316.949695
  0
LINE
  5
1FF
330
1DF
100
AcDbEntity
  8
3
100
AcDbLine
 10
43.772747
 20
40.769982
 30
10.82326499999999
 11
29.76646699999999
 21
33.838153
 31
10.82326499999999
  0
ARC
  5
200
330
1DF
100
AcDbEntity
  8
3
100
AcDbCircle
 10
39.47498
 20
47.526269
 30
10.82326499999999
 40
18.004196
100
AcDbArc
 50
190.679081
 51
229.320919
  0
ARC
  5
201
330
1DF
100
AcDbEntity
  8
3
100
AcDbCircle
 10
28.787999
 20
35.92999
 30
10.82326499999999
 40
2.309368
100
AcDbArc
 50
242.996909
 51
295.068098
  0
ARC
  5
202
330
1DF
100
AcDbEntity
  8
3
100
AcDbCircle
 10
24.088817
 20
44.069212
 30
10.82326499999999
 40
2.309368
100
AcDbArc
 50
124.931902
 51
177.0030909999999
  0
ARC
  5
203
330
1DF
100
AcDbEntity
  8
3
100
AcDbCircle
 10
42.981134
 20
41.125268
 30
10.82326499999999
 40
0.8676860000000001
100
AcDbArc
 50
335.828833
 51
36.447878
  0
LINE
  5
204
330
1DF
100
AcDbEntity
  8
3
100
AcDbLine
 10
61.066975
 20
40.769982
 30
10.82326499999999
 11
75.073255
 21
33.838153
 31
10.82326499999999
  0
ARC
  5
205
330
1DF
100
AcDbEntity
  8
3
100
AcDbCircle
 10
61.858588
 20
41.125268
 30
10.82326499999999
 40
0.8676860000000001
100
AcDbArc
 50
143.552122
 51
204.171167
  0
ARC
  5
206
330
1DF
100
AcDbEntity
  8
3
100
AcDbCircle
 10
65.364742
 20
47.526269
 30
10.82326499999999
 40
18.004196
100
AcDbArc
 50
310.679081
 51
349.3209189999999
  0
ARC
  5
207
330
1DF
100
AcDbEntity
  8
3
100
AcDbCircle
 10
76.05172299999999
 20
35.92999
 30
10.82326499999999
 40
2.309368
100
AcDbArc
 50
244.931902
 51
297.003091
  0
ARC
  5
208
330
1DF
100
AcDbEntity
  8
3
100
AcDbCircle
 10
80.75090499999999
 20
44.069212
 30
10.82326499999999
 40
2.309368
100
AcDbArc
 50
2.996909
 51
55.068098
  0
LINE
  5
209
330
1DF
100
AcDbEntity
  8
1
100
AcDbLine
 10
143.1698609999999
 20
12.5
 30
10.82326499999999
 11
143.1698609999999
 21
0.057323
 31
10.82326499999999
  0
ARC
  5
20A
330
1DF
100
AcDbEntity
  8
3
100
AcDbCircle
 10
143.1698609999999
 20
12.5
 30
10.82326499999999
 40
7.75
100
AcDbArc
 50
180.0
 51
0.0
  0
ARC
  5
20B
330
1DF
100
AcDbEntity
  8
3
100
AcDbCircle
 10
156.218016
 20
19.774658
 30
10.82326499999999
 40
9.0
100
AcDbArc
 50
166.2261739999999
 51
233.92971
  0
ARC
  5
20C
330
1DF
100
AcDbEntity
  8
3
100
AcDbCircle
 10
154.112601
 20
39.38150699999999
 30
10.82326499999999
 40
14.70441099999999
100
AcDbArc
 50
169.087755
 51
193.3037929999999
  0
ARC
  5
20D
330
1DF
100
AcDbEntity
  8
3
100
AcDbCircle
 10
146.3979929999999
 20
41.14064299999999
 30
10.82326499999999
 40
6.801522
100
AcDbArc
 50
143.5188379999999
 51
171.336782
  0
ARC
  5
20E
330
1DF
100
AcDbEntity
  8
3
100
AcDbCircle
 10
142.8760229999999
 20
37.13385
 30
10.82326499999999
 40
3.276470999999999
100
AcDbArc
 50
200.287161
 51
253.032642
  0
ARC
  5
20F
330
1DF
100
AcDbEntity
  8
3
100
AcDbCircle
 10
143.4198609999999
 20
19.0
 30
10.82326499999999
 40
5.0
100
AcDbArc
 50
90.0
 51
142.434455
  0
ARC
  5
210
330
1DF
100
AcDbEntity
  8
3
100
AcDbCircle
 10
152.419861
 20
12.67
 30
10.82326499999999
 40
16.0
100
AcDbArc
 50
144.115978
 51
179.492608
  0
LINE
  5
211
330
1DF
100
AcDbEntity
  8
3
100
AcDbLine
 10
136.284877
 20
12.624105
 30
10.82326499999999
 11
135.419861
 21
12.5
 31
10.82326499999999
  0
ARC
  5
212
330
1DF
100
AcDbEntity
  8
3
100
AcDbCircle
 10
136.2204959999999
 20
12.81346
 30
10.82326499999999
 40
0.2
100
AcDbArc
 50
288.778033
 51
359.492608
  0
LINE
  5
213
330
1DF
100
AcDbEntity
  8
3
100
AcDbLine
 10
147.476828
 20
21.917466
 30
10.82326499999999
 11
147.476828
 21
35.15259799999999
 31
10.82326499999999
  0
LINE
  5
214
330
1DF
100
AcDbEntity
  8
3
100
AcDbLine
 10
150.919861
 20
36.760554
 30
10.82326499999999
 11
150.919861
 21
27.32112299999999
 31
10.82326499999999
  0
LINE
  5
215
330
1DF
100
AcDbEntity
  8
3
100
AcDbLine
 10
150.919861
 20
12.5
 30
10.82326499999999
 11
150.919861
 21
27.32112299999999
 31
10.82326499999999
  0
LINE
  5
216
330
1DF
100
AcDbEntity
  8
1
100
AcDbLine
 10
143.4198609999999
 20
26.22241799999999
 30
10.82326499999999
 11
143.4198609999999
 21
19.808505
 31
10.82326499999999
  0
ARC
  5
217
330
1DF
100
AcDbEntity
  8
3
100
AcDbCircle
 10
134.419861
 20
12.67
 30
10.82326499999999
 40
16.0
100
AcDbArc
 50
0.507392
 51
0.796963
  0
ARC
  5
218
330
1DF
100
AcDbEntity
  8
3
100
AcDbCircle
 10
143.4198609999999
 20
19.0
 30
10.82326499999999
 40
5.0
100
AcDbArc
 50
37.565545
 51
90.0
  0
ARC
  5
219
330
1DF
100
AcDbEntity
  8
3
100
AcDbCircle
 10
134.419861
 20
12.67
 30
10.82326499999999
 40
16.0
100
AcDbArc
 50
35.307652
 51
35.88402199999999
  0
LINE
  5
21A
330
1DF
100
AcDbEntity
  8
3
100
AcDbLine
 10
146.1891689999999
 20
34.55124
 30
10.82326499999999
 11
154.800887
 21
38.57306099999999
 31
10.82326499999999
  0
ARC
  5
21B
330
1DF
100
AcDbEntity
  8
3
100
AcDbCircle
 10
156.05875
 20
48.472222
 30
10.82326499999999
 40
9.978758
100
AcDbArc
 50
232.0338609999999
 51
272.073871
  0
ARC
  5
21C
330
1DF
100
AcDbEntity
  8
2
100
AcDbCircle
 10
155.96416
 20
45.54979399999999
 30
10.82326499999999
 40
4.801485999999999
100
AcDbArc
 50
213.967165
 51
275.4460439999999
  0
ARC
  5
21D
330
1DF
100
AcDbEntity
  8
3
100
AcDbCircle
 10
143.4198609999999
 20
40.87009899999999
 30
10.82326499999999
 40
7.031946
100
AcDbArc
 50
257.6834719999999
 51
270.0
  0
ARC
  5
21E
330
1DF
100
AcDbEntity
  8
3
100
AcDbCircle
 10
143.9636989999999
 20
37.13385
 30
10.82326499999999
 40
3.276470999999999
100
AcDbArc
 50
286.967358
 51
304.091379
  0
ARC
  5
21F
330
1DF
100
AcDbEntity
  8
3
100
AcDbCircle
 10
143.4198609999999
 20
40.87009899999999
 30
10.82326499999999
 40
7.031946
100
AcDbArc
 50
270.0
 51
282.3165279999999
  0
LINE
  5
220
330
1DF
100
AcDbEntity
  8
2
100
AcDbLine
 10
154.800887
 20
38.57306099999999
 30
10.82326499999999
 11
160.6062999999999
 21
41.243787
 31
10.82326499999999
  0
ARC
  5
221
330
1DF
100
AcDbEntity
  8
2
100
AcDbCircle
 10
157.624408
 20
48.295453
 30
10.82326499999999
 40
7.621263
100
AcDbArc
 50
260.906224
 51
325.6938749999999
  0
LINE
  5
222
330
1DF
100
AcDbEntity
  8
3
100
AcDbLine
 10
166.919861
 20
42.5
 30
10.82326499999999
 11
166.919861
 21
41.0
 31
10.82326499999999
  0
LINE
  5
223
330
1DF
100
AcDbEntity
  8
1
100
AcDbLine
 10
143.4198609999999
 20
86.0
 30
10.82326499999999
 11
156.9198609999999
 21
70.15770899999999
 31
5.340898999999999
  0
ARC
  5
224
330
1DF
100
AcDbEntity
  8
3
100
AcDbCircle
 10
52.419861
 20
92.5
 30
10.82326499999999
 40
8.25
100
AcDbArc
 50
180.0
 51
0.0
  0
ARC
  5
225
330
1DF
100
AcDbEntity
  8
3
100
AcDbCircle
 10
52.419861
 20
44.56555999999999
 30
10.82326499999999
 40
25.71217199999999
100
AcDbArc
 50
73.740589
 51
106.259411
  0
LINE
  5
226
330
1DF
100
AcDbEntity
  8
1
100
AcDbLine
 10
69.00051799999999
 20
92.5
 30
10.82326499999999
 11
36.14119099999999
 21
92.5
 31
10.82326499999999
  0
LINE
  5
227
330
1DF
100
AcDbEntity
  8
1
100
AcDbLine
 10
107.419861
 20
55.0
 30
10.82326499999999
 11
-0.5801390000000001
 21
55.0
 31
10.82326499999999
  0
ARC
  5
228
330
1DF
100
AcDbEntity
  8
3
100
AcDbCircle
 10
52.419861
 20
55.0
 30
10.82326499999999
 40
16.65130599999999
100
AcDbArc
 50
118.714325
 51
181.2856749999999
  0
LINE
  5
229
330
1DF
100
AcDbEntity
  8
3
100
AcDbLine
 10
44.419861
 20
69.60362899999999
 30
10.82326499999999
 11
45.41986099999999
 21
85.199338
 31
10.82326499999999
  0
ARC
  5
22A
330
1DF
100
AcDbEntity
  8
3
100
AcDbCircle
 10
35.68462699999999
 20
53.76318799999999
 30
10.82326499999999
 40
0.8676860000000001
100
AcDbArc
 50
23.55212199999999
 51
84.17116700000001
  0
ARC
  5
22B
330
1DF
100
AcDbEntity
  8
3
100
AcDbCircle
 10
45.123354
 20
70.11154300000001
 30
10.82326499999999
 40
0.8676860000000001
100
AcDbArc
 50
215.8288329999999
 51
276.447878
  0
ARC
  5
22C
330
1DF
100
AcDbEntity
  8
3
100
AcDbCircle
 10
47.72067899999999
 20
85.00079699999998
 30
10.82326499999999
 40
2.309368
100
AcDbArc
 50
125.505483
 51
175.068098
  0
ARC
  5
22D
330
1DF
100
AcDbEntity
  8
3
100
AcDbCircle
 10
40.732166
 20
92.343652
 30
10.82326499999999
 40
3.441248
100
AcDbArc
 50
2.604034999999999
 51
95.20695400000001
  0
ARC
  5
22E
330
1DF
100
AcDbEntity
  8
3
100
AcDbCircle
 10
52.419861
 20
55.0
 30
10.82326499999999
 40
16.65130599999999
100
AcDbArc
 50
358.714325
 51
61.285675
  0
LINE
  5
22F
330
1DF
100
AcDbEntity
  8
3
100
AcDbLine
 10
60.41986099999999
 20
69.60362899999999
 30
10.82326499999999
 11
59.419861
 21
85.199338
 31
10.82326499999999
  0
ARC
  5
230
330
1DF
100
AcDbEntity
  8
3
100
AcDbCircle
 10
69.15509499999998
 20
53.76318799999999
 30
10.82326499999999
 40
0.8676860000000001
100
AcDbArc
 50
95.82883299999998
 51
156.4478779999999
  0
ARC
  5
231
330
1DF
100
AcDbEntity
  8
3
100
AcDbCircle
 10
59.716368
 20
70.11154300000001
 30
10.82326499999999
 40
0.8676860000000001
100
AcDbArc
 50
263.552122
 51
324.1711669999999
  0
ARC
  5
232
330
1DF
100
AcDbEntity
  8
3
100
AcDbCircle
 10
57.119043
 20
85.00079699999998
 30
10.82326499999999
 40
2.309368
100
AcDbArc
 50
4.931902
 51
54.494517
  0
ARC
  5
233
330
1DF
100
AcDbEntity
  8
3
100
AcDbCircle
 10
64.107556
 20
92.343652
 30
10.82326499999999
 40
3.441248
100
AcDbArc
 50
84.79304599999998
 51
177.3959649999999
  0
LINE
  5
234
330
1DF
100
AcDbEntity
  8
3
100
AcDbLine
 10
149.919861
 20
96.65443600000001
 30
10.82326499999999
 11
149.919861
 21
86.44541999999999
 31
10.82326499999999
  0
LINE
  5
235
330
1DF
100
AcDbEntity
  8
3
100
AcDbLine
 10
150.9190199999999
 20
97.5
 30
10.82326499999999
 11
150.9190199999999
 21
85.349666
 31
10.82326499999999
  0
LINE
  5
236
330
1DF
100
AcDbEntity
  8
3
100
AcDbLine
 10
135.9212959999999
 20
84.25
 30
10.82326499999999
 11
140.8395919999999
 21
84.25
 31
10.82326499999999
  0
LINE
  5
237
330
1DF
100
AcDbEntity
  8
3
100
AcDbLine
 10
135.9212959999999
 20
84.25
 30
10.82326499999999
 11
135.419861
 21
84.25
 31
10.82326499999999
  0
ARC
  5
238
330
1DF
100
AcDbEntity
  8
3
100
AcDbCircle
 10
156.05875
 20
61.527778
 30
10.82326499999999
 40
9.978758
100
AcDbArc
 50
87.92612899999999
 51
127.9661389999999
  0
LINE
  5
239
330
1DF
100
AcDbEntity
  8
1
100
AcDbLine
 10
156.419861
 20
55.0
 30
10.82326499999999
 11
156.419861
 21
83.37265100000001
 31
10.82326499999999
  0
LINE
  5
23A
330
1DF
100
AcDbEntity
  8
2
100
AcDbLine
 10
149.919861
 20
51.1613
 30
10.82326499999999
 11
153.732594
 21
53.66613499999999
 31
10.82326499999999
  0
ARC
  5
23B
330
1DF
100
AcDbEntity
  8
2
100
AcDbCircle
 10
156.8931409999999
 20
49.53831799999999
 30
10.82326499999999
 40
5.20039
100
AcDbArc
 50
109.765508
 51
167.784167
  0
ARC
  5
23C
330
1DF
100
AcDbEntity
  8
2
100
AcDbCircle
 10
157.4440759999999
 20
46.524214
 30
10.82326499999999
 40
8.166653999999999
100
AcDbArc
 50
37.53751799999999
 51
97.204677
  0
ARC
  5
23D
330
1DF
100
AcDbEntity
  8
2
100
AcDbCircle
 10
156.424425
 20
50.242527
 30
10.82326499999999
 40
4.383863999999999
100
AcDbArc
 50
90.05964600000002
 51
107.111956
  0
LINE
  5
23E
330
1DF
100
AcDbEntity
  8
3
100
AcDbLine
 10
166.919861
 20
67.5
 30
10.82326499999999
 11
166.919861
 21
69.0
 31
10.82326499999999
  0
LINE
  5
23F
330
1DF
100
AcDbEntity
  8
3
100
AcDbLine
 10
165.0238739999999
 20
69.88120600000001
 30
10.82326499999999
 11
149.919861
 21
86.44541999999999
 31
10.82326499999999
  0
LWPOLYLINE
  5
240
330
1DF
100
AcDbEntity
  8
0
100
AcDbPolyline
 90
        3
 70
     1
 43
0.0
 38
10.82326499999999
 10
149.79168
 20
78.90255999999999
 10
145.639387
 20
81.29988799999999
 10
145.639387
 20
76.50523299999999
  0
LINE
  5
241
330
1DF
100
AcDbEntity
  8
3
100
AcDbLine
 10
151.419861
 20
70.27773299999999
 30
10.82326499999999
 11
141.143191
 21
83.832801
 31
10.82326499999999
  0
LINE
  5
242
330
1DF
100
AcDbEntity
  8
3
100
AcDbLine
 10
150.919861
 20
69.98315100000001
 30
10.82326499999999
 11
150.919861
 21
70.93724
 31
10.82326499999999
  0
LWPOLYLINE
  5
243
330
1DF
100
AcDbEntity
  8
0
100
AcDbPolyline
 90
        3
 70
     1
 43
0.0
 38
10.82326499999999
 10
149.79168
 20
83.697216
 10
145.639387
 20
86.094544
 10
145.639387
 20
81.29988799999999
  0
ARC
  5
244
330
1DF
100
AcDbEntity
  8
3
100
AcDbCircle
 10
147.4565789999999
 20
88.74616299999999
 30
10.82326499999999
 40
8.0
100
AcDbArc
 50
214.195635
 51
217.8916549999999
  0
ARC
  5
245
330
1DF
100
AcDbEntity
  8
3
100
AcDbCircle
 10
143.1698609999999
 20
97.5
 30
10.82326499999999
 40
7.75
100
AcDbArc
 50
0.0
 51
180.0
  0
LINE
  5
246
330
1DF
100
AcDbEntity
  8
1
100
AcDbLine
 10
132.669861
 20
90.0
 30
10.82326499999999
 11
154.576207
 21
90.0
 31
10.82326499999999
  0
LINE
  5
247
330
1DF
100
AcDbEntity
  8
1
100
AcDbLine
 10
143.4198609999999
 20
97.5
 30
10.82326499999999
 11
143.4198609999999
 21
109.0
 31
10.82326499999999
  0
ARC
  5
248
330
1DF
100
AcDbEntity
  8
3
100
AcDbCircle
 10
156.218016
 20
90.225342
 30
10.82326499999999
 40
9.0
100
AcDbArc
 50
126.07029
 51
134.410558
  0
LINE
  5
249
330
1DF
100
AcDbEntity
  8
3
100
AcDbLine
 10
176.919861
 20
42.5
 30
10.82326499999999
 11
176.919861
 21
55.0
 31
10.82326499999999
  0
LINE
  5
24A
330
1DF
100
AcDbEntity
  8
3
100
AcDbLine
 10
176.919861
 20
55.0
 30
10.82326499999999
 11
176.919861
 21
67.0
 31
10.82326499999999
  0
LINE
  5
24B
330
1DF
100
AcDbEntity
  8
3
100
AcDbLine
 10
176.919861
 20
67.0
 30
10.82326499999999
 11
176.919861
 21
67.5
 31
10.82326499999999
  0
TEXT
  5
24C
330
1DF
100
AcDbEntity
  8
0
100
AcDbText
 10
189.1895059999999
 20
56.61054100000001
 30
10.82326499999999
 40
4.9
  1
0
 50
90.0
 41
0.7
  7
BIGFONT
100
AcDbText
  0
LWPOLYLINE
  5
24D
330
1DF
100
AcDbEntity
  8
0
100
AcDbPolyline
 90
        3
 70
     1
 43
0.0
 38
10.82326499999999
 10
177.0247379999999
 20
105.541948
 10
181.1770309999999
 20
103.1446209999999
 10
181.1770309999999
 20
107.939276
  0
LWPOLYLINE
  5
24E
330
1DF
100
AcDbEntity
  8
0
100
AcDbPolyline
 90
        3
 70
     1
 43
0.0
 38
10.82326499999999
 10
177.0247379999999
 20
100.747293
 10
181.1770309999999
 20
98.349965
 10
181.1770309999999
 20
103.1446209999999
  0
ENDBLK
  5
250
330
1DF
100
AcDbEntity
  8
0
100
AcDbBlockEnd
  0
BLOCK
  5
303
330
2F8
100
AcDbEntity
  8
0
100
AcDbBlockBegin
  2
*D8
 70
     1
 10
0.0
 20
0.0
 30
0.0
  3
*D8
  1

  0
LINE
  5
2F9
330
2F8
100
AcDbEntity
  8
0
  6
ByBlock
 62
     0
100
AcDbLine
 10
275.0
 20
247.5291229999999
 30
0.0
 11
275.0
 21
266.5
 31
0.0
  0
LINE
  5
2FA
330
2F8
100
AcDbEntity
  8
0
  6
ByBlock
 62
     0
100
AcDbLine
 10
305.0
 20
245.5
 30
0.0
 11
305.0
 21
266.5
 31
0.0
  0
LINE
  5
2FB
330
2F8
100
AcDbEntity
  8
0
  6
ByBlock
 62
     0
100
AcDbLine
 10
277.0
 20
265.5
 30
0.0
 11
288.16
 21
265.5
 31
0.0
  0
LINE
  5
2FC
330
2F8
100
AcDbEntity
  8
0
  6
ByBlock
 62
     0
100
AcDbLine
 10
303.0
 20
265.5
 30
0.0
 11
295.8399999999999
 21
265.5
 31
0.0
  0
SOLID
  5
2FD
330
2F8
100
AcDbEntity
  8
0
  6
ByBlock
 62
     0
100
AcDbTrace
 10
277.0
 20
265.833333
 30
0.0
 11
277.0
 21
265.166667
 31
0.0
 12
275.0
 22
265.5
 32
0.0
 13
275.0
 23
265.5
 33
0.0
  0
SOLID
  5
2FE
330
2F8
100
AcDbEntity
  8
0
  6
ByBlock
 62
     0
100
AcDbTrace
 10
303.0
 20
265.833333
 30
0.0
 11
303.0
 21
265.166667
 31
0.0
 12
305.0
 22
265.5
 32
0.0
 13
305.0
 23
265.5
 33
0.0
  0
MTEXT
  5
2FF
330
2F8
100
AcDbEntity
  8
0
  6
ByBlock
 62
     0
100
AcDbMText
 10
292.0
 20
265.5
 30
0.0
 40
5.0
 41
0.0
 71
     5
 72
     1
  1
\A1;30
 73
     1
 44
1.0
  0
POINT
  5
300
330
2F8
100
AcDbEntity
  8
DEFPOINTS
  6
ByBlock
 62
     0
100
AcDbPoint
 10
275.0
 20
246.529123
 30
0.0
  0
POINT
  5
301
330
2F8
100
AcDbEntity
  8
DEFPOINTS
  6
ByBlock
 62
     0
100
AcDbPoint
 10
305.0
 20
244.4999999999999
 30
0.0
  0
POINT
  5
302
330
2F8
100
AcDbEntity
  8
DEFPOINTS
  6
ByBlock
 62
     0
100
AcDbPoint
 10
305.0
 20
265.5
 30
0.0
  0
ENDBLK
  5
304
330
2F8
100
AcDbEntity
  8
0
100
AcDbBlockEnd
  0
BLOCK
  5
310
330
305
100
AcDbEntity
  8
0
100
AcDbBlockBegin
  2
*D9
 70
     1
 10
0.0
 20
0.0
 30
0.0
  3
*D9
  1

  0
LINE
  5
306
330
305
100
AcDbEntity
  8
0
  6
ByBlock
 62
     0
100
AcDbLine
 10
293.0
 20
247.0
 30
0.0
 11
293.0
 21
257.0
 31
0.0
  0
LINE
  5
307
330
305
100
AcDbEntity
  8
0
  6
ByBlock
 62
     0
100
AcDbLine
 10
305.0
 20
245.5
 30
0.0
 11
305.0
 21
257.0
 31
0.0
  0
LINE
  5
308
330
305
100
AcDbEntity
  8
0
  6
ByBlock
 62
     0
100
AcDbLine
 10
295.0
 20
256.0
 30
0.0
 11
295.576667
 21
256.0
 31
0.0
  0
LINE
  5
309
330
305
100
AcDbEntity
  8
0
  6
ByBlock
 62
     0
100
AcDbLine
 10
303.0
 20
256.0
 30
0.0
 11
302.423333
 21
256.0
 31
0.0
  0
SOLID
  5
30A
330
305
100
AcDbEntity
  8
0
  6
ByBlock
 62
     0
100
AcDbTrace
 10
295.0
 20
256.3333329999999
 30
0.0
 11
295.0
 21
255.6666669999999
 31
0.0
 12
293.0
 22
256.0
 32
0.0
 13
293.0
 23
256.0
 33
0.0
  0
SOLID
  5
30B
330
305
100
AcDbEntity
  8
0
  6
ByBlock
 62
     0
100
AcDbTrace
 10
303.0
 20
256.3333329999999
 30
0.0
 11
303.0
 21
255.6666669999999
 31
0.0
 12
305.0
 22
256.0
 32
0.0
 13
305.0
 23
256.0
 33
0.0
  0
MTEXT
  5
30C
330
305
100
AcDbEntity
  8
0
  6
ByBlock
 62
     0
100
AcDbMText
 10
299.0
 20
256.0
 30
0.0
 40
5.0
 41
0.0
 71
     5
 72
     1
  1
\A1;12
 73
     1
 44
1.0
  0
POINT
  5
30D
330
305
100
AcDbEntity
  8
DEFPOINTS
  6
ByBlock
 62
     0
100
AcDbPoint
 10
293.0
 20
246.0
 30
0.0
  0
POINT
  5
30E
330
305
100
AcDbEntity
  8
DEFPOINTS
  6
ByBlock
 62
     0
100
AcDbPoint
 10
305.0
 20
244.4999999999999
 30
0.0
  0
POINT
  5
30F
330
305
100
AcDbEntity
  8
DEFPOINTS
  6
ByBlock
 62
     0
100
AcDbPoint
 10
305.0
 20
256.0
 30
0.0
  0
ENDBLK
  5
311
330
305
100
AcDbEntity
  8
0
100
AcDbBlockEnd
  0
BLOCK
  5
31D
330
312
100
AcDbEntity
  8
0
100
AcDbBlockBegin
  2
*D10
 70
     1
 10
0.0
 20
0.0
 30
0.0
  3
*D10
  1

  0
LINE
  5
313
330
312
100
AcDbEntity
  8
0
  6
ByBlock
 62
     0
100
AcDbLine
 10
306.0
 20
244.4999999999999
 30
0.0
 11
328.5
 21
244.4999999999999
 31
0.0
  0
LINE
  5
314
330
312
100
AcDbEntity
  8
0
  6
ByBlock
 62
     0
100
AcDbLine
 10
306.0
 20
214.5
 30
0.0
 11
328.5
 21
214.5
 31
0.0
  0
LINE
  5
315
330
312
100
AcDbEntity
  8
0
  6
ByBlock
 62
     0
100
AcDbLine
 10
327.4999999999999
 20
242.5
 30
0.0
 11
327.4999999999999
 21
235.84
 31
0.0
  0
LINE
  5
316
330
312
100
AcDbEntity
  8
0
  6
ByBlock
 62
     0
100
AcDbLine
 10
327.4999999999999
 20
216.5
 30
0.0
 11
327.4999999999999
 21
223.1599999999999
 31
0.0
  0
SOLID
  5
317
330
312
100
AcDbEntity
  8
0
  6
ByBlock
 62
     0
100
AcDbTrace
 10
327.166667
 20
242.5
 30
0.0
 11
327.8333329999999
 21
242.5
 31
0.0
 12
327.4999999999999
 22
244.4999999999999
 32
0.0
 13
327.4999999999999
 23
244.4999999999999
 33
0.0
  0
SOLID
  5
318
330
312
100
AcDbEntity
  8
0
  6
ByBlock
 62
     0
100
AcDbTrace
 10
327.166667
 20
216.5
 30
0.0
 11
327.8333329999999
 21
216.5
 31
0.0
 12
327.4999999999999
 22
214.5
 32
0.0
 13
327.4999999999999
 23
214.5
 33
0.0
  0
MTEXT
  5
319
330
312
100
AcDbEntity
  8
0
  6
ByBlock
 62
     0
100
AcDbMText
 10
327.4999999999999
 20
229.4999999999999
 30
0.0
 40
5.0
 41
0.0
 71
     5
 72
     1
  1
\A1;\U+220530
 11
0.0
 21
1.0
 31
0.0
 73
     1
 44
1.0
  0
POINT
  5
31A
330
312
100
AcDbEntity
  8
DEFPOINTS
  6
ByBlock
 62
     0
100
AcDbPoint
 10
305.0
 20
244.4999999999999
 30
0.0
  0
POINT
  5
31B
330
312
100
AcDbEntity
  8
DEFPOINTS
  6
ByBlock
 62
     0
100
AcDbPoint
 10
305.0
 20
214.5
 30
0.0
  0
POINT
  5
31C
330
312
100
AcDbEntity
  8
DEFPOINTS
  6
ByBlock
 62
     0
100
AcDbPoint
 10
327.4999999999999
 20
214.5
 30
0.0
  0
ENDBLK
  5
31E
330
312
100
AcDbEntity
  8
0
100
AcDbBlockEnd
  0
BLOCK
  5
390
330
31F
100
AcDbEntity
  8
0
100
AcDbBlockBegin
  2
A$C1AE72FE9
 70
     0
 10
0.0
 20
0.0
 30
0.0
  3
A$C1AE72FE9
  1

  0
DIMENSION
  5
320
330
31F
100
AcDbEntity
  8
0
100
AcDbDimension
  2
*D8
 10
246.4999999999999
 20
104.4999999999999
 30
0.0
 11
233.4999999999999
 21
104.4999999999999
 31
0.0
 12
-58.5
 22
-161.0
 32
0.0
 70
   128
 71
     5
 42
-1.0
  3
STANDARD
100
AcDbAlignedDimension
 13
216.5
 23
85.529124
 33
0.0
 14
246.4999999999999
 24
83.49999999999999
 34
0.0
100
AcDbRotatedDimension
1001
ACAD
1000
DSTYLE
1002
{
1070
    78
1070
     8
1070
   288
1070
     1
1070
   284
1070
     8
1070
   140
1040
5.0
1070
    73
1070
     0
1070
   272
1070
     2
1070
    42
1040
1.0
1070
    44
1040
1.0
1070
   271
1070
     2
1070
    41
1040
2.0
1002
}
  0
LINE
  5
321
330
31F
100
AcDbEntity
  8
2
100
AcDbLine
 10
215.498612
 20
62.901296
 30
0.0
 11
221.711223
 21
68.23264399999999
 31
0.0
  0
LINE
  5
322
330
31F
100
AcDbEntity
  8
3
100
AcDbLine
 10
212.879649
 20
42.528774
 30
0.0
 11
224.3213959999999
 21
49.504782
 31
0.0
  0
LINE
  5
323
330
31F
100
AcDbEntity
  8
3
100
AcDbLine
 10
233.921635
 20
85.315989
 30
0.0
 11
214.4957129999999
 21
111.3390239999999
 31
0.0
  0
LINE
  5
324
330
31F
100
AcDbEntity
  8
1
100
AcDbLine
 10
194.8720669999999
 20
115.5
 30
0.0
 11
218.798036
 21
115.5
 31
0.0
  0
ARC
  5
325
330
31F
100
AcDbEntity
  8
3
100
AcDbCircle
 10
207.5
 20
14.0
 30
0.0
 40
8.0
100
AcDbArc
 50
270.0
 51
358.932668
  0
LINE
  5
326
330
31F
100
AcDbEntity
  8
1
100
AcDbLine
 10
196.0
 20
14.0
 30
0.0
 11
218.259056
 21
14.0
 31
0.0
  0
ARC
  5
327
330
31F
100
AcDbEntity
  8
3
100
AcDbCircle
 10
225.0
 20
68.744701
 30
0.0
 40
19.251883
100
AcDbArc
 50
243.799399
 51
299.5681359999999
  0
LINE
  5
328
330
31F
100
AcDbEntity
  8
3
100
AcDbLine
 10
216.8477269999999
 20
90.00505999999999
 30
0.0
 11
206.62766
 21
105.4999999999999
 31
0.0
  0
ARC
  5
329
330
31F
100
AcDbEntity
  8
3
100
AcDbCircle
 10
225.0
 20
68.2553
 30
0.0
 40
19.251883
100
AcDbArc
 50
60.43186400000001
 51
116.200601
  0
LINE
  5
32A
330
31F
100
AcDbEntity
  8
1
100
AcDbLine
 10
193.259056
 20
68.5
 30
0.0
 11
253.5
 21
68.5
 31
0.0
  0
LINE
  5
32B
330
31F
100
AcDbEntity
  8
1
100
AcDbLine
 10
196.0
 20
123.0
 30
0.0
 11
218.259056
 21
123.0
 31
0.0
  0
ARC
  5
32C
330
31F
100
AcDbEntity
  8
3
100
AcDbCircle
 10
207.5
 20
123.0
 30
0.0
 40
8.0
100
AcDbArc
 50
1.067332
 51
90.0
  0
LINE
  5
32D
330
31F
100
AcDbEntity
  8
3
100
AcDbLine
 10
211.9313299999999
 20
23.33861399999999
 30
0.0
 11
211.9313299999999
 21
41.88544
 31
0.0
  0
ARC
  5
32E
330
31F
100
AcDbEntity
  8
3
100
AcDbCircle
 10
68.5
 20
68.5
 30
0.0
 40
54.5
100
AcDbArc
 50
107.072287
 51
72.927713
  0
ARC
  5
32F
330
31F
100
AcDbEntity
  8
3
100
AcDbCircle
 10
68.5
 20
68.5
 30
0.0
 40
42.5
100
AcDbArc
 50
221.4675249999999
 51
318.5324749999999
  0
CIRCLE
  5
330
330
31F
100
AcDbEntity
  8
3
100
AcDbCircle
 10
68.5
 20
68.5
 30
0.0
 40
62.5
  0
LINE
  5
331
330
31F
100
AcDbEntity
  8
1
100
AcDbLine
 10
68.5
 20
136.0
 30
0.0
 11
68.5
 21
0.0
 31
0.0
  0
LINE
  5
332
330
31F
100
AcDbEntity
  8
3
100
AcDbLine
 10
199.5013879999999
 20
13.85098099999999
 30
0.0
 11
199.5013879999999
 21
68.5
 31
0.0
  0
LINE
  5
333
330
31F
100
AcDbEntity
  8
3
100
AcDbLine
 10
215.498612
 20
13.85098099999999
 30
0.0
 11
215.498612
 21
44.12555
 31
0.0
  0
LINE
  5
334
330
31F
100
AcDbEntity
  8
1
100
AcDbLine
 10
207.5
 20
29.25468
 30
0.0
 11
207.5
 21
2.929739
 31
0.0
  0
LINE
  5
335
330
31F
100
AcDbEntity
  8
3
100
AcDbLine
 10
199.640074
 20
14.045087
 30
0.0
 11
200.3656159999999
 21
14.278626
 31
0.0
  0
ARC
  5
336
330
31F
100
AcDbEntity
  8
3
100
AcDbCircle
 10
222.888995
 20
22.173717
 30
0.0
 40
11.01941
100
AcDbArc
 50
173.931744
 51
227.881241
  0
LINE
  5
337
330
31F
100
AcDbEntity
  8
1
100
AcDbLine
 10
207.5
 20
28.781778
 30
0.0
 11
207.5
 21
2.772102999999999
 31
0.0
  0
ARC
  5
338
330
31F
100
AcDbEntity
  8
3
100
AcDbCircle
 10
207.5
 20
14.0
 30
0.0
 40
8.0
100
AcDbArc
 50
181.067332
 51
270.0
  0
ARC
  5
339
330
31F
100
AcDbEntity
  8
3
100
AcDbCircle
 10
199.701354
 20
13.854707
 30
0.0
 40
0.2
100
AcDbArc
 50
107.8424169999999
 51
181.067332
  0
ARC
  5
33A
330
31F
100
AcDbEntity
  8
3
100
AcDbCircle
 10
207.5
 20
21.0
 30
0.0
 40
5.0
100
AcDbArc
 50
90.0
 51
147.890561
  0
ARC
  5
33B
330
31F
100
AcDbEntity
  8
3
100
AcDbCircle
 10
218.5
 20
14.071788
 30
0.0
 40
18.0
100
AcDbArc
 50
147.7693979999999
 51
178.749408
  0
ARC
  5
33C
330
31F
100
AcDbEntity
  8
3
100
AcDbCircle
 10
200.3043359999999
 20
14.469007
 30
0.0
 40
0.2
100
AcDbArc
 50
287.842417
 51
358.749408
  0
ARC
  5
33D
330
31F
100
AcDbEntity
  8
3
100
AcDbCircle
 10
207.5
 20
21.0
 30
0.0
 40
5.0
100
AcDbArc
 50
32.109439
 51
90.0
  0
ARC
  5
33E
330
31F
100
AcDbEntity
  8
3
100
AcDbCircle
 10
196.5
 20
14.071788
 30
0.0
 40
18.0
100
AcDbArc
 50
30.98566899999999
 51
32.230602
  0
LINE
  5
33F
330
31F
100
AcDbEntity
  8
1
100
AcDbLine
 10
68.5
 20
68.5
 30
0.0
 11
9.902567999999998
 21
34.668757
 31
0.0
  0
ARC
  5
340
330
31F
100
AcDbEntity
  8
3
100
AcDbCircle
 10
68.5
 20
68.5
 30
0.0
 40
42.5
100
AcDbArc
 50
101.467525
 51
198.532475
  0
LINE
  5
341
330
31F
100
AcDbEntity
  8
3
100
AcDbLine
 10
28.203895
 20
54.99171099999999
 30
0.0
 11
49.508932
 21
69.08250699999999
 31
0.0
  0
LINE
  5
342
330
31F
100
AcDbEntity
  8
3
100
AcDbLine
 10
36.653426
 20
40.35669399999999
 30
0.0
 11
59.50893199999999
 21
51.761999
 31
0.0
  0
LINE
  5
343
330
31F
100
AcDbEntity
  8
1
100
AcDbLine
 10
137.0
 20
68.5
 30
0.0
 11
0.0
 21
68.5
 31
0.0
  0
ARC
  5
344
330
31F
100
AcDbEntity
  8
3
100
AcDbCircle
 10
46.568545
 20
55.83786899999999
 30
0.0
 40
19.50404299999999
100
AcDbArc
 50
187.633426
 51
232.366574
  0
ARC
  5
345
330
31F
100
AcDbEntity
  8
3
100
AcDbCircle
 10
35.697577
 20
42.706523
 30
0.0
 40
2.536798
100
AcDbArc
 50
245.8383759999999
 51
292.135202
  0
ARC
  5
346
330
31F
100
AcDbEntity
  8
3
100
AcDbCircle
 10
29.760982
 20
52.98900699999999
 30
0.0
 40
2.536798
100
AcDbArc
 50
127.864798
 51
174.1616239999999
  0
ARC
  5
347
330
31F
100
AcDbEntity
  8
3
100
AcDbCircle
 10
68.5
 20
68.5
 30
0.0
 40
42.5
100
AcDbArc
 50
341.467525
 51
78.53247500000001
  0
LINE
  5
348
330
31F
100
AcDbEntity
  8
3
100
AcDbLine
 10
60.05046899999999
 20
110.1515959999999
 30
0.0
 11
58.5
 21
84.65549499999999
 31
0.0
  0
LINE
  5
349
330
31F
100
AcDbEntity
  8
3
100
AcDbLine
 10
76.94953100000001
 20
110.1515959999999
 30
0.0
 11
78.5
 21
84.65549499999999
 31
0.0
  0
LINE
  5
34A
330
31F
100
AcDbEntity
  8
1
100
AcDbLine
 10
68.5
 20
68.5
 30
0.0
 11
127.847432
 21
34.235745
 31
0.0
  0
ARC
  5
34B
330
31F
100
AcDbEntity
  8
3
100
AcDbCircle
 10
68.5
 20
68.5
 30
0.0
 40
19.0
100
AcDbArc
 50
1.756864
 51
58.24313599999999
  0
ARC
  5
34C
330
31F
100
AcDbEntity
  8
3
100
AcDbCircle
 10
63.28676999999999
 20
71.50986
 30
0.0
 40
23.50797299999999
100
AcDbArc
 50
306.720484
 51
353.279516
  0
LINE
  5
34D
330
31F
100
AcDbEntity
  8
3
100
AcDbLine
 10
100.3465749999999
 20
40.35669399999999
 30
0.0
 11
77.491069
 21
51.761999
 31
0.0
  0
LINE
  5
34E
330
31F
100
AcDbEntity
  8
3
100
AcDbLine
 10
108.796106
 20
54.99171099999999
 30
0.0
 11
87.49106899999999
 21
69.08250699999999
 31
0.0
  0
CIRCLE
  5
34F
330
31F
100
AcDbEntity
  8
3
100
AcDbCircle
 10
68.5
 20
68.5
 30
0.0
 40
17.029123
  0
ARC
  5
350
330
31F
100
AcDbEntity
  8
3
100
AcDbCircle
 10
73.71323100000001
 20
71.50986
 30
0.0
 40
23.50797299999999
100
AcDbArc
 50
186.720484
 51
233.2795159999999
  0
ARC
  5
351
330
31F
100
AcDbEntity
  8
3
100
AcDbCircle
 10
68.5
 20
68.5
 30
0.0
 40
19.0
100
AcDbArc
 50
241.7568639999999
 51
298.2431359999999
  0
ARC
  5
352
330
31F
100
AcDbEntity
  8
3
100
AcDbCircle
 10
59.227528
 20
52.272806
 30
0.0
 40
0.5831910000000001
100
AcDbArc
 50
298.8504329999999
 51
42.494728
  0
ARC
  5
353
330
31F
100
AcDbEntity
  8
3
100
AcDbCircle
 10
77.772473
 20
52.272806
 30
0.0
 40
0.5831910000000001
100
AcDbArc
 50
137.505272
 51
241.149567
  0
ARC
  5
354
330
31F
100
AcDbEntity
  8
3
100
AcDbCircle
 10
68.5
 20
62.48028000000001
 30
0.0
 40
23.50797299999999
100
AcDbArc
 50
66.720484
 51
113.2795159999999
  0
ARC
  5
355
330
31F
100
AcDbEntity
  8
3
100
AcDbCircle
 10
68.5
 20
68.5
 30
0.0
 40
19.0
100
AcDbArc
 50
121.756864
 51
178.243136
  0
ARC
  5
356
330
31F
100
AcDbEntity
  8
3
100
AcDbCircle
 10
49.810601
 20
68.58340099999999
 30
0.0
 40
0.5831910000000001
100
AcDbArc
 50
17.505272
 51
121.1495669999999
  0
ARC
  5
357
330
31F
100
AcDbEntity
  8
3
100
AcDbCircle
 10
59.08307399999999
 20
84.64379499999999
 30
0.0
 40
0.5831910000000001
100
AcDbArc
 50
178.850433
 51
282.4947279999999
  0
ARC
  5
358
330
31F
100
AcDbEntity
  8
3
100
AcDbCircle
 10
87.18940000000001
 20
68.58340099999999
 30
0.0
 40
0.5831910000000001
100
AcDbArc
 50
58.85043299999999
 51
162.494728
  0
ARC
  5
359
330
31F
100
AcDbEntity
  8
3
100
AcDbCircle
 10
77.916927
 20
84.64379499999999
 30
0.0
 40
0.5831910000000001
100
AcDbArc
 50
257.505272
 51
1.149567
  0
ARC
  5
35A
330
31F
100
AcDbEntity
  8
3
100
AcDbCircle
 10
107.2390179999999
 20
52.98900699999999
 30
0.0
 40
2.536798
100
AcDbArc
 50
5.838376
 51
52.135202
  0
ARC
  5
35B
330
31F
100
AcDbEntity
  8
3
100
AcDbCircle
 10
90.43145499999999
 20
55.83786899999999
 30
0.0
 40
19.50404299999999
100
AcDbArc
 50
307.6334259999999
 51
352.366574
  0
ARC
  5
35C
330
31F
100
AcDbEntity
  8
3
100
AcDbCircle
 10
101.302424
 20
42.706523
 30
0.0
 40
2.536798
100
AcDbArc
 50
247.8647979999999
 51
294.161624
  0
ARC
  5
35D
330
31F
100
AcDbEntity
  8
3
100
AcDbCircle
 10
83.78897099999999
 20
115.355515
 30
0.0
 40
5.290944
100
AcDbArc
 50
82.276875
 51
178.4351709999999
  0
ARC
  5
35E
330
31F
100
AcDbEntity
  8
3
100
AcDbCircle
 10
53.21103
 20
115.355515
 30
0.0
 40
5.290944
100
AcDbArc
 50
1.564829
 51
97.72312499999999
  0
ARC
  5
35F
330
31F
100
AcDbEntity
  8
3
100
AcDbCircle
 10
68.5
 20
115.5
 30
0.0
 40
10.0
100
AcDbArc
 50
180.0
 51
0.0
  0
LINE
  5
360
330
31F
100
AcDbEntity
  8
1
100
AcDbLine
 10
52.0
 20
115.5
 30
0.0
 11
86.157795
 21
115.5
 31
0.0
  0
LINE
  5
361
330
31F
100
AcDbEntity
  8
3
100
AcDbLine
 10
215.498612
 20
92.05049200000001
 30
0.0
 11
215.498612
 21
68.5
 31
0.0
  0
LINE
  5
362
330
31F
100
AcDbEntity
  8
3
100
AcDbLine
 10
211.9313299999999
 20
59.733552
 30
0.0
 11
211.9313299999999
 21
97.45895199999999
 31
0.0
  0
LINE
  5
363
330
31F
100
AcDbEntity
  8
3
100
AcDbLine
 10
199.5013879999999
 20
123.1490189999999
 30
0.0
 11
199.5013879999999
 21
68.5
 31
0.0
  0
LINE
  5
364
330
31F
100
AcDbEntity
  8
1
100
AcDbLine
 10
207.5
 20
107.7453209999999
 30
0.0
 11
207.5
 21
68.5
 31
0.0
  0
LINE
  5
365
330
31F
100
AcDbEntity
  8
3
100
AcDbLine
 10
216.5
 20
51.470877
 30
0.0
 11
216.5
 21
85.529124
 31
0.0
  0
LINE
  5
366
330
31F
100
AcDbEntity
  8
3
100
AcDbLine
 10
205.905661
 20
54.382763
 30
0.0
 11
215.5
 21
62.90252800000001
 31
0.0
  0
LINE
  5
367
330
31F
100
AcDbEntity
  8
1
100
AcDbLine
 10
207.5
 20
29.25468
 30
0.0
 11
207.5
 21
68.5
 31
0.0
  0
ARC
  5
368
330
31F
100
AcDbEntity
  8
3
100
AcDbCircle
 10
212.9280399999999
 20
47.747917
 30
0.0
 40
9.65722
100
AcDbArc
 50
135.326082
 51
223.795418
  0
ARC
  5
369
330
31F
100
AcDbEntity
  8
3
100
AcDbCircle
 10
206.170087
 20
51.398527
 30
0.0
 40
11.121634
100
AcDbArc
 50
276.8678009999999
 51
307.1058339999999
  0
ARC
  5
36A
330
31F
100
AcDbEntity
  8
3
100
AcDbCircle
 10
207.6094509999999
 20
42.630782
 30
0.0
 40
2.276720999999999
100
AcDbArc
 50
223.475576
 51
267.2445169999999
  0
LINE
  5
36B
330
31F
100
AcDbEntity
  8
3
100
AcDbLine
 10
215.5
 20
68.5
 30
0.0
 11
215.5
 21
85.0
 31
0.0
  0
LINE
  5
36C
330
31F
100
AcDbEntity
  8
3
100
AcDbLine
 10
215.498612
 20
62.901296
 30
0.0
 11
215.498612
 21
68.5
 31
0.0
  0
LINE
  5
36D
330
31F
100
AcDbEntity
  8
3
100
AcDbLine
 10
215.5
 20
68.5
 30
0.0
 11
215.5
 21
62.90252800000001
 31
0.0
  0
LINE
  5
36E
330
31F
100
AcDbEntity
  8
3
100
AcDbLine
 10
215.498612
 20
123.1490189999999
 30
0.0
 11
215.498612
 21
109.995536
 31
0.0
  0
LINE
  5
36F
330
31F
100
AcDbEntity
  8
1
100
AcDbLine
 10
207.5
 20
108.2182219999999
 30
0.0
 11
207.5
 21
134.2278969999999
 31
0.0
  0
LINE
  5
370
330
31F
100
AcDbEntity
  8
1
100
AcDbLine
 10
207.5
 20
107.7453209999999
 30
0.0
 11
207.5
 21
134.070262
 31
0.0
  0
LWPOLYLINE
  5
371
330
31F
100
AcDbEntity
  8
0
100
AcDbPolyline
 90
        3
 70
     1
 43
0.0
 10
216.1799999999999
 20
105.2599999999999
 10
212.0849999999999
 20
107.6242499999999
 10
212.0849999999999
 20
102.895751
  0
LWPOLYLINE
  5
372
330
31F
100
AcDbEntity
  8
0
100
AcDbPolyline
 90
        3
 70
     1
 43
0.0
 10
216.1799999999999
 20
100.531502
 10
212.0849999999999
 20
102.895751
 10
212.0849999999999
 20
98.167252
  0
LINE
  5
373
330
31F
100
AcDbEntity
  8
3
100
AcDbLine
 10
199.5013879999999
 20
105.4999999999999
 30
0.0
 11
206.62766
 21
105.4999999999999
 31
0.0
  0
LINE
  5
374
330
31F
100
AcDbEntity
  8
3
100
AcDbLine
 10
214.4957129999999
 20
111.3390239999999
 30
0.0
 11
215.498612
 21
111.590851
 31
0.0
  0
ARC
  5
375
330
31F
100
AcDbEntity
  8
3
100
AcDbCircle
 10
207.5
 20
123.0
 30
0.0
 40
8.0
100
AcDbArc
 50
90.0
 51
178.932668
  0
MTEXT
  5
376
102
{ACAD_REACTORS
330
377
102
}
330
31F
100
AcDbEntity
  8
0
100
AcDbMText
 10
263.09
 20
97.5
 30
0.0
 40
5.0
 41
0.0
 71
     4
 72
     1
  1
\A1;R1
 73
     1
 44
1.0
  0
LEADER
  5
377
330
31F
100
AcDbEntity
  8
0
100
AcDbLeader
  3
STANDARD
 73
     0
 40
5.0
 41
6.666666999999999
 76
     3
 10
246.4999999999999
 20
83.49999999999999
 30
0.0
 10
262.0
 20
97.5
 30
0.0
 10
263.0
 20
97.5
 30
0.0
340
376
1001
ACAD
1000
DSTYLE
1002
{
1070
    78
1070
     8
1070
   288
1070
     1
1070
   284
1070
     8
1070
   140
1040
5.0
1070
    73
1070
     0
1070
   272
1070
     2
1070
    42
1040
1.0
1070
    44
1040
1.0
1070
   271
1070
     2
1070
    41
1040
2.0
1002
}
  0
DIMENSION
  5
378
330
31F
100
AcDbEntity
  8
0
100
AcDbDimension
  2
*D9
 10
246.4999999999999
 20
95.0
 30
0.0
 11
240.5
 21
95.0
 31
0.0
 12
-58.5
 22
-161.0
 32
0.0
 70
   128
 71
     5
 42
-1.0
  3
STANDARD
100
AcDbAlignedDimension
 13
234.5
 23
85.0
 33
0.0
 14
246.4999999999999
 24
83.49999999999999
 34
0.0
100
AcDbRotatedDimension
1001
ACAD
1000
DSTYLE
1002
{
1070
    78
1070
     8
1070
   288
1070
     1
1070
   284
1070
     8
1070
   140
1040
5.0
1070
    73
1070
     0
1070
   272
1070
     2
1070
    42
1040
1.0
1070
    44
1040
1.0
1070
   271
1070
     2
1070
    41
1040
2.0
1002
}
  0
ARC
  5
379
330
31F
100
AcDbEntity
  8
3
100
AcDbCircle
 10
208.4999999999999
 20
84.499112
 30
0.0
 40
10.0
100
AcDbArc
 50
10.46885
 51
33.407825
  0
LINE
  5
37A
330
31F
100
AcDbEntity
  8
1
100
AcDbLine
 10
224.0
 20
68.5
 30
0.0
 11
224.0
 21
99.50000000000001
 31
0.0
  0
TEXT
  5
37B
330
31F
100
AcDbEntity
  8
0
100
AcDbText
 10
260.993958
 20
73.795325
 30
0.0
 40
3.5
  1
0
 50
90.0
 41
0.7
  7
BIGFONT
100
AcDbText
  0
LWPOLYLINE
  5
37C
330
31F
100
AcDbEntity
  8
0
100
AcDbPolyline
 90
        3
 70
     1
 43
0.0
 10
260.031502
 20
83.31999999999998
 10
262.3957509999999
 20
87.415
 10
257.667252
 20
87.415
  0
DIMENSION
  5
37D
330
31F
100
AcDbEntity
  8
0
100
AcDbDimension
  2
*D10
 10
269.0
 20
53.5
 30
0.0
 11
269.0
 21
68.5
 31
0.0
 12
-58.5
 22
-161.0
 32
0.0
 70
   128
  1
%%C30
 71
     5
 42
-1.0
  3
STANDARD
100
AcDbAlignedDimension
 13
246.4999999999999
 23
83.49999999999999
 33
0.0
 14
246.4999999999999
 24
53.5
 34
0.0
 50
90.0
100
AcDbRotatedDimension
1001
ACAD
1000
DSTYLE
1002
{
1070
    78
1070
     8
1070
   288
1070
     1
1070
   284
1070
     8
1070
   140
1040
5.0
1070
    73
1070
     0
1070
   272
1070
     2
1070
    42
1040
1.0
1070
    44
1040
1.0
1070
   271
1070
     2
1070
    41
1040
2.0
1002
}
  0
LINE
  5
37E
330
31F
100
AcDbEntity
  8
3
100
AcDbLine
 10
246.4999999999999
 20
83.49999999999999
 30
0.0
 11
246.4999999999999
 21
53.5
 31
0.0
  0
ARC
  5
37F
330
31F
100
AcDbEntity
  8
2
100
AcDbCircle
 10
219.1968339999999
 20
60.36928299999999
 30
0.0
 40
14.724243
100
AcDbArc
 50
341.8122939999999
 51
21.6608
  0
ARC
  5
380
330
31F
100
AcDbEntity
  8
2
100
AcDbCircle
 10
229.2977519999999
 20
60.416931
 30
0.0
 40
10.8735
100
AcDbArc
 50
132.618221
 51
225.7556839999999
  0
LINE
  5
381
330
31F
100
AcDbEntity
  8
1
100
AcDbLine
 10
224.0
 20
68.5
 30
0.0
 11
224.0
 21
45.49999999999999
 31
0.0
  0
LINE
  5
382
330
31F
100
AcDbEntity
  8
3
100
AcDbLine
 10
246.4999999999999
 20
53.5
 30
0.0
 11
234.5
 21
53.5
 31
0.0
  0
LINE
  5
383
330
31F
100
AcDbEntity
  8
2
100
AcDbLine
 10
224.3213959999999
 20
49.504782
 30
0.0
 11
229.8304879999999
 21
52.92287099999999
 31
0.0
  0
ARC
  5
384
330
31F
100
AcDbEntity
  8
2
100
AcDbCircle
 10
225.0376089999999
 20
61.908328
 30
0.0
 40
10.199247
100
AcDbArc
 50
264.1609789999999
 51
323.021947
  0
ARC
  5
385
330
31F
100
AcDbEntity
  8
2
100
AcDbCircle
 10
224.014849
 20
55.260724
 30
0.0
 40
3.498755999999999
100
AcDbArc
 50
228.818364
 51
269.7568299999999
  0
LINE
  5
386
330
31F
100
AcDbEntity
  8
3
100
AcDbLine
 10
234.5
 20
53.5
 30
0.0
 11
234.5
 21
52.0
 31
0.0
  0
LINE
  5
387
330
31F
100
AcDbEntity
  8
3
100
AcDbLine
 10
234.5
 20
83.49999999999999
 30
0.0
 11
246.4999999999999
 21
83.49999999999999
 31
0.0
  0
ARC
  5
388
330
31F
100
AcDbEntity
  8
2
100
AcDbCircle
 10
225.646508
 20
59.873713
 30
0.0
 40
9.354830999999999
100
AcDbArc
 50
39.34179
 51
100.1372149999999
  0
ARC
  5
389
330
31F
100
AcDbEntity
  8
2
100
AcDbCircle
 10
224.026753
 20
65.456756
 30
0.0
 40
3.625849999999999
100
AcDbArc
 50
90.422752
 51
125.229023
  0
LINE
  5
38A
330
31F
100
AcDbEntity
  8
3
100
AcDbLine
 10
234.5
 20
85.0
 30
0.0
 11
234.5
 21
83.49999999999999
 31
0.0
  0
TEXT
  5
38B
330
31F
100
AcDbEntity
  8
0
100
AcDbText
 10
265.193958
 20
73.795325
 30
0.0
 40
3.5
  1
-0.1
 50
90.0
 41
0.7
  7
BIGFONT
100
AcDbText
  0
LWPOLYLINE
  5
38C
330
31F
100
AcDbEntity
  8
0
100
AcDbPolyline
 90
        3
 70
     1
 43
0.0
 10
264.76
 20
83.31999999999998
 10
267.12425
 20
87.415
 10
262.3957509999999
 20
87.415
  0
LWPOLYLINE
  5
38D
330
31F
100
AcDbEntity
  8
0
100
AcDbPolyline
 90
        3
 70
     1
 43
0.0
 10
246.8199999999999
 20
117.2399999999999
 10
250.9149999999999
 20
114.875751
 10
250.9149999999999
 20
119.6042499999999
  0
TEXT
  5
38E
330
31F
100
AcDbEntity
  8
0
100
AcDbText
 10
236.3913539999999
 20
109.247647
 30
0.0
 40
3.5
  1
%%P0.1
 41
0.7
  7
BIGFONT
100
AcDbText
  0
LWPOLYLINE
  5
38F
330
31F
100
AcDbEntity
  8
0
100
AcDbPolyline
 90
        3
 70
     1
 43
0.0
 10
246.8199999999999
 20
121.9684989999999
 10
250.9149999999999
 20
119.6042499999999
 10
250.9149999999999
 20
124.332748
  0
ENDBLK
  5
391
330
31F
100
AcDbEntity
  8
0
100
AcDbBlockEnd
  0
BLOCK
  5
461
330
456
100
AcDbEntity
  8
0
100
AcDbBlockBegin
  2
*D12
 70
     1
 10
0.0
 20
0.0
 30
0.0
  3
*D12
  1

  0
LINE
  5
457
330
456
100
AcDbEntity
  8
0
  6
ByBlock
 62
     0
100
AcDbLine
 10
288.5
 20
236.1652439999999
 30
0.0
 11
288.5
 21
265.367737
 31
0.0
  0
LINE
  5
458
330
456
100
AcDbEntity
  8
0
  6
ByBlock
 62
     0
100
AcDbLine
 10
319.5
 20
233.0
 30
0.0
 11
319.5
 21
265.367737
 31
0.0
  0
LINE
  5
459
330
456
100
AcDbEntity
  8
0
  6
ByBlock
 62
     0
100
AcDbLine
 10
290.5
 20
264.367737
 30
0.0
 11
300.6050979999999
 21
264.367737
 31
0.0
  0
LINE
  5
45A
330
456
100
AcDbEntity
  8
0
  6
ByBlock
 62
     0
100
AcDbLine
 10
317.5
 20
264.367737
 30
0.0
 11
307.4517649999999
 21
264.367737
 31
0.0
  0
SOLID
  5
45B
330
456
100
AcDbEntity
  8
0
  6
ByBlock
 62
     0
100
AcDbTrace
 10
290.5
 20
264.70107
 30
0.0
 11
290.5
 21
264.034403
 31
0.0
 12
288.5
 22
264.367737
 32
0.0
 13
288.5
 23
264.367737
 33
0.0
  0
SOLID
  5
45C
330
456
100
AcDbEntity
  8
0
  6
ByBlock
 62
     0
100
AcDbTrace
 10
317.5
 20
264.70107
 30
0.0
 11
317.5
 21
264.034403
 31
0.0
 12
319.5
 22
264.367737
 32
0.0
 13
319.5
 23
264.367737
 33
0.0
  0
MTEXT
  5
45D
330
456
100
AcDbEntity
  8
0
  6
ByBlock
 62
     0
100
AcDbMText
 10
304.028431
 20
264.367737
 30
0.0
 40
5.0
 41
0.0
 71
     5
 72
     1
  1
\A1;31
 73
     1
 44
1.0
  0
POINT
  5
45E
330
456
100
AcDbEntity
  8
DEFPOINTS
  6
ByBlock
 62
     0
100
AcDbPoint
 10
288.5
 20
235.165244
 30
0.0
  0
POINT
  5
45F
330
456
100
AcDbEntity
  8
DEFPOINTS
  6
ByBlock
 62
     0
100
AcDbPoint
 10
319.5
 20
232.0
 30
0.0
  0
POINT
  5
460
330
456
100
AcDbEntity
  8
DEFPOINTS
  6
ByBlock
 62
     0
100
AcDbPoint
 10
319.5
 20
264.367737
 30
0.0
  0
ENDBLK
  5
462
330
456
100
AcDbEntity
  8
0
100
AcDbBlockEnd
  0
BLOCK
  5
46E
330
463
100
AcDbEntity
  8
0
100
AcDbBlockBegin
  2
*D13
 70
     1
 10
0.0
 20
0.0
 30
0.0
  3
*D13
  1

  0
LINE
  5
464
330
463
100
AcDbEntity
  8
0
  6
ByBlock
 62
     0
100
AcDbLine
 10
305.5
 20
235.0
 30
0.0
 11
305.5
 21
251.612385
 31
0.0
  0
LINE
  5
465
330
463
100
AcDbEntity
  8
0
  6
ByBlock
 62
     0
100
AcDbLine
 10
319.5
 20
233.0
 30
0.0
 11
319.5
 21
251.612385
 31
0.0
  0
LINE
  5
466
330
463
100
AcDbEntity
  8
0
  6
ByBlock
 62
     0
100
AcDbLine
 10
307.5
 20
250.612385
 30
0.0
 11
309.338688
 21
250.612385
 31
0.0
  0
LINE
  5
467
330
463
100
AcDbEntity
  8
0
  6
ByBlock
 62
     0
100
AcDbLine
 10
317.5
 20
250.612385
 30
0.0
 11
316.185354
 21
250.612385
 31
0.0
  0
SOLID
  5
468
330
463
100
AcDbEntity
  8
0
  6
ByBlock
 62
     0
100
AcDbTrace
 10
307.5
 20
250.945718
 30
0.0
 11
307.5
 21
250.279052
 31
0.0
 12
305.5
 22
250.612385
 32
0.0
 13
305.5
 23
250.612385
 33
0.0
  0
SOLID
  5
469
330
463
100
AcDbEntity
  8
0
  6
ByBlock
 62
     0
100
AcDbTrace
 10
317.5
 20
250.945718
 30
0.0
 11
317.5
 21
250.279052
 31
0.0
 12
319.5
 22
250.612385
 32
0.0
 13
319.5
 23
250.612385
 33
0.0
  0
MTEXT
  5
46A
330
463
100
AcDbEntity
  8
0
  6
ByBlock
 62
     0
100
AcDbMText
 10
312.7620209999999
 20
250.612385
 30
0.0
 40
5.0
 41
0.0
 71
     5
 72
     1
  1
\A1;14
 73
     1
 44
1.0
  0
POINT
  5
46B
330
463
100
AcDbEntity
  8
DEFPOINTS
  6
ByBlock
 62
     0
100
AcDbPoint
 10
305.5
 20
234.0
 30
0.0
  0
POINT
  5
46C
330
463
100
AcDbEntity
  8
DEFPOINTS
  6
ByBlock
 62
     0
100
AcDbPoint
 10
319.5
 20
232.0
 30
0.0
  0
POINT
  5
46D
330
463
100
AcDbEntity
  8
DEFPOINTS
  6
ByBlock
 62
     0
100
AcDbPoint
 10
319.5
 20
250.612385
 30
0.0
  0
ENDBLK
  5
46F
330
463
100
AcDbEntity
  8
0
100
AcDbBlockEnd
  0
BLOCK
  5
4E0
330
470
100
AcDbEntity
  8
0
100
AcDbBlockBegin
  2
A$C0CFF4D5E
 70
     0
 10
0.0
 20
0.0
 30
0.0
  3
A$C0CFF4D5E
  1

  0
ARC
  5
471
330
470
100
AcDbEntity
  8
3
100
AcDbCircle
 10
222.028118
 20
53.160566
 30
0.0
 40
10.89230399999999
100
AcDbArc
 50
131.5729049999999
 51
165.396871
  0
ARC
  5
472
330
470
100
AcDbEntity
  8
3
100
AcDbCircle
 10
215.032821
 20
47.130716
 30
0.0
 40
3.012376999999999
100
AcDbArc
 50
212.7748009999999
 51
269.3757249999999
  0
LINE
  5
473
330
470
100
AcDbEntity
  8
1
100
AcDbLine
 10
202.0
 20
131.0
 30
0.0
 11
225.4999999999999
 21
131.0
 31
0.0
  0
LINE
  5
474
330
470
100
AcDbEntity
  8
3
100
AcDbLine
 10
207.0
 20
121.0
 30
0.0
 11
213.877193
 21
121.0
 31
0.0
  0
ARC
  5
475
330
470
100
AcDbEntity
  8
3
100
AcDbCircle
 10
215.0
 20
14.5
 30
5.786941999999999
 40
8.0
100
AcDbArc
 50
181.067332
 51
270.0
  0
LINE
  5
476
330
470
100
AcDbEntity
  8
1
100
AcDbLine
 10
203.5
 20
14.5
 30
5.786941999999999
 11
225.759056
 21
14.5
 31
5.786941999999999
  0
ARC
  5
477
330
470
100
AcDbEntity
  8
3
100
AcDbCircle
 10
215.0
 20
21.49999999999999
 30
5.786941999999999
 40
5.0
100
AcDbArc
 50
90.0
 51
147.890561
  0
LINE
  5
478
330
470
100
AcDbEntity
  8
1
100
AcDbLine
 10
202.4999999999999
 20
76.5
 30
5.786941999999999
 11
262.0
 21
76.5
 31
5.786941999999999
  0
LINE
  5
479
330
470
100
AcDbEntity
  8
1
100
AcDbLine
 10
203.5
 20
138.5
 30
5.786941999999999
 11
225.759056
 21
138.5
 31
5.786941999999999
  0
ARC
  5
47A
330
470
100
AcDbEntity
  8
3
100
AcDbCircle
 10
215.0
 20
138.5
 30
5.786941999999999
 40
8.0
100
AcDbArc
 50
90.0
 51
178.932668
  0
LINE
  5
47B
330
470
100
AcDbEntity
  8
1
100
AcDbLine
 10
74.5
 20
76.5
 30
0.0
 11
138.5214699999999
 21
39.537187
 31
0.0
  0
LINE
  5
47C
330
470
100
AcDbEntity
  8
1
100
AcDbLine
 10
74.5
 20
76.5
 30
0.0
 11
10.69503599999999
 21
39.662187
 31
0.0
  0
ARC
  5
47D
330
470
100
AcDbEntity
  8
3
100
AcDbCircle
 10
223.676223
 20
51.839779
 30
0.0
 40
12.84915299999999
100
AcDbArc
 50
161.5475679999999
 51
209.564332
  0
LINE
  5
47E
330
470
100
AcDbEntity
  8
3
100
AcDbLine
 10
85.992536
 20
57.740426
 30
0.0
 11
112.5940139999999
 21
44.11410599999999
 31
0.0
  0
ARC
  5
47F
330
470
100
AcDbEntity
  8
3
100
AcDbCircle
 10
102.0552789999999
 20
60.590953
 30
0.0
 40
20.67952299999999
100
AcDbArc
 50
307.718156
 51
352.2818439999999
  0
ARC
  5
480
330
470
100
AcDbEntity
  8
3
100
AcDbCircle
 10
46.944721
 20
60.590953
 30
0.0
 40
20.67952299999999
100
AcDbArc
 50
187.718156
 51
232.281844
  0
LINE
  5
481
330
470
100
AcDbEntity
  8
3
100
AcDbLine
 10
63.007464
 20
57.740426
 30
0.0
 11
36.405986
 21
44.11410599999999
 31
0.0
  0
ARC
  5
482
330
470
100
AcDbEntity
  8
3
100
AcDbCircle
 10
74.5
 20
76.5
 30
0.0
 40
62.0
100
AcDbArc
 50
105.647577
 51
74.352423
  0
ARC
  5
483
330
470
100
AcDbEntity
  8
3
100
AcDbCircle
 10
74.5
 20
76.5
 30
0.0
 40
62.0
100
AcDbArc
 50
105.647577
 51
74.352423
  0
CIRCLE
  5
484
330
470
100
AcDbEntity
  8
3
100
AcDbCircle
 10
74.5
 20
76.5
 30
0.0
 40
70.0
  0
LINE
  5
485
330
470
100
AcDbEntity
  8
1
100
AcDbLine
 10
74.5
 20
155.4999999999999
 30
0.0
 11
74.5
 21
0.0
 31
0.0
  0
LINE
  5
486
330
470
100
AcDbEntity
  8
3
100
AcDbLine
 10
207.0
 20
14.5
 30
0.0
 11
207.0
 21
76.5
 31
0.0
  0
ARC
  5
487
330
470
100
AcDbEntity
  8
3
100
AcDbCircle
 10
74.5
 20
76.5
 30
0.0
 40
50.0
100
AcDbArc
 50
220.36976
 51
319.63024
  0
ARC
  5
488
330
470
100
AcDbEntity
  8
3
100
AcDbCircle
 10
35.45539
 20
46.053693
 30
0.0
 40
2.160006999999999
100
AcDbArc
 50
237.4569049999999
 51
296.109597
  0
ARC
  5
489
330
470
100
AcDbEntity
  8
3
100
AcDbCircle
 10
113.54461
 20
46.053693
 30
0.0
 40
2.160006999999999
100
AcDbArc
 50
243.8904029999999
 51
302.543095
  0
ARC
  5
48A
330
470
100
AcDbEntity
  8
3
100
AcDbCircle
 10
226.0
 20
14.571788
 30
5.786941999999999
 40
18.0
100
AcDbArc
 50
147.7693979999999
 51
178.749408
  0
ARC
  5
48B
330
470
100
AcDbEntity
  8
3
100
AcDbCircle
 10
207.2013529999999
 20
14.354707
 30
5.786941999999999
 40
0.2
100
AcDbArc
 50
107.8424169999999
 51
181.067332
  0
ARC
  5
48C
330
470
100
AcDbEntity
  8
3
100
AcDbCircle
 10
207.804335
 20
14.969007
 30
5.786941999999999
 40
0.2
100
AcDbArc
 50
287.842417
 51
358.749408
  0
LINE
  5
48D
330
470
100
AcDbEntity
  8
3
100
AcDbLine
 10
207.140073
 20
14.54508699999999
 30
5.786941999999999
 11
207.865615
 21
14.778626
 31
5.786941999999999
  0
LINE
  5
48E
330
470
100
AcDbEntity
  8
3
100
AcDbLine
 10
52.507464
 20
75.92696
 30
0.0
 11
27.405986
 21
59.702564
 31
0.0
  0
ARC
  5
48F
330
470
100
AcDbEntity
  8
3
100
AcDbCircle
 10
74.5
 20
76.5
 30
0.0
 40
50.0
100
AcDbArc
 50
100.3697599999999
 51
199.6302399999999
  0
LINE
  5
490
330
470
100
AcDbEntity
  8
1
100
AcDbLine
 10
150.0
 20
76.5
 30
5.786941999999999
 11
0.0
 21
76.5
 31
5.786941999999999
  0
ARC
  5
491
330
470
100
AcDbEntity
  8
3
100
AcDbCircle
 10
28.610419
 20
57.90953
 30
0.0
 40
2.160006999999999
100
AcDbArc
 50
123.890403
 51
182.5430949999999
  0
ARC
  5
492
330
470
100
AcDbEntity
  8
3
100
AcDbCircle
 10
74.5
 20
76.5
 30
0.0
 40
50.0
100
AcDbArc
 50
340.36976
 51
79.63024
  0
LINE
  5
493
330
470
100
AcDbEntity
  8
3
100
AcDbLine
 10
64.0
 20
95.832615
 30
0.0
 11
65.5
 21
125.683331
 31
0.0
  0
LINE
  5
494
330
470
100
AcDbEntity
  8
3
100
AcDbLine
 10
85.0
 20
95.832615
 30
0.0
 11
83.49999999999999
 21
125.683331
 31
0.0
  0
CIRCLE
  5
495
330
470
100
AcDbEntity
  8
3
100
AcDbCircle
 10
74.5
 20
76.5
 30
0.0
 40
19.165244
  0
ARC
  5
496
330
470
100
AcDbEntity
  8
3
100
AcDbCircle
 10
74.5
 20
76.5
 30
0.0
 40
22.0
100
AcDbArc
 50
238.507431
 51
301.492569
  0
ARC
  5
497
330
470
100
AcDbEntity
  8
3
100
AcDbCircle
 10
74.5
 20
69.42720699999999
 30
0.0
 40
27.091534
100
AcDbArc
 50
69.613664
 51
110.386336
  0
ARC
  5
498
330
470
100
AcDbEntity
  8
3
100
AcDbCircle
 10
74.5
 20
76.5
 30
0.0
 40
22.0
100
AcDbArc
 50
118.507431
 51
181.492569
  0
ARC
  5
499
330
470
100
AcDbEntity
  8
3
100
AcDbCircle
 10
80.625218
 20
80.03639699999999
 30
0.0
 40
27.091534
100
AcDbArc
 50
189.6136639999999
 51
230.3863359999999
  0
ARC
  5
49A
330
470
100
AcDbEntity
  8
3
100
AcDbCircle
 10
52.975871
 20
74.92305
 30
0.0
 40
1.107807999999999
100
AcDbArc
 50
32.116331
 51
115.0129189999999
  0
ARC
  5
49B
330
470
100
AcDbEntity
  8
3
100
AcDbCircle
 10
62.37225600000001
 20
58.648033
 30
0.0
 40
1.107807999999999
100
AcDbArc
 50
304.9870809999999
 51
27.883669
  0
ARC
  5
49C
330
470
100
AcDbEntity
  8
3
100
AcDbCircle
 10
65.103614
 20
95.92891800000002
 30
0.0
 40
1.107807999999999
100
AcDbArc
 50
184.987081
 51
267.883669
  0
ARC
  5
49D
330
470
100
AcDbEntity
  8
3
100
AcDbCircle
 10
74.5
 20
76.5
 30
0.0
 40
22.0
100
AcDbArc
 50
358.5074309999999
 51
61.492569
  0
LINE
  5
49E
330
470
100
AcDbEntity
  8
3
100
AcDbLine
 10
96.49253600000001
 20
75.92696
 30
0.0
 11
121.5940139999999
 21
59.702564
 31
0.0
  0
ARC
  5
49F
330
470
100
AcDbEntity
  8
3
100
AcDbCircle
 10
68.374781
 20
80.03639699999999
 30
0.0
 40
27.091534
100
AcDbArc
 50
309.613664
 51
350.386336
  0
ARC
  5
4A0
330
470
100
AcDbEntity
  8
3
100
AcDbCircle
 10
86.62774399999999
 20
58.648033
 30
0.0
 40
1.107807999999999
100
AcDbArc
 50
152.116331
 51
235.012919
  0
ARC
  5
4A1
330
470
100
AcDbEntity
  8
3
100
AcDbCircle
 10
96.024129
 20
74.92305
 30
0.0
 40
1.107807999999999
100
AcDbArc
 50
64.987081
 51
147.883669
  0
ARC
  5
4A2
330
470
100
AcDbEntity
  8
3
100
AcDbCircle
 10
120.389581
 20
57.90953
 30
0.0
 40
2.160006999999999
100
AcDbArc
 50
357.456905
 51
56.10959699999999
  0
ARC
  5
4A3
330
470
100
AcDbEntity
  8
3
100
AcDbCircle
 10
83.89638599999999
 20
95.92891800000002
 30
0.0
 40
1.107807999999999
100
AcDbArc
 50
272.116331
 51
355.012919
  0
ARC
  5
4A4
330
470
100
AcDbEntity
  8
3
100
AcDbCircle
 10
89.99772400000001
 20
130.8403439999999
 30
0.0
 40
5.5
100
AcDbArc
 50
77.13194900000001
 51
178.336556
  0
ARC
  5
4A5
330
470
100
AcDbEntity
  8
3
100
AcDbCircle
 10
74.5
 20
131.0
 30
0.0
 40
10.0
100
AcDbArc
 50
180.0
 51
0.0
  0
LINE
  5
4A6
330
470
100
AcDbEntity
  8
1
100
AcDbLine
 10
56.5
 20
131.0
 30
0.0
 11
93.49999999999999
 21
131.0
 31
0.0
  0
ARC
  5
4A7
330
470
100
AcDbEntity
  8
3
100
AcDbCircle
 10
59.002276
 20
130.8403439999999
 30
0.0
 40
5.5
100
AcDbArc
 50
1.663443999999999
 51
102.868051
  0
ARC
  5
4A8
330
470
100
AcDbEntity
  8
3
100
AcDbCircle
 10
67.65503000000001
 20
125.536778
 30
0.0
 40
2.160006999999999
100
AcDbArc
 50
158.1007889999999
 51
176.109597
  0
ARC
  5
4A9
330
470
100
AcDbEntity
  8
3
100
AcDbCircle
 10
81.34496999999999
 20
125.536778
 30
0.0
 40
2.160006999999999
100
AcDbArc
 50
3.890402999999999
 51
21.899211
  0
LINE
  5
4AA
330
470
100
AcDbEntity
  8
3
100
AcDbLine
 10
207.0
 20
138.5
 30
0.0
 11
207.0
 21
76.5
 31
0.0
  0
LINE
  5
4AB
330
470
100
AcDbEntity
  8
3
100
AcDbLine
 10
219.37945
 20
45.59944699999999
 30
0.0
 11
231.995912
 21
55.005526
 31
0.0
  0
LINE
  5
4AC
330
470
100
AcDbEntity
  8
1
100
AcDbLine
 10
215.0
 20
29.75468
 30
5.786941999999999
 11
215.0
 21
76.5
 31
5.786941999999999
  0
LINE
  5
4AD
330
470
100
AcDbEntity
  8
3
100
AcDbLine
 10
223.0
 20
48.298712
 30
0.0
 11
223.0
 21
14.5
 31
0.0
  0
ARC
  5
4AE
330
470
100
AcDbEntity
  8
3
100
AcDbCircle
 10
214.717517
 20
52.45665999999999
 30
0.0
 40
8.291863000000001
100
AcDbArc
 50
272.207526
 51
304.21015
  0
ARC
  5
4AF
330
470
100
AcDbEntity
  8
3
100
AcDbCircle
 10
229.972975
 20
22.74280399999999
 30
5.786941999999999
 40
10.837971
100
AcDbArc
 50
172.446775
 51
229.512589
  0
LINE
  5
4B0
330
470
100
AcDbEntity
  8
1
100
AcDbLine
 10
215.0
 20
29.75468
 30
5.786941999999999
 11
215.0
 21
3.429739
 31
5.786941999999999
  0
LINE
  5
4B1
330
470
100
AcDbEntity
  8
1
100
AcDbLine
 10
215.0
 20
29.281778
 30
5.786941999999999
 11
215.0
 21
3.272104
 31
5.786941999999999
  0
ARC
  5
4B2
330
470
100
AcDbEntity
  8
3
100
AcDbCircle
 10
215.0
 20
14.5
 30
5.786941999999999
 40
8.0
100
AcDbArc
 50
270.0
 51
358.932668
  0
LINE
  5
4B3
330
470
100
AcDbEntity
  8
3
100
AcDbLine
 10
219.235172
 20
24.157691
 30
5.786941999999999
 11
219.235172
 21
45.503546
 31
5.786941999999999
  0
ARC
  5
4B4
330
470
100
AcDbEntity
  8
3
100
AcDbCircle
 10
215.0
 20
21.49999999999999
 30
5.786941999999999
 40
5.0
100
AcDbArc
 50
32.109439
 51
90.0
  0
ARC
  5
4B5
330
470
100
AcDbEntity
  8
3
100
AcDbCircle
 10
204.0
 20
14.571788
 30
5.786941999999999
 40
18.0
100
AcDbArc
 50
32.17792199999999
 51
32.230602
  0
DIMENSION
  5
4B6
330
470
100
AcDbEntity
  8
0
100
AcDbDimension
  2
*D13
 10
257.0
 20
111.112385
 30
0.0
 11
250.2620209999999
 21
111.112385
 31
0.0
 12
-62.5
 22
-139.5
 32
0.0
 70
   128
 71
     5
 42
-1.0
  3
STANDARD
100
AcDbAlignedDimension
 13
243.0
 23
94.50000000000001
 33
0.0
 14
257.0
 24
92.5
 34
0.0
100
AcDbRotatedDimension
1001
ACAD
1000
DSTYLE
1002
{
1070
    78
1070
     8
1070
   288
1070
     1
1070
   284
1070
     8
1070
   140
1040
5.0
1070
    73
1070
     0
1070
   272
1070
     2
1070
    42
1040
1.0
1070
    44
1040
1.0
1070
   271
1070
     2
1070
    41
1040
2.0
1002
}
  0
DIMENSION
  5
4B7
330
470
100
AcDbEntity
  8
0
100
AcDbDimension
  2
*D12
 10
257.0
 20
124.867737
 30
0.0
 11
241.528431
 21
124.867737
 31
0.0
 12
-62.5
 22
-139.5
 32
0.0
 70
   128
 71
     5
 42
-1.0
  3
STANDARD
100
AcDbAlignedDimension
 13
226.0
 23
95.66524499999999
 33
0.0
 14
257.0
 24
92.5
 34
0.0
100
AcDbRotatedDimension
1001
ACAD
1000
DSTYLE
1002
{
1070
    78
1070
     8
1070
   288
1070
     1
1070
   284
1070
     8
1070
   140
1040
5.0
1070
    73
1070
     0
1070
   272
1070
     2
1070
    42
1040
1.0
1070
    44
1040
1.0
1070
   271
1070
     2
1070
    41
1040
2.0
1002
}
  0
LINE
  5
4B8
330
470
100
AcDbEntity
  8
3
100
AcDbLine
 10
241.355062
 20
97.50644399999998
 30
0.0
 11
221.995712
 21
127.3286229999999
 31
0.0
  0
LINE
  5
4B9
330
470
100
AcDbEntity
  8
3
100
AcDbLine
 10
226.5217119999999
 20
100.407497
 30
0.0
 11
213.877193
 21
121.0
 31
0.0
  0
LINE
  5
4BA
330
470
100
AcDbEntity
  8
1
100
AcDbLine
 10
233.0
 20
76.5
 30
0.0
 11
233.0
 21
111.0
 31
0.0
  0
LINE
  5
4BB
330
470
100
AcDbEntity
  8
3
100
AcDbLine
 10
257.0
 20
60.5
 30
0.0
 11
243.0
 21
60.5
 31
0.0
  0
LINE
  5
4BC
330
470
100
AcDbEntity
  8
3
100
AcDbLine
 10
243.0
 20
92.5
 30
0.0
 11
257.0
 21
92.5
 31
0.0
  0
LINE
  5
4BD
330
470
100
AcDbEntity
  8
3
100
AcDbLine
 10
226.0
 20
57.33475600000001
 30
0.0
 11
226.0
 21
95.66524499999999
 31
0.0
  0
LINE
  5
4BE
330
470
100
AcDbEntity
  8
3
100
AcDbLine
 10
223.0
 20
76.5
 30
0.0
 11
223.0
 21
106.142857
 31
0.0
  0
LINE
  5
4BF
330
470
100
AcDbEntity
  8
2
100
AcDbLine
 10
231.995912
 20
55.005526
 30
0.0
 11
237.6348189999999
 21
59.169522
 31
0.0
  0
ARC
  5
4C0
330
470
100
AcDbEntity
  8
2
100
AcDbCircle
 10
232.030765
 20
68.48721000000001
 30
0.0
 40
10.790402
100
AcDbArc
 50
275.153472
 51
328.7795009999999
  0
ARC
  5
4C1
330
470
100
AcDbEntity
  8
2
100
AcDbCircle
 10
233.636613
 20
66.51643299999999
 30
0.0
 40
9.432035
100
AcDbArc
 50
38.20576099999999
 51
93.870108
  0
ARC
  5
4C2
330
470
100
AcDbEntity
  8
3
100
AcDbCircle
 10
233.524193
 20
69.26612900000001
 30
0.0
 40
14.342261
100
AcDbArc
 50
253.705001
 51
311.352614
  0
LINE
  5
4C3
330
470
100
AcDbEntity
  8
3
100
AcDbLine
 10
214.800285
 20
61.309229
 30
0.0
 11
226.070337
 21
71.182312
 31
0.0
  0
ARC
  5
4C4
330
470
100
AcDbEntity
  8
2
100
AcDbCircle
 10
243.0060479999999
 20
66.75
 30
0.0
 40
15.140007
100
AcDbArc
 50
149.2102749999999
 51
210.789725
  0
LINE
  5
4C5
330
470
100
AcDbEntity
  8
1
100
AcDbLine
 10
233.0
 20
76.5
 30
0.0
 11
233.0
 21
51.775201
 31
0.0
  0
ARC
  5
4C6
330
470
100
AcDbEntity
  8
2
100
AcDbCircle
 10
232.75
 20
61.34740999999999
 30
0.0
 40
3.615637
100
AcDbArc
 50
220.484186
 51
273.964829
  0
ARC
  5
4C7
330
470
100
AcDbEntity
  8
3
100
AcDbCircle
 10
231.019348
 20
62.654022
 30
0.0
 40
7.313579999999999
100
AcDbArc
 50
226.661658
 51
258.009858
  0
LINE
  5
4C8
330
470
100
AcDbEntity
  8
3
100
AcDbLine
 10
223.0
 20
76.5
 30
0.0
 11
223.0
 21
68.49255600000001
 31
0.0
  0
LINE
  5
4C9
330
470
100
AcDbEntity
  8
2
100
AcDbLine
 10
226.070337
 20
71.182312
 30
0.0
 11
230.3564
 21
74.919785
 31
0.0
  0
ARC
  5
4CA
330
470
100
AcDbEntity
  8
2
100
AcDbCircle
 10
232.75
 20
72.585514
 30
0.0
 40
3.350784999999999
100
AcDbArc
 50
85.72122099999999
 51
145.155262
  0
ARC
  5
4CB
330
470
100
AcDbEntity
  8
2
100
AcDbCircle
 10
228.24715
 20
67.335164
 30
0.0
 40
13.74835199999999
100
AcDbArc
 50
341.1544149999999
 51
21.392882
  0
LINE
  5
4CC
330
470
100
AcDbEntity
  8
3
100
AcDbLine
 10
243.0
 20
60.5
 30
0.0
 11
243.0
 21
58.5
 31
0.0
  0
ARC
  5
4CD
330
470
100
AcDbEntity
  8
3
100
AcDbCircle
 10
233.524193
 20
83.733871
 30
0.0
 40
14.342261
100
AcDbArc
 50
48.64738599999999
 51
106.294999
  0
ARC
  5
4CE
330
470
100
AcDbEntity
  8
3
100
AcDbCircle
 10
231.019348
 20
90.345978
 30
0.0
 40
7.313579999999999
100
AcDbArc
 50
101.990142
 51
133.3383419999999
  0
ARC
  5
4CF
330
470
100
AcDbEntity
  8
3
100
AcDbCircle
 10
218.0
 20
95.174867
 30
0.0
 40
10.0
100
AcDbArc
 50
9.053996000000003
 51
31.55138499999999
  0
LINE
  5
4D0
330
470
100
AcDbEntity
  8
3
100
AcDbLine
 10
243.0
 20
94.50000000000001
 30
0.0
 11
243.0
 21
92.5
 31
0.0
  0
ARC
  5
4D1
330
470
100
AcDbEntity
  8
3
100
AcDbCircle
 10
238.0
 20
95.32847399999999
 30
0.0
 40
4.0
100
AcDbArc
 50
360.0
 51
32.99
  0
LINE
  5
4D2
330
470
100
AcDbEntity
  8
3
100
AcDbLine
 10
242.0
 20
95.30370899999999
 30
0.0
 11
242.0
 21
95.32847399999999
 31
0.0
  0
LINE
  5
4D3
330
470
100
AcDbEntity
  8
3
100
AcDbLine
 10
257.0
 20
92.5
 30
0.0
 11
257.0
 21
60.5
 31
0.0
  0
LWPOLYLINE
  5
4D4
330
470
100
AcDbEntity
  8
0
100
AcDbPolyline
 90
        3
 70
     1
 43
0.0
 10
225.8608999999999
 20
112.556012
 10
222.208671
 20
114.6646269999999
 10
222.208671
 20
110.4473959999999
  0
LWPOLYLINE
  5
4D5
330
470
100
AcDbEntity
  8
0
100
AcDbPolyline
 90
        3
 70
     1
 43
0.0
 10
225.8608999999999
 20
116.7732419999999
 10
222.208671
 20
118.881857
 10
222.208671
 20
114.6646269999999
  0
LINE
  5
4D6
330
470
100
AcDbEntity
  8
3
100
AcDbLine
 10
223.0
 20
125.7815649999999
 30
0.0
 11
223.0
 21
138.5
 31
0.0
  0
LINE
  5
4D7
330
470
100
AcDbEntity
  8
3
100
AcDbLine
 10
221.995712
 20
127.3286229999999
 30
0.0
 11
223.0
 21
127.4731
 31
0.0
  0
TEXT
  5
4D8
330
470
100
AcDbEntity
  8
0
100
AcDbText
 10
242.422949
 20
128.651328
 30
0.0
 40
5.0
  1
%%P0.1
 41
0.7
  7
BIGFONT
100
AcDbText
  0
LWPOLYLINE
  5
4D9
330
470
100
AcDbEntity
  8
0
100
AcDbPolyline
 90
        3
 70
     1
 43
0.0
 10
257.725272
 20
140.353776
 10
261.3775009999999
 20
138.245161
 10
261.3775009999999
 20
142.462391
  0
LWPOLYLINE
  5
4DA
330
470
100
AcDbEntity
  8
0
100
AcDbPolyline
 90
        3
 70
     1
 43
0.0
 10
257.725272
 20
136.136546
 10
261.3775009999999
 20
134.0279299999999
 10
261.3775009999999
 20
138.245161
  0
LINE
  5
4DB
330
470
100
AcDbEntity
  8
3
100
AcDbLine
 10
219.235172
 20
65.19439300000001
 30
5.786941999999999
 11
219.235172
 21
112.2741489999999
 31
5.786941999999999
  0
LINE
  5
4DC
330
470
100
AcDbEntity
  8
1
100
AcDbLine
 10
215.0
 20
123.2453209999999
 30
5.786941999999999
 11
215.0
 21
76.5
 31
5.786941999999999
  0
ARC
  5
4DD
330
470
100
AcDbEntity
  8
3
100
AcDbCircle
 10
215.0
 20
138.5
 30
5.786941999999999
 40
8.0
100
AcDbArc
 50
1.067332
 51
90.0
  0
LINE
  5
4DE
330
470
100
AcDbEntity
  8
1
100
AcDbLine
 10
215.0
 20
123.7182229999999
 30
5.786941999999999
 11
215.0
 21
149.7278969999999
 31
5.786941999999999
  0
LINE
  5
4DF
330
470
100
AcDbEntity
  8
1
100
AcDbLine
 10
215.0
 20
123.2453209999999
 30
5.786941999999999
 11
215.0
 21
149.570262
 31
5.786941999999999
  0
ENDBLK
  5
4E1
330
470
100
AcDbEntity
  8
0
100
AcDbBlockEnd
  0
BLOCK
  5
597
330
58C
100
AcDbEntity
  8
0
100
AcDbBlockBegin
  2
*D15
 70
     1
 10
0.0
 20
0.0
 30
0.0
  3
*D15
  1

  0
LINE
  5
58D
330
58C
100
AcDbEntity
  8
0
  6
ByBlock
 62
     0
100
AcDbLine
 10
254.0
 20
295.5
 30
0.0
 11
254.0
 21
331.0057339999999
 31
0.0
  0
LINE
  5
58E
330
58C
100
AcDbEntity
  8
0
  6
ByBlock
 62
     0
100
AcDbLine
 10
308.0
 20
241.5
 30
0.0
 11
308.0
 21
331.0057339999999
 31
0.0
  0
LINE
  5
58F
330
58C
100
AcDbEntity
  8
0
  6
ByBlock
 62
     0
100
AcDbLine
 10
256.0
 20
330.0057339999999
 30
0.0
 11
278.437533
 21
330.0057339999999
 31
0.0
  0
LINE
  5
590
330
58C
100
AcDbEntity
  8
0
  6
ByBlock
 62
     0
100
AcDbLine
 10
306.0
 20
330.0057339999999
 30
0.0
 11
286.950866
 21
330.0057339999999
 31
0.0
  0
SOLID
  5
591
330
58C
100
AcDbEntity
  8
0
  6
ByBlock
 62
     0
100
AcDbTrace
 10
256.0
 20
330.339068
 30
0.0
 11
256.0
 21
329.6724009999999
 31
0.0
 12
254.0
 22
330.0057339999999
 32
0.0
 13
254.0
 23
330.0057339999999
 33
0.0
  0
SOLID
  5
592
330
58C
100
AcDbEntity
  8
0
  6
ByBlock
 62
     0
100
AcDbTrace
 10
306.0
 20
330.339068
 30
0.0
 11
306.0
 21
329.6724009999999
 31
0.0
 12
308.0
 22
330.0057339999999
 32
0.0
 13
308.0
 23
330.0057339999999
 33
0.0
  0
MTEXT
  5
593
330
58C
100
AcDbEntity
  8
0
  6
ByBlock
 62
     0
100
AcDbMText
 10
282.6942
 20
330.0057339999999
 30
0.0
 40
5.0
 41
0.0
 71
     5
 72
     1
  1
\A1;54
 73
     1
 44
1.0
  0
POINT
  5
594
330
58C
100
AcDbEntity
  8
DEFPOINTS
  6
ByBlock
 62
     0
100
AcDbPoint
 10
254.0
 20
294.4999999999999
 30
-5.786941999999999
  0
POINT
  5
595
330
58C
100
AcDbEntity
  8
DEFPOINTS
  6
ByBlock
 62
     0
100
AcDbPoint
 10
308.0
 20
240.5
 30
-5.786941999999999
  0
POINT
  5
596
330
58C
100
AcDbEntity
  8
DEFPOINTS
  6
ByBlock
 62
     0
100
AcDbPoint
 10
308.0
 20
330.0057339999999
 30
0.0
  0
ENDBLK
  5
598
330
58C
100
AcDbEntity
  8
0
100
AcDbBlockEnd
  0
BLOCK
  5
5A4
330
599
100
AcDbEntity
  8
0
100
AcDbBlockBegin
  2
*D16
 70
     1
 10
0.0
 20
0.0
 30
0.0
  3
*D16
  1

  0
LINE
  5
59A
330
599
100
AcDbEntity
  8
0
  6
ByBlock
 62
     0
100
AcDbLine
 10
274.0
 20
244.423729
 30
0.0
 11
274.0
 21
271.136468
 31
0.0
  0
LINE
  5
59B
330
599
100
AcDbEntity
  8
0
  6
ByBlock
 62
     0
100
AcDbLine
 10
308.0
 20
241.5
 30
0.0
 11
308.0
 21
271.136468
 31
0.0
  0
LINE
  5
59C
330
599
100
AcDbEntity
  8
0
  6
ByBlock
 62
     0
100
AcDbLine
 10
276.0
 20
270.136468
 30
0.0
 11
288.0316329999999
 21
270.136468
 31
0.0
  0
LINE
  5
59D
330
599
100
AcDbEntity
  8
0
  6
ByBlock
 62
     0
100
AcDbLine
 10
306.0
 20
270.136468
 30
0.0
 11
296.5449659999999
 21
270.136468
 31
0.0
  0
SOLID
  5
59E
330
599
100
AcDbEntity
  8
0
  6
ByBlock
 62
     0
100
AcDbTrace
 10
276.0
 20
270.4698009999999
 30
0.0
 11
276.0
 21
269.803134
 31
0.0
 12
274.0
 22
270.136468
 32
0.0
 13
274.0
 23
270.136468
 33
0.0
  0
SOLID
  5
59F
330
599
100
AcDbEntity
  8
0
  6
ByBlock
 62
     0
100
AcDbTrace
 10
306.0
 20
270.4698009999999
 30
0.0
 11
306.0
 21
269.803134
 31
0.0
 12
308.0
 22
270.136468
 32
0.0
 13
308.0
 23
270.136468
 33
0.0
  0
MTEXT
  5
5A0
330
599
100
AcDbEntity
  8
0
  6
ByBlock
 62
     0
100
AcDbMText
 10
292.288299
 20
270.136468
 30
0.0
 40
5.0
 41
0.0
 71
     5
 72
     1
  1
\A1;34
 73
     1
 44
1.0
  0
POINT
  5
5A1
330
599
100
AcDbEntity
  8
DEFPOINTS
  6
ByBlock
 62
     0
100
AcDbPoint
 10
274.0
 20
243.4237289999999
 30
0.0
  0
POINT
  5
5A2
330
599
100
AcDbEntity
  8
DEFPOINTS
  6
ByBlock
 62
     0
100
AcDbPoint
 10
308.0
 20
240.5
 30
-5.786941999999999
  0
POINT
  5
5A3
330
599
100
AcDbEntity
  8
DEFPOINTS
  6
ByBlock
 62
     0
100
AcDbPoint
 10
308.0
 20
270.136468
 30
0.0
  0
ENDBLK
  5
5A5
330
599
100
AcDbEntity
  8
0
100
AcDbBlockEnd
  0
BLOCK
  5
5B1
330
5A6
100
AcDbEntity
  8
0
100
AcDbBlockBegin
  2
*D17
 70
     1
 10
0.0
 20
0.0
 30
0.0
  3
*D17
  1

  0
LINE
  5
5A7
330
5A6
100
AcDbEntity
  8
0
  6
ByBlock
 62
     0
100
AcDbLine
 10
292.0
 20
243.5
 30
0.0
 11
292.0
 21
259.9919729999999
 31
0.0
  0
LINE
  5
5A8
330
5A6
100
AcDbEntity
  8
0
  6
ByBlock
 62
     0
100
AcDbLine
 10
308.0
 20
241.5
 30
0.0
 11
308.0
 21
259.9919729999999
 31
0.0
  0
LINE
  5
5A9
330
5A6
100
AcDbEntity
  8
0
  6
ByBlock
 62
     0
100
AcDbLine
 10
294.0
 20
258.9919729999999
 30
0.0
 11
296.3846649999999
 21
258.9919729999999
 31
0.0
  0
LINE
  5
5AA
330
5A6
100
AcDbEntity
  8
0
  6
ByBlock
 62
     0
100
AcDbLine
 10
306.0
 20
258.9919729999999
 30
0.0
 11
303.231332
 21
258.9919729999999
 31
0.0
  0
SOLID
  5
5AB
330
5A6
100
AcDbEntity
  8
0
  6
ByBlock
 62
     0
100
AcDbTrace
 10
294.0
 20
259.325306
 30
0.0
 11
294.0
 21
258.6586389999999
 31
0.0
 12
292.0
 22
258.9919729999999
 32
0.0
 13
292.0
 23
258.9919729999999
 33
0.0
  0
SOLID
  5
5AC
330
5A6
100
AcDbEntity
  8
0
  6
ByBlock
 62
     0
100
AcDbTrace
 10
306.0
 20
259.325306
 30
0.0
 11
306.0
 21
258.6586389999999
 31
0.0
 12
308.0
 22
258.9919729999999
 32
0.0
 13
308.0
 23
258.9919729999999
 33
0.0
  0
MTEXT
  5
5AD
330
5A6
100
AcDbEntity
  8
0
  6
ByBlock
 62
     0
100
AcDbMText
 10
299.8079989999999
 20
258.9919729999999
 30
0.0
 40
5.0
 41
0.0
 71
     5
 72
     1
  1
\A1;16
 73
     1
 44
1.0
  0
POINT
  5
5AE
330
5A6
100
AcDbEntity
  8
DEFPOINTS
  6
ByBlock
 62
     0
100
AcDbPoint
 10
292.0
 20
242.5
 30
-5.786941999999999
  0
POINT
  5
5AF
330
5A6
100
AcDbEntity
  8
DEFPOINTS
  6
ByBlock
 62
     0
100
AcDbPoint
 10
308.0
 20
240.5
 30
-5.786941999999999
  0
POINT
  5
5B0
330
5A6
100
AcDbEntity
  8
DEFPOINTS
  6
ByBlock
 62
     0
100
AcDbPoint
 10
308.0
 20
258.9919729999999
 30
0.0
  0
ENDBLK
  5
5B2
330
5A6
100
AcDbEntity
  8
0
100
AcDbBlockEnd
  0
BLOCK
  5
627
330
5B3
100
AcDbEntity
  8
0
100
AcDbBlockBegin
  2
A$C418C508D
 70
     0
 10
0.0
 20
0.0
 30
0.0
  3
A$C418C508D
  1

  0
DIMENSION
  5
5B4
330
5B3
100
AcDbEntity
  8
0
100
AcDbDimension
  2
*D16
 10
268.5
 20
131.1364679999999
 30
0.0
 11
252.788299
 21
131.1364679999999
 31
0.0
 12
-39.5
 22
-139.0
 32
0.0
 70
   128
 71
     5
 42
-1.0
  3
STANDARD
100
AcDbAlignedDimension
 13
234.5
 23
104.423729
 33
0.0
 14
268.5
 24
101.5
 34
-5.786941999999999
100
AcDbRotatedDimension
1001
ACAD
1000
DSTYLE
1002
{
1070
    78
1070
     8
1070
   288
1070
     1
1070
   284
1070
     8
1070
   140
1040
5.0
1070
    73
1070
     0
1070
   272
1070
     2
1070
    42
1040
1.0
1070
    44
1040
1.0
1070
   271
1070
     2
1070
    41
1040
2.0
1002
}
  0
DIMENSION
  5
5B5
330
5B3
100
AcDbEntity
  8
0
100
AcDbDimension
  2
*D15
 10
268.5
 20
191.005734
 30
0.0
 11
243.194199
 21
191.005734
 31
0.0
 12
-39.5
 22
-139.0
 32
0.0
 70
   128
 71
     5
 42
-1.0
  3
STANDARD
100
AcDbAlignedDimension
 13
214.5
 23
155.4999999999999
 33
-5.786941999999999
 14
268.5
 24
101.5
 34
-5.786941999999999
100
AcDbRotatedDimension
1001
ACAD
1000
DSTYLE
1002
{
1070
    78
1070
     8
1070
   288
1070
     1
1070
   284
1070
     8
1070
   140
1040
5.0
1070
    73
1070
     0
1070
   272
1070
     2
1070
    42
1040
1.0
1070
    44
1040
1.0
1070
   271
1070
     2
1070
    41
1040
2.0
1002
}
  0
LINE
  5
5B6
330
5B3
100
AcDbEntity
  8
3
100
AcDbLine
 10
226.9756609999999
 20
47.663744
 30
0.0
 11
242.135914
 21
61.528139
 31
0.0
  0
LINE
  5
5B7
330
5B3
100
AcDbEntity
  8
3
100
AcDbLine
 10
230.994425
 20
141.456732
 30
0.0
 11
250.814744
 21
106.993679
 31
0.0
  0
LINE
  5
5B8
330
5B3
100
AcDbEntity
  8
2
100
AcDbLine
 10
234.5
 20
78.961131
 30
0.0
 11
239.898098
 21
84.28140400000001
 31
0.0
  0
LINE
  5
5B9
330
5B3
100
AcDbEntity
  8
1
100
AcDbLine
 10
209.554541
 20
147.5
 30
0.0
 11
236.0469609999999
 21
147.5
 31
0.0
  0
LINE
  5
5BA
330
5B3
100
AcDbEntity
  8
1
100
AcDbLine
 10
210.0
 20
155.4999999999999
 30
0.0
 11
237.0
 21
155.4999999999999
 31
0.0
  0
LINE
  5
5BB
330
5B3
100
AcDbEntity
  8
3
100
AcDbLine
 10
235.8928779999999
 20
109.652737
 30
0.0
 11
222.5999999999999
 21
135.4999999999999
 31
0.0
  0
ARC
  5
5BC
330
5B3
100
AcDbEntity
  8
3
100
AcDbCircle
 10
243.0
 20
94.21875
 30
-5.786941999999999
 40
13.28125
100
AcDbArc
 50
44.332692
 51
129.791819
  0
ARC
  5
5BD
330
5B3
100
AcDbEntity
  8
3
100
AcDbCircle
 10
243.0
 20
74.78125
 30
-5.786941999999999
 40
13.28125
100
AcDbArc
 50
230.208181
 51
315.667308
  0
LINE
  5
5BE
330
5B3
100
AcDbEntity
  8
1
100
AcDbLine
 10
210.0
 20
13.5
 30
0.0
 11
237.0
 21
13.5
 31
0.0
  0
LINE
  5
5BF
330
5B3
100
AcDbEntity
  8
1
100
AcDbLine
 10
210.0
 20
84.50000000000001
 30
0.0
 11
271.099374
 21
84.50000000000001
 31
0.0
  0
LINE
  5
5C0
330
5B3
100
AcDbEntity
  8
0
100
AcDbLine
 10
215.844857
 20
13.768972
 30
0.0
 11
215.844857
 21
135.4999999999999
 31
0.0
  0
LINE
  5
5C1
330
5B3
100
AcDbEntity
  8
3
100
AcDbLine
 10
232.5
 20
52.75
 30
-5.786941999999999
 11
232.5
 21
34.789474
 31
-5.786941999999999
  0
ARC
  5
5C2
330
5B3
100
AcDbEntity
  8
3
100
AcDbCircle
 10
235.7790629999999
 20
56.083195
 30
0.0
 40
16.783713
100
AcDbArc
 50
151.733479
 51
208.6247999999999
  0
LINE
  5
5C3
330
5B3
100
AcDbEntity
  8
1
100
AcDbLine
 10
83.49999999999999
 20
84.50000000000001
 30
0.0
 11
157.7780399999999
 21
41.615554
 31
0.0
  0
LINE
  5
5C4
330
5B3
100
AcDbEntity
  8
1
100
AcDbLine
 10
83.49999999999999
 20
84.50000000000001
 30
0.0
 11
8.255453999999998
 21
41.057541
 31
0.0
  0
LINE
  5
5C5
330
5B3
100
AcDbEntity
  8
3
100
AcDbLine
 10
94.49264499999999
 20
64.296987
 30
0.0
 11
127.317846
 21
46.50004899999999
 31
0.0
  0
LINE
  5
5C6
330
5B3
100
AcDbEntity
  8
3
100
AcDbLine
 10
72.507354
 20
64.296987
 30
0.0
 11
39.682153
 21
46.50004899999999
 31
0.0
  0
ARC
  5
5C7
330
5B3
100
AcDbEntity
  8
3
100
AcDbCircle
 10
105.456575
 20
71.82336499999999
 30
0.0
 40
34.51284199999999
100
AcDbArc
 50
312.881679
 51
347.1183209999999
  0
ARC
  5
5C8
330
5B3
100
AcDbEntity
  8
3
100
AcDbCircle
 10
61.543424
 20
71.82336499999999
 30
0.0
 40
34.51284199999999
100
AcDbArc
 50
192.8816789999999
 51
227.118321
  0
ARC
  5
5C9
330
5B3
100
AcDbEntity
  8
3
100
AcDbCircle
 10
83.49999999999999
 20
84.50000000000001
 30
0.0
 40
71.0
100
AcDbArc
 50
106.5805719999999
 51
73.41942799999999
  0
CIRCLE
  5
5CA
330
5B3
100
AcDbEntity
  8
3
100
AcDbCircle
 10
83.49999999999999
 20
84.50000000000001
 30
0.0
 40
80.0
  0
LINE
  5
5CB
330
5B3
100
AcDbEntity
  8
1
100
AcDbLine
 10
83.49999999999999
 20
169.0
 30
0.0
 11
83.49999999999999
 21
0.0
 31
0.0
  0
LINE
  5
5CC
330
5B3
100
AcDbEntity
  8
1
100
AcDbLine
 10
223.4999999999999
 20
29.932321
 30
0.0
 11
223.4999999999999
 21
84.50000000000001
 31
0.0
  0
LINE
  5
5CD
330
5B3
100
AcDbEntity
  8
3
100
AcDbLine
 10
214.5
 20
13.5
 30
-5.786941999999999
 11
214.5
 21
84.50000000000001
 31
-5.786941999999999
  0
ARC
  5
5CE
330
5B3
100
AcDbEntity
  8
3
100
AcDbCircle
 10
240.8252249999999
 20
23.268251
 30
-5.786941999999999
 40
12.834645
100
AcDbArc
 50
177.8592919999999
 51
229.5599129999999
  0
LINE
  5
5CF
330
5B3
100
AcDbEntity
  8
3
100
AcDbLine
 10
232.5
 20
34.789474
 30
-5.786941999999999
 11
232.5
 21
13.5
 31
-5.786941999999999
  0
ARC
  5
5D0
330
5B3
100
AcDbEntity
  8
3
100
AcDbCircle
 10
83.49999999999999
 20
84.50000000000001
 30
0.0
 40
58.0
100
AcDbArc
 50
220.932661
 51
319.067339
  0
ARC
  5
5D1
330
5B3
100
AcDbEntity
  8
3
100
AcDbCircle
 10
38.898872
 20
47.908521
 30
0.0
 40
1.611620999999999
100
AcDbArc
 50
238.5456669999999
 51
299.0793499999999
  0
ARC
  5
5D2
330
5B3
100
AcDbEntity
  8
3
100
AcDbCircle
 10
128.101127
 20
47.908521
 30
0.0
 40
1.611620999999999
100
AcDbArc
 50
240.9206499999999
 51
301.454333
  0
ARC
  5
5D3
330
5B3
100
AcDbEntity
  8
3
100
AcDbCircle
 10
235.0
 20
13.5
 30
0.0
 40
19.0
100
AcDbArc
 50
144.126748
 51
178.6119709999999
  0
LINE
  5
5D4
330
5B3
100
AcDbEntity
  8
1
100
AcDbLine
 10
223.4999999999999
 20
29.932321
 30
0.0
 11
223.4999999999999
 21
0.765844
 31
0.0
  0
LINE
  5
5D5
330
5B3
100
AcDbEntity
  8
1
100
AcDbLine
 10
223.4999999999999
 20
28.986514
 30
0.0
 11
223.4999999999999
 21
1.081112
 31
0.0
  0
ARC
  5
5D6
330
5B3
100
AcDbEntity
  8
3
100
AcDbCircle
 10
223.4999999999999
 20
13.5
 30
0.0
 40
9.0
100
AcDbArc
 50
181.0656089999999
 51
270.0
  0
ARC
  5
5D7
330
5B3
100
AcDbEntity
  8
3
100
AcDbCircle
 10
223.4999999999999
 20
13.5
 30
0.0
 40
9.0
100
AcDbArc
 50
270.0
 51
358.934391
  0
ARC
  5
5D8
330
5B3
100
AcDbEntity
  8
3
100
AcDbCircle
 10
215.8056339999999
 20
13.965088
 30
0.0
 40
0.2
100
AcDbArc
 50
281.309932
 51
358.6119709999999
  0
ARC
  5
5D9
330
5B3
100
AcDbEntity
  8
3
100
AcDbCircle
 10
214.701522
 20
13.336344
 30
0.0
 40
0.2
100
AcDbArc
 50
101.3099319999999
 51
181.0656089999999
  0
LINE
  5
5DA
330
5B3
100
AcDbEntity
  8
3
100
AcDbLine
 10
214.662298
 20
13.53246
 30
0.0
 11
215.844857
 21
13.768972
 31
0.0
  0
LINE
  5
5DB
330
5B3
100
AcDbEntity
  8
3
100
AcDbLine
 10
227.9995369999999
 20
23.747673
 30
0.0
 11
227.9995369999999
 21
48.600102
 31
0.0
  0
ARC
  5
5DC
330
5B3
100
AcDbEntity
  8
3
100
AcDbCircle
 10
223.4999999999999
 20
21.49999999999999
 30
0.0
 40
5.0
100
AcDbArc
 50
38.81278599999999
 51
90.0
  0
ARC
  5
5DD
330
5B3
100
AcDbEntity
  8
3
100
AcDbCircle
 10
223.4999999999999
 20
21.49999999999999
 30
0.0
 40
5.0
100
AcDbArc
 50
90.0
 51
141.187214
  0
ARC
  5
5DE
330
5B3
100
AcDbEntity
  8
3
100
AcDbCircle
 10
212.0
 20
13.5
 30
0.0
 40
19.0
100
AcDbArc
 50
32.639483
 51
35.873252
  0
ARC
  5
5DF
330
5B3
100
AcDbEntity
  8
3
100
AcDbCircle
 10
224.177062
 20
50.236112
 30
0.0
 40
3.801215
100
AcDbArc
 50
259.005768
 51
317.411931
  0
ARC
  5
5E0
330
5B3
100
AcDbEntity
  8
3
100
AcDbCircle
 10
223.598397
 20
49.36654
 30
0.0
 40
2.874691999999999
100
AcDbArc
 50
207.4228139999999
 51
268.038445
  0
LINE
  5
5E1
330
5B3
100
AcDbEntity
  8
3
100
AcDbLine
 10
214.5
 20
155.4999999999999
 30
-5.786941999999999
 11
214.5
 21
84.50000000000001
 31
-5.786941999999999
  0
LINE
  5
5E2
330
5B3
100
AcDbEntity
  8
3
100
AcDbLine
 10
232.5
 20
84.50000000000001
 30
-5.786941999999999
 11
232.5
 21
116.25
 31
-5.786941999999999
  0
LINE
  5
5E3
330
5B3
100
AcDbEntity
  8
3
100
AcDbLine
 10
232.5
 20
84.50000000000001
 30
-5.786941999999999
 11
232.5
 21
76.93204
 31
-5.786941999999999
  0
LINE
  5
5E4
330
5B3
100
AcDbEntity
  8
3
100
AcDbLine
 10
232.5
 20
138.8388779999999
 30
-5.786941999999999
 11
232.5
 21
155.4999999999999
 31
-5.786941999999999
  0
CIRCLE
  5
5E5
330
5B3
100
AcDbEntity
  8
3
100
AcDbCircle
 10
83.49999999999999
 20
84.50000000000001
 30
0.0
 40
19.923729
  0
ARC
  5
5E6
330
5B3
100
AcDbEntity
  8
3
100
AcDbCircle
 10
83.49999999999999
 20
84.50000000000001
 30
0.0
 40
23.0
100
AcDbArc
 50
121.4489809999999
 51
178.551019
  0
ARC
  5
5E7
330
5B3
100
AcDbEntity
  8
3
100
AcDbCircle
 10
88.315104
 20
87.280002
 30
0.0
 40
26.66182199999999
100
AcDbArc
 50
186.0799439999999
 51
233.920056
  0
ARC
  5
5E8
330
5B3
100
AcDbEntity
  8
3
100
AcDbCircle
 10
65.115096
 20
146.282211
 30
0.0
 40
6.5
100
AcDbArc
 50
10.798299
 51
106.6065889999999
  0
ARC
  5
5E9
330
5B3
100
AcDbEntity
  8
3
100
AcDbCircle
 10
83.49999999999999
 20
84.50000000000001
 30
0.0
 40
58.0
100
AcDbArc
 50
100.932661
 51
199.0673389999999
  0
LINE
  5
5EA
330
5B3
100
AcDbEntity
  8
1
100
AcDbLine
 10
167.0
 20
84.50000000000001
 30
0.0
 11
0.0
 21
84.50000000000001
 31
0.0
  0
LINE
  5
5EB
330
5B3
100
AcDbEntity
  8
3
100
AcDbLine
 10
60.507354
 20
85.081597
 30
0.0
 11
28.682153
 21
65.55260799999999
 31
0.0
  0
ARC
  5
5EC
330
5B3
100
AcDbEntity
  8
3
100
AcDbCircle
 10
29.51028499999999
 20
64.17003000000001
 30
0.0
 40
1.611620999999999
100
AcDbArc
 50
120.9206499999999
 51
181.454333
  0
ARC
  5
5ED
330
5B3
100
AcDbEntity
  8
3
100
AcDbCircle
 10
60.930184
 20
84.302451
 30
0.0
 40
0.886484
100
AcDbArc
 50
9.98041
 51
118.4879379999999
  0
ARC
  5
5EE
330
5B3
100
AcDbEntity
  8
3
100
AcDbCircle
 10
83.49999999999999
 20
84.50000000000001
 30
0.0
 40
58.0
100
AcDbArc
 50
340.932661
 51
79.067339
  0
LINE
  5
5EF
330
5B3
100
AcDbEntity
  8
3
100
AcDbLine
 10
71.5
 20
104.121417
 30
0.0
 11
72.5
 21
141.4473439999999
 31
0.0
  0
LINE
  5
5F0
330
5B3
100
AcDbEntity
  8
3
100
AcDbLine
 10
95.5
 20
104.121417
 30
0.0
 11
94.50000000000001
 21
141.4473439999999
 31
0.0
  0
LINE
  5
5F1
330
5B3
100
AcDbEntity
  8
3
100
AcDbLine
 10
106.4926449999999
 20
85.081597
 30
0.0
 11
138.317846
 21
65.55260799999999
 31
0.0
  0
ARC
  5
5F2
330
5B3
100
AcDbEntity
  8
3
100
AcDbCircle
 10
78.68489499999999
 20
87.280002
 30
0.0
 40
26.66182199999999
100
AcDbArc
 50
306.079944
 51
353.9200559999999
  0
ARC
  5
5F3
330
5B3
100
AcDbEntity
  8
3
100
AcDbCircle
 10
83.49999999999999
 20
84.50000000000001
 30
0.0
 40
23.0
100
AcDbArc
 50
1.448980999999999
 51
58.55101899999999
  0
ARC
  5
5F4
330
5B3
100
AcDbEntity
  8
3
100
AcDbCircle
 10
83.49999999999999
 20
84.50000000000001
 30
0.0
 40
23.0
100
AcDbArc
 50
241.448981
 51
298.5510189999999
  0
ARC
  5
5F5
330
5B3
100
AcDbEntity
  8
3
100
AcDbCircle
 10
72.044009
 20
65.052741
 30
0.0
 40
0.886484
100
AcDbArc
 50
301.512062
 51
50.01959
  0
ARC
  5
5F6
330
5B3
100
AcDbEntity
  8
3
100
AcDbCircle
 10
94.95599099999999
 20
65.052741
 30
0.0
 40
0.886484
100
AcDbArc
 50
129.98041
 51
238.487938
  0
ARC
  5
5F7
330
5B3
100
AcDbEntity
  8
3
100
AcDbCircle
 10
83.49999999999999
 20
78.93999699999999
 30
0.0
 40
26.66182199999999
100
AcDbArc
 50
66.07994399999999
 51
113.920056
  0
ARC
  5
5F8
330
5B3
100
AcDbEntity
  8
3
100
AcDbCircle
 10
72.386175
 20
104.144809
 30
0.0
 40
0.886484
100
AcDbArc
 50
181.512062
 51
290.0195899999999
  0
ARC
  5
5F9
330
5B3
100
AcDbEntity
  8
3
100
AcDbCircle
 10
106.0698159999999
 20
84.302451
 30
0.0
 40
0.886484
100
AcDbArc
 50
61.512062
 51
170.0195899999999
  0
ARC
  5
5FA
330
5B3
100
AcDbEntity
  8
3
100
AcDbCircle
 10
94.613825
 20
104.144809
 30
0.0
 40
0.886484
100
AcDbArc
 50
249.9804099999999
 51
358.4879379999999
  0
ARC
  5
5FB
330
5B3
100
AcDbEntity
  8
3
100
AcDbCircle
 10
137.4897139999999
 20
64.17003000000001
 30
0.0
 40
1.611620999999999
100
AcDbArc
 50
358.5456669999999
 51
59.07935000000001
  0
ARC
  5
5FC
330
5B3
100
AcDbEntity
  8
3
100
AcDbCircle
 10
83.49999999999999
 20
147.5
 30
0.0
 40
12.0
100
AcDbArc
 50
180.0
 51
0.0
  0
LINE
  5
5FD
330
5B3
100
AcDbEntity
  8
1
100
AcDbLine
 10
64.5
 20
147.5
 30
0.0
 11
103.0
 21
147.5
 31
0.0
  0
ARC
  5
5FE
330
5B3
100
AcDbEntity
  8
3
100
AcDbCircle
 10
74.111413
 20
141.4214489999999
 30
0.0
 40
1.611620999999999
100
AcDbArc
 50
149.8167629999999
 51
179.07935
  0
ARC
  5
5FF
330
5B3
100
AcDbEntity
  8
3
100
AcDbCircle
 10
101.884903
 20
146.282211
 30
0.0
 40
6.5
100
AcDbArc
 50
73.393411
 51
169.201701
  0
ARC
  5
600
330
5B3
100
AcDbEntity
  8
3
100
AcDbCircle
 10
92.88858600000001
 20
141.4214489999999
 30
0.0
 40
1.611620999999999
100
AcDbArc
 50
0.92065
 51
30.18323699999999
  0
LINE
  5
601
330
5B3
100
AcDbEntity
  8
3
100
AcDbLine
 10
227.9995369999999
 20
72.366116
 30
0.0
 11
227.9995369999999
 21
125.0008989999999
 31
0.0
  0
LINE
  5
602
330
5B3
100
AcDbEntity
  8
1
100
AcDbLine
 10
223.4999999999999
 20
139.067679
 30
0.0
 11
223.4999999999999
 21
84.50000000000001
 31
0.0
  0
LINE
  5
603
330
5B3
100
AcDbEntity
  8
3
100
AcDbLine
 10
234.5
 20
64.57627099999999
 30
0.0
 11
234.5
 21
104.423729
 31
0.0
  0
ARC
  5
604
330
5B3
100
AcDbEntity
  8
3
100
AcDbCircle
 10
234.3841569999999
 20
57.55037399999999
 30
0.0
 40
14.967045
100
AcDbArc
 50
132.484077
 51
154.981759
  0
LINE
  5
605
330
5B3
100
AcDbEntity
  8
3
100
AcDbLine
 10
224.275635
 20
68.588047
 30
0.0
 11
234.5
 21
78.961131
 31
0.0
  0
LINE
  5
606
330
5B3
100
AcDbEntity
  8
1
100
AcDbLine
 10
223.4999999999999
 20
140.013486
 30
0.0
 11
223.4999999999999
 21
167.9188889999999
 31
0.0
  0
LINE
  5
607
330
5B3
100
AcDbEntity
  8
1
100
AcDbLine
 10
223.4999999999999
 20
139.067679
 30
0.0
 11
223.4999999999999
 21
168.234157
 31
0.0
  0
LWPOLYLINE
  5
608
330
5B3
100
AcDbEntity
  8
0
100
AcDbPolyline
 90
        3
 70
     1
 43
0.0
 10
234.4557899999999
 20
124.445827
 10
230.255131
 20
126.871079
 10
230.255131
 20
122.0205749999999
  0
LINE
  5
609
330
5B3
100
AcDbEntity
  8
3
100
AcDbLine
 10
214.5
 20
135.4999999999999
 30
0.0
 11
222.5999999999999
 21
135.4999999999999
 31
0.0
  0
LWPOLYLINE
  5
60A
330
5B3
100
AcDbEntity
  8
0
100
AcDbPolyline
 90
        3
 70
     1
 43
0.0
 10
234.4557899999999
 20
129.296331
 10
230.255131
 20
131.721583
 10
230.255131
 20
126.871079
  0
ARC
  5
60B
330
5B3
100
AcDbEntity
  8
3
100
AcDbCircle
 10
223.4999999999999
 20
155.4999999999999
 30
0.0
 40
9.0
100
AcDbArc
 50
90.0
 51
178.934391
  0
LINE
  5
60C
330
5B3
100
AcDbEntity
  8
3
100
AcDbLine
 10
230.994425
 20
141.456732
 30
0.0
 11
232.5
 21
141.92482
 31
0.0
  0
ARC
  5
60D
330
5B3
100
AcDbEntity
  8
3
100
AcDbCircle
 10
223.4999999999999
 20
155.4999999999999
 30
0.0
 40
9.0
100
AcDbArc
 50
1.065609
 51
90.0
  0
DIMENSION
  5
60E
330
5B3
100
AcDbEntity
  8
0
100
AcDbDimension
  2
*D17
 10
268.5
 20
119.9919729999999
 30
0.0
 11
260.3079979999999
 21
119.9919729999999
 31
0.0
 12
-39.5
 22
-139.0
 32
0.0
 70
   128
 71
     5
 42
-1.0
  3
STANDARD
100
AcDbAlignedDimension
 13
252.4999999999999
 23
103.4999999999999
 33
-5.786941999999999
 14
268.5
 24
101.5
 34
-5.786941999999999
100
AcDbRotatedDimension
1001
ACAD
1000
DSTYLE
1002
{
1070
    78
1070
     8
1070
   288
1070
     1
1070
   284
1070
     8
1070
   140
1040
5.0
1070
    73
1070
     0
1070
   272
1070
     2
1070
    42
1040
1.0
1070
    44
1040
1.0
1070
   271
1070
     2
1070
    41
1040
2.0
1002
}
  0
LINE
  5
60F
330
5B3
100
AcDbEntity
  8
1
100
AcDbLine
 10
242.0
 20
84.50000000000001
 30
-5.786941999999999
 11
242.0
 21
111.527984
 31
-5.786941999999999
  0
LINE
  5
610
330
5B3
100
AcDbEntity
  8
3
100
AcDbLine
 10
268.5
 20
101.5
 30
-5.786941999999999
 11
268.5
 21
67.5
 31
-5.786941999999999
  0
LINE
  5
611
330
5B3
100
AcDbEntity
  8
1
100
AcDbLine
 10
242.0
 20
84.50000000000001
 30
-5.786941999999999
 11
242.0
 21
56.80008
 31
-5.786941999999999
  0
LINE
  5
612
330
5B3
100
AcDbEntity
  8
3
100
AcDbLine
 10
268.5
 20
67.5
 30
-5.786941999999999
 11
252.4999999999999
 21
67.5
 31
-5.786941999999999
  0
LINE
  5
613
330
5B3
100
AcDbEntity
  8
3
100
AcDbLine
 10
252.4999999999999
 20
67.5
 30
-5.786941999999999
 11
252.4999999999999
 21
65.5
 31
-5.786941999999999
  0
LINE
  5
614
330
5B3
100
AcDbEntity
  8
3
100
AcDbLine
 10
252.4999999999999
 20
101.5
 30
-5.786941999999999
 11
268.5
 21
101.5
 31
-5.786941999999999
  0
LINE
  5
615
330
5B3
100
AcDbEntity
  8
1
100
AcDbLine
 10
252.4999999999999
 20
84.50000000000001
 30
-5.786941999999999
 11
242.5
 21
84.50000000000001
 31
-5.786941999999999
  0
LINE
  5
616
330
5B3
100
AcDbEntity
  8
1
100
AcDbLine
 10
252.4999999999999
 20
84.50000000000001
 30
-5.786941999999999
 11
242.5
 21
84.50000000000001
 31
-5.786941999999999
  0
LINE
  5
617
330
5B3
100
AcDbEntity
  8
1
100
AcDbLine
 10
252.4999999999999
 20
84.50000000000001
 30
-5.786941999999999
 11
242.5
 21
84.50000000000001
 31
-5.786941999999999
  0
LINE
  5
618
330
5B3
100
AcDbEntity
  8
1
100
AcDbLine
 10
252.4999999999999
 20
84.50000000000001
 30
-5.786941999999999
 11
242.5
 21
84.50000000000001
 31
-5.786941999999999
  0
LINE
  5
619
330
5B3
100
AcDbEntity
  8
3
100
AcDbLine
 10
252.4999999999999
 20
103.4999999999999
 30
-5.786941999999999
 11
252.4999999999999
 21
101.5
 31
-5.786941999999999
  0
ARC
  5
61A
330
5B3
100
AcDbEntity
  8
2
100
AcDbCircle
 10
242.505733
 20
76.441612
 30
0.0
 40
8.664708
100
AcDbArc
 50
22.84996099999999
 51
93.30709
  0
ARC
  5
61B
330
5B3
100
AcDbEntity
  8
2
100
AcDbCircle
 10
256.277488
 20
74.62003
 30
0.0
 40
19.308457
100
AcDbArc
 50
153.4846139999999
 51
206.51538
  0
LINE
  5
61C
330
5B3
100
AcDbEntity
  8
2
100
AcDbLine
 10
242.135914
 20
61.528139
 30
0.0
 11
247.139597
 21
66.03864399999999
 31
0.0
  0
ARC
  5
61D
330
5B3
100
AcDbEntity
  8
2
100
AcDbCircle
 10
241.202987
 20
74.94905
 30
0.0
 40
10.56648699999999
100
AcDbArc
 50
274.364485
 51
332.840674
  0
ARC
  5
61E
330
5B3
100
AcDbEntity
  8
2
100
AcDbCircle
 10
241.8310029999999
 20
67.61359099999999
 30
0.0
 40
3.258566
100
AcDbArc
 50
209.6818999999999
 51
272.9280729999999
  0
ARC
  5
61F
330
5B3
100
AcDbEntity
  8
2
100
AcDbCircle
 10
238.9743919999999
 20
74.82982599999999
 30
0.0
 40
12.545332
100
AcDbArc
 50
337.9780399999999
 51
23.370678
  0
ARC
  5
620
330
5B3
100
AcDbEntity
  8
2
100
AcDbCircle
 10
241.847058
 20
81.96227399999999
 30
0.0
 40
3.120652999999999
100
AcDbArc
 50
87.62339700000001
 51
155.8289919999999
  0
ARC
  5
621
330
5B3
100
AcDbEntity
  8
3
100
AcDbCircle
 10
227.0
 20
105.079257
 30
0.0
 40
10.0
100
AcDbArc
 50
5.534591
 51
27.21611199999999
  0
ARC
  5
622
330
5B3
100
AcDbEntity
  8
3
100
AcDbCircle
 10
246.4804339999999
 20
104.500939
 30
0.0
 40
5.0
100
AcDbArc
 50
0.0
 51
29.90397899999999
  0
LINE
  5
623
330
5B3
100
AcDbEntity
  8
3
100
AcDbLine
 10
251.4804339999999
 20
104.4131939999999
 30
0.0
 11
251.4804339999999
 21
104.500939
 31
0.0
  0
LWPOLYLINE
  5
624
330
5B3
100
AcDbEntity
  8
0
100
AcDbPolyline
 90
        3
 70
     1
 43
0.0
 10
268.5278059999999
 20
139.19679
 10
272.7284649999999
 20
136.7715379999999
 10
272.7284649999999
 20
141.622041
  0
TEXT
  5
625
330
5B3
100
AcDbEntity
  8
0
100
AcDbText
 10
254.862341
 20
135.015491
 30
0.0
 40
5.0
  1
%%P0.1
 41
0.7
  7
BIGFONT
100
AcDbText
  0
LWPOLYLINE
  5
626
330
5B3
100
AcDbEntity
  8
0
100
AcDbPolyline
 90
        3
 70
     1
 43
0.0
 10
268.5278059999999
 20
144.047293
 10
272.7284649999999
 20
141.622041
 10
272.7284649999999
 20
146.4725449999999
  0
ENDBLK
  5
628
330
5B3
100
AcDbEntity
  8
0
100
AcDbBlockEnd
  0
BLOCK
  5
6FB
330
6F0
100
AcDbEntity
  8
0
100
AcDbBlockBegin
  2
*D19
 70
     1
 10
0.0
 20
0.0
 30
0.0
  3
*D19
  1

  0
LINE
  5
6F1
330
6F0
100
AcDbEntity
  8
0
  6
ByBlock
 62
     0
100
AcDbLine
 10
361.0
 20
356.601818
 30
0.0
 11
361.0
 21
395.394113
 31
0.0
  0
LINE
  5
6F2
330
6F0
100
AcDbEntity
  8
0
  6
ByBlock
 62
     0
100
AcDbLine
 10
398.0
 20
353.5
 30
0.0
 11
398.0
 21
395.394113
 31
0.0
  0
LINE
  5
6F3
330
6F0
100
AcDbEntity
  8
0
  6
ByBlock
 62
     0
100
AcDbLine
 10
363.0
 20
394.394113
 30
0.0
 11
378.0086849999999
 21
394.394113
 31
0.0
  0
LINE
  5
6F4
330
6F0
100
AcDbEntity
  8
0
  6
ByBlock
 62
     0
100
AcDbLine
 10
396.0
 20
394.394113
 30
0.0
 11
386.522018
 21
394.394113
 31
0.0
  0
SOLID
  5
6F5
330
6F0
100
AcDbEntity
  8
0
  6
ByBlock
 62
     0
100
AcDbTrace
 10
363.0
 20
394.727447
 30
0.0
 11
363.0
 21
394.0607799999999
 31
0.0
 12
361.0
 22
394.394113
 32
0.0
 13
361.0
 23
394.394113
 33
0.0
  0
SOLID
  5
6F6
330
6F0
100
AcDbEntity
  8
0
  6
ByBlock
 62
     0
100
AcDbTrace
 10
396.0
 20
394.727447
 30
0.0
 11
396.0
 21
394.0607799999999
 31
0.0
 12
398.0
 22
394.394113
 32
0.0
 13
398.0
 23
394.394113
 33
0.0
  0
MTEXT
  5
6F7
330
6F0
100
AcDbEntity
  8
0
  6
ByBlock
 62
     0
100
AcDbMText
 10
382.2653509999999
 20
394.394113
 30
0.0
 40
5.0
 41
0.0
 71
     5
 72
     1
  1
\A1;37
 73
     1
 44
1.0
  0
POINT
  5
6F8
330
6F0
100
AcDbEntity
  8
DEFPOINTS
  6
ByBlock
 62
     0
100
AcDbPoint
 10
361.0
 20
355.601818
 30
0.0
  0
POINT
  5
6F9
330
6F0
100
AcDbEntity
  8
DEFPOINTS
  6
ByBlock
 62
     0
100
AcDbPoint
 10
398.0
 20
352.4999999999999
 30
0.0
  0
POINT
  5
6FA
330
6F0
100
AcDbEntity
  8
DEFPOINTS
  6
ByBlock
 62
     0
100
AcDbPoint
 10
398.0
 20
394.394113
 30
0.0
  0
ENDBLK
  5
6FC
330
6F0
100
AcDbEntity
  8
0
100
AcDbBlockEnd
  0
BLOCK
  5
708
330
6FD
100
AcDbEntity
  8
0
100
AcDbBlockBegin
  2
*D20
 70
     1
 10
0.0
 20
0.0
 30
0.0
  3
*D20
  1

  0
LINE
  5
6FE
330
6FD
100
AcDbEntity
  8
0
  6
ByBlock
 62
     0
100
AcDbLine
 10
381.0
 20
355.5
 30
0.0
 11
381.0
 21
382.4231649999999
 31
0.0
  0
LINE
  5
6FF
330
6FD
100
AcDbEntity
  8
0
  6
ByBlock
 62
     0
100
AcDbLine
 10
398.0
 20
353.5
 30
0.0
 11
398.0
 21
382.4231649999999
 31
0.0
  0
LINE
  5
700
330
6FD
100
AcDbEntity
  8
0
  6
ByBlock
 62
     0
100
AcDbLine
 10
383.0
 20
381.4231649999999
 30
0.0
 11
386.85737
 21
381.4231649999999
 31
0.0
  0
LINE
  5
701
330
6FD
100
AcDbEntity
  8
0
  6
ByBlock
 62
     0
100
AcDbLine
 10
396.0
 20
381.4231649999999
 30
0.0
 11
393.704037
 21
381.4231649999999
 31
0.0
  0
SOLID
  5
702
330
6FD
100
AcDbEntity
  8
0
  6
ByBlock
 62
     0
100
AcDbTrace
 10
383.0
 20
381.756499
 30
0.0
 11
383.0
 21
381.089832
 31
0.0
 12
381.0
 22
381.4231649999999
 32
0.0
 13
381.0
 23
381.4231649999999
 33
0.0
  0
SOLID
  5
703
330
6FD
100
AcDbEntity
  8
0
  6
ByBlock
 62
     0
100
AcDbTrace
 10
396.0
 20
381.756499
 30
0.0
 11
396.0
 21
381.089832
 31
0.0
 12
398.0
 22
381.4231649999999
 32
0.0
 13
398.0
 23
381.4231649999999
 33
0.0
  0
MTEXT
  5
704
330
6FD
100
AcDbEntity
  8
0
  6
ByBlock
 62
     0
100
AcDbMText
 10
390.280704
 20
381.4231649999999
 30
0.0
 40
5.0
 41
0.0
 71
     5
 72
     1
  1
\A1;17
 73
     1
 44
1.0
  0
POINT
  5
705
330
6FD
100
AcDbEntity
  8
DEFPOINTS
  6
ByBlock
 62
     0
100
AcDbPoint
 10
381.0
 20
354.4999999999999
 30
0.0
  0
POINT
  5
706
330
6FD
100
AcDbEntity
  8
DEFPOINTS
  6
ByBlock
 62
     0
100
AcDbPoint
 10
398.0
 20
352.4999999999999
 30
0.0
  0
POINT
  5
707
330
6FD
100
AcDbEntity
  8
DEFPOINTS
  6
ByBlock
 62
     0
100
AcDbPoint
 10
398.0
 20
381.4231649999999
 30
0.0
  0
ENDBLK
  5
709
330
6FD
100
AcDbEntity
  8
0
100
AcDbBlockEnd
  0
BLOCK
  5
777
330
70A
100
AcDbEntity
  8
0
100
AcDbBlockBegin
  2
A$C7E974A43
 70
     0
 10
0.0
 20
0.0
 30
0.0
  3
A$C7E974A43
  1

  0
DIMENSION
  5
70B
330
70A
100
AcDbEntity
  8
0
100
AcDbDimension
  2
*D19
 10
330.499999
 20
167.8941129999999
 30
0.0
 11
314.7653509999999
 21
167.8941129999999
 31
0.0
 12
-67.500001
 22
-226.5
 32
0.0
 70
   128
 71
     5
 42
-1.0
  3
STANDARD
100
AcDbAlignedDimension
 13
293.499999
 23
129.1018179999999
 33
0.0
 14
330.499999
 24
126.0
 34
0.0
100
AcDbRotatedDimension
1001
ACAD
1000
DSTYLE
1002
{
1070
    78
1070
     8
1070
   288
1070
     1
1070
   284
1070
     8
1070
   140
1040
5.0
1070
    73
1070
     0
1070
   272
1070
     2
1070
    42
1040
1.0
1070
    44
1040
1.0
1070
   271
1070
     2
1070
    41
1040
2.0
1002
}
  0
ARC
  5
70C
330
70A
100
AcDbEntity
  8
3
100
AcDbCircle
 10
302.999999
 20
93.525
 30
0.0
 40
13.525
100
AcDbArc
 50
225.379887
 51
320.92669
  0
ARC
  5
70D
330
70A
100
AcDbEntity
  8
3
100
AcDbCircle
 10
302.999999
 20
119.4749999999999
 30
0.0
 40
13.525
100
AcDbArc
 50
39.07331
 51
134.6201129999999
  0
LINE
  5
70E
330
70A
100
AcDbEntity
  8
1
100
AcDbLine
 10
267.999999
 20
106.4999999999999
 30
0.0
 11
334.999999
 21
106.4999999999999
 31
0.0
  0
ARC
  5
70F
330
70A
100
AcDbEntity
  8
3
100
AcDbCircle
 10
105.4999989999999
 20
106.4999999999999
 30
0.0
 40
89.0
100
AcDbArc
 50
103.316918
 51
270.0
  0
ARC
  5
710
330
70A
100
AcDbEntity
  8
3
100
AcDbCircle
 10
105.4999989999999
 20
106.4999999999999
 30
0.0
 40
100.0
100
AcDbArc
 50
90.0
 51
270.0
  0
LINE
  5
711
330
70A
100
AcDbEntity
  8
3
100
AcDbLine
 10
288.639949
 20
30.251938
 30
0.0
 11
288.639949
 21
62.89494300000001
 31
0.0
  0
ARC
  5
712
330
70A
100
AcDbEntity
  8
3
100
AcDbCircle
 10
105.4999989999999
 20
106.4999999999999
 30
0.0
 40
89.0
100
AcDbArc
 50
270.0
 51
76.683082
  0
ARC
  5
713
330
70A
100
AcDbEntity
  8
3
100
AcDbCircle
 10
105.4999989999999
 20
106.4999999999999
 30
0.0
 40
74.0
100
AcDbArc
 50
218.9403089999999
 51
321.059691
  0
ARC
  5
714
330
70A
100
AcDbEntity
  8
3
100
AcDbCircle
 10
105.4999989999999
 20
106.4999999999999
 30
0.0
 40
100.0
100
AcDbArc
 50
270.0
 51
90.0
  0
LINE
  5
715
330
70A
100
AcDbEntity
  8
1
100
AcDbLine
 10
105.4999989999999
 20
210.4999999999999
 30
0.0
 11
105.4999989999999
 21
0.0
 31
0.0
  0
LINE
  5
716
330
70A
100
AcDbEntity
  8
3
100
AcDbLine
 10
272.499999
 20
17.5
 30
0.0
 11
272.499999
 21
106.4999999999999
 31
0.0
  0
LINE
  5
717
330
70A
100
AcDbEntity
  8
1
100
AcDbLine
 10
283.499999
 20
35.595951
 30
0.0
 11
283.499999
 21
106.4999999999999
 31
0.0
  0
LINE
  5
718
330
70A
100
AcDbEntity
  8
3
100
AcDbLine
 10
294.4999989999999
 20
17.5
 30
0.0
 11
294.4999989999999
 21
69.473586
 31
0.0
  0
ARC
  5
719
330
70A
100
AcDbEntity
  8
3
100
AcDbCircle
 10
283.499999
 20
17.5
 30
0.0
 40
11.0
100
AcDbArc
 50
270.0
 51
359.1730339999999
  0
ARC
  5
71A
330
70A
100
AcDbEntity
  8
3
100
AcDbCircle
 10
283.499999
 20
17.5
 30
0.0
 40
11.0
100
AcDbArc
 50
180.826966
 51
270.0
  0
LINE
  5
71B
330
70A
100
AcDbEntity
  8
1
100
AcDbLine
 10
283.499999
 20
8.5
 30
0.0
 11
283.499999
 21
2.807997999999999
 31
0.0
  0
ARC
  5
71C
330
70A
100
AcDbEntity
  8
3
100
AcDbCircle
 10
283.499999
 20
25.5
 30
0.0
 40
7.0
100
AcDbArc
 50
90.0
 51
148.7190149999999
  0
LINE
  5
71D
330
70A
100
AcDbEntity
  8
1
100
AcDbLine
 10
267.4999989999999
 20
17.5
 30
0.0
 11
299.499999
 21
17.5
 31
0.0
  0
ARC
  5
71E
330
70A
100
AcDbEntity
  8
3
100
AcDbCircle
 10
294.999999
 20
17.5
 30
0.0
 40
21.0
100
AcDbArc
 50
143.9950119999999
 51
178.5598069999999
  0
LINE
  5
71F
330
70A
100
AcDbEntity
  8
3
100
AcDbLine
 10
272.652617
 20
17.538154
 30
0.0
 11
273.855204
 21
17.838801
 31
0.0
  0
ARC
  5
720
330
70A
100
AcDbEntity
  8
3
100
AcDbCircle
 10
273.8066959999999
 20
18.032829
 30
0.0
 40
0.2
100
AcDbArc
 50
284.036243
 51
358.5598069999999
  0
ARC
  5
721
330
70A
100
AcDbEntity
  8
3
100
AcDbCircle
 10
272.701124
 20
17.34412599999999
 30
0.0
 40
0.2
100
AcDbArc
 50
104.036243
 51
180.826966
  0
ARC
  5
722
330
70A
100
AcDbEntity
  8
3
100
AcDbCircle
 10
304.464251
 20
29.80142999999999
 30
0.0
 40
15.830714
100
AcDbArc
 50
178.3692649999999
 51
230.992265
  0
LINE
  5
723
330
70A
100
AcDbEntity
  8
1
100
AcDbLine
 10
283.499999
 20
35.595951
 30
0.0
 11
283.499999
 21
8.5
 31
0.0
  0
LINE
  5
724
330
70A
100
AcDbEntity
  8
1
100
AcDbLine
 10
283.499999
 20
35.123047
 30
0.0
 11
283.499999
 21
8.5
 31
0.0
  0
ARC
  5
725
330
70A
100
AcDbEntity
  8
3
100
AcDbCircle
 10
283.499999
 20
25.5
 30
0.0
 40
7.0
100
AcDbArc
 50
42.75371299999999
 51
90.0
  0
LINE
  5
726
330
70A
100
AcDbEntity
  8
3
100
AcDbLine
 10
78.76640999999999
 20
105.499111
 30
0.0
 11
36.44271299999999
 21
79.90881299999999
 31
0.0
  0
LINE
  5
727
330
70A
100
AcDbEntity
  8
1
100
AcDbLine
 10
105.4999989999999
 20
106.4999999999999
 30
0.0
 11
14.89183299999999
 21
54.18735
 31
0.0
  0
LINE
  5
728
330
70A
100
AcDbEntity
  8
1
100
AcDbLine
 10
-0.000001
 20
106.4999999999999
 30
0.0
 11
105.4999989999999
 21
106.4999999999999
 31
0.0
  0
ARC
  5
729
330
70A
100
AcDbEntity
  8
3
100
AcDbCircle
 10
105.4999989999999
 20
106.4999999999999
 30
0.0
 40
74.0
100
AcDbArc
 50
98.940309
 51
201.0596909999999
  0
LINE
  5
72A
330
70A
100
AcDbEntity
  8
3
100
AcDbLine
 10
91.26640999999999
 20
83.848476
 30
0.0
 11
47.942713
 21
59.990229
 31
0.0
  0
ARC
  5
72B
330
70A
100
AcDbEntity
  8
3
100
AcDbCircle
 10
73.781575
 20
88.25303199999998
 30
0.0
 40
39.275546
100
AcDbArc
 50
194.315136
 51
225.850802
  0
ARC
  5
72C
330
70A
100
AcDbEntity
  8
3
100
AcDbCircle
 10
37.155107
 20
78.672143
 30
0.0
 40
1.435505
100
AcDbArc
 50
121.274677
 51
185.2033259999999
  0
ARC
  5
72D
330
70A
100
AcDbEntity
  8
3
100
AcDbCircle
 10
47.22792199999999
 20
61.225515
 30
0.0
 40
1.435505
100
AcDbArc
 50
234.796674
 51
298.725323
  0
LINE
  5
72E
330
70A
100
AcDbEntity
  8
1
100
AcDbLine
 10
105.4999989999999
 20
106.4999999999999
 30
0.0
 11
196.1081659999999
 21
54.18735
 31
0.0
  0
ARC
  5
72F
330
70A
100
AcDbEntity
  8
3
100
AcDbCircle
 10
105.4999989999999
 20
106.4999999999999
 30
0.0
 40
74.0
100
AcDbArc
 50
338.940309
 51
81.05969100000001
  0
LINE
  5
730
330
70A
100
AcDbEntity
  8
1
100
AcDbLine
 10
210.999999
 20
106.4999999999999
 30
0.0
 11
105.4999989999999
 21
106.4999999999999
 31
0.0
  0
LINE
  5
731
330
70A
100
AcDbEntity
  8
3
100
AcDbLine
 10
92.99999900000001
 20
130.152411
 30
0.0
 11
93.999999
 21
179.600957
 31
0.0
  0
LINE
  5
732
330
70A
100
AcDbEntity
  8
3
100
AcDbLine
 10
117.9999989999999
 20
130.152411
 30
0.0
 11
116.9999989999999
 21
179.600957
 31
0.0
  0
ARC
  5
733
330
70A
100
AcDbEntity
  8
3
100
AcDbCircle
 10
105.4999989999999
 20
106.4999999999999
 30
0.0
 40
26.490755
100
AcDbArc
 50
357.944612
 51
62.055388
  0
LINE
  5
734
330
70A
100
AcDbEntity
  8
3
100
AcDbLine
 10
119.7335879999999
 20
83.848476
 30
0.0
 11
163.057286
 21
59.990229
 31
0.0
  0
LINE
  5
735
330
70A
100
AcDbEntity
  8
3
100
AcDbLine
 10
132.233588
 20
105.499111
 30
0.0
 11
174.557286
 21
79.90881299999999
 31
0.0
  0
ARC
  5
736
330
70A
100
AcDbEntity
  8
3
100
AcDbCircle
 10
98.250346
 20
110.685589
 30
0.0
 40
33.20572999999999
100
AcDbArc
 50
310.1685749999999
 51
349.831425
  0
ARC
  5
737
330
70A
100
AcDbEntity
  8
3
100
AcDbCircle
 10
112.749653
 20
110.685589
 30
0.0
 40
33.20572999999999
100
AcDbArc
 50
190.168575
 51
229.831425
  0
CIRCLE
  5
738
330
70A
100
AcDbEntity
  8
3
100
AcDbCircle
 10
105.4999989999999
 20
106.4999999999999
 30
0.0
 40
22.5
  0
ARC
  5
739
330
70A
100
AcDbEntity
  8
3
100
AcDbCircle
 10
105.4999989999999
 20
106.4999999999999
 30
0.0
 40
26.490755
100
AcDbArc
 50
237.944612
 51
302.055388
  0
ARC
  5
73A
330
70A
100
AcDbEntity
  8
3
100
AcDbCircle
 10
90.592591
 20
84.610964
 30
0.0
 40
1.017555999999999
100
AcDbArc
 50
311.467406
 51
43.502229
  0
ARC
  5
73B
330
70A
100
AcDbEntity
  8
3
100
AcDbCircle
 10
120.407408
 20
84.610964
 30
0.0
 40
1.017555999999999
100
AcDbArc
 50
136.497771
 51
228.5325939999999
  0
ARC
  5
73C
330
70A
100
AcDbEntity
  8
3
100
AcDbCircle
 10
105.4999989999999
 20
98.12882100000001
 30
0.0
 40
33.20572999999999
100
AcDbArc
 50
70.168575
 51
109.831425
  0
ARC
  5
73D
330
70A
100
AcDbEntity
  8
3
100
AcDbCircle
 10
105.4999989999999
 20
106.4999999999999
 30
0.0
 40
26.490755
100
AcDbArc
 50
117.944612
 51
182.055388
  0
ARC
  5
73E
330
70A
100
AcDbEntity
  8
3
100
AcDbCircle
 10
79.08983499999999
 20
104.534323
 30
0.0
 40
1.017555999999999
100
AcDbArc
 50
16.497771
 51
108.5325939999999
  0
ARC
  5
73F
330
70A
100
AcDbEntity
  8
3
100
AcDbCircle
 10
93.997243
 20
130.354712
 30
0.0
 40
1.017555999999999
100
AcDbArc
 50
191.467406
 51
283.5022289999999
  0
ARC
  5
740
330
70A
100
AcDbEntity
  8
3
100
AcDbCircle
 10
131.9101639999999
 20
104.534323
 30
0.0
 40
1.017555999999999
100
AcDbArc
 50
71.46740600000001
 51
163.502229
  0
ARC
  5
741
330
70A
100
AcDbEntity
  8
3
100
AcDbCircle
 10
117.002756
 20
130.354712
 30
0.0
 40
1.017555999999999
100
AcDbArc
 50
256.4977709999999
 51
348.532594
  0
ARC
  5
742
330
70A
100
AcDbEntity
  8
3
100
AcDbCircle
 10
163.7508479999999
 20
61.24706800000001
 30
0.0
 40
1.435505
100
AcDbArc
 50
241.108739
 51
305.037387
  0
ARC
  5
743
330
70A
100
AcDbEntity
  8
3
100
AcDbCircle
 10
137.2184239999999
 20
88.25303199999998
 30
0.0
 40
39.275546
100
AcDbArc
 50
314.149198
 51
345.684864
  0
ARC
  5
744
330
70A
100
AcDbEntity
  8
3
100
AcDbCircle
 10
173.8448919999999
 20
78.672143
 30
0.0
 40
1.435505
100
AcDbArc
 50
354.796674
 51
58.72532299999999
  0
ARC
  5
745
330
70A
100
AcDbEntity
  8
3
100
AcDbCircle
 10
105.4999989999999
 20
186.5
 30
0.0
 40
12.0
100
AcDbArc
 50
180.0
 51
360.0
  0
LINE
  5
746
330
70A
100
AcDbEntity
  8
1
100
AcDbLine
 10
82.99999900000001
 20
186.5
 30
0.0
 11
129.999999
 21
186.5
 31
0.0
  0
ARC
  5
747
330
70A
100
AcDbEntity
  8
3
100
AcDbCircle
 10
86.50497800000001
 20
186.236037
 30
0.0
 40
7.0
100
AcDbArc
 50
359.4312319999999
 51
102.415348
  0
ARC
  5
748
330
70A
100
AcDbEntity
  8
3
100
AcDbCircle
 10
95.427184
 20
179.602341
 30
0.0
 40
1.435505
100
AcDbArc
 50
114.7966739999999
 51
178.725323
  0
ARC
  5
749
330
70A
100
AcDbEntity
  8
3
100
AcDbCircle
 10
124.495021
 20
186.236037
 30
0.0
 40
7.0
100
AcDbArc
 50
77.584652
 51
180.568768
  0
ARC
  5
74A
330
70A
100
AcDbEntity
  8
3
100
AcDbCircle
 10
115.5647629999999
 20
179.57318
 30
0.0
 40
1.435505
100
AcDbArc
 50
1.108738999999999
 51
65.03738699999999
  0
LINE
  5
74B
330
70A
100
AcDbEntity
  8
3
100
AcDbLine
 10
312.1852559999999
 20
129.402572
 30
0.0
 11
292.361174
 21
176.5
 31
0.0
  0
LINE
  5
74C
330
70A
100
AcDbEntity
  8
3
100
AcDbLine
 10
294.4999989999999
 20
138.166666
 30
0.0
 11
294.4999989999999
 21
129.9952479999999
 31
0.0
  0
LINE
  5
74D
330
70A
100
AcDbEntity
  8
3
100
AcDbLine
 10
288.639949
 20
89.18659899999999
 30
0.0
 11
288.639949
 21
154.3051299999999
 31
0.0
  0
ARC
  5
74E
330
70A
100
AcDbEntity
  8
3
100
AcDbCircle
 10
286.499999
 20
131.1320489999999
 30
0.0
 40
10.0
100
AcDbArc
 50
1.160329
 51
21.16126
  0
LINE
  5
74F
330
70A
100
AcDbEntity
  8
1
100
AcDbLine
 10
302.4999989999999
 20
106.4999999999999
 30
0.0
 11
302.4999989999999
 21
139.0
 31
0.0
  0
LINE
  5
750
330
70A
100
AcDbEntity
  8
3
100
AcDbLine
 10
272.499999
 20
195.5
 30
0.0
 11
272.499999
 21
106.4999999999999
 31
0.0
  0
LINE
  5
751
330
70A
100
AcDbEntity
  8
1
100
AcDbLine
 10
283.499999
 20
177.404048
 30
0.0
 11
283.499999
 21
106.4999999999999
 31
0.0
  0
LINE
  5
752
330
70A
100
AcDbEntity
  8
3
100
AcDbLine
 10
293.499999
 20
83.89818199999998
 30
0.0
 11
293.499999
 21
129.1018179999999
 31
0.0
  0
ARC
  5
753
330
70A
100
AcDbEntity
  8
2
100
AcDbCircle
 10
295.473957
 20
94.24670199999999
 30
0.0
 40
16.733446
100
AcDbArc
 50
342.272786
 51
19.16023799999999
  0
LINE
  5
754
330
70A
100
AcDbEntity
  8
3
100
AcDbLine
 10
293.499999
 20
95.66666600000001
 30
0.0
 11
280.2072999999999
 21
77.94306800000001
 31
0.0
  0
ARC
  5
755
330
70A
100
AcDbEntity
  8
2
100
AcDbCircle
 10
312.949999
 20
94.25
 30
0.0
 40
16.467088
100
AcDbArc
 50
147.902413
 51
212.097587
  0
LINE
  5
756
330
70A
100
AcDbEntity
  8
1
100
AcDbLine
 10
302.4999989999999
 20
106.4999999999999
 30
0.0
 11
302.4999989999999
 21
59.0
 31
0.0
  0
ARC
  5
757
330
70A
100
AcDbEntity
  8
3
100
AcDbCircle
 10
283.499999
 20
63.25
 30
0.0
 40
3.25
100
AcDbArc
 50
202.6198649999999
 51
270.0
  0
ARC
  5
758
330
70A
100
AcDbEntity
  8
3
100
AcDbCircle
 10
295.499999
 20
70.0
 30
0.0
 40
17.0
100
AcDbArc
 50
165.6005659999999
 51
208.072487
  0
ARC
  5
759
330
70A
100
AcDbEntity
  8
3
100
AcDbCircle
 10
292.028685
 20
72.167197
 30
0.0
 40
13.15696799999999
100
AcDbArc
 50
153.3788519999999
 51
171.9924959999999
  0
LINE
  5
75A
330
70A
100
AcDbEntity
  8
3
100
AcDbLine
 10
287.319551
 20
61.41263000000001
 30
0.0
 11
302.985838
 21
79.00000699999999
 31
0.0
  0
ARC
  5
75B
330
70A
100
AcDbEntity
  8
3
100
AcDbCircle
 10
283.58518
 20
65.74940699999999
 30
0.0
 40
5.723037999999999
100
AcDbArc
 50
269.216868
 51
310.731524
  0
LINE
  5
75C
330
70A
100
AcDbEntity
  8
2
100
AcDbLine
 10
302.985838
 20
79.00000699999999
 30
0.0
 11
309.1232279999999
 21
85.71236999999999
 31
0.0
  0
ARC
  5
75D
330
70A
100
AcDbEntity
  8
2
100
AcDbCircle
 10
302.969517
 20
92.76895600000001
 30
0.0
 40
9.185588
100
AcDbArc
 50
267.330939
 51
336.8084350000001
  0
ARC
  5
75E
330
70A
100
AcDbEntity
  8
2
100
AcDbCircle
 10
302.4999989999999
 20
87.56249999999999
 30
0.0
 40
4.0625
100
AcDbArc
 50
210.510237
 51
270.0
  0
LINE
  5
75F
330
70A
100
AcDbEntity
  8
2
100
AcDbLine
 10
293.499999
 20
95.66666600000001
 30
0.0
 11
299.187446
 21
103.223624
 31
0.0
  0
ARC
  5
760
330
70A
100
AcDbEntity
  8
2
100
AcDbCircle
 10
303.430243
 20
96.639394
 30
0.0
 40
8.439904999999999
100
AcDbArc
 50
21.545076
 51
96.04274400000001
  0
ARC
  5
761
330
70A
100
AcDbEntity
  8
2
100
AcDbCircle
 10
302.4999989999999
 20
100.9374999999999
 30
0.0
 40
4.0625
100
AcDbArc
 50
90.0
 51
149.4897629999999
  0
LINE
  5
762
330
70A
100
AcDbEntity
  8
3
100
AcDbLine
 10
294.4999989999999
 20
195.5
 30
0.0
 11
294.4999989999999
 21
171.5265349999999
 31
0.0
  0
LINE
  5
763
330
70A
100
AcDbEntity
  8
1
100
AcDbLine
 10
283.499999
 20
177.404048
 30
0.0
 11
283.499999
 21
204.4999999999999
 31
0.0
  0
LINE
  5
764
330
70A
100
AcDbEntity
  8
3
100
AcDbLine
 10
295.82568
 20
134.74199
 30
0.0
 11
280.8225799999999
 21
174.5
 31
0.0
  0
LINE
  5
765
330
70A
100
AcDbEntity
  8
3
100
AcDbLine
 10
272.499999
 20
174.5
 30
0.0
 11
280.8225799999999
 21
174.5
 31
0.0
  0
LWPOLYLINE
  5
766
330
70A
100
AcDbEntity
  8
0
100
AcDbPolyline
 90
        3
 70
     1
 43
0.0
 10
294.001774
 20
166.597017
 10
288.2765219999999
 20
169.902493
 10
288.2765219999999
 20
163.291541
  0
LWPOLYLINE
  5
767
330
70A
100
AcDbEntity
  8
0
100
AcDbPolyline
 90
        3
 70
     1
 43
0.0
 10
294.001774
 20
159.986066
 10
288.2765219999999
 20
163.291541
 10
288.2765219999999
 20
156.68059
  0
LINE
  5
768
330
70A
100
AcDbEntity
  8
3
100
AcDbLine
 10
292.361174
 20
176.5
 30
0.0
 11
294.4999989999999
 21
177.0613179999999
 31
0.0
  0
ARC
  5
769
330
70A
100
AcDbEntity
  8
3
100
AcDbCircle
 10
283.499999
 20
195.5
 30
0.0
 40
11.0
100
AcDbArc
 50
90.0
 51
179.1730339999999
  0
LINE
  5
76A
330
70A
100
AcDbEntity
  8
1
100
AcDbLine
 10
267.4999989999999
 20
195.5
 30
0.0
 11
299.499999
 21
195.5
 31
0.0
  0
ARC
  5
76B
330
70A
100
AcDbEntity
  8
3
100
AcDbCircle
 10
283.499999
 20
195.5
 30
0.0
 40
11.0
100
AcDbArc
 50
0.826966
 51
90.0
  0
LINE
  5
76C
330
70A
100
AcDbEntity
  8
1
100
AcDbLine
 10
283.499999
 20
177.8769519999999
 30
0.0
 11
283.499999
 21
204.4999999999999
 31
0.0
  0
LINE
  5
76D
330
70A
100
AcDbEntity
  8
1
100
AcDbLine
 10
283.499999
 20
204.4999999999999
 30
0.0
 11
283.499999
 21
210.1920009999999
 31
0.0
  0
DIMENSION
  5
76E
330
70A
100
AcDbEntity
  8
0
100
AcDbDimension
  2
*D20
 10
330.499999
 20
154.9231649999999
 30
0.0
 11
322.7807029999999
 21
154.9231649999999
 31
0.0
 12
-67.500001
 22
-226.5
 32
0.0
 70
   128
 71
     5
 42
-1.0
  3
STANDARD
100
AcDbAlignedDimension
 13
313.499999
 23
128.0
 33
0.0
 14
330.499999
 24
126.0
 34
0.0
100
AcDbRotatedDimension
1001
ACAD
1000
DSTYLE
1002
{
1070
    78
1070
     8
1070
   288
1070
     1
1070
   284
1070
     8
1070
   140
1040
5.0
1070
    73
1070
     0
1070
   272
1070
     2
1070
    42
1040
1.0
1070
    44
1040
1.0
1070
   271
1070
     2
1070
    41
1040
2.0
1002
}
  0
LINE
  5
76F
330
70A
100
AcDbEntity
  8
3
100
AcDbLine
 10
330.499999
 20
126.0
 30
0.0
 11
330.499999
 21
87.0
 31
0.0
  0
LINE
  5
770
330
70A
100
AcDbEntity
  8
3
100
AcDbLine
 10
330.499999
 20
87.0
 30
0.0
 11
313.499999
 21
87.0
 31
0.0
  0
LINE
  5
771
330
70A
100
AcDbEntity
  8
3
100
AcDbLine
 10
313.499999
 20
87.0
 30
0.0
 11
313.499999
 21
85.0
 31
0.0
  0
LINE
  5
772
330
70A
100
AcDbEntity
  8
3
100
AcDbLine
 10
313.499999
 20
126.0
 30
0.0
 11
330.499999
 21
126.0
 31
0.0
  0
LINE
  5
773
330
70A
100
AcDbEntity
  8
3
100
AcDbLine
 10
313.499999
 20
128.0
 30
0.0
 11
313.499999
 21
126.0
 31
0.0
  0
TEXT
  5
774
330
70A
100
AcDbEntity
  8
0
100
AcDbText
 10
315.047475
 20
173.6312269999999
 30
0.0
 40
5.0
  1
%%P0.1
 41
0.7
  7
BIGFONT
100
AcDbText
  0
LWPOLYLINE
  5
775
330
70A
100
AcDbEntity
  8
0
100
AcDbPolyline
 90
        3
 70
     1
 43
0.0
 10
331.330417
 20
165.757721
 10
337.055668
 20
162.452245
 10
337.055668
 20
169.063196
  0
LWPOLYLINE
  5
776
330
70A
100
AcDbEntity
  8
0
100
AcDbPolyline
 90
        3
 70
     1
 43
0.0
 10
331.330417
 20
172.368672
 10
337.055668
 20
169.063196
 10
337.055668
 20
175.674147
  0
ENDBLK
  5
778
330
70A
100
AcDbEntity
  8
0
100
AcDbBlockEnd
  0
BLOCK
  5
82D
330
823
100
AcDbEntity
  8
0
100
AcDbBlockBegin
  2
*D22
 70
     1
 10
0.0
 20
0.0
 30
0.0
  3
*D22
  1

  0
LINE
  5
824
330
823
100
AcDbEntity
  8
0
  6
ByBlock
 62
     0
100
AcDbLine
 10
395.5
 20
355.5
 30
0.0
 11
395.5
 21
374.800992
 31
0.0
  0
LINE
  5
825
330
823
100
AcDbEntity
  8
0
  6
ByBlock
 62
     0
100
AcDbLine
 10
413.4999999999999
 20
353.0
 30
0.0
 11
413.4999999999999
 21
374.800992
 31
0.0
  0
LINE
  5
826
330
823
100
AcDbEntity
  8
0
  6
ByBlock
 62
     0
100
AcDbLine
 10
398.0
 20
374.3009919999999
 30
0.0
 11
411.0
 21
374.3009919999999
 31
0.0
  0
SOLID
  5
827
330
823
100
AcDbEntity
  8
0
  6
ByBlock
 62
     0
100
AcDbTrace
 10
398.0
 20
374.7176589999999
 30
0.0
 11
398.0
 21
373.8843259999999
 31
0.0
 12
395.5
 22
374.3009919999999
 32
0.0
 13
395.5
 23
374.3009919999999
 33
0.0
  0
SOLID
  5
828
330
823
100
AcDbEntity
  8
0
  6
ByBlock
 62
     0
100
AcDbTrace
 10
411.0
 20
374.7176589999999
 30
0.0
 11
411.0
 21
373.8843259999999
 31
0.0
 12
413.4999999999999
 22
374.3009919999999
 32
0.0
 13
413.4999999999999
 23
374.3009919999999
 33
0.0
  0
MTEXT
  5
829
330
823
100
AcDbEntity
  8
0
  6
ByBlock
 62
     0
100
AcDbMText
 10
404.4999999999999
 20
383.3909919999999
 30
0.0
 40
18.0
 41
0.0
 71
     5
 72
     1
  1
\A1;18
 73
     1
 44
1.0
  0
POINT
  5
82A
330
823
100
AcDbEntity
  8
DEFPOINTS
  6
ByBlock
 62
     0
100
AcDbPoint
 10
395.5
 20
355.0
 30
0.0
  0
POINT
  5
82B
330
823
100
AcDbEntity
  8
DEFPOINTS
  6
ByBlock
 62
     0
100
AcDbPoint
 10
413.4999999999999
 20
352.4999999999999
 30
0.0
  0
POINT
  5
82C
330
823
100
AcDbEntity
  8
DEFPOINTS
  6
ByBlock
 62
     0
100
AcDbPoint
 10
413.4999999999999
 20
374.3009919999999
 30
0.0
  0
ENDBLK
  5
82E
330
823
100
AcDbEntity
  8
0
100
AcDbBlockEnd
  0
BLOCK
  5
839
330
82F
100
AcDbEntity
  8
0
100
AcDbBlockBegin
  2
*D23
 70
     1
 10
0.0
 20
0.0
 30
0.0
  3
*D23
  1

  0
LINE
  5
830
330
82F
100
AcDbEntity
  8
0
  6
ByBlock
 62
     0
100
AcDbLine
 10
373.4999999999999
 20
357.399664
 30
0.0
 11
373.4999999999999
 21
402.2405169999999
 31
0.0
  0
LINE
  5
831
330
82F
100
AcDbEntity
  8
0
  6
ByBlock
 62
     0
100
AcDbLine
 10
413.4999999999999
 20
353.0
 30
0.0
 11
413.4999999999999
 21
402.2405169999999
 31
0.0
  0
LINE
  5
832
330
82F
100
AcDbEntity
  8
0
  6
ByBlock
 62
     0
100
AcDbLine
 10
376.0
 20
401.7405169999999
 30
0.0
 11
411.0
 21
401.7405169999999
 31
0.0
  0
SOLID
  5
833
330
82F
100
AcDbEntity
  8
0
  6
ByBlock
 62
     0
100
AcDbTrace
 10
376.0
 20
402.157184
 30
0.0
 11
376.0
 21
401.3238509999999
 31
0.0
 12
373.4999999999999
 22
401.7405169999999
 32
0.0
 13
373.4999999999999
 23
401.7405169999999
 33
0.0
  0
SOLID
  5
834
330
82F
100
AcDbEntity
  8
0
  6
ByBlock
 62
     0
100
AcDbTrace
 10
411.0
 20
402.157184
 30
0.0
 11
411.0
 21
401.3238509999999
 31
0.0
 12
413.4999999999999
 22
401.7405169999999
 32
0.0
 13
413.4999999999999
 23
401.7405169999999
 33
0.0
  0
MTEXT
  5
835
330
82F
100
AcDbEntity
  8
0
  6
ByBlock
 62
     0
100
AcDbMText
 10
395.429009
 20
410.8305169999999
 30
0.0
 40
18.0
 41
0.0
 71
     5
 72
     1
  1
\A1;40
 73
     1
 44
1.0
  0
POINT
  5
836
330
82F
100
AcDbEntity
  8
DEFPOINTS
  6
ByBlock
 62
     0
100
AcDbPoint
 10
373.4999999999999
 20
356.899664
 30
0.0
  0
POINT
  5
837
330
82F
100
AcDbEntity
  8
DEFPOINTS
  6
ByBlock
 62
     0
100
AcDbPoint
 10
413.4999999999999
 20
352.4999999999999
 30
0.0
  0
POINT
  5
838
330
82F
100
AcDbEntity
  8
DEFPOINTS
  6
ByBlock
 62
     0
100
AcDbPoint
 10
413.4999999999999
 20
401.7405169999999
 30
0.0
  0
ENDBLK
  5
83A
330
82F
100
AcDbEntity
  8
0
100
AcDbBlockEnd
  0
BLOCK
  5
8A7
330
83B
100
AcDbEntity
  8
0
100
AcDbBlockBegin
  2
A$C71157D8E
 70
     0
 10
0.0
 20
0.0
 30
0.0
  3
A$C71157D8E
  1

  0
DIMENSION
  5
83C
330
83B
100
AcDbEntity
  8
0
100
AcDbDimension
  2
*D23
 10
366.9999989999999
 20
200.2405169999999
 30
0.0
 11
348.929009
 21
200.2405169999999
 31
0.0
 12
-46.50000099999999
 22
-201.5
 32
0.0
 70
   128
 71
     5
 42
-1.0
  3
STANDARD
100
AcDbAlignedDimension
 13
326.999999
 23
155.399664
 33
0.0
 14
366.9999989999999
 24
151.0
 34
0.0
100
AcDbRotatedDimension
1001
ACAD
1000
DSTYLE
1002
{
1070
   140
1040
18.0
1070
    73
1070
     0
1070
    40
1040
1.0
1002
}
  0
ARC
  5
83D
330
83B
100
AcDbEntity
  8
3
100
AcDbCircle
 10
336.845955
 20
147.308089
 30
0.0
 40
12.74427
100
AcDbArc
 50
84.80451999999999
 51
140.58605
  0
ARC
  5
83E
330
83B
100
AcDbEntity
  8
3
100
AcDbCircle
 10
336.845955
 20
110.69191
 30
0.0
 40
12.74427
100
AcDbArc
 50
219.4139499999999
 51
275.1954799999999
  0
LINE
  5
83F
330
83B
100
AcDbEntity
  8
3
100
AcDbLine
 10
321.57416
 20
69.841027
 30
0.0
 11
339.4255299999999
 21
97.06976
 31
0.0
  0
ARC
  5
840
330
83B
100
AcDbEntity
  8
2
100
AcDbCircle
 10
338.3892879999999
 20
107.228122
 30
0.0
 40
6.391471
100
AcDbArc
 50
211.1648059999999
 51
328.835194
  0
ARC
  5
841
330
83B
100
AcDbEntity
  8
2
100
AcDbCircle
 10
338.228897
 20
123.7384959999999
 30
0.0
 40
6.359651
100
AcDbArc
 50
27.725869
 51
147.970293
  0
LINE
  5
842
330
83B
100
AcDbEntity
  8
1
100
AcDbLine
 10
301.0075909999999
 20
231.0
 30
0.0
 11
334.3416919999999
 21
231.0
 31
0.0
  0
ARC
  5
843
330
83B
100
AcDbEntity
  8
3
100
AcDbCircle
 10
317.999999
 20
17.0
 30
0.0
 40
13.0
100
AcDbArc
 50
270.0
 51
359.266991
  0
LINE
  5
844
330
83B
100
AcDbEntity
  8
1
100
AcDbLine
 10
302.999999
 20
17.0
 30
0.0
 11
334.115062
 21
17.0
 31
0.0
  0
LINE
  5
845
330
83B
100
AcDbEntity
  8
3
100
AcDbLine
 10
345.0369949999999
 20
161.549281
 30
0.0
 11
326.638316
 21
219.0
 31
0.0
  0
LINE
  5
846
330
83B
100
AcDbEntity
  8
1
100
AcDbLine
 10
301.999999
 20
129.0
 30
0.0
 11
372.999999
 21
129.0
 31
0.0
  0
ARC
  5
847
330
83B
100
AcDbEntity
  8
3
100
AcDbCircle
 10
317.999999
 20
241.0
 30
0.0
 40
13.0
100
AcDbArc
 50
0.7330090000000001
 51
90.0
  0
LINE
  5
848
330
83B
100
AcDbEntity
  8
1
100
AcDbLine
 10
302.999999
 20
241.0
 30
0.0
 11
334.115062
 21
241.0
 31
0.0
  0
LINE
  5
849
330
83B
100
AcDbEntity
  8
0
100
AcDbLine
 10
306.5050509999999
 20
17.460594
 30
0.0
 11
306.5050509999999
 21
217.0
 31
0.0
  0
LINE
  5
84A
330
83B
100
AcDbEntity
  8
3
100
AcDbLine
 10
324.605452
 20
30.476438
 30
0.0
 11
324.605452
 21
74.464664
 31
0.0
  0
LINE
  5
84B
330
83B
100
AcDbEntity
  8
3
100
AcDbLine
 10
330.999833
 20
52.037682
 30
0.0
 11
330.999833
 21
84.21802599999999
 31
0.0
  0
ARC
  5
84C
330
83B
100
AcDbEntity
  8
3
100
AcDbCircle
 10
336.130843
 20
82.295923
 30
0.0
 40
25.10054
100
AcDbArc
 50
170.01608
 51
208.126859
  0
LINE
  5
84D
330
83B
100
AcDbEntity
  8
1
100
AcDbLine
 10
128.999999
 20
129.0
 30
0.0
 11
243.3656819999999
 21
62.970942
 31
0.0
  0
LINE
  5
84E
330
83B
100
AcDbEntity
  8
1
100
AcDbLine
 10
128.999999
 20
129.0
 30
0.0
 11
14.615829
 21
62.960268
 31
0.0
  0
ARC
  5
84F
330
83B
100
AcDbEntity
  8
3
100
AcDbCircle
 10
167.70625
 20
106.652936
 30
0.0
 40
54.315491
100
AcDbArc
 50
315.784148
 51
344.2158519999999
  0
LINE
  5
850
330
83B
100
AcDbEntity
  8
3
100
AcDbLine
 10
143.1126879999999
 20
101.222126
 30
0.0
 11
202.097163
 21
68.322124
 31
0.0
  0
ARC
  5
851
330
83B
100
AcDbEntity
  8
3
100
AcDbCircle
 10
90.293749
 20
106.652936
 30
0.0
 40
54.315491
100
AcDbArc
 50
195.7841479999999
 51
224.215852
  0
LINE
  5
852
330
83B
100
AcDbEntity
  8
3
100
AcDbLine
 10
114.887311
 20
101.222126
 30
0.0
 11
55.902836
 21
68.322124
 31
0.0
  0
ARC
  5
853
330
83B
100
AcDbEntity
  8
3
100
AcDbCircle
 10
128.999999
 20
129.0
 30
0.0
 40
112.0
100
AcDbArc
 50
102.157458
 51
77.84254200000001
  0
CIRCLE
  5
854
330
83B
100
AcDbEntity
  8
3
100
AcDbCircle
 10
128.999999
 20
129.0
 30
0.0
 40
125.0
  0
LINE
  5
855
330
83B
100
AcDbEntity
  8
1
100
AcDbLine
 10
128.999999
 20
0.0
 30
0.0
 11
128.999999
 21
258.0
 31
0.0
  0
LINE
  5
856
330
83B
100
AcDbEntity
  8
3
100
AcDbLine
 10
304.9999989999999
 20
17.0
 30
0.0
 11
304.9999989999999
 21
129.0
 31
0.0
  0
LINE
  5
857
330
83B
100
AcDbEntity
  8
1
100
AcDbLine
 10
317.999999
 20
38.074021
 30
0.0
 11
317.999999
 21
129.0
 31
0.0
  0
ARC
  5
858
330
83B
100
AcDbEntity
  8
3
100
AcDbCircle
 10
128.999999
 20
129.0
 30
0.0
 40
95.0
100
AcDbArc
 50
219.6960279999999
 51
320.303972
  0
ARC
  5
859
330
83B
100
AcDbEntity
  8
3
100
AcDbCircle
 10
54.014224
 20
72.357602
 30
0.0
 40
4.455551999999999
100
AcDbArc
 50
233.514644
 51
295.079688
  0
ARC
  5
85A
330
83B
100
AcDbEntity
  8
3
100
AcDbCircle
 10
203.9857749999999
 20
72.357602
 30
0.0
 40
4.455551999999999
100
AcDbArc
 50
244.920312
 51
306.485356
  0
ARC
  5
85B
330
83B
100
AcDbEntity
  8
3
100
AcDbCircle
 10
308.499999
 20
17.0
 30
0.0
 40
21.0
100
AcDbArc
 50
39.921329
 51
47.501958
  0
ARC
  5
85C
330
83B
100
AcDbEntity
  8
3
100
AcDbCircle
 10
327.4999989999999
 20
17.0
 30
0.0
 40
21.0
100
AcDbArc
 50
132.4980419999999
 51
178.743228
  0
LINE
  5
85D
330
83B
100
AcDbEntity
  8
3
100
AcDbLine
 10
330.999999
 20
17.0
 30
0.0
 11
330.999833
 21
52.037682
 31
0.0
  0
LINE
  5
85E
330
83B
100
AcDbEntity
  8
1
100
AcDbLine
 10
317.999999
 20
38.074021
 30
0.0
 11
317.999999
 21
0.71467
 31
0.0
  0
ARC
  5
85F
330
83B
100
AcDbEntity
  8
3
100
AcDbCircle
 10
317.999999
 20
17.0
 30
0.0
 40
13.0
100
AcDbArc
 50
180.733009
 51
270.0
  0
LINE
  5
860
330
83B
100
AcDbEntity
  8
3
100
AcDbLine
 10
305.161824
 20
17.032365
 30
0.0
 11
306.3443229999999
 21
17.268864
 31
0.0
  0
ARC
  5
861
330
83B
100
AcDbEntity
  8
3
100
AcDbCircle
 10
305.201047
 20
16.836248
 30
0.0
 40
0.2
100
AcDbArc
 50
101.3099319999999
 51
180.733009
  0
ARC
  5
862
330
83B
100
AcDbEntity
  8
3
100
AcDbCircle
 10
306.305099
 20
17.46497999999999
 30
0.0
 40
0.2
100
AcDbArc
 50
281.309932
 51
358.743228
  0
ARC
  5
863
330
83B
100
AcDbEntity
  8
3
100
AcDbCircle
 10
341.662167
 20
30.314501
 30
0.0
 40
17.057484
100
AcDbArc
 50
179.4560459999999
 51
231.312475
  0
ARC
  5
864
330
83B
100
AcDbEntity
  8
3
100
AcDbCircle
 10
317.999999
 20
26.0
 30
0.0
 40
8.0
100
AcDbArc
 50
54.136362
 51
90.0
  0
ARC
  5
865
330
83B
100
AcDbEntity
  8
3
100
AcDbCircle
 10
317.999999
 20
26.0
 30
0.0
 40
8.0
100
AcDbArc
 50
90.0
 51
125.8636379999999
  0
ARC
  5
866
330
83B
100
AcDbEntity
  8
3
100
AcDbCircle
 10
318.0114259999999
 20
73.19531600000001
 30
0.0
 40
4.858151
100
AcDbArc
 50
214.224791
 51
320.1651979999999
  0
ARC
  5
867
330
83B
100
AcDbEntity
  8
3
100
AcDbCircle
 10
128.999999
 20
129.0
 30
0.0
 40
31.0
100
AcDbArc
 50
123.145679
 51
176.8543209999999
  0
ARC
  5
868
330
83B
100
AcDbEntity
  8
3
100
AcDbCircle
 10
128.999999
 20
129.0
 30
0.0
 40
95.0
100
AcDbArc
 50
99.696028
 51
200.3039719999999
  0
LINE
  5
869
330
83B
100
AcDbEntity
  8
3
100
AcDbLine
 10
97.88731099999999
 20
130.6669899999999
 30
0.0
 11
39.902836
 21
96.03493700000001
 31
0.0
  0
LINE
  5
86A
330
83B
100
AcDbEntity
  8
1
100
AcDbLine
 10
261.999999
 20
129.0
 30
0.0
 11
-0.000001
 21
129.0
 31
0.0
  0
ARC
  5
86B
330
83B
100
AcDbEntity
  8
3
100
AcDbCircle
 10
42.45335599999999
 20
92.381612
 30
0.0
 40
4.455551999999999
100
AcDbArc
 50
124.920312
 51
186.485356
  0
ARC
  5
86C
330
83B
100
AcDbEntity
  8
3
100
AcDbCircle
 10
317.999999
 20
241.0
 30
0.0
 40
13.0
100
AcDbArc
 50
90.0
 51
179.2669909999999
  0
LINE
  5
86D
330
83B
100
AcDbEntity
  8
1
100
AcDbLine
 10
317.999999
 20
219.9259779999999
 30
0.0
 11
317.999999
 21
257.2853289999999
 31
0.0
  0
ARC
  5
86E
330
83B
100
AcDbEntity
  8
3
100
AcDbCircle
 10
128.999999
 20
129.0
 30
0.0
 40
95.0
100
AcDbArc
 50
339.6960279999999
 51
80.30397200000001
  0
LINE
  5
86F
330
83B
100
AcDbEntity
  8
3
100
AcDbLine
 10
160.1126879999999
 20
130.6669899999999
 30
0.0
 11
218.097163
 21
96.03493700000001
 31
0.0
  0
LINE
  5
870
330
83B
100
AcDbEntity
  8
3
100
AcDbLine
 10
111.9999989999999
 20
155.1108829999999
 30
0.0
 11
112.9999989999999
 21
222.642939
 31
0.0
  0
LINE
  5
871
330
83B
100
AcDbEntity
  8
3
100
AcDbLine
 10
145.999999
 20
155.1108829999999
 30
0.0
 11
144.999999
 21
222.642939
 31
0.0
  0
CIRCLE
  5
872
330
83B
100
AcDbEntity
  8
3
100
AcDbCircle
 10
128.999999
 20
129.0
 30
0.0
 40
26.399664
  0
ARC
  5
873
330
83B
100
AcDbEntity
  8
3
100
AcDbCircle
 10
128.999999
 20
129.0
 30
0.0
 40
31.0
100
AcDbArc
 50
3.145678999999999
 51
56.85432099999999
  0
ARC
  5
874
330
83B
100
AcDbEntity
  8
3
100
AcDbCircle
 10
121.487202
 20
133.3375149999999
 30
0.0
 40
37.288139
100
AcDbArc
 50
305.408608
 51
354.5913919999999
  0
ARC
  5
875
330
83B
100
AcDbEntity
  8
3
100
AcDbCircle
 10
136.512797
 20
133.3375149999999
 30
0.0
 40
37.288139
100
AcDbArc
 50
185.408608
 51
234.5913919999999
  0
ARC
  5
876
330
83B
100
AcDbEntity
  8
3
100
AcDbCircle
 10
128.999999
 20
129.0
 30
0.0
 40
31.0
100
AcDbArc
 50
243.145679
 51
296.8543209999999
  0
ARC
  5
877
330
83B
100
AcDbEntity
  8
3
100
AcDbCircle
 10
114.0431259999999
 20
102.094356
 30
0.0
 40
1.21385
100
AcDbArc
 50
314.063917
 51
44.566736
  0
ARC
  5
878
330
83B
100
AcDbEntity
  8
3
100
AcDbCircle
 10
143.9568729999999
 20
102.094356
 30
0.0
 40
1.21385
100
AcDbArc
 50
135.4332639999999
 51
225.9360829999999
  0
ARC
  5
879
330
83B
100
AcDbEntity
  8
3
100
AcDbCircle
 10
128.999999
 20
120.324969
 30
0.0
 40
37.288139
100
AcDbArc
 50
65.408608
 51
114.5913919999999
  0
ARC
  5
87A
330
83B
100
AcDbEntity
  8
3
100
AcDbCircle
 10
98.22059200000001
 20
129.49979
 30
0.0
 40
1.21385
100
AcDbArc
 50
15.43326399999999
 51
105.936083
  0
ARC
  5
87B
330
83B
100
AcDbEntity
  8
3
100
AcDbCircle
 10
113.1774649999999
 20
155.4058539999999
 30
0.0
 40
1.21385
100
AcDbArc
 50
194.063917
 51
284.5667359999999
  0
ARC
  5
87C
330
83B
100
AcDbEntity
  8
3
100
AcDbCircle
 10
144.822534
 20
155.4058539999999
 30
0.0
 40
1.21385
100
AcDbArc
 50
255.433264
 51
345.936083
  0
ARC
  5
87D
330
83B
100
AcDbEntity
  8
3
100
AcDbCircle
 10
159.779407
 20
129.49979
 30
0.0
 40
1.21385
100
AcDbArc
 50
74.063917
 51
164.566736
  0
LINE
  5
87E
330
83B
100
AcDbEntity
  8
1
100
AcDbLine
 10
101.999999
 20
231.0
 30
0.0
 11
159.999999
 21
231.0
 31
0.0
  0
ARC
  5
87F
330
83B
100
AcDbEntity
  8
3
100
AcDbCircle
 10
128.999999
 20
231.0
 30
0.0
 40
14.0
100
AcDbArc
 50
180.0
 51
0.0
  0
ARC
  5
880
330
83B
100
AcDbEntity
  8
3
100
AcDbCircle
 10
117.439132
 20
222.260785
 30
0.0
 40
4.455551999999999
100
AcDbArc
 50
113.5146439999999
 51
175.0796879999999
  0
ARC
  5
881
330
83B
100
AcDbEntity
  8
3
100
AcDbCircle
 10
107.008632
 20
230.6284549999999
 30
0.0
 40
8.0
100
AcDbArc
 50
359.273893
 51
101.470161
  0
ARC
  5
882
330
83B
100
AcDbEntity
  8
3
100
AcDbCircle
 10
128.999999
 20
173.694128
 30
0.0
 40
54.315491
100
AcDbArc
 50
104.0812899999999
 51
104.215852
  0
ARC
  5
883
330
83B
100
AcDbEntity
  8
3
100
AcDbCircle
 10
140.560867
 20
222.260785
 30
0.0
 40
4.455551999999999
100
AcDbArc
 50
4.920312
 51
66.48535600000001
  0
ARC
  5
884
330
83B
100
AcDbEntity
  8
3
100
AcDbCircle
 10
150.9913669999999
 20
230.6284549999999
 30
0.0
 40
8.0
100
AcDbArc
 50
78.52983899999999
 51
180.726107
  0
ARC
  5
885
330
83B
100
AcDbEntity
  8
3
100
AcDbCircle
 10
128.999999
 20
173.694128
 30
0.0
 40
54.315491
100
AcDbArc
 50
75.784148
 51
75.91871000000001
  0
LINE
  5
886
330
83B
100
AcDbEntity
  8
3
100
AcDbLine
 10
324.605452
 20
113.099534
 30
0.0
 11
324.605452
 21
178.9433799999999
 31
0.0
  0
ARC
  5
887
330
83B
100
AcDbEntity
  8
3
100
AcDbCircle
 10
310.005584
 20
156.617534
 30
0.0
 40
20.0
100
AcDbArc
 50
4.047312
 51
16.294047
  0
LINE
  5
888
330
83B
100
AcDbEntity
  8
3
100
AcDbLine
 10
304.9999989999999
 20
241.0
 30
0.0
 11
304.9999989999999
 21
129.0
 31
0.0
  0
LINE
  5
889
330
83B
100
AcDbEntity
  8
1
100
AcDbLine
 10
317.999999
 20
219.9259779999999
 30
0.0
 11
317.999999
 21
129.0
 31
0.0
  0
ARC
  5
88A
330
83B
100
AcDbEntity
  8
3
100
AcDbCircle
 10
215.546643
 20
92.381612
 30
0.0
 40
4.455551999999999
100
AcDbArc
 50
353.5146439999999
 51
55.079688
  0
LINE
  5
88B
330
83B
100
AcDbEntity
  8
3
100
AcDbLine
 10
326.999999
 20
102.600336
 30
0.0
 11
326.999999
 21
155.399664
 31
0.0
  0
LINE
  5
88C
330
83B
100
AcDbEntity
  8
3
100
AcDbLine
 10
313.345418
 20
94.05835899999999
 30
0.0
 11
326.999999
 21
117.148811
 31
0.0
  0
ARC
  5
88D
330
83B
100
AcDbEntity
  8
2
100
AcDbCircle
 10
354.656817
 20
115.5937749999999
 30
0.0
 40
24.672747
100
AcDbArc
 50
152.1722259999999
 51
208.2372229999999
  0
ARC
  5
88E
330
83B
100
AcDbEntity
  8
3
100
AcDbCircle
 10
328.5765569999999
 20
86.12339099999999
 30
0.0
 40
17.174147
100
AcDbArc
 50
152.481832
 51
178.250718
  0
LINE
  5
88F
330
83B
100
AcDbEntity
  8
2
100
AcDbLine
 10
326.999999
 20
117.148811
 30
0.0
 11
333.0029679999999
 21
127.300074
 31
0.0
  0
LINE
  5
890
330
83B
100
AcDbEntity
  8
3
100
AcDbLine
 10
325.999999
 20
156.0
 30
0.0
 11
325.999999
 21
156.0
 31
0.0
  0
LINE
  5
891
330
83B
100
AcDbEntity
  8
3
100
AcDbLine
 10
329.2022729999999
 20
162.2288739999999
 30
0.0
 11
313.089875
 21
217.0
 31
0.0
  0
LWPOLYLINE
  5
892
330
83B
100
AcDbEntity
  8
0
100
AcDbPolyline
 90
        3
 70
     1
 43
0.0
 10
327.2250319999999
 20
192.550763
 10
322.199407
 20
195.452309
 10
322.199407
 20
189.6492169999999
  0
LWPOLYLINE
  5
893
330
83B
100
AcDbEntity
  8
0
100
AcDbPolyline
 90
        3
 70
     1
 43
0.0
 10
327.2250319999999
 20
198.353855
 10
322.199407
 20
201.255401
 10
322.199407
 20
195.452309
  0
LINE
  5
894
330
83B
100
AcDbEntity
  8
3
100
AcDbLine
 10
330.9991029999999
 20
205.964501
 30
0.0
 11
330.998936
 21
241.16631
 31
0.0
  0
LINE
  5
895
330
83B
100
AcDbEntity
  8
3
100
AcDbLine
 10
304.9999989999999
 20
217.0
 30
0.0
 11
313.089875
 21
217.0
 31
0.0
  0
LINE
  5
896
330
83B
100
AcDbEntity
  8
3
100
AcDbLine
 10
326.638316
 20
219.0
 30
0.0
 11
330.999039
 21
219.465938
 31
0.0
  0
DIMENSION
  5
897
330
83B
100
AcDbEntity
  8
0
100
AcDbDimension
  2
*D22
 10
366.9999989999999
 20
172.8009919999999
 30
0.0
 11
357.999999
 21
172.8009919999999
 31
0.0
 12
-46.50000099999999
 22
-201.5
 32
0.0
 70
   128
 71
     5
 42
-1.0
  3
STANDARD
100
AcDbAlignedDimension
 13
348.999999
 23
153.5
 33
0.0
 14
366.9999989999999
 24
151.0
 34
0.0
100
AcDbRotatedDimension
1001
ACAD
1000
DSTYLE
1002
{
1070
   140
1040
18.0
1070
    73
1070
     0
1070
    40
1040
1.0
1002
}
  0
ARC
  5
898
330
83B
100
AcDbEntity
  8
3
100
AcDbCircle
 10
332.195652
 20
137.6195649999999
 30
0.0
 40
23.120863
100
AcDbArc
 50
43.38083
 51
75.46071600000001
  0
ARC
  5
899
330
83B
100
AcDbEntity
  8
3
100
AcDbCircle
 10
326.005584
 20
155.4006719999999
 30
0.0
 40
20.0
100
AcDbArc
 50
2.216441999999999
 51
17.904448
  0
LINE
  5
89A
330
83B
100
AcDbEntity
  8
1
100
AcDbLine
 10
337.9999989999999
 20
129.0
 30
0.0
 11
337.9999989999999
 21
184.0
 31
0.0
  0
LINE
  5
89B
330
83B
100
AcDbEntity
  8
3
100
AcDbLine
 10
366.9999989999999
 20
151.0
 30
0.0
 11
366.9999989999999
 21
107.0
 31
0.0
  0
ARC
  5
89C
330
83B
100
AcDbEntity
  8
2
100
AcDbCircle
 10
316.039313
 20
115.308899
 30
0.0
 40
30.059844
100
AcDbArc
 50
337.73712
 51
22.26287999999999
  0
LINE
  5
89D
330
83B
100
AcDbEntity
  8
1
100
AcDbLine
 10
337.9999989999999
 20
129.0
 30
0.0
 11
337.9999989999999
 21
74.0
 31
0.0
  0
LINE
  5
89E
330
83B
100
AcDbEntity
  8
3
100
AcDbLine
 10
366.9999989999999
 20
107.0
 30
0.0
 11
348.999999
 21
107.0
 31
0.0
  0
ARC
  5
89F
330
83B
100
AcDbEntity
  8
3
100
AcDbCircle
 10
332.195652
 20
120.380434
 30
0.0
 40
23.120863
100
AcDbArc
 50
284.539284
 51
316.61917
  0
LINE
  5
8A0
330
83B
100
AcDbEntity
  8
2
100
AcDbLine
 10
339.4255299999999
 20
97.06976
 30
0.0
 11
343.5174729999999
 21
103.3112079999999
 31
0.0
  0
LINE
  5
8A1
330
83B
100
AcDbEntity
  8
3
100
AcDbLine
 10
348.999999
 20
107.0
 30
0.0
 11
348.999999
 21
104.4999999999999
 31
0.0
  0
LINE
  5
8A2
330
83B
100
AcDbEntity
  8
3
100
AcDbLine
 10
348.999999
 20
151.0
 30
0.0
 11
366.9999989999999
 21
151.0
 31
0.0
  0
LINE
  5
8A3
330
83B
100
AcDbEntity
  8
3
100
AcDbLine
 10
348.999999
 20
153.5
 30
0.0
 11
348.999999
 21
151.0
 31
0.0
  0
LWPOLYLINE
  5
8A4
330
83B
100
AcDbEntity
  8
0
100
AcDbPolyline
 90
        3
 70
     1
 43
0.0
 10
368.039198
 20
205.0514409999999
 10
373.0648229999999
 20
202.1498959999999
 10
373.0648229999999
 20
207.952987
  0
TEXT
  5
8A5
330
83B
100
AcDbEntity
  8
0
100
AcDbText
 10
345.1200669999999
 20
222.820287
 30
0.0
 40
8.4
  1
%%P0.1
 41
0.7
  7
BIGFONT
100
AcDbText
  0
LWPOLYLINE
  5
8A6
330
83B
100
AcDbEntity
  8
0
100
AcDbPolyline
 90
        3
 70
     1
 43
0.0
 10
368.039198
 20
210.854533
 10
373.0648229999999
 20
207.952987
 10
373.0648229999999
 20
213.756079
  0
ENDBLK
  5
8A8
330
83B
100
AcDbEntity
  8
0
100
AcDbBlockEnd
  0
BLOCK
  5
954
330
94A
100
AcDbEntity
  8
0
100
AcDbBlockBegin
  2
*D25
 70
     1
 10
0.0
 20
0.0
 30
0.0
  3
*D25
  1

  0
LINE
  5
94B
330
94A
100
AcDbEntity
  8
0
  6
ByBlock
 62
     0
100
AcDbLine
 10
386.5
 20
349.506892
 30
0.0
 11
386.5
 21
402.5
 31
0.0
  0
LINE
  5
94C
330
94A
100
AcDbEntity
  8
0
  6
ByBlock
 62
     0
100
AcDbLine
 10
431.5
 20
347.5
 30
0.0
 11
431.5
 21
402.5
 31
0.0
  0
LINE
  5
94D
330
94A
100
AcDbEntity
  8
0
  6
ByBlock
 62
     0
100
AcDbLine
 10
389.0
 20
402.0
 30
0.0
 11
429.0
 21
402.0
 31
0.0
  0
SOLID
  5
94E
330
94A
100
AcDbEntity
  8
0
  6
ByBlock
 62
     0
100
AcDbTrace
 10
389.0
 20
402.416667
 30
0.0
 11
389.0
 21
401.5833329999999
 31
0.0
 12
386.5
 22
402.0
 32
0.0
 13
386.5
 23
402.0
 33
0.0
  0
SOLID
  5
94F
330
94A
100
AcDbEntity
  8
0
  6
ByBlock
 62
     0
100
AcDbTrace
 10
429.0
 20
402.416667
 30
0.0
 11
429.0
 21
401.5833329999999
 31
0.0
 12
431.5
 22
402.0
 32
0.0
 13
431.5
 23
402.0
 33
0.0
  0
MTEXT
  5
950
330
94A
100
AcDbEntity
  8
0
  6
ByBlock
 62
     0
100
AcDbMText
 10
412.5
 20
404.5899999999999
 30
0.0
 40
5.0
 41
0.0
 71
     5
 72
     1
  1
\A1;45
 73
     1
 44
1.0
  0
POINT
  5
951
330
94A
100
AcDbEntity
  8
DEFPOINTS
  6
ByBlock
 62
     0
100
AcDbPoint
 10
386.5
 20
349.006892
 30
0.0
  0
POINT
  5
952
330
94A
100
AcDbEntity
  8
DEFPOINTS
  6
ByBlock
 62
     0
100
AcDbPoint
 10
431.5
 20
347.0
 30
0.0
  0
POINT
  5
953
330
94A
100
AcDbEntity
  8
DEFPOINTS
  6
ByBlock
 62
     0
100
AcDbPoint
 10
431.5
 20
402.0
 30
0.0
  0
ENDBLK
  5
955
330
94A
100
AcDbEntity
  8
0
100
AcDbBlockEnd
  0
BLOCK
  5
960
330
956
100
AcDbEntity
  8
0
100
AcDbBlockBegin
  2
*D26
 70
     1
 10
0.0
 20
0.0
 30
0.0
  3
*D26
  1

  0
LINE
  5
957
330
956
100
AcDbEntity
  8
0
  6
ByBlock
 62
     0
100
AcDbLine
 10
411.5
 20
347.0
 30
0.0
 11
411.5
 21
383.0
 31
0.0
  0
LINE
  5
958
330
956
100
AcDbEntity
  8
0
  6
ByBlock
 62
     0
100
AcDbLine
 10
431.5
 20
347.0
 30
0.0
 11
431.5
 21
383.0
 31
0.0
  0
LINE
  5
959
330
956
100
AcDbEntity
  8
0
  6
ByBlock
 62
     0
100
AcDbLine
 10
414.0
 20
382.5
 30
0.0
 11
429.0
 21
382.5
 31
0.0
  0
SOLID
  5
95A
330
956
100
AcDbEntity
  8
0
  6
ByBlock
 62
     0
100
AcDbTrace
 10
414.0
 20
382.916667
 30
0.0
 11
414.0
 21
382.0833329999999
 31
0.0
 12
411.5
 22
382.5
 32
0.0
 13
411.5
 23
382.5
 33
0.0
  0
SOLID
  5
95B
330
956
100
AcDbEntity
  8
0
  6
ByBlock
 62
     0
100
AcDbTrace
 10
429.0
 20
382.916667
 30
0.0
 11
429.0
 21
382.0833329999999
 31
0.0
 12
431.5
 22
382.5
 32
0.0
 13
431.5
 23
382.5
 33
0.0
  0
MTEXT
  5
95C
330
956
100
AcDbEntity
  8
0
  6
ByBlock
 62
     0
100
AcDbMText
 10
421.4999999999999
 20
385.0904919999999
 30
0.0
 40
5.0
 41
0.0
 71
     5
 72
     1
  1
\A1;20
 73
     1
 44
1.0
  0
POINT
  5
95D
330
956
100
AcDbEntity
  8
DEFPOINTS
  6
ByBlock
 62
     0
100
AcDbPoint
 10
411.5
 20
346.4999999999999
 30
0.0
  0
POINT
  5
95E
330
956
100
AcDbEntity
  8
DEFPOINTS
  6
ByBlock
 62
     0
100
AcDbPoint
 10
431.5
 20
346.4999999999999
 30
0.0
  0
POINT
  5
95F
330
956
100
AcDbEntity
  8
DEFPOINTS
  6
ByBlock
 62
     0
100
AcDbPoint
 10
431.5
 20
382.5
 30
0.0
  0
ENDBLK
  5
961
330
956
100
AcDbEntity
  8
0
100
AcDbBlockEnd
  0
BLOCK
  5
96C
330
962
100
AcDbEntity
  8
0
100
AcDbBlockBegin
  2
*D27
 70
     1
 10
0.0
 20
0.0
 30
0.0
  3
*D27
  1

  0
LINE
  5
963
330
962
100
AcDbEntity
  8
0
  6
ByBlock
 62
     0
100
AcDbLine
 10
92.0
 20
477.0
 30
0.0
 11
274.215618
 21
477.0
 31
0.0
  0
LINE
  5
964
330
962
100
AcDbEntity
  8
0
  6
ByBlock
 62
     0
100
AcDbLine
 10
92.0
 20
162.0
 30
0.0
 11
274.215618
 21
162.0
 31
0.0
  0
LINE
  5
965
330
962
100
AcDbEntity
  8
0
  6
ByBlock
 62
     0
100
AcDbLine
 10
273.7156179999999
 20
474.5
 30
0.0
 11
273.7156179999999
 21
164.5
 31
0.0
  0
SOLID
  5
966
330
962
100
AcDbEntity
  8
0
  6
ByBlock
 62
     0
100
AcDbTrace
 10
273.2989519999999
 20
474.5
 30
0.0
 11
274.132285
 21
474.5
 31
0.0
 12
273.7156179999999
 22
477.0
 32
0.0
 13
273.7156179999999
 23
477.0
 33
0.0
  0
SOLID
  5
967
330
962
100
AcDbEntity
  8
0
  6
ByBlock
 62
     0
100
AcDbTrace
 10
273.2989519999999
 20
164.5
 30
0.0
 11
274.132285
 21
164.5
 31
0.0
 12
273.7156179999999
 22
162.0
 32
0.0
 13
273.7156179999999
 23
162.0
 33
0.0
  0
MTEXT
  5
968
330
962
100
AcDbEntity
  8
0
  6
ByBlock
 62
     0
100
AcDbMText
 10
271.125618
 20
321.257586
 30
0.0
 40
5.0
 41
0.0
 71
     5
 72
     1
  1
\A1;\U+2205315
 11
0.0
 21
1.0
 31
0.0
 73
     1
 44
1.0
  0
POINT
  5
969
330
962
100
AcDbEntity
  8
DEFPOINTS
  6
ByBlock
 62
     0
100
AcDbPoint
 10
91.5
 20
477.0
 30
0.0
  0
POINT
  5
96A
330
962
100
AcDbEntity
  8
DEFPOINTS
  6
ByBlock
 62
     0
100
AcDbPoint
 10
91.5
 20
162.0
 30
0.0
  0
POINT
  5
96B
330
962
100
AcDbEntity
  8
DEFPOINTS
  6
ByBlock
 62
     0
100
AcDbPoint
 10
273.7156179999999
 20
162.0
 30
0.0
  0
ENDBLK
  5
96D
330
962
100
AcDbEntity
  8
0
100
AcDbBlockEnd
  0
BLOCK
  5
978
330
96E
100
AcDbEntity
  8
0
100
AcDbBlockBegin
  2
*D28
 70
     1
 10
0.0
 20
0.0
 30
0.0
  3
*D28
  1

  0
LINE
  5
96F
330
96E
100
AcDbEntity
  8
0
  6
ByBlock
 62
     0
100
AcDbLine
 10
374.0
 20
192.0
 30
0.0
 11
332.973008
 21
192.0
 31
0.0
  0
LINE
  5
970
330
96E
100
AcDbEntity
  8
0
  6
ByBlock
 62
     0
100
AcDbLine
 10
374.0
 20
162.0
 30
0.0
 11
332.973008
 21
162.0
 31
0.0
  0
LINE
  5
971
330
96E
100
AcDbEntity
  8
0
  6
ByBlock
 62
     0
100
AcDbLine
 10
333.4730079999999
 20
189.4999999999999
 30
0.0
 11
333.4730079999999
 21
164.5
 31
0.0
  0
SOLID
  5
972
330
96E
100
AcDbEntity
  8
0
  6
ByBlock
 62
     0
100
AcDbTrace
 10
333.056341
 20
189.4999999999999
 30
0.0
 11
333.8896749999999
 21
189.4999999999999
 31
0.0
 12
333.4730079999999
 22
192.0
 32
0.0
 13
333.4730079999999
 23
192.0
 33
0.0
  0
SOLID
  5
973
330
96E
100
AcDbEntity
  8
0
  6
ByBlock
 62
     0
100
AcDbTrace
 10
333.056341
 20
164.5
 30
0.0
 11
333.8896749999999
 21
164.5
 31
0.0
 12
333.4730079999999
 22
162.0
 32
0.0
 13
333.4730079999999
 23
162.0
 33
0.0
  0
MTEXT
  5
974
330
96E
100
AcDbEntity
  8
0
  6
ByBlock
 62
     0
100
AcDbMText
 10
330.882516
 20
177.055302
 30
0.0
 40
5.0
 41
0.0
 71
     5
 72
     1
  1
\A1;29.5
 11
0.0
 21
1.0
 31
0.0
 73
     1
 44
1.0
  0
POINT
  5
975
330
96E
100
AcDbEntity
  8
DEFPOINTS
  6
ByBlock
 62
     0
100
AcDbPoint
 10
374.5
 20
192.0
 30
0.0
  0
POINT
  5
976
330
96E
100
AcDbEntity
  8
DEFPOINTS
  6
ByBlock
 62
     0
100
AcDbPoint
 10
374.5
 20
162.0
 30
0.0
  0
POINT
  5
977
330
96E
100
AcDbEntity
  8
DEFPOINTS
  6
ByBlock
 62
     0
100
AcDbPoint
 10
333.4730079999999
 20
162.0
 30
0.0
  0
ENDBLK
  5
979
330
96E
100
AcDbEntity
  8
0
100
AcDbBlockEnd
  0
BLOCK
  5
9EE
330
97A
100
AcDbEntity
  8
0
100
AcDbBlockBegin
  2
A$C39FF7109
 70
     0
 10
0.0
 20
0.0
 30
0.0
  3
A$C39FF7109
  1

  0
LINE
  5
97B
330
97A
100
AcDbEntity
  8
3
100
AcDbLine
 10
383.0686319999999
 20
208.965161
 30
0.0
 11
365.4557669999999
 21
287.2165129999999
 31
0.0
  0
LINE
  5
97C
330
97A
100
AcDbEntity
  8
3
100
AcDbLine
 10
375.2552269999999
 20
96.716513
 30
0.0
 11
393.140173
 21
129.234596
 31
0.0
  0
LINE
  5
97D
330
97A
100
AcDbEntity
  8
3
100
AcDbLine
 10
365.755227
 20
124.2165129999999
 30
0.0
 11
381.755227
 21
153.930799
 31
0.0
  0
ARC
  5
97E
330
97A
100
AcDbEntity
  8
3
100
AcDbCircle
 10
365.0052269999999
 20
102.466513
 30
0.0
 40
11.752659
100
AcDbArc
 50
308.088773
 51
330.708638
  0
LINE
  5
97F
330
97A
100
AcDbEntity
  8
1
100
AcDbLine
 10
352.385848
 20
303.2165129999999
 30
0.0
 11
385.977637
 21
303.2165129999999
 31
0.0
  0
ARC
  5
980
330
97A
100
AcDbEntity
  8
3
100
AcDbCircle
 10
369.755227
 20
315.7165129999999
 30
0.0
 40
13.0
100
AcDbArc
 50
0.7330090000000001
 51
90.0
  0
ARC
  5
981
330
97A
100
AcDbEntity
  8
3
100
AcDbCircle
 10
360.2552269999999
 20
26.716513
 30
0.0
 40
21.0
100
AcDbArc
 50
38.43695900000001
 51
47.501958
  0
ARC
  5
982
330
97A
100
AcDbEntity
  8
3
100
AcDbCircle
 10
393.2977859999999
 20
39.532626
 30
0.0
 40
16.595129
100
AcDbArc
 50
179.1761779999999
 51
230.559222
  0
LINE
  5
983
330
97A
100
AcDbEntity
  8
1
100
AcDbLine
 10
431.7552269999999
 20
171.2165129999999
 30
0.0
 11
353.255227
 21
171.2165129999999
 31
0.0
  0
ARC
  5
984
330
97A
100
AcDbEntity
  8
3
100
AcDbCircle
 10
369.755227
 20
26.716513
 30
0.0
 40
13.0
100
AcDbArc
 50
270.0
 51
359.266991
  0
LINE
  5
985
330
97A
100
AcDbEntity
  8
1
100
AcDbLine
 10
354.755227
 20
26.716513
 30
0.0
 11
385.87029
 21
26.716513
 31
0.0
  0
DIMENSION
  5
986
330
97A
100
AcDbEntity
  8
0
100
AcDbDimension
  2
*D27
 10
268.9708459999999
 20
13.716513
 30
0.0
 11
268.9708459999999
 21
172.9740989999999
 31
0.0
 12
-4.744773
 22
-148.283487
 32
0.0
 70
   128
  1
%%C315
 71
     5
 42
-1.0
  3
STANDARD
100
AcDbAlignedDimension
 13
86.755227
 23
328.7165129999999
 33
0.0
 14
86.755227
 24
13.716513
 34
0.0
 50
90.0
100
AcDbRotatedDimension
1001
ACAD
1000
DSTYLE
1002
{
1070
    73
1070
     0
1070
    40
1040
1.0
1002
}
  0
LINE
  5
987
330
97A
100
AcDbEntity
  8
3
100
AcDbLine
 10
121.633556
 20
174.173511
 30
0.0
 11
205.067566
 21
123.693462
 31
0.0
  0
LINE
  5
988
330
97A
100
AcDbEntity
  8
3
100
AcDbLine
 10
101.6335559999999
 20
139.5324949999999
 30
0.0
 11
187.067566
 21
92.51654700000001
 31
0.0
  0
LINE
  5
989
330
97A
100
AcDbEntity
  8
3
100
AcDbLine
 10
71.87689899999999
 20
139.5324949999999
 30
0.0
 11
0.0
 21
99.97728199999999
 31
0.0
  0
ARC
  5
98A
330
97A
100
AcDbEntity
  8
3
100
AcDbCircle
 10
86.755227
 20
171.2165129999999
 30
0.0
 40
157.5
100
AcDbArc
 50
236.576244
 51
123.423756
  0
ARC
  5
98B
330
97A
100
AcDbEntity
  8
3
100
AcDbCircle
 10
86.755227
 20
171.2165129999999
 30
0.0
 40
144.5
100
AcDbArc
 50
233.102725
 51
79.206643
  0
LINE
  5
98C
330
97A
100
AcDbEntity
  8
1
100
AcDbLine
 10
86.755227
 20
171.2165129999999
 30
0.0
 11
234.2232319999999
 21
86.075821
 31
0.0
  0
LINE
  5
98D
330
97A
100
AcDbEntity
  8
1
100
AcDbLine
 10
86.755227
 20
171.2165129999999
 30
0.0
 11
0.0
 21
121.128359
 31
0.0
  0
ARC
  5
98E
330
97A
100
AcDbEntity
  8
3
100
AcDbCircle
 10
86.755227
 20
171.2165129999999
 30
0.0
 40
127.5
100
AcDbArc
 50
338.1159289999999
 51
81.884071
  0
LINE
  5
98F
330
97A
100
AcDbEntity
  8
1
100
AcDbLine
 10
86.755227
 20
341.563164
 30
0.0
 11
86.755227
 21
0.0
 31
0.0
  0
LINE
  5
990
330
97A
100
AcDbEntity
  8
3
100
AcDbLine
 10
356.755227
 20
26.716513
 30
0.0
 11
356.755227
 21
171.2165129999999
 31
0.0
  0
LINE
  5
991
330
97A
100
AcDbEntity
  8
1
100
AcDbLine
 10
369.755227
 20
47.790534
 30
0.0
 11
369.755227
 21
171.2165129999999
 31
0.0
  0
ARC
  5
992
330
97A
100
AcDbEntity
  8
3
100
AcDbCircle
 10
86.755227
 20
171.2165129999999
 30
0.0
 40
127.5
100
AcDbArc
 50
227.1225
 51
321.884071
  0
ARC
  5
993
330
97A
100
AcDbEntity
  8
3
100
AcDbCircle
 10
150.921509
 20
134.1700929999999
 30
0.0
 40
57.416779
100
AcDbArc
 50
313.362144
 51
346.6378559999999
  0
ARC
  5
994
330
97A
100
AcDbEntity
  8
3
100
AcDbCircle
 10
188.774859
 20
94.97871399999999
 30
0.0
 40
2.996183
100
AcDbArc
 50
235.262152
 51
301.5881519999999
  0
ARC
  5
995
330
97A
100
AcDbEntity
  8
3
100
AcDbCircle
 10
203.7889139999999
 20
120.9838199999999
 30
0.0
 40
2.996183
100
AcDbArc
 50
358.411848
 51
64.737848
  0
DIMENSION
  5
996
330
97A
100
AcDbEntity
  8
0
100
AcDbDimension
  2
*D28
 10
328.7282349999999
 20
13.716513
 30
0.0
 11
328.7282349999999
 21
28.771815
 31
0.0
 12
-4.744773
 22
-148.283487
 32
0.0
 70
   128
  1
29.5
 71
     5
 42
-1.0
  3
STANDARD
100
AcDbAlignedDimension
 13
369.755227
 23
43.71651299999999
 33
0.0
 14
369.755227
 24
13.716513
 34
0.0
 50
90.0
100
AcDbRotatedDimension
1001
ACAD
1000
DSTYLE
1002
{
1070
    73
1070
     0
1070
    40
1040
1.0
1002
}
  0
LINE
  5
997
330
97A
100
AcDbEntity
  8
1
100
AcDbLine
 10
369.755227
 20
47.790534
 30
0.0
 11
369.755227
 21
10.431184
 31
0.0
  0
ARC
  5
998
330
97A
100
AcDbEntity
  8
3
100
AcDbCircle
 10
379.2552269999999
 20
26.716513
 30
0.0
 40
21.0
100
AcDbArc
 50
132.4980419999999
 51
178.743228
  0
ARC
  5
999
330
97A
100
AcDbEntity
  8
3
100
AcDbCircle
 10
369.755227
 20
26.716513
 30
0.0
 40
13.0
100
AcDbArc
 50
180.733009
 51
270.0
  0
ARC
  5
99A
330
97A
100
AcDbEntity
  8
3
100
AcDbCircle
 10
358.060327
 20
27.181494
 30
0.0
 40
0.2
100
AcDbArc
 50
281.309932
 51
358.743228
  0
ARC
  5
99B
330
97A
100
AcDbEntity
  8
3
100
AcDbCircle
 10
356.956275
 20
26.552762
 30
0.0
 40
0.2
100
AcDbArc
 50
101.3099319999999
 51
180.733009
  0
LINE
  5
99C
330
97A
100
AcDbEntity
  8
3
100
AcDbLine
 10
356.917052
 20
26.748878
 30
0.0
 11
358.09955
 21
26.985378
 31
0.0
  0
ARC
  5
99D
330
97A
100
AcDbEntity
  8
3
100
AcDbCircle
 10
369.755227
 20
35.716513
 30
0.0
 40
8.0
100
AcDbArc
 50
90.0
 51
125.8636379999999
  0
ARC
  5
99E
330
97A
100
AcDbEntity
  8
3
100
AcDbCircle
 10
369.755227
 20
35.716513
 30
0.0
 40
8.0
100
AcDbArc
 50
54.136362
 51
90.0
  0
ARC
  5
99F
330
97A
100
AcDbEntity
  8
3
100
AcDbCircle
 10
410.04768
 20
108.537268
 30
0.0
 40
47.293541
100
AcDbArc
 50
168.1902189999999
 51
194.474221
  0
ARC
  5
9A0
330
97A
100
AcDbEntity
  8
3
100
AcDbCircle
 10
369.255227
 20
97.966513
 30
0.0
 40
5.153882
100
AcDbArc
 50
194.036243
 51
247.166346
  0
ARC
  5
9A1
330
97A
100
AcDbEntity
  8
3
100
AcDbCircle
 10
369.755227
 20
97.331034
 30
0.0
 40
4.814487
100
AcDbArc
 50
238.716964
 51
301.2830359999999
  0
ARC
  5
9A2
330
97A
100
AcDbEntity
  8
3
100
AcDbCircle
 10
394.0052269999999
 20
111.4665129999999
 30
0.0
 40
30.993951
100
AcDbArc
 50
155.7090379999999
 51
166.233828
  0
ARC
  5
9A3
330
97A
100
AcDbEntity
  8
3
100
AcDbCircle
 10
370.5052269999999
 20
116.966513
 30
0.0
 40
6.864764999999999
100
AcDbArc
 50
164.1463699999999
 51
169.508523
  0
LINE
  5
9A4
330
97A
100
AcDbEntity
  8
1
100
AcDbLine
 10
249.7552269999999
 20
171.2165129999999
 30
0.0
 11
0.0
 21
171.2165129999999
 31
0.0
  0
ARC
  5
9A5
330
97A
100
AcDbEntity
  8
3
100
AcDbCircle
 10
101.7692819999999
 20
297.687005
 30
0.0
 40
2.996183
100
AcDbArc
 50
355.262152
 51
61.58815200000001
  0
ARC
  5
9A6
330
97A
100
AcDbEntity
  8
3
100
AcDbCircle
 10
71.74117199999999
 20
297.687005
 30
0.0
 40
2.996183
100
AcDbArc
 50
118.4118479999999
 51
184.7378479999999
  0
ARC
  5
9A7
330
97A
100
AcDbEntity
  8
3
100
AcDbCircle
 10
86.755227
 20
303.2165129999999
 30
0.0
 40
16.0
100
AcDbArc
 50
180.0
 51
0.0
  0
ARC
  5
9A8
330
97A
100
AcDbEntity
  8
3
100
AcDbCircle
 10
86.755227
 20
171.2165129999999
 30
0.0
 40
127.5
100
AcDbArc
 50
98.115929
 51
132.8775
  0
ARC
  5
9A9
330
97A
100
AcDbEntity
  8
3
100
AcDbCircle
 10
86.755227
 20
171.2165129999999
 30
0.0
 40
144.5
100
AcDbArc
 50
100.793357
 51
126.897275
  0
LINE
  5
9AA
330
97A
100
AcDbEntity
  8
3
100
AcDbLine
 10
51.876899
 20
174.173511
 30
0.0
 11
0.0
 21
142.78645
 31
0.0
  0
LINE
  5
9AB
330
97A
100
AcDbEntity
  8
3
100
AcDbLine
 10
66.75522700000001
 20
199.943532
 30
0.0
 11
68.75522700000001
 21
297.4395299999999
 31
0.0
  0
LINE
  5
9AC
330
97A
100
AcDbEntity
  8
3
100
AcDbLine
 10
106.7552269999999
 20
199.943532
 30
0.0
 11
104.755227
 21
297.4395299999999
 31
0.0
  0
ARC
  5
9AD
330
97A
100
AcDbEntity
  8
3
100
AcDbCircle
 10
86.755227
 20
171.2165129999999
 30
0.0
 40
32.55322899999999
100
AcDbArc
 50
59.00674399999999
 51
120.993256
  0
CIRCLE
  5
9AE
330
97A
100
AcDbEntity
  8
3
100
AcDbCircle
 10
86.755227
 20
171.2165129999999
 30
0.0
 40
27.0
  0
ARC
  5
9AF
330
97A
100
AcDbEntity
  8
3
100
AcDbCircle
 10
86.755227
 20
171.2165129999999
 30
0.0
 40
35.0
100
AcDbArc
 50
244.849387
 51
295.1506129999999
  0
ARC
  5
9B0
330
97A
100
AcDbEntity
  8
3
100
AcDbCircle
 10
86.755227
 20
171.2165129999999
 30
0.0
 40
32.55322899999999
100
AcDbArc
 50
179.006744
 51
240.993256
  0
ARC
  5
9B1
330
97A
100
AcDbEntity
  8
3
100
AcDbCircle
 10
100.3324649999999
 20
179.055335
 30
0.0
 40
46.695689
100
AcDbArc
 50
231.0376329999999
 51
233.196161
  0
ARC
  5
9B2
330
97A
100
AcDbEntity
  8
3
100
AcDbCircle
 10
70.99995799999999
 20
140.8515219999999
 30
0.0
 40
1.583937
100
AcDbArc
 50
303.617514
 51
30.966064
  0
ARC
  5
9B3
330
97A
100
AcDbEntity
  8
3
100
AcDbCircle
 10
86.755227
 20
171.2165129999999
 30
0.0
 40
35.0
100
AcDbArc
 50
124.849387
 51
175.1506129999999
  0
ARC
  5
9B4
330
97A
100
AcDbEntity
  8
3
100
AcDbCircle
 10
100.3324649999999
 20
179.055335
 30
0.0
 40
46.695689
100
AcDbArc
 50
186.803839
 51
188.9623669999999
  0
ARC
  5
9B5
330
97A
100
AcDbEntity
  8
3
100
AcDbCircle
 10
52.580739
 20
172.754545
 30
0.0
 40
1.583937
100
AcDbArc
 50
29.03393599999999
 51
116.382486
  0
ARC
  5
9B6
330
97A
100
AcDbEntity
  8
3
100
AcDbCircle
 10
86.755227
 20
155.538869
 30
0.0
 40
46.695689
100
AcDbArc
 50
111.037633
 51
113.196161
  0
ARC
  5
9B7
330
97A
100
AcDbEntity
  8
3
100
AcDbCircle
 10
68.33600899999999
 20
200.043472
 30
0.0
 40
1.583937
100
AcDbArc
 50
183.6175139999999
 51
270.966064
  0
ARC
  5
9B8
330
97A
100
AcDbEntity
  8
3
100
AcDbCircle
 10
86.755227
 20
171.2165129999999
 30
0.0
 40
32.55322899999999
100
AcDbArc
 50
299.0067439999999
 51
0.993256
  0
ARC
  5
9B9
330
97A
100
AcDbEntity
  8
3
100
AcDbCircle
 10
73.17798899999999
 20
179.055335
 30
0.0
 40
46.695689
100
AcDbArc
 50
306.803839
 51
308.9623669999999
  0
ARC
  5
9BA
330
97A
100
AcDbEntity
  8
3
100
AcDbCircle
 10
102.510497
 20
140.8515219999999
 30
0.0
 40
1.583937
100
AcDbArc
 50
149.033936
 51
236.382486
  0
ARC
  5
9BB
330
97A
100
AcDbEntity
  8
3
100
AcDbCircle
 10
86.755227
 20
171.2165129999999
 30
0.0
 40
35.0
100
AcDbArc
 50
4.849387
 51
55.150613
  0
ARC
  5
9BC
330
97A
100
AcDbEntity
  8
3
100
AcDbCircle
 10
86.755227
 20
155.538869
 30
0.0
 40
46.695689
100
AcDbArc
 50
66.80383899999999
 51
68.962367
  0
ARC
  5
9BD
330
97A
100
AcDbEntity
  8
3
100
AcDbCircle
 10
105.174446
 20
200.043472
 30
0.0
 40
1.583937
100
AcDbArc
 50
269.0339359999999
 51
356.3824859999999
  0
ARC
  5
9BE
330
97A
100
AcDbEntity
  8
3
100
AcDbCircle
 10
73.17798899999999
 20
179.055335
 30
0.0
 40
46.695689
100
AcDbArc
 50
351.037633
 51
353.1961609999999
  0
ARC
  5
9BF
330
97A
100
AcDbEntity
  8
3
100
AcDbCircle
 10
120.9297149999999
 20
172.754545
 30
0.0
 40
1.583937
100
AcDbArc
 50
63.61751400000001
 51
150.9660639999999
  0
LINE
  5
9C0
330
97A
100
AcDbEntity
  8
1
100
AcDbLine
 10
119.755227
 20
303.2165129999999
 30
0.0
 11
56.75522700000001
 21
303.2165129999999
 31
0.0
  0
ARC
  5
9C1
330
97A
100
AcDbEntity
  8
3
100
AcDbCircle
 10
60.755227
 20
303.2165129999999
 30
0.0
 40
10.0
100
AcDbArc
 50
0.0
 51
96.085609
  0
ARC
  5
9C2
330
97A
100
AcDbEntity
  8
3
100
AcDbCircle
 10
86.755227
 20
245.3093529999999
 30
0.0
 40
57.416779
100
AcDbArc
 50
105.9424439999999
 51
106.6378559999999
  0
ARC
  5
9C3
330
97A
100
AcDbEntity
  8
3
100
AcDbCircle
 10
112.755227
 20
303.2165129999999
 30
0.0
 40
10.0
100
AcDbArc
 50
83.91439100000001
 51
180.0
  0
ARC
  5
9C4
330
97A
100
AcDbEntity
  8
3
100
AcDbCircle
 10
86.755227
 20
245.3093529999999
 30
0.0
 40
57.416779
100
AcDbArc
 50
73.362144
 51
74.057556
  0
LINE
  5
9C5
330
97A
100
AcDbEntity
  8
1
100
AcDbLine
 10
369.755227
 20
294.642492
 30
0.0
 11
369.755227
 21
332.001842
 31
0.0
  0
LINE
  5
9C6
330
97A
100
AcDbEntity
  8
3
100
AcDbLine
 10
356.755227
 20
315.7165129999999
 30
0.0
 11
356.755227
 21
171.2165129999999
 31
0.0
  0
LINE
  5
9C7
330
97A
100
AcDbEntity
  8
1
100
AcDbLine
 10
369.755227
 20
294.642492
 30
0.0
 11
369.755227
 21
171.2165129999999
 31
0.0
  0
TEXT
  5
9C8
330
97A
100
AcDbEntity
  8
0
100
AcDbText
 10
266.152199
 20
183.6352449999999
 30
0.0
 40
4.5
  1
(%%C313)
 50
90.0
 41
0.7
  7
BIGFONT
100
AcDbText
  0
LINE
  5
9C9
330
97A
100
AcDbEntity
  8
3
100
AcDbLine
 10
356.755227
 20
287.2165129999999
 30
0.0
 11
365.4557669999999
 21
287.2165129999999
 31
0.0
  0
ARC
  5
9CA
330
97A
100
AcDbEntity
  8
3
100
AcDbCircle
 10
369.755227
 20
315.7165129999999
 30
0.0
 40
13.0
100
AcDbArc
 50
90.0
 51
179.2669909999999
  0
LINE
  5
9CB
330
97A
100
AcDbEntity
  8
3
100
AcDbLine
 10
376.704372
 20
39.77122999999999
 30
0.0
 11
376.704372
 21
99.35132199999999
 31
0.0
  0
LINE
  5
9CC
330
97A
100
AcDbEntity
  8
3
100
AcDbLine
 10
382.7552269999999
 20
26.716513
 30
0.0
 11
382.7552269999999
 21
110.352877
 31
0.0
  0
LINE
  5
9CD
330
97A
100
AcDbEntity
  8
3
100
AcDbLine
 10
382.7552269999999
 20
315.7165129999999
 30
0.0
 11
382.7552269999999
 21
278.1965129999999
 31
0.0
  0
DIMENSION
  5
9CE
330
97A
100
AcDbEntity
  8
0
100
AcDbDimension
  2
*D26
 10
426.7552269999999
 20
234.216513
 30
0.0
 11
416.7552269999999
 21
234.216513
 31
0.0
 12
-4.744773
 22
-148.283487
 32
0.0
 70
   128
 71
     5
 42
-1.0
  3
STANDARD
100
AcDbAlignedDimension
 13
406.755227
 23
198.216513
 33
0.0
 14
426.7552269999999
 24
198.216513
 34
0.0
100
AcDbRotatedDimension
1001
ACAD
1000
DSTYLE
1002
{
1070
    73
1070
     0
1070
    40
1040
1.0
1002
}
  0
DIMENSION
  5
9CF
330
97A
100
AcDbEntity
  8
0
100
AcDbDimension
  2
*D25
 10
426.7552269999999
 20
253.7165129999999
 30
0.0
 11
407.7552269999999
 21
253.7165129999999
 31
0.0
 12
-4.744773
 22
-148.283487
 32
0.0
 70
   128
 71
     5
 42
-1.0
  3
STANDARD
100
AcDbAlignedDimension
 13
381.755227
 23
200.723405
 33
0.0
 14
426.7552269999999
 24
198.7165129999999
 34
0.0
100
AcDbRotatedDimension
1001
ACAD
1000
DSTYLE
1002
{
1070
    73
1070
     0
1070
    40
1040
1.0
1002
}
  0
LINE
  5
9D0
330
97A
100
AcDbEntity
  8
3
100
AcDbLine
 10
398.9514509999999
 20
209.1617339999999
 30
0.0
 11
379.469182
 21
288.2165129999999
 31
0.0
  0
LINE
  5
9D1
330
97A
100
AcDbEntity
  8
3
100
AcDbLine
 10
376.704372
 20
171.2165129999999
 30
0.0
 11
376.704372
 21
237.2406259999999
 31
0.0
  0
LINE
  5
9D2
330
97A
100
AcDbEntity
  8
3
100
AcDbLine
 10
381.755227
 20
141.7096209999999
 30
0.0
 11
381.755227
 21
200.723405
 31
0.0
  0
LINE
  5
9D3
330
97A
100
AcDbEntity
  8
3
100
AcDbLine
 10
426.7552269999999
 20
195.216513
 30
0.0
 11
426.7552269999999
 21
147.216513
 31
0.0
  0
LINE
  5
9D4
330
97A
100
AcDbEntity
  8
3
100
AcDbLine
 10
376.704372
 20
144.55064
 30
0.0
 11
376.704372
 21
171.2165129999999
 31
0.0
  0
ARC
  5
9D5
330
97A
100
AcDbEntity
  8
2
100
AcDbCircle
 10
393.7552269999999
 20
163.359082
 30
0.0
 40
6.823452
100
AcDbArc
 50
59.140351
 51
120.859649
  0
ARC
  5
9D6
330
97A
100
AcDbEntity
  8
3
100
AcDbCircle
 10
391.872874
 20
157.6723949999999
 30
0.0
 40
21.45620499999999
100
AcDbArc
 50
269.685838
 51
313.9169799999999
  0
ARC
  5
9D7
330
97A
100
AcDbEntity
  8
2
100
AcDbCircle
 10
434.0052269999999
 20
152.716513
 30
0.0
 40
48.260362
100
AcDbArc
 50
171.6600239999999
 51
188.339976
  0
ARC
  5
9D8
330
97A
100
AcDbEntity
  8
2
100
AcDbCircle
 10
353.5052269999999
 20
152.716513
 30
0.0
 40
48.260362
100
AcDbArc
 50
351.660024
 51
8.339976
  0
ARC
  5
9D9
330
97A
100
AcDbEntity
  8
3
100
AcDbCircle
 10
391.11237
 20
146.8950839999999
 30
0.0
 40
10.697904
100
AcDbArc
 50
208.9939779999999
 51
273.4450859999999
  0
ARC
  5
9DA
330
97A
100
AcDbEntity
  8
2
100
AcDbCircle
 10
404.697535
 20
148.5242049999999
 30
0.0
 40
18.654808
100
AcDbArc
 50
188.65635
 51
219.268628
  0
LINE
  5
9DB
330
97A
100
AcDbEntity
  8
2
100
AcDbLine
 10
393.140173
 20
129.234596
 30
0.0
 11
398.141487
 21
137.763178
 31
0.0
  0
ARC
  5
9DC
330
97A
100
AcDbEntity
  8
2
100
AcDbCircle
 10
382.81292
 20
148.5242049999999
 30
0.0
 40
18.654808
100
AcDbArc
 50
320.731372
 51
351.34365
  0
ARC
  5
9DD
330
97A
100
AcDbEntity
  8
2
100
AcDbCircle
 10
393.7552269999999
 20
141.341803
 30
0.0
 40
5.800284999999999
100
AcDbArc
 50
232.884868
 51
307.1151319999999
  0
ARC
  5
9DE
330
97A
100
AcDbEntity
  8
2
100
AcDbCircle
 10
404.037485
 20
157.821352
 30
0.0
 40
17.882962
100
AcDbArc
 50
140.416081
 51
173.91661
  0
LINE
  5
9DF
330
97A
100
AcDbEntity
  8
2
100
AcDbLine
 10
381.755227
 20
153.930799
 30
0.0
 11
387.544755
 21
164.9171159999999
 31
0.0
  0
ARC
  5
9E0
330
97A
100
AcDbEntity
  8
2
100
AcDbCircle
 10
383.4729689999999
 20
157.821352
 30
0.0
 40
17.882962
100
AcDbArc
 50
6.08339
 51
39.583919
  0
LINE
  5
9E1
330
97A
100
AcDbEntity
  8
3
100
AcDbLine
 10
423.7552269999999
 20
144.216513
 30
0.0
 11
406.755227
 21
144.216513
 31
0.0
  0
LINE
  5
9E2
330
97A
100
AcDbEntity
  8
3
100
AcDbLine
 10
406.755227
 20
144.216513
 30
0.0
 11
406.755227
 21
142.2165129999999
 31
0.0
  0
ARC
  5
9E3
330
97A
100
AcDbEntity
  8
3
100
AcDbCircle
 10
423.7552269999999
 20
147.216513
 30
0.0
 40
3.0
100
AcDbArc
 50
270.0
 51
0.0
  0
ARC
  5
9E4
330
97A
100
AcDbEntity
  8
3
100
AcDbCircle
 10
391.872874
 20
184.760631
 30
0.0
 40
21.45620499999999
100
AcDbArc
 50
46.08302
 51
90.314162
  0
ARC
  5
9E5
330
97A
100
AcDbEntity
  8
3
100
AcDbCircle
 10
391.11237
 20
195.5379419999999
 30
0.0
 40
10.697904
100
AcDbArc
 50
86.554914
 51
151.0060219999999
  0
LINE
  5
9E6
330
97A
100
AcDbEntity
  8
3
100
AcDbLine
 10
383.7552269999999
 20
203.41282
 30
0.0
 11
383.7552269999999
 21
203.7697419999999
 31
0.0
  0
ARC
  5
9E7
330
97A
100
AcDbEntity
  8
3
100
AcDbCircle
 10
363.755227
 20
203.7697419999999
 30
0.0
 40
20.0
100
AcDbArc
 50
0.0
 51
15.056471
  0
ARC
  5
9E8
330
97A
100
AcDbEntity
  8
3
100
AcDbCircle
 10
379.755227
 20
203.5488029999999
 30
0.0
 40
20.0
100
AcDbArc
 50
3.386633999999999
 51
16.29879599999999
  0
LINE
  5
9E9
330
97A
100
AcDbEntity
  8
3
100
AcDbLine
 10
406.755227
 20
198.216513
 30
0.0
 11
423.7552269999999
 21
198.216513
 31
0.0
  0
LINE
  5
9EA
330
97A
100
AcDbEntity
  8
3
100
AcDbLine
 10
406.755227
 20
200.2165129999999
 30
0.0
 11
406.755227
 21
198.216513
 31
0.0
  0
ARC
  5
9EB
330
97A
100
AcDbEntity
  8
3
100
AcDbCircle
 10
423.7552269999999
 20
195.216513
 30
0.0
 40
3.0
100
AcDbArc
 50
0.0
 51
90.0
  0
LINE
  5
9EC
330
97A
100
AcDbEntity
  8
3
100
AcDbLine
 10
382.7552269999999
 20
278.1965129999999
 30
0.0
 11
382.7552269999999
 21
274.8824609999999
 31
0.0
  0
LINE
  5
9ED
330
97A
100
AcDbEntity
  8
3
100
AcDbLine
 10
379.469182
 20
288.2165129999999
 30
0.0
 11
382.7552269999999
 21
288.938193
 31
0.0
  0
ENDBLK
  5
9EF
330
97A
100
AcDbEntity
  8
0
100
AcDbBlockEnd
  0
BLOCK
  5
AF7
330
AEC
100
AcDbEntity
  8
0
100
AcDbBlockBegin
  2
*D30
 70
     1
 10
0.0
 20
0.0
 30
0.0
  3
*D30
  1

  0
LINE
  5
AED
330
AEC
100
AcDbEntity
  8
0
  6
ByBlock
 62
     0
100
AcDbLine
 10
151.5
 20
199.0
 30
0.0
 11
129.992584
 21
199.0
 31
0.0
  0
LINE
  5
AEE
330
AEC
100
AcDbEntity
  8
0
  6
ByBlock
 62
     0
100
AcDbLine
 10
150.710801
 20
170.5
 30
0.0
 11
129.992584
 21
170.5
 31
0.0
  0
LINE
  5
AEF
330
AEC
100
AcDbEntity
  8
0
  6
ByBlock
 62
     0
100
AcDbLine
 10
130.992584
 20
196.5
 30
0.0
 11
130.992584
 21
191.2851189999999
 31
0.0
  0
LINE
  5
AF0
330
AEC
100
AcDbEntity
  8
0
  6
ByBlock
 62
     0
100
AcDbLine
 10
130.992584
 20
173.0
 30
0.0
 11
130.992584
 21
178.0351189999999
 31
0.0
  0
SOLID
  5
AF1
330
AEC
100
AcDbEntity
  8
0
  6
ByBlock
 62
     0
100
AcDbTrace
 10
130.575918
 20
196.5
 30
0.0
 11
131.409251
 21
196.5
 31
0.0
 12
130.992584
 22
199.0
 32
0.0
 13
130.992584
 23
199.0
 33
0.0
  0
SOLID
  5
AF2
330
AEC
100
AcDbEntity
  8
0
  6
ByBlock
 62
     0
100
AcDbTrace
 10
130.575918
 20
173.0
 30
0.0
 11
131.409251
 21
173.0
 31
0.0
 12
130.992584
 22
170.5
 32
0.0
 13
130.992584
 23
170.5
 33
0.0
  0
MTEXT
  5
AF3
330
AEC
100
AcDbEntity
  8
0
  6
ByBlock
 62
     0
100
AcDbMText
 10
130.992584
 20
184.6601189999999
 30
0.0
 40
4.0
 41
0.0
 71
     5
 72
     1
  1
\A1;28.5
 11
0.0
 21
1.0
 31
0.0
 73
     1
 44
1.0
  0
POINT
  5
AF4
330
AEC
100
AcDbEntity
  8
DEFPOINTS
  6
ByBlock
 62
     0
100
AcDbPoint
 10
152.5
 20
199.0
 30
0.0
  0
POINT
  5
AF5
330
AEC
100
AcDbEntity
  8
DEFPOINTS
  6
ByBlock
 62
     0
100
AcDbPoint
 10
151.710801
 20
170.5
 30
0.0
  0
POINT
  5
AF6
330
AEC
100
AcDbEntity
  8
DEFPOINTS
  6
ByBlock
 62
     0
100
AcDbPoint
 10
130.992584
 20
170.5
 30
0.0
  0
ENDBLK
  5
AF8
330
AEC
100
AcDbEntity
  8
0
100
AcDbBlockEnd
  0
BLOCK
  5
B74
330
AF9
100
AcDbEntity
  8
0
100
AcDbBlockBegin
  2
A$C11050335
 70
     0
 10
0.0
 20
0.0
 30
0.0
  3
A$C11050335
  1

  0
MTEXT
  5
AFA
102
{ACAD_REACTORS
330
AFB
102
}
330
AF9
100
AcDbEntity
  8
0
100
AcDbMText
 10
151.7952019999999
 20
75.78463000000001
 30
9.834485
 40
4.0
 41
0.0
 71
     4
 72
     1
  1
\A1;M5-P0.8
 73
     1
 44
1.0
  0
LEADER
  5
AFB
330
AF9
100
AcDbEntity
  8
0
100
AcDbLeader
  3
STANDARD
 73
     0
 40
4.0
 41
23.333333
 76
     3
 10
139.024889
 20
72.38302299999999
 30
9.834485
 10
150.8603719999999
 20
75.846478
 30
9.834485
 10
151.705202
 20
75.78463000000001
 30
9.834485
340
AFA
1001
ACAD
1000
DSTYLE
1002
{
1070
   140
1040
4.0
1070
   272
1070
     1
1070
    77
1070
     0
1070
    40
1040
1.0
1070
   271
1070
     1
1070
   141
1040
0.0
1002
}
  0
ARC
  5
AFC
330
AF9
100
AcDbEntity
  8
3
100
AcDbCircle
 10
143.354318
 20
35.097013
 30
9.834485
 40
20.79015599999999
100
AcDbArc
 50
64.276938
 51
86.927552
  0
ARC
  5
AFD
330
AF9
100
AcDbEntity
  8
3
100
AcDbCircle
 10
143.354318
 20
52.556814
 30
9.834485
 40
20.79015599999999
100
AcDbArc
 50
273.072448
 51
295.723062
  0
ARC
  5
AFE
330
AF9
100
AcDbEntity
  8
2
100
AcDbCircle
 10
144.770932
 20
46.459405
 30
9.834485
 40
13.57143299999999
100
AcDbArc
 50
268.7236879999999
 51
299.182099
  0
ARC
  5
AFF
330
AF9
100
AcDbEntity
  8
2
100
AcDbCircle
 10
144.457051
 20
30.312414
 30
9.834485
 40
14.703285
100
AcDbArc
 50
62.361775
 51
89.95483099999999
  0
LINE
  5
B00
330
AF9
100
AcDbEntity
  8
3
100
AcDbLine
 10
152.377698
 20
53.826914
 30
9.834485
 11
138.972861
 21
68.714493
 31
9.834485
  0
LINE
  5
B01
330
AF9
100
AcDbEntity
  8
1
100
AcDbLine
 10
122.683662
 20
43.826914
 30
9.834485
 11
169.183662
 21
43.826914
 31
9.834485
  0
LINE
  5
B02
330
AF9
100
AcDbEntity
  8
3
100
AcDbLine
 10
126.4900919999999
 20
77.808915
 30
9.834485
 11
126.4900919999999
 21
9.844911999999998
 31
9.834485
  0
LINE
  5
B03
330
AF9
100
AcDbEntity
  8
3
100
AcDbLine
 10
136.762661
 20
27.482959
 30
9.834485
 11
145.952729
 21
31.90976599999999
 31
9.834485
  0
LINE
  5
B04
330
AF9
100
AcDbEntity
  8
3
100
AcDbLine
 10
127.4766889999999
 20
64.076914
 30
9.834485
 11
127.4766889999999
 21
10.609192
 31
9.834485
  0
ARC
  5
B05
330
AF9
100
AcDbEntity
  8
3
100
AcDbCircle
 10
144.240304
 20
31.85007399999999
 30
9.834485
 40
14.339743
100
AcDbArc
 50
170.476761
 51
192.170638
  0
LINE
  5
B06
330
AF9
100
AcDbEntity
  8
1
100
AcDbLine
 10
44.472861
 20
43.826914
 30
9.834485
 11
81.74854599999999
 21
22.305787
 31
9.834485
  0
LINE
  5
B07
330
AF9
100
AcDbEntity
  8
1
100
AcDbLine
 10
44.472861
 20
43.826914
 30
9.834485
 11
6.662678999999999
 21
21.997195
 31
9.834485
  0
LINE
  5
B08
330
AF9
100
AcDbEntity
  8
1
100
AcDbLine
 10
144.4686419999999
 20
28.826914
 30
9.834485
 11
144.4686419999999
 21
59.552334
 31
9.834485
  0
ARC
  5
B09
330
AF9
100
AcDbEntity
  8
3
100
AcDbCircle
 10
58.74773100000001
 20
35.585314
 30
9.834485
 40
10.384921
100
AcDbArc
 50
296.5479029999999
 51
3.452097
  0
LINE
  5
B0A
330
AF9
100
AcDbEntity
  8
3
100
AcDbLine
 10
49.413832
 20
32.891339
 30
9.834485
 11
61.230672
 21
26.646233
 31
9.834485
  0
ARC
  5
B0B
330
AF9
100
AcDbEntity
  8
3
100
AcDbCircle
 10
30.197991
 20
35.585314
 30
9.834485
 40
10.384921
100
AcDbArc
 50
176.5479029999999
 51
243.4520969999999
  0
LINE
  5
B0C
330
AF9
100
AcDbEntity
  8
3
100
AcDbLine
 10
39.531889
 20
32.891339
 30
9.834485
 11
27.71505
 21
26.646233
 31
9.834485
  0
LINE
  5
B0D
330
AF9
100
AcDbEntity
  8
1
100
AcDbLine
 10
133.472861
 20
22.623982
 30
9.834485
 11
133.472861
 21
43.826914
 31
9.834485
  0
ARC
  5
B0E
330
AF9
100
AcDbEntity
  8
3
100
AcDbCircle
 10
44.472861
 20
43.826914
 30
9.834485
 40
33.5
100
AcDbArc
 50
110.9902429999999
 51
69.009757
  0
CIRCLE
  5
B0F
330
AF9
100
AcDbEntity
  8
3
100
AcDbCircle
 10
44.472861
 20
43.826914
 30
9.834485
 40
40.0
  0
LINE
  5
B10
330
AF9
100
AcDbEntity
  8
1
100
AcDbLine
 10
44.472861
 20
1.326913999999999
 30
9.834485
 11
44.472861
 21
85.82691399999999
 31
9.834485
  0
LINE
  5
B11
330
AF9
100
AcDbEntity
  8
1
100
AcDbLine
 10
133.472861
 20
16.54757199999999
 30
9.834485
 11
133.472861
 21
22.623982
 31
9.834485
  0
ARC
  5
B12
330
AF9
100
AcDbEntity
  8
3
100
AcDbCircle
 10
44.472861
 20
43.826914
 30
9.834485
 40
24.0
100
AcDbArc
 50
225.7138609999999
 51
314.286139
  0
ARC
  5
B13
330
AF9
100
AcDbEntity
  8
3
100
AcDbCircle
 10
26.048007
 20
30.086783
 30
9.834485
 40
3.823141999999999
100
AcDbArc
 50
262.61345
 51
295.8514879999999
  0
LINE
  5
B14
330
AF9
100
AcDbEntity
  8
3
100
AcDbLine
 10
139.970932
 20
10.16858999999999
 30
9.834485
 11
139.9720129999999
 21
29.028886
 31
9.834485
  0
ARC
  5
B15
330
AF9
100
AcDbEntity
  8
3
100
AcDbCircle
 10
62.897714
 20
30.086783
 30
9.834485
 40
3.823141999999999
100
AcDbArc
 50
244.148512
 51
277.3865499999999
  0
ARC
  5
B16
330
AF9
100
AcDbEntity
  8
3
100
AcDbCircle
 10
145.0899949999999
 20
16.69764599999999
 30
9.834485
 40
8.171369999999999
100
AcDbArc
 50
174.77187
 51
229.586839
  0
ARC
  5
B17
330
AF9
100
AcDbEntity
  8
3
100
AcDbCircle
 10
139.4683909999999
 20
10.09535599999999
 30
9.834485
 40
0.5
100
AcDbArc
 50
357.78824
 51
49.586839
  0
ARC
  5
B18
330
AF9
100
AcDbEntity
  8
3
100
AcDbCircle
 10
133.7964689999999
 20
32.259594
 30
9.834485
 40
5.622681
100
AcDbArc
 50
266.7005709999999
 51
301.8394259999999
  0
ARC
  5
B19
330
AF9
100
AcDbEntity
  8
3
100
AcDbCircle
 10
133.472861
 20
29.826914
 30
9.834485
 40
3.400367999999999
100
AcDbArc
 50
197.102729
 51
233.9726269999999
  0
ARC
  5
B1A
330
AF9
100
AcDbEntity
  8
3
100
AcDbCircle
 10
133.0743919999999
 20
29.654977
 30
9.834485
 40
3.035015
100
AcDbArc
 50
238.150829
 51
277.544164
  0
LINE
  5
B1B
330
AF9
100
AcDbEntity
  8
3
100
AcDbLine
 10
136.972861
 20
17.63755
 30
9.834485
 11
136.972861
 21
27.603517
 31
9.834485
  0
LINE
  5
B1C
330
AF9
100
AcDbEntity
  8
3
100
AcDbLine
 10
127.327931
 20
10.42090299999999
 30
9.834485
 11
126.934185
 21
10.377622
 31
9.834485
  0
ARC
  5
B1D
330
AF9
100
AcDbEntity
  8
3
100
AcDbCircle
 10
133.222861
 20
10.326914
 30
9.834485
 40
6.75
100
AcDbArc
 50
184.094842
 51
1.363124999999999
  0
LINE
  5
B1E
330
AF9
100
AcDbEntity
  8
1
100
AcDbLine
 10
133.222861
 20
10.326914
 30
9.834485
 11
133.222861
 21
0.0
 31
9.834485
  0
ARC
  5
B1F
330
AF9
100
AcDbEntity
  8
3
100
AcDbCircle
 10
126.9888159999999
 20
9.880615999999999
 30
9.834485
 40
0.5
100
AcDbArc
 50
96.27276100000001
 51
184.094842
  0
ARC
  5
B20
330
AF9
100
AcDbEntity
  8
3
100
AcDbCircle
 10
139.472861
 20
10.306111
 30
9.834485
 40
12.0
100
AcDbArc
 50
134.872625
 51
178.55274
  0
ARC
  5
B21
330
AF9
100
AcDbEntity
  8
3
100
AcDbCircle
 10
127.276753
 20
10.61424399999999
 30
9.834485
 40
0.2
100
AcDbArc
 50
284.8264799999999
 51
358.5527399999999
  0
ARC
  5
B22
330
AF9
100
AcDbEntity
  8
3
100
AcDbCircle
 10
133.472861
 20
16.326914
 30
9.834485
 40
3.5
100
AcDbArc
 50
45.002386
 51
90.0
  0
ARC
  5
B23
330
AF9
100
AcDbEntity
  8
3
100
AcDbCircle
 10
133.472861
 20
16.326914
 30
9.834485
 40
3.5
100
AcDbArc
 50
90.0
 51
134.997614
  0
ARC
  5
B24
330
AF9
100
AcDbEntity
  8
3
100
AcDbCircle
 10
136.4546999999999
 20
17.487794
 30
9.834485
 40
0.5
100
AcDbArc
 50
354.77187
 51
38.64507
  0
ARC
  5
B25
330
AF9
100
AcDbEntity
  8
3
100
AcDbCircle
 10
127.472861
 20
10.306111
 30
9.834485
 40
12.0
100
AcDbArc
 50
38.64507
 51
45.127375
  0
LINE
  5
B26
330
AF9
100
AcDbEntity
  8
1
100
AcDbLine
 10
54.132074
 20
72.326914
 30
9.834485
 11
34.722861
 21
72.326914
 31
9.834485
  0
CIRCLE
  5
B27
330
AF9
100
AcDbEntity
  8
3
100
AcDbCircle
 10
44.472861
 20
43.826914
 30
9.834485
 40
10.393661
  0
ARC
  5
B28
330
AF9
100
AcDbEntity
  8
3
100
AcDbCircle
 10
44.472861
 20
72.326914
 30
9.834485
 40
8.25
100
AcDbArc
 50
180.0
 51
0.0
  0
ARC
  5
B29
330
AF9
100
AcDbEntity
  8
3
100
AcDbCircle
 10
47.11770399999999
 20
45.353915
 30
9.834485
 40
14.024269
100
AcDbArc
 50
182.159972
 51
237.8400279999999
  0
ARC
  5
B2A
330
AF9
100
AcDbEntity
  8
3
100
AcDbCircle
 10
44.472861
 20
40.772911
 30
9.834485
 40
14.024269
100
AcDbArc
 50
62.15997199999999
 51
117.8400279999999
  0
LINE
  5
B2B
330
AF9
100
AcDbEntity
  8
1
100
AcDbLine
 10
89.683662
 20
43.826914
 30
9.834485
 11
-0.5271390000000001
 21
43.826914
 31
9.834485
  0
ARC
  5
B2C
330
AF9
100
AcDbEntity
  8
3
100
AcDbCircle
 10
44.472861
 20
43.826914
 30
9.834485
 40
24.0
100
AcDbArc
 50
105.713861
 51
194.286139
  0
ARC
  5
B2D
330
AF9
100
AcDbEntity
  8
3
100
AcDbCircle
 10
44.472861
 20
43.826914
 30
9.834485
 40
12.0
100
AcDbArc
 50
125.685335
 51
174.3146649999999
  0
LINE
  5
B2E
330
AF9
100
AcDbEntity
  8
3
100
AcDbLine
 10
32.531889
 20
45.015694
 30
9.834485
 11
21.21505
 21
37.904564
 31
9.834485
  0
ARC
  5
B2F
330
AF9
100
AcDbEntity
  8
3
100
AcDbCircle
 10
23.361132
 20
34.740587
 30
9.834485
 40
3.823141999999999
100
AcDbArc
 50
124.148512
 51
157.38655
  0
ARC
  5
B30
330
AF9
100
AcDbEntity
  8
3
100
AcDbCircle
 10
32.642266
 20
44.393959
 30
9.834485
 40
0.6314560000000001
100
AcDbArc
 50
43.090958
 51
100.066877
  0
LINE
  5
B31
330
AF9
100
AcDbEntity
  8
3
100
AcDbLine
 10
37.472861
 20
53.57370799999999
 30
9.834485
 11
37.972861
 21
66.92994399999999
 31
9.834485
  0
ARC
  5
B32
330
AF9
100
AcDbEntity
  8
3
100
AcDbCircle
 10
38.066487
 20
53.788986
 30
9.834485
 40
0.6314560000000001
100
AcDbArc
 50
199.9331229999999
 51
256.909042
  0
ARC
  5
B33
330
AF9
100
AcDbEntity
  8
3
100
AcDbCircle
 10
41.78598599999999
 20
66.65337
 30
9.834485
 40
3.823141999999999
100
AcDbArc
 50
171.6633779999999
 51
175.8514879999999
  0
ARC
  5
B34
330
AF9
100
AcDbEntity
  8
3
100
AcDbCircle
 10
33.142646
 20
72.087905
 30
9.834485
 40
3.089474
100
AcDbArc
 50
4.436955
 51
102.520913
  0
DIMENSION
  5
B35
330
AF9
100
AcDbEntity
  8
0
100
AcDbDimension
  2
*D30
 10
101.9654449999999
 20
43.826914
 30
9.834485
 11
101.9654449999999
 21
57.98703299999999
 31
9.834485
 12
-29.027139
 22
-126.673086
 32
9.834485
 70
   128
 71
     5
 42
-1.0
  3
STANDARD
100
AcDbAlignedDimension
 13
123.472861
 23
72.326914
 33
9.834485
 14
122.683662
 24
43.826914
 34
9.834485
 50
90.0
100
AcDbRotatedDimension
1001
ACAD
1000
DSTYLE
1002
{
1070
   140
1040
4.0
1070
   272
1070
     1
1070
    77
1070
     0
1070
    40
1040
1.0
1070
   271
1070
     1
1070
   141
1040
0.0
1002
}
  0
LINE
  5
B36
330
AF9
100
AcDbEntity
  8
1
100
AcDbLine
 10
144.4686419999999
 20
54.803088
 30
9.834485
 11
133.472861
 21
67.826914
 31
9.834485
  0
CIRCLE
  5
B37
330
AF9
100
AcDbEntity
  8
0
100
AcDbCircle
 10
44.472861
 20
72.326914
 30
9.834485
 40
3.5
  0
ARC
  5
B38
330
AF9
100
AcDbEntity
  8
3
100
AcDbCircle
 10
44.472861
 20
43.826914
 30
9.834485
 40
24.0
100
AcDbArc
 50
345.713861
 51
74.28613900000001
  0
LINE
  5
B39
330
AF9
100
AcDbEntity
  8
3
100
AcDbLine
 10
56.41383199999999
 20
45.015694
 30
9.834485
 11
67.73067199999999
 21
37.904564
 31
9.834485
  0
ARC
  5
B3A
330
AF9
100
AcDbEntity
  8
3
100
AcDbCircle
 10
44.472861
 20
43.826914
 30
9.834485
 40
12.0
100
AcDbArc
 50
5.685335
 51
54.314665
  0
ARC
  5
B3B
330
AF9
100
AcDbEntity
  8
3
100
AcDbCircle
 10
41.82801699999999
 20
45.353915
 30
9.834485
 40
14.024269
100
AcDbArc
 50
302.159972
 51
357.8400279999999
  0
ARC
  5
B3C
330
AF9
100
AcDbEntity
  8
3
100
AcDbCircle
 10
44.472861
 20
43.826914
 30
9.834485
 40
12.0
100
AcDbArc
 50
245.685335
 51
294.314665
  0
ARC
  5
B3D
330
AF9
100
AcDbEntity
  8
3
100
AcDbCircle
 10
39.04863999999999
 20
33.297795
 30
9.834485
 40
0.6314560000000001
100
AcDbArc
 50
319.933123
 51
16.909042
  0
ARC
  5
B3E
330
AF9
100
AcDbEntity
  8
3
100
AcDbCircle
 10
49.89708199999999
 20
33.297795
 30
9.834485
 40
0.6314560000000001
100
AcDbArc
 50
163.0909579999999
 51
220.066877
  0
ARC
  5
B3F
330
AF9
100
AcDbEntity
  8
3
100
AcDbCircle
 10
56.303455
 20
44.393959
 30
9.834485
 40
0.6314560000000001
100
AcDbArc
 50
79.93312299999999
 51
136.909042
  0
LINE
  5
B40
330
AF9
100
AcDbEntity
  8
3
100
AcDbLine
 10
51.472861
 20
53.57370799999999
 30
9.834485
 11
50.972861
 21
66.92994399999999
 31
9.834485
  0
ARC
  5
B41
330
AF9
100
AcDbEntity
  8
3
100
AcDbCircle
 10
50.87923400000001
 20
53.788986
 30
9.834485
 40
0.6314560000000001
100
AcDbArc
 50
283.090958
 51
340.0668769999999
  0
ARC
  5
B42
330
AF9
100
AcDbEntity
  8
3
100
AcDbCircle
 10
47.15973599999999
 20
66.65337
 30
9.834485
 40
3.823141999999999
100
AcDbArc
 50
4.148512
 51
8.336622
  0
ARC
  5
B43
330
AF9
100
AcDbEntity
  8
3
100
AcDbCircle
 10
65.58458900000001
 20
34.740587
 30
9.834485
 40
3.823141999999999
100
AcDbArc
 50
22.61344999999999
 51
55.851488
  0
ARC
  5
B44
330
AF9
100
AcDbEntity
  8
3
100
AcDbCircle
 10
55.80307499999999
 20
72.087905
 30
9.834485
 40
3.089474
100
AcDbArc
 50
77.47908699999999
 51
175.5630449999999
  0
CIRCLE
  5
B45
330
AF9
100
AcDbEntity
  8
3
100
AcDbCircle
 10
44.472861
 20
72.326914
 30
9.834485
 40
2.0
  0
CIRCLE
  5
B46
330
AF9
100
AcDbEntity
  8
0
100
AcDbCircle
 10
44.472861
 20
72.326914
 30
9.834485
 40
2.5
  0
LWPOLYLINE
  5
B47
330
AF9
100
AcDbEntity
  8
0
100
AcDbPolyline
 90
        2
 70
     0
 43
0.0
 38
9.834485
 10
126.4900919999999
 20
68.826914
 10
127.9900919999999
 20
70.326914
  0
LINE
  5
B48
330
AF9
100
AcDbEntity
  8
3
100
AcDbLine
 10
138.972861
 20
76.373926
 30
9.834485
 11
138.972861
 21
68.714493
 31
9.834485
  0
LINE
  5
B49
330
AF9
100
AcDbEntity
  8
3
100
AcDbLine
 10
138.972861
 20
54.330761
 30
9.834485
 11
138.972861
 21
33.32306599999999
 31
9.834485
  0
LINE
  5
B4A
330
AF9
100
AcDbEntity
  8
3
100
AcDbLine
 10
136.972861
 20
40.78534699999999
 30
9.834485
 11
136.972861
 21
58.59579100000001
 31
9.834485
  0
LINE
  5
B4B
330
AF9
100
AcDbEntity
  8
3
100
AcDbLine
 10
131.9585259999999
 20
37.519768
 30
9.834485
 11
138.972861
 21
42.08784399999999
 31
9.834485
  0
ARC
  5
B4C
330
AF9
100
AcDbEntity
  8
3
100
AcDbCircle
 10
135.847861
 20
33.201914
 30
9.834485
 40
5.87633
100
AcDbArc
 50
141.911227
 51
156.16126
  0
ARC
  5
B4D
330
AF9
100
AcDbEntity
  8
3
100
AcDbCircle
 10
135.9826069999999
 20
33.323665
 30
9.834485
 40
5.952683
100
AcDbArc
 50
157.7575539999999
 51
171.314821
  0
ARC
  5
B4E
330
AF9
100
AcDbEntity
  8
3
100
AcDbCircle
 10
133.472861
 20
35.076914
 30
9.834485
 40
2.850438999999999
100
AcDbArc
 50
122.749199
 51
142.1250159999999
  0
ARC
  5
B4F
330
AF9
100
AcDbEntity
  8
2
100
AcDbCircle
 10
147.9929229999999
 20
38.66811
 30
9.834485
 40
8.001087
100
AcDbArc
 50
166.19796
 51
204.682704
  0
ARC
  5
B50
330
AF9
100
AcDbEntity
  8
3
100
AcDbCircle
 10
143.6943519999999
 20
39.665153
 30
9.834485
 40
7.906614
100
AcDbArc
 50
233.333437
 51
275.6199509999999
  0
ARC
  5
B51
330
AF9
100
AcDbEntity
  8
2
100
AcDbCircle
 10
145.197861
 20
37.785247
 30
9.834485
 40
5.105783999999999
100
AcDbArc
 50
208.7821149999999
 51
247.2434599999999
  0
ARC
  5
B52
330
AF9
100
AcDbEntity
  8
2
100
AcDbCircle
 10
144.472861
 20
37.19396599999999
 30
9.834485
 40
4.30263
100
AcDbArc
 50
253.11091
 51
269.943822
  0
LINE
  5
B53
330
AF9
100
AcDbEntity
  8
2
100
AcDbLine
 10
138.972861
 20
42.08784399999999
 30
9.834485
 11
142.722861
 21
44.576914
 31
9.834485
  0
ARC
  5
B54
330
AF9
100
AcDbEntity
  8
2
100
AcDbCircle
 10
146.785361
 20
39.256601
 30
9.834485
 40
6.693999999999999
100
AcDbArc
 50
127.364737
 51
168.6244969999999
  0
ARC
  5
B55
330
AF9
100
AcDbEntity
  8
2
100
AcDbCircle
 10
144.472861
 20
41.306539
 30
9.834485
 40
3.709156999999999
100
AcDbArc
 50
90.065167
 51
118.1515469999999
  0
LINE
  5
B56
330
AF9
100
AcDbEntity
  8
3
100
AcDbLine
 10
126.9747889999999
 20
64.076914
 30
9.834485
 11
132.6129789999999
 21
64.076914
 31
9.834485
  0
LINE
  5
B57
330
AF9
100
AcDbEntity
  8
3
100
AcDbLine
 10
126.9747889999999
 20
64.076914
 30
9.834485
 11
126.4900919999999
 21
64.076914
 31
9.834485
  0
ARC
  5
B58
330
AF9
100
AcDbEntity
  8
3
100
AcDbCircle
 10
143.6943519999999
 20
47.98867399999999
 30
9.834485
 40
7.906614
100
AcDbArc
 50
84.38004900000001
 51
126.6665629999999
  0
LINE
  5
B59
330
AF9
100
AcDbEntity
  8
3
100
AcDbLine
 10
139.89475
 20
54.92247299999999
 30
9.834485
 11
132.6129789999999
 21
64.076914
 31
9.834485
  0
MTEXT
  5
B5A
102
{ACAD_REACTORS
330
B5B
102
}
330
AF9
100
AcDbEntity
  8
0
100
AcDbMText
 10
116.959696
 20
83.45370799999999
 30
9.834485
 40
4.0
 41
0.0
 71
     6
 72
     1
  1
\A1;C1
 73
     1
 44
1.0
  0
LEADER
  5
B5B
330
AF9
100
AcDbEntity
  8
0
100
AcDbLeader
  3
STANDARD
 73
     0
 40
4.0
 41
5.333333
 76
     3
 10
126.879578
 20
69.29065300000001
 30
9.834485
 10
117.708628
 20
83.45370799999999
 30
9.834485
 10
117.0496959999999
 20
83.45370799999999
 30
9.834485
340
B5A
1001
ACAD
1000
DSTYLE
1002
{
1070
   140
1040
4.0
1070
   272
1070
     1
1070
    77
1070
     0
1070
    40
1040
1.0
1070
   271
1070
     1
1070
   141
1040
0.0
1002
}
  0
LWPOLYLINE
  5
B5C
330
AF9
100
AcDbEntity
  8
0
100
AcDbPolyline
 90
        2
 70
     0
 43
0.0
 38
9.834485
 10
127.9900919999999
 20
74.326914
 10
126.4900919999999
 20
75.826914
  0
LINE
  5
B5D
330
AF9
100
AcDbEntity
  8
0
100
AcDbLine
 10
127.4900919999999
 20
69.826914
 30
9.834485
 11
127.4900919999999
 21
74.826914
 31
9.834485
  0
LINE
  5
B5E
330
AF9
100
AcDbEntity
  8
0
100
AcDbLine
 10
127.9900919999999
 20
70.326914
 30
9.834485
 11
127.9900919999999
 21
74.326914
 31
9.834485
  0
ARC
  5
B5F
330
AF9
100
AcDbEntity
  8
3
100
AcDbCircle
 10
145.0899949999999
 20
70.956181
 30
9.834485
 40
8.171369999999999
100
AcDbArc
 50
128.7723189999999
 51
138.4697439999999
  0
LINE
  5
B60
330
AF9
100
AcDbEntity
  8
3
100
AcDbLine
 10
139.970932
 20
77.48523699999999
 30
9.834485
 11
139.9714979999999
 21
67.60539399999998
 31
9.834485
  0
LINE
  5
B61
330
AF9
100
AcDbEntity
  8
0
100
AcDbLine
 10
138.972861
 20
69.826914
 30
9.834485
 11
127.4900919999999
 21
69.826914
 31
9.834485
  0
LINE
  5
B62
330
AF9
100
AcDbEntity
  8
0
100
AcDbLine
 10
127.4900919999999
 20
74.826914
 30
9.834485
 11
138.972861
 21
74.826914
 31
9.834485
  0
LINE
  5
B63
330
AF9
100
AcDbEntity
  8
3
100
AcDbLine
 10
138.972861
 20
70.326914
 30
9.834485
 11
127.9900919999999
 21
70.326914
 31
9.834485
  0
LINE
  5
B64
330
AF9
100
AcDbEntity
  8
3
100
AcDbLine
 10
127.9900919999999
 20
74.326914
 30
9.834485
 11
138.972861
 21
74.326914
 31
9.834485
  0
ARC
  5
B65
330
AF9
100
AcDbEntity
  8
3
100
AcDbCircle
 10
133.222861
 20
77.326914
 30
9.834485
 40
6.75
100
AcDbArc
 50
358.6368749999999
 51
175.9051579999999
  0
LINE
  5
B66
330
AF9
100
AcDbEntity
  8
1
100
AcDbLine
 10
123.472861
 20
72.326914
 30
9.834485
 11
142.972861
 21
72.326914
 31
9.834485
  0
LINE
  5
B67
330
AF9
100
AcDbEntity
  8
3
100
AcDbLine
 10
162.972861
 20
52.82823399999999
 30
9.834485
 11
162.972861
 21
43.828234
 31
9.834485
  0
LINE
  5
B68
330
AF9
100
AcDbEntity
  8
3
100
AcDbLine
 10
162.972861
 20
34.828234
 30
9.834485
 11
152.972861
 21
34.828234
 31
9.834485
  0
LINE
  5
B69
330
AF9
100
AcDbEntity
  8
2
100
AcDbLine
 10
152.377698
 20
38.826914
 30
9.834485
 11
152.1129939999999
 21
41.93807099999999
 31
9.834485
  0
ARC
  5
B6A
330
AF9
100
AcDbEntity
  8
2
100
AcDbCircle
 10
150.084002
 20
36.066525
 30
9.834485
 40
1.954688999999999
100
AcDbArc
 50
311.851917
 51
348.0160399999999
  0
LINE
  5
B6B
330
AF9
100
AcDbEntity
  8
3
100
AcDbLine
 10
152.972861
 20
34.828234
 30
9.834485
 11
152.972861
 21
33.828234
 31
9.834485
  0
LINE
  5
B6C
330
AF9
100
AcDbEntity
  8
3
100
AcDbLine
 10
152.972861
 20
33.826914
 30
9.834485
 11
152.377698
 21
33.826914
 31
9.834485
  0
LINE
  5
B6D
330
AF9
100
AcDbEntity
  8
2
100
AcDbLine
 10
152.066233
 20
35.917355
 30
9.834485
 11
151.9960889999999
 21
35.660658
 31
9.834485
  0
LINE
  5
B6E
330
AF9
100
AcDbEntity
  8
2
100
AcDbLine
 10
152.066233
 20
35.917355
 30
9.834485
 11
152.377698
 21
38.826914
 31
9.834485
  0
ARC
  5
B6F
330
AF9
100
AcDbEntity
  8
2
100
AcDbCircle
 10
149.8211969999999
 20
41.519766
 30
9.834485
 40
2.32966
100
AcDbArc
 50
10.343914
 51
51.30264099999999
  0
LINE
  5
B70
330
AF9
100
AcDbEntity
  8
3
100
AcDbLine
 10
162.972861
 20
43.828234
 30
9.834485
 11
162.972861
 21
34.828234
 31
9.834485
  0
LINE
  5
B71
330
AF9
100
AcDbEntity
  8
3
100
AcDbLine
 10
152.972861
 20
52.82823399999999
 30
9.834485
 11
162.972861
 21
52.82823399999999
 31
9.834485
  0
LINE
  5
B72
330
AF9
100
AcDbEntity
  8
3
100
AcDbLine
 10
152.972861
 20
53.82823399999999
 30
9.834485
 11
152.972861
 21
52.82823399999999
 31
9.834485
  0
LINE
  5
B73
330
AF9
100
AcDbEntity
  8
3
100
AcDbLine
 10
152.972861
 20
53.826914
 30
9.834485
 11
152.377698
 21
53.826914
 31
9.834485
  0
ENDBLK
  5
B75
330
AF9
100
AcDbEntity
  8
0
100
AcDbBlockEnd
  0
BLOCK
  5
C2B
330
C20
100
AcDbEntity
  8
0
100
AcDbBlockBegin
  2
*D32
 70
     1
 10
0.0
 20
0.0
 30
0.0
  3
*D32
  1

  0
LINE
  5
C21
330
C20
100
AcDbEntity
  8
0
  6
ByBlock
 62
     0
100
AcDbLine
 10
219.575962
 20
161.5526769999999
 30
0.0
 11
215.254669
 21
177.679962
 31
0.0
  0
LINE
  5
C22
330
C20
100
AcDbEntity
  8
0
  6
ByBlock
 62
     0
100
AcDbLine
 10
216.678185
 20
160.7762199999999
 30
0.0
 11
212.356891
 21
176.903505
 31
0.0
  0
LINE
  5
C23
330
C20
100
AcDbEntity
  8
0
  6
ByBlock
 62
     0
100
AcDbLine
 10
217.4453399999999
 20
177.2316749999999
 30
0.0
 11
219.377191
 21
177.749313
 31
0.0
  0
LINE
  5
C24
330
C20
100
AcDbEntity
  8
0
  6
ByBlock
 62
     0
100
AcDbLine
 10
210.6838589999999
 20
175.419941
 30
0.0
 11
208.752007
 21
174.902303
 31
0.0
  0
SOLID
  5
C25
330
C20
100
AcDbEntity
  8
0
  6
ByBlock
 62
     0
100
AcDbTrace
 10
217.3590669999999
 20
177.55365
 30
0.0
 11
217.531613
 21
176.9096989999999
 31
0.0
 12
215.5134879999999
 22
176.714037
 32
0.0
 13
215.5134879999999
 23
176.714037
 33
0.0
  0
SOLID
  5
C26
330
C20
100
AcDbEntity
  8
0
  6
ByBlock
 62
     0
100
AcDbTrace
 10
210.597586
 20
175.741917
 30
0.0
 11
210.7701319999999
 21
175.0979659999999
 31
0.0
 12
212.6157109999999
 22
175.9375789999999
 32
0.0
 13
212.6157109999999
 23
175.9375789999999
 33
0.0
  0
MTEXT
  5
C27
330
C20
100
AcDbEntity
  8
0
  6
ByBlock
 62
     0
100
AcDbMText
 10
214.064599
 20
176.3258079999999
 30
0.0
 40
4.0
 41
0.0
 71
     5
 72
     1
  1
\A1;3
 11
0.965925849201117
 21
0.2588189595935754
 31
0.0
 73
     1
 44
1.0
  0
POINT
  5
C28
330
C20
100
AcDbEntity
  8
DEFPOINTS
  6
ByBlock
 62
     0
100
AcDbPoint
 10
219.834781
 20
160.5867509999999
 30
0.0
  0
POINT
  5
C29
330
C20
100
AcDbEntity
  8
DEFPOINTS
  6
ByBlock
 62
     0
100
AcDbPoint
 10
216.9370039999999
 20
159.8102939999999
 30
0.0
  0
POINT
  5
C2A
330
C20
100
AcDbEntity
  8
DEFPOINTS
  6
ByBlock
 62
     0
100
AcDbPoint
 10
212.6157109999999
 20
175.9375789999999
 30
0.0
  0
ENDBLK
  5
C2C
330
C20
100
AcDbEntity
  8
0
100
AcDbBlockEnd
  0
BLOCK
  5
C39
330
C2D
100
AcDbEntity
  8
0
100
AcDbBlockBegin
  2
*D33
 70
     1
 10
0.0
 20
0.0
 30
0.0
  3
*D33
  1

  0
LINE
  5
C2E
330
C2D
100
AcDbEntity
  8
0
  6
ByBlock
 62
     0
100
AcDbLine
 10
186.05
 20
139.0
 30
0.0
 11
191.3477409999999
 21
139.0
 31
0.0
  0
LINE
  5
C2F
330
C2D
100
AcDbEntity
  8
0
  6
ByBlock
 62
     0
100
AcDbLine
 10
188.4999999999999
 20
138.0
 30
0.0
 11
191.3477409999999
 21
138.0
 31
0.0
  0
LINE
  5
C30
330
C2D
100
AcDbEntity
  8
0
  6
ByBlock
 62
     0
100
AcDbLine
 10
190.3477409999999
 20
136.0
 30
0.0
 11
190.3477409999999
 21
134.0
 31
0.0
  0
LINE
  5
C31
330
C2D
100
AcDbEntity
  8
0
  6
ByBlock
 62
     0
100
AcDbLine
 10
190.3477409999999
 20
141.0
 30
0.0
 11
190.3477409999999
 21
143.0
 31
0.0
  0
LINE
  5
C32
330
C2D
100
AcDbEntity
  8
0
  6
ByBlock
 62
     0
100
AcDbLine
 10
190.3477409999999
 20
143.0
 30
0.0
 11
192.3477409999999
 21
143.0
 31
0.0
  0
SOLID
  5
C33
330
C2D
100
AcDbEntity
  8
0
  6
ByBlock
 62
     0
100
AcDbTrace
 10
190.014408
 20
136.0
 30
0.0
 11
190.6810749999999
 21
136.0
 31
0.0
 12
190.3477409999999
 22
138.0
 32
0.0
 13
190.3477409999999
 23
138.0
 33
0.0
  0
SOLID
  5
C34
330
C2D
100
AcDbEntity
  8
0
  6
ByBlock
 62
     0
100
AcDbTrace
 10
190.014408
 20
141.0
 30
0.0
 11
190.6810749999999
 21
141.0
 31
0.0
 12
190.3477409999999
 22
139.0
 32
0.0
 13
190.3477409999999
 23
139.0
 33
0.0
  0
MTEXT
  5
C35
330
C2D
100
AcDbEntity
  8
0
  6
ByBlock
 62
     0
100
AcDbMText
 10
193.556075
 20
143.0
 30
0.0
 40
3.5
 41
0.0
 71
     5
 72
     1
  1
\A1;1
 73
     1
 44
1.0
  0
POINT
  5
C36
330
C2D
100
AcDbEntity
  8
DEFPOINTS
  6
ByBlock
 62
     0
100
AcDbPoint
 10
185.05
 20
139.0
 30
0.0
  0
POINT
  5
C37
330
C2D
100
AcDbEntity
  8
DEFPOINTS
  6
ByBlock
 62
     0
100
AcDbPoint
 10
187.5
 20
138.0
 30
0.0
  0
POINT
  5
C38
330
C2D
100
AcDbEntity
  8
DEFPOINTS
  6
ByBlock
 62
     0
100
AcDbPoint
 10
190.3477409999999
 20
138.0
 30
0.0
  0
ENDBLK
  5
C3A
330
C2D
100
AcDbEntity
  8
0
100
AcDbBlockEnd
  0
BLOCK
  5
C47
330
C3B
100
AcDbEntity
  8
0
100
AcDbBlockBegin
  2
*D34
 70
     1
 10
0.0
 20
0.0
 30
0.0
  3
*D34
  1

  0
LINE
  5
C3C
330
C3B
100
AcDbEntity
  8
0
  6
ByBlock
 62
     0
100
AcDbLine
 10
188.4999999999999
 20
138.0
 30
0.0
 11
210.161247
 21
138.0
 31
0.0
  0
ARC
  5
C3D
330
C3B
100
AcDbEntity
  8
0
  6
ByBlock
 62
     0
100
AcDbCircle
 10
135.5398769999999
 20
138.0
 30
0.0
 40
73.621369
100
AcDbArc
 50
1.556545999999999
 51
1.842309
  0
ARC
  5
C3E
330
C3B
100
AcDbEntity
  8
0
  6
ByBlock
 62
     0
100
AcDbCircle
 10
135.5398769999999
 20
138.0
 30
0.0
 40
73.621369
100
AcDbArc
 50
9.175827999999999
 51
13.443454
  0
SOLID
  5
C3F
330
C3B
100
AcDbEntity
  8
0
  6
ByBlock
 62
     0
100
AcDbTrace
 10
209.467383
 20
140.004343
 30
0.0
 11
208.800778
 21
139.9952879999999
 31
0.0
 12
209.161247
 22
138.0
 32
0.0
 13
209.161247
 23
138.0
 33
0.0
  0
SOLID
  5
C40
330
C3B
100
AcDbEntity
  8
0
  6
ByBlock
 62
     0
100
AcDbTrace
 10
206.820892
 20
155.0340159999999
 30
0.0
 11
207.467127
 21
155.1978
 31
0.0
 12
206.652659
 22
157.0546129999999
 32
0.0
 13
206.652659
 23
157.0546129999999
 33
0.0
  0
MTEXT
  5
C41
330
C3B
100
AcDbEntity
  8
0
  6
ByBlock
 62
     0
100
AcDbMText
 10
208.821191
 20
145.0678939999999
 30
0.0
 40
3.5
 41
0.0
 71
     5
 72
     1
  1
\A1;15°
 11
0.0960030042639735
 21
-0.99538104420985
 31
0.0
 73
     1
 44
1.0
  0
POINT
  5
C42
330
C3B
100
AcDbEntity
  8
DEFPOINTS
  6
ByBlock
 62
     0
100
AcDbPoint
 10
208.042773
 20
150.7842169999999
 30
0.0
  0
POINT
  5
C43
330
C3B
100
AcDbEntity
  8
DEFPOINTS
  6
ByBlock
 62
     0
100
AcDbPoint
 10
177.501709
 20
149.2436389999999
 30
0.0
  0
POINT
  5
C44
330
C3B
100
AcDbEntity
  8
DEFPOINTS
  6
ByBlock
 62
     0
100
AcDbPoint
 10
180.0
 20
138.0
 30
0.0
  0
POINT
  5
C45
330
C3B
100
AcDbEntity
  8
DEFPOINTS
  6
ByBlock
 62
     0
100
AcDbPoint
 10
187.5
 20
138.0
 30
0.0
  0
POINT
  5
C46
330
C3B
100
AcDbEntity
  8
DEFPOINTS
  6
ByBlock
 62
     0
100
AcDbPoint
 10
222.609915
 20
161.330346
 30
0.0
  0
ENDBLK
  5
C48
330
C3B
100
AcDbEntity
  8
0
100
AcDbBlockEnd
  0
BLOCK
  5
C50
330
C49
100
AcDbEntity
  8
0
100
AcDbBlockBegin
  2
*D35
 70
     1
 10
0.0
 20
0.0
 30
0.0
  3
*D35
  1

  0
LINE
  5
C4A
330
C49
100
AcDbEntity
  8
0
  6
ByBlock
 62
     0
100
AcDbLine
 10
205.7793939999999
 20
167.782371
 30
0.0
 11
207.7793939999999
 21
167.782371
 31
0.0
  0
LINE
  5
C4B
330
C49
100
AcDbEntity
  8
0
  6
ByBlock
 62
     0
100
AcDbLine
 10
207.7793939999999
 20
167.782371
 30
0.0
 11
217.221541
 21
154.582357
 31
0.0
  0
MTEXT
  5
C4C
330
C49
100
AcDbEntity
  8
0
  6
ByBlock
 62
     0
100
AcDbMText
 10
196.9877269999999
 20
167.782371
 30
0.0
 40
3.5
 41
0.0
 71
     5
 72
     1
  1
\A1;6-R1.2
 73
     1
 44
1.0
  0
SOLID
  5
C4D
330
C49
100
AcDbEntity
  8
0
  6
ByBlock
 62
     0
100
AcDbTrace
 10
216.32907
 20
156.402963
 30
0.0
 11
215.786845
 21
156.015102
 31
0.0
 12
217.221541
 22
154.582357
 32
0.0
 13
217.221541
 23
154.582357
 33
0.0
  0
POINT
  5
C4E
330
C49
100
AcDbEntity
  8
DEFPOINTS
  6
ByBlock
 62
     0
100
AcDbPoint
 10
217.221541
 20
154.582357
 30
0.0
  0
POINT
  5
C4F
330
C49
100
AcDbEntity
  8
DEFPOINTS
  6
ByBlock
 62
     0
100
AcDbPoint
 10
216.5233909999999
 20
155.558362
 30
0.0
  0
ENDBLK
  5
C51
330
C49
100
AcDbEntity
  8
0
100
AcDbBlockEnd
  0
BLOCK
  5
C59
330
C52
100
AcDbEntity
  8
0
100
AcDbBlockBegin
  2
*D36
 70
     1
 10
0.0
 20
0.0
 30
0.0
  3
*D36
  1

  0
LINE
  5
C53
330
C52
100
AcDbEntity
  8
0
  6
ByBlock
 62
     0
100
AcDbLine
 10
202.561737
 20
163.3032419999999
 30
0.0
 11
204.561737
 21
163.3032419999999
 31
0.0
  0
LINE
  5
C54
330
C52
100
AcDbEntity
  8
0
  6
ByBlock
 62
     0
100
AcDbLine
 10
204.561737
 20
163.3032419999999
 30
0.0
 11
219.688126
 21
157.6069699999999
 31
0.0
  0
MTEXT
  5
C55
330
C52
100
AcDbEntity
  8
0
  6
ByBlock
 62
     0
100
AcDbMText
 10
194.936737
 20
163.3032419999999
 30
0.0
 40
3.5
 41
0.0
 71
     5
 72
     1
  1
\A1;R4.88
 73
     1
 44
1.0
  0
SOLID
  5
C56
330
C52
100
AcDbEntity
  8
0
  6
ByBlock
 62
     0
100
AcDbTrace
 10
217.9339129999999
 20
158.6237539999999
 30
0.0
 11
217.698968
 21
157.999859
 31
0.0
 12
219.688126
 22
157.6069699999999
 32
0.0
 13
219.688126
 23
157.6069699999999
 33
0.0
  0
POINT
  5
C57
330
C52
100
AcDbEntity
  8
DEFPOINTS
  6
ByBlock
 62
     0
100
AcDbPoint
 10
219.688126
 20
157.6069699999999
 30
0.0
  0
POINT
  5
C58
330
C52
100
AcDbEntity
  8
DEFPOINTS
  6
ByBlock
 62
     0
100
AcDbPoint
 10
215.125893
 20
159.3250089999999
 30
0.0
  0
ENDBLK
  5
C5A
330
C52
100
AcDbEntity
  8
0
100
AcDbBlockEnd
  0
BLOCK
  5
C65
330
C5B
100
AcDbEntity
  8
0
100
AcDbBlockBegin
  2
*D37
 70
     1
 10
0.0
 20
0.0
 30
0.0
  3
*D37
  1

  0
LINE
  5
C5C
330
C5B
100
AcDbEntity
  8
0
  6
ByBlock
 62
     0
100
AcDbLine
 10
180.0
 20
176.3923729999999
 30
0.0
 11
180.0
 21
175.483644
 31
0.0
  0
LINE
  5
C5D
330
C5B
100
AcDbEntity
  8
0
  6
ByBlock
 62
     0
100
AcDbLine
 10
187.504089
 20
188.0
 30
0.0
 11
187.504089
 21
175.483644
 31
0.0
  0
LINE
  5
C5E
330
C5B
100
AcDbEntity
  8
0
  6
ByBlock
 62
     0
100
AcDbLine
 10
182.0
 20
176.483644
 30
0.0
 11
185.5040889999999
 21
176.483644
 31
0.0
  0
SOLID
  5
C5F
330
C5B
100
AcDbEntity
  8
0
  6
ByBlock
 62
     0
100
AcDbTrace
 10
182.0
 20
176.816977
 30
0.0
 11
182.0
 21
176.15031
 31
0.0
 12
180.0
 22
176.483644
 32
0.0
 13
180.0
 23
176.483644
 33
0.0
  0
SOLID
  5
C60
330
C5B
100
AcDbEntity
  8
0
  6
ByBlock
 62
     0
100
AcDbTrace
 10
185.5040889999999
 20
176.816977
 30
0.0
 11
185.5040889999999
 21
176.15031
 31
0.0
 12
187.504089
 22
176.483644
 32
0.0
 13
187.504089
 23
176.483644
 33
0.0
  0
MTEXT
  5
C61
330
C5B
100
AcDbEntity
  8
0
  6
ByBlock
 62
     0
100
AcDbMText
 10
183.7520439999999
 20
176.483644
 30
0.0
 40
3.5
 41
0.0
 71
     5
 72
     1
  1
\A1;7.5
 73
     1
 44
1.0
  0
POINT
  5
C62
330
C5B
100
AcDbEntity
  8
DEFPOINTS
  6
ByBlock
 62
     0
100
AcDbPoint
 10
180.0
 20
177.3923729999999
 30
0.0
  0
POINT
  5
C63
330
C5B
100
AcDbEntity
  8
DEFPOINTS
  6
ByBlock
 62
     0
100
AcDbPoint
 10
187.504089
 20
189.0
 30
0.0
  0
POINT
  5
C64
330
C5B
100
AcDbEntity
  8
DEFPOINTS
  6
ByBlock
 62
     0
100
AcDbPoint
 10
187.504089
 20
176.483644
 30
0.0
  0
ENDBLK
  5
C66
330
C5B
100
AcDbEntity
  8
0
100
AcDbBlockEnd
  0
BLOCK
  5
C72
330
C67
100
AcDbEntity
  8
0
100
AcDbBlockBegin
  2
*D38
 70
     1
 10
0.0
 20
0.0
 30
0.0
  3
*D38
  1

  0
LINE
  5
C68
330
C67
100
AcDbEntity
  8
0
  6
ByBlock
 62
     0
100
AcDbLine
 10
194.4411189999999
 20
190.0
 30
0.0
 11
194.4411189999999
 21
198.92186
 31
0.0
  0
LINE
  5
C69
330
C67
100
AcDbEntity
  8
0
  6
ByBlock
 62
     0
100
AcDbLine
 10
192.333718
 20
190.0
 30
0.0
 11
192.333718
 21
198.92186
 31
0.0
  0
LINE
  5
C6A
330
C67
100
AcDbEntity
  8
0
  6
ByBlock
 62
     0
100
AcDbLine
 10
190.333718
 20
197.92186
 30
0.0
 11
188.333718
 21
197.92186
 31
0.0
  0
LINE
  5
C6B
330
C67
100
AcDbEntity
  8
0
  6
ByBlock
 62
     0
100
AcDbLine
 10
196.4411189999999
 20
197.92186
 30
0.0
 11
198.4411189999999
 21
197.92186
 31
0.0
  0
SOLID
  5
C6C
330
C67
100
AcDbEntity
  8
0
  6
ByBlock
 62
     0
100
AcDbTrace
 10
190.333718
 20
198.2551929999999
 30
0.0
 11
190.333718
 21
197.588526
 31
0.0
 12
192.333718
 22
197.92186
 32
0.0
 13
192.333718
 23
197.92186
 33
0.0
  0
SOLID
  5
C6D
330
C67
100
AcDbEntity
  8
0
  6
ByBlock
 62
     0
100
AcDbTrace
 10
196.4411189999999
 20
198.2551929999999
 30
0.0
 11
196.4411189999999
 21
197.588526
 31
0.0
 12
194.4411189999999
 22
197.92186
 32
0.0
 13
194.4411189999999
 23
197.92186
 33
0.0
  0
MTEXT
  5
C6E
330
C67
100
AcDbEntity
  8
0
  6
ByBlock
 62
     0
100
AcDbMText
 10
205.482786
 20
197.92186
 30
0.0
 40
3.5
 41
0.0
 71
     5
 72
     1
  1
\A1;6-2.1
 73
     1
 44
1.0
  0
POINT
  5
C6F
330
C67
100
AcDbEntity
  8
DEFPOINTS
  6
ByBlock
 62
     0
100
AcDbPoint
 10
194.4411189999999
 20
189.0
 30
0.0
  0
POINT
  5
C70
330
C67
100
AcDbEntity
  8
DEFPOINTS
  6
ByBlock
 62
     0
100
AcDbPoint
 10
192.333718
 20
189.0
 30
0.0
  0
POINT
  5
C71
330
C67
100
AcDbEntity
  8
DEFPOINTS
  6
ByBlock
 62
     0
100
AcDbPoint
 10
192.333718
 20
197.92186
 30
0.0
  0
ENDBLK
  5
C73
330
C67
100
AcDbEntity
  8
0
100
AcDbBlockEnd
  0
BLOCK
  5
C7F
330
C74
100
AcDbEntity
  8
0
100
AcDbBlockBegin
  2
*D39
 70
     1
 10
0.0
 20
0.0
 30
0.0
  3
*D39
  1

  0
LINE
  5
C75
330
C74
100
AcDbEntity
  8
0
  6
ByBlock
 62
     0
100
AcDbLine
 10
180.0
 20
158.4123899999999
 30
0.0
 11
180.0
 21
189.0
 31
0.0
  0
LINE
  5
C76
330
C74
100
AcDbEntity
  8
0
  6
ByBlock
 62
     0
100
AcDbLine
 10
219.976678
 20
160.810294
 30
0.0
 11
219.976678
 21
189.0
 31
0.0
  0
LINE
  5
C77
330
C74
100
AcDbEntity
  8
0
  6
ByBlock
 62
     0
100
AcDbLine
 10
182.0
 20
188.0
 30
0.0
 11
196.25
 21
188.0
 31
0.0
  0
LINE
  5
C78
330
C74
100
AcDbEntity
  8
0
  6
ByBlock
 62
     0
100
AcDbLine
 10
217.976678
 20
188.0
 30
0.0
 11
202.7499999999999
 21
188.0
 31
0.0
  0
SOLID
  5
C79
330
C74
100
AcDbEntity
  8
0
  6
ByBlock
 62
     0
100
AcDbTrace
 10
182.0
 20
188.333333
 30
0.0
 11
182.0
 21
187.6666669999999
 31
0.0
 12
180.0
 22
188.0
 32
0.0
 13
180.0
 23
188.0
 33
0.0
  0
SOLID
  5
C7A
330
C74
100
AcDbEntity
  8
0
  6
ByBlock
 62
     0
100
AcDbTrace
 10
217.976678
 20
188.333333
 30
0.0
 11
217.976678
 21
187.6666669999999
 31
0.0
 12
219.976678
 22
188.0
 32
0.0
 13
219.976678
 23
188.0
 33
0.0
  0
MTEXT
  5
C7B
330
C74
100
AcDbEntity
  8
0
  6
ByBlock
 62
     0
100
AcDbMText
 10
199.5
 20
188.0
 30
0.0
 40
3.5
 41
0.0
 71
     5
 72
     1
  1
\A1;40
 73
     1
 44
1.0
  0
POINT
  5
C7C
330
C74
100
AcDbEntity
  8
DEFPOINTS
  6
ByBlock
 62
     0
100
AcDbPoint
 10
180.0
 20
157.41239
 30
0.0
  0
POINT
  5
C7D
330
C74
100
AcDbEntity
  8
DEFPOINTS
  6
ByBlock
 62
     0
100
AcDbPoint
 10
219.976678
 20
159.8102939999999
 30
0.0
  0
POINT
  5
C7E
330
C74
100
AcDbEntity
  8
DEFPOINTS
  6
ByBlock
 62
     0
100
AcDbPoint
 10
219.976678
 20
188.0
 30
0.0
  0
ENDBLK
  5
C80
330
C74
100
AcDbEntity
  8
0
100
AcDbBlockEnd
  0
BLOCK
  5
C88
330
C81
100
AcDbEntity
  8
0
100
AcDbBlockBegin
  2
*D40
 70
     1
 10
0.0
 20
0.0
 30
0.0
  3
*D40
  1

  0
LINE
  5
C82
330
C81
100
AcDbEntity
  8
0
  6
ByBlock
 62
     0
100
AcDbLine
 10
151.5537319999999
 20
173.75
 30
0.0
 11
153.5537319999999
 21
173.75
 31
0.0
  0
LINE
  5
C83
330
C81
100
AcDbEntity
  8
0
  6
ByBlock
 62
     0
100
AcDbLine
 10
153.5537319999999
 20
173.75
 30
0.0
 11
172.255595
 21
152.416679
 31
0.0
  0
MTEXT
  5
C84
330
C81
100
AcDbEntity
  8
0
  6
ByBlock
 62
     0
100
AcDbMText
 10
144.2203989999999
 20
173.75
 30
0.0
 40
3.5
 41
0.0
 71
     5
 72
     1
  1
\A1;R0.75
 73
     1
 44
1.0
  0
SOLID
  5
C85
330
C81
100
AcDbEntity
  8
0
  6
ByBlock
 62
     0
100
AcDbTrace
 10
171.187834
 20
154.140337
 30
0.0
 11
170.686526
 21
153.7008659999999
 31
0.0
 12
172.255595
 22
152.416679
 32
0.0
 13
172.255595
 23
152.416679
 33
0.0
  0
POINT
  5
C86
330
C81
100
AcDbEntity
  8
DEFPOINTS
  6
ByBlock
 62
     0
100
AcDbPoint
 10
172.255595
 20
152.416679
 30
0.0
  0
POINT
  5
C87
330
C81
100
AcDbEntity
  8
DEFPOINTS
  6
ByBlock
 62
     0
100
AcDbPoint
 10
172.75
 20
151.852708
 30
0.0
  0
ENDBLK
  5
C89
330
C81
100
AcDbEntity
  8
0
100
AcDbBlockEnd
  0
BLOCK
  5
C95
330
C8A
100
AcDbEntity
  8
0
100
AcDbBlockBegin
  2
*D41
 70
     1
 10
0.0
 20
0.0
 30
0.0
  3
*D41
  1

  0
LINE
  5
C8B
330
C8A
100
AcDbEntity
  8
0
  6
ByBlock
 62
     0
100
AcDbLine
 10
171.5
 20
138.0
 30
0.0
 11
115.1279319999999
 21
138.0
 31
0.0
  0
LINE
  5
C8C
330
C8A
100
AcDbEntity
  8
0
  6
ByBlock
 62
     0
100
AcDbLine
 10
170.6276499999999
 20
152.451453
 30
0.0
 11
115.1279319999999
 21
152.451453
 31
0.0
  0
LINE
  5
C8D
330
C8A
100
AcDbEntity
  8
0
  6
ByBlock
 62
     0
100
AcDbLine
 10
116.127932
 20
140.0
 30
0.0
 11
116.127932
 21
140.625
 31
0.0
  0
LINE
  5
C8E
330
C8A
100
AcDbEntity
  8
0
  6
ByBlock
 62
     0
100
AcDbLine
 10
116.127932
 20
150.451453
 30
0.0
 11
116.127932
 21
149.826453
 31
0.0
  0
SOLID
  5
C8F
330
C8A
100
AcDbEntity
  8
0
  6
ByBlock
 62
     0
100
AcDbTrace
 10
115.7945989999999
 20
140.0
 30
0.0
 11
116.4612659999999
 21
140.0
 31
0.0
 12
116.127932
 22
138.0
 32
0.0
 13
116.127932
 23
138.0
 33
0.0
  0
SOLID
  5
C90
330
C8A
100
AcDbEntity
  8
0
  6
ByBlock
 62
     0
100
AcDbTrace
 10
115.7945989999999
 20
150.451453
 30
0.0
 11
116.4612659999999
 21
150.451453
 31
0.0
 12
116.127932
 22
152.451453
 32
0.0
 13
116.127932
 23
152.451453
 33
0.0
  0
MTEXT
  5
C91
330
C8A
100
AcDbEntity
  8
0
  6
ByBlock
 62
     0
100
AcDbMText
 10
116.127932
 20
145.876529
 30
0.0
 40
3.5
 41
0.0
 71
     5
 72
     1
  1
\A1;14.5
 11
0.0
 21
1.0
 31
0.0
 73
     1
 44
1.0
  0
POINT
  5
C92
330
C8A
100
AcDbEntity
  8
DEFPOINTS
  6
ByBlock
 62
     0
100
AcDbPoint
 10
172.5
 20
138.0
 30
0.0
  0
POINT
  5
C93
330
C8A
100
AcDbEntity
  8
DEFPOINTS
  6
ByBlock
 62
     0
100
AcDbPoint
 10
171.62765
 20
152.451453
 30
0.0
  0
POINT
  5
C94
330
C8A
100
AcDbEntity
  8
DEFPOINTS
  6
ByBlock
 62
     0
100
AcDbPoint
 10
116.127932
 20
152.451453
 30
0.0
  0
ENDBLK
  5
C96
330
C8A
100
AcDbEntity
  8
0
100
AcDbBlockEnd
  0
BLOCK
  5
CA2
330
C97
100
AcDbEntity
  8
0
100
AcDbBlockBegin
  2
*D42
 70
     1
 10
0.0
 20
0.0
 30
0.0
  3
*D42
  1

  0
LINE
  5
C98
330
C97
100
AcDbEntity
  8
0
  6
ByBlock
 62
     0
100
AcDbLine
 10
171.0
 20
151.685371
 30
0.0
 11
121.056685
 21
151.685371
 31
0.0
  0
LINE
  5
C99
330
C97
100
AcDbEntity
  8
0
  6
ByBlock
 62
     0
100
AcDbLine
 10
171.5
 20
138.0
 30
0.0
 11
121.056685
 21
138.0
 31
0.0
  0
LINE
  5
C9A
330
C97
100
AcDbEntity
  8
0
  6
ByBlock
 62
     0
100
AcDbLine
 10
122.056685
 20
149.685371
 30
0.0
 11
122.056685
 21
149.060371
 31
0.0
  0
LINE
  5
C9B
330
C97
100
AcDbEntity
  8
0
  6
ByBlock
 62
     0
100
AcDbLine
 10
122.056685
 20
140.0
 30
0.0
 11
122.056685
 21
140.625
 31
0.0
  0
SOLID
  5
C9C
330
C97
100
AcDbEntity
  8
0
  6
ByBlock
 62
     0
100
AcDbTrace
 10
121.723352
 20
149.685371
 30
0.0
 11
122.3900189999999
 21
149.685371
 31
0.0
 12
122.056685
 22
151.685371
 32
0.0
 13
122.056685
 23
151.685371
 33
0.0
  0
SOLID
  5
C9D
330
C97
100
AcDbEntity
  8
0
  6
ByBlock
 62
     0
100
AcDbTrace
 10
121.723352
 20
140.0
 30
0.0
 11
122.3900189999999
 21
140.0
 31
0.0
 12
122.056685
 22
138.0
 32
0.0
 13
122.056685
 23
138.0
 33
0.0
  0
MTEXT
  5
C9E
330
C97
100
AcDbEntity
  8
0
  6
ByBlock
 62
     0
100
AcDbMText
 10
122.056685
 20
144.7259169999999
 30
0.0
 40
3.5
 41
0.0
 71
     5
 72
     1
  1
\A1;13.7
 11
0.0
 21
1.0
 31
0.0
 73
     1
 44
1.0
  0
POINT
  5
C9F
330
C97
100
AcDbEntity
  8
DEFPOINTS
  6
ByBlock
 62
     0
100
AcDbPoint
 10
172.0
 20
151.685371
 30
0.0
  0
POINT
  5
CA0
330
C97
100
AcDbEntity
  8
DEFPOINTS
  6
ByBlock
 62
     0
100
AcDbPoint
 10
172.5
 20
138.0
 30
0.0
  0
POINT
  5
CA1
330
C97
100
AcDbEntity
  8
DEFPOINTS
  6
ByBlock
 62
     0
100
AcDbPoint
 10
122.056685
 20
138.0
 30
0.0
  0
ENDBLK
  5
CA3
330
C97
100
AcDbEntity
  8
0
100
AcDbBlockEnd
  0
BLOCK
  5
CAF
330
CA4
100
AcDbEntity
  8
0
100
AcDbBlockBegin
  2
*D43
 70
     1
 10
0.0
 20
0.0
 30
0.0
  3
*D43
  1

  0
LINE
  5
CA5
330
CA4
100
AcDbEntity
  8
0
  6
ByBlock
 62
     0
100
AcDbLine
 10
174.5
 20
147.0
 30
0.0
 11
127.6441889999999
 21
147.0
 31
0.0
  0
LINE
  5
CA6
330
CA4
100
AcDbEntity
  8
0
  6
ByBlock
 62
     0
100
AcDbLine
 10
171.5
 20
138.0
 30
0.0
 11
127.6441889999999
 21
138.0
 31
0.0
  0
LINE
  5
CA7
330
CA4
100
AcDbEntity
  8
0
  6
ByBlock
 62
     0
100
AcDbLine
 10
128.6441889999999
 20
145.0
 30
0.0
 11
128.6441889999999
 21
144.375
 31
0.0
  0
LINE
  5
CA8
330
CA4
100
AcDbEntity
  8
0
  6
ByBlock
 62
     0
100
AcDbLine
 10
128.6441889999999
 20
140.0
 30
0.0
 11
128.6441889999999
 21
140.7974
 31
0.0
  0
SOLID
  5
CA9
330
CA4
100
AcDbEntity
  8
0
  6
ByBlock
 62
     0
100
AcDbTrace
 10
128.310855
 20
145.0
 30
0.0
 11
128.9775219999999
 21
145.0
 31
0.0
 12
128.6441889999999
 22
147.0
 32
0.0
 13
128.6441889999999
 23
147.0
 33
0.0
  0
SOLID
  5
CAA
330
CA4
100
AcDbEntity
  8
0
  6
ByBlock
 62
     0
100
AcDbTrace
 10
128.310855
 20
140.0
 30
0.0
 11
128.9775219999999
 21
140.0
 31
0.0
 12
128.6441889999999
 22
138.0
 32
0.0
 13
128.6441889999999
 23
138.0
 33
0.0
  0
MTEXT
  5
CAB
330
CA4
100
AcDbEntity
  8
0
  6
ByBlock
 62
     0
100
AcDbMText
 10
128.6441889999999
 20
142.589067
 30
0.0
 40
3.5
 41
0.0
 71
     5
 72
     1
  1
\A1;9
 11
0.0
 21
1.0
 31
0.0
 73
     1
 44
1.0
  0
POINT
  5
CAC
330
CA4
100
AcDbEntity
  8
DEFPOINTS
  6
ByBlock
 62
     0
100
AcDbPoint
 10
175.5
 20
147.0
 30
0.0
  0
POINT
  5
CAD
330
CA4
100
AcDbEntity
  8
DEFPOINTS
  6
ByBlock
 62
     0
100
AcDbPoint
 10
172.5
 20
138.0
 30
0.0
  0
POINT
  5
CAE
330
CA4
100
AcDbEntity
  8
DEFPOINTS
  6
ByBlock
 62
     0
100
AcDbPoint
 10
128.6441889999999
 20
138.0
 30
0.0
  0
ENDBLK
  5
CB0
330
CA4
100
AcDbEntity
  8
0
100
AcDbBlockEnd
  0
BLOCK
  5
CBD
330
CB1
100
AcDbEntity
  8
0
100
AcDbBlockBegin
  2
*D44
 70
     1
 10
0.0
 20
0.0
 30
0.0
  3
*D44
  1

  0
LINE
  5
CB2
330
CB1
100
AcDbEntity
  8
0
  6
ByBlock
 62
     0
100
AcDbLine
 10
174.4499999999999
 20
147.0
 30
0.0
 11
139.011485
 21
147.0
 31
0.0
  0
LINE
  5
CB3
330
CB1
100
AcDbEntity
  8
0
  6
ByBlock
 62
     0
100
AcDbLine
 10
173.9499999999999
 20
145.0
 30
0.0
 11
139.011485
 21
145.0
 31
0.0
  0
LINE
  5
CB4
330
CB1
100
AcDbEntity
  8
0
  6
ByBlock
 62
     0
100
AcDbLine
 10
140.011485
 20
149.0
 30
0.0
 11
140.011485
 21
151.0
 31
0.0
  0
LINE
  5
CB5
330
CB1
100
AcDbEntity
  8
0
  6
ByBlock
 62
     0
100
AcDbLine
 10
140.011485
 20
143.0
 30
0.0
 11
140.011485
 21
141.0
 31
0.0
  0
LINE
  5
CB6
330
CB1
100
AcDbEntity
  8
0
  6
ByBlock
 62
     0
100
AcDbLine
 10
140.011485
 20
141.0
 30
0.0
 11
138.011485
 21
141.0
 31
0.0
  0
SOLID
  5
CB7
330
CB1
100
AcDbEntity
  8
0
  6
ByBlock
 62
     0
100
AcDbTrace
 10
139.678152
 20
149.0
 30
0.0
 11
140.344818
 21
149.0
 31
0.0
 12
140.011485
 22
147.0
 32
0.0
 13
140.011485
 23
147.0
 33
0.0
  0
SOLID
  5
CB8
330
CB1
100
AcDbEntity
  8
0
  6
ByBlock
 62
     0
100
AcDbTrace
 10
139.678152
 20
143.0
 30
0.0
 11
140.344818
 21
143.0
 31
0.0
 12
140.011485
 22
145.0
 32
0.0
 13
140.011485
 23
145.0
 33
0.0
  0
MTEXT
  5
CB9
330
CB1
100
AcDbEntity
  8
0
  6
ByBlock
 62
     0
100
AcDbMText
 10
136.219818
 20
141.0
 30
0.0
 40
3.5
 41
0.0
 71
     5
 72
     1
  1
\A1;2
 73
     1
 44
1.0
  0
POINT
  5
CBA
330
CB1
100
AcDbEntity
  8
DEFPOINTS
  6
ByBlock
 62
     0
100
AcDbPoint
 10
175.4499999999999
 20
147.0
 30
0.0
  0
POINT
  5
CBB
330
CB1
100
AcDbEntity
  8
DEFPOINTS
  6
ByBlock
 62
     0
100
AcDbPoint
 10
174.9499999999999
 20
145.0
 30
0.0
  0
POINT
  5
CBC
330
CB1
100
AcDbEntity
  8
DEFPOINTS
  6
ByBlock
 62
     0
100
AcDbPoint
 10
140.011485
 20
145.0
 30
0.0
  0
ENDBLK
  5
CBE
330
CB1
100
AcDbEntity
  8
0
100
AcDbBlockEnd
  0
BLOCK
  5
CCB
330
CBF
100
AcDbEntity
  8
0
100
AcDbBlockBegin
  2
*D45
 70
     1
 10
0.0
 20
0.0
 30
0.0
  3
*D45
  1

  0
LINE
  5
CC0
330
CBF
100
AcDbEntity
  8
0
  6
ByBlock
 62
     0
100
AcDbLine
 10
175.5
 20
148.5
 30
0.0
 11
150.148678
 21
148.5
 31
0.0
  0
LINE
  5
CC1
330
CBF
100
AcDbEntity
  8
0
  6
ByBlock
 62
     0
100
AcDbLine
 10
174.4499999999999
 20
147.0
 30
0.0
 11
150.148678
 21
147.0
 31
0.0
  0
LINE
  5
CC2
330
CBF
100
AcDbEntity
  8
0
  6
ByBlock
 62
     0
100
AcDbLine
 10
151.148678
 20
150.5
 30
0.0
 11
151.148678
 21
152.5
 31
0.0
  0
LINE
  5
CC3
330
CBF
100
AcDbEntity
  8
0
  6
ByBlock
 62
     0
100
AcDbLine
 10
151.148678
 20
145.0
 30
0.0
 11
151.148678
 21
141.438455
 31
0.0
  0
LINE
  5
CC4
330
CBF
100
AcDbEntity
  8
0
  6
ByBlock
 62
     0
100
AcDbLine
 10
151.148678
 20
141.438455
 30
0.0
 11
149.1486779999999
 21
141.438455
 31
0.0
  0
SOLID
  5
CC5
330
CBF
100
AcDbEntity
  8
0
  6
ByBlock
 62
     0
100
AcDbTrace
 10
150.815345
 20
150.5
 30
0.0
 11
151.482011
 21
150.5
 31
0.0
 12
151.148678
 22
148.5
 32
0.0
 13
151.148678
 23
148.5
 33
0.0
  0
SOLID
  5
CC6
330
CBF
100
AcDbEntity
  8
0
  6
ByBlock
 62
     0
100
AcDbTrace
 10
150.815345
 20
145.0
 30
0.0
 11
151.482011
 21
145.0
 31
0.0
 12
151.148678
 22
147.0
 32
0.0
 13
151.148678
 23
147.0
 33
0.0
  0
MTEXT
  5
CC7
330
CBF
100
AcDbEntity
  8
0
  6
ByBlock
 62
     0
100
AcDbMText
 10
145.6070109999999
 20
141.438455
 30
0.0
 40
3.5
 41
0.0
 71
     5
 72
     1
  1
\A1;1.5
 73
     1
 44
1.0
  0
POINT
  5
CC8
330
CBF
100
AcDbEntity
  8
DEFPOINTS
  6
ByBlock
 62
     0
100
AcDbPoint
 10
176.5
 20
148.5
 30
0.0
  0
POINT
  5
CC9
330
CBF
100
AcDbEntity
  8
DEFPOINTS
  6
ByBlock
 62
     0
100
AcDbPoint
 10
175.4499999999999
 20
147.0
 30
0.0
  0
POINT
  5
CCA
330
CBF
100
AcDbEntity
  8
DEFPOINTS
  6
ByBlock
 62
     0
100
AcDbPoint
 10
151.148678
 20
147.0
 30
0.0
  0
ENDBLK
  5
CCC
330
CBF
100
AcDbEntity
  8
0
100
AcDbBlockEnd
  0
BLOCK
  5
CD8
330
CCD
100
AcDbEntity
  8
0
100
AcDbBlockBegin
  2
*D46
 70
     1
 10
0.0
 20
0.0
 30
0.0
  3
*D46
  1

  0
LINE
  5
CCE
330
CCD
100
AcDbEntity
  8
0
  6
ByBlock
 62
     0
100
AcDbLine
 10
179.0
 20
229.4999999999999
 30
0.0
 11
136.105308
 21
229.4999999999999
 31
0.0
  0
LINE
  5
CCF
330
CCD
100
AcDbEntity
  8
0
  6
ByBlock
 62
     0
100
AcDbLine
 10
179.0
 20
213.5
 30
0.0
 11
136.105308
 21
213.5
 31
0.0
  0
LINE
  5
CD0
330
CCD
100
AcDbEntity
  8
0
  6
ByBlock
 62
     0
100
AcDbLine
 10
137.105308
 20
227.4999999999999
 30
0.0
 11
137.105308
 21
224.461009
 31
0.0
  0
LINE
  5
CD1
330
CCD
100
AcDbEntity
  8
0
  6
ByBlock
 62
     0
100
AcDbLine
 10
137.105308
 20
215.5
 30
0.0
 11
137.105308
 21
218.5443419999999
 31
0.0
  0
SOLID
  5
CD2
330
CCD
100
AcDbEntity
  8
0
  6
ByBlock
 62
     0
100
AcDbTrace
 10
136.771975
 20
227.4999999999999
 30
0.0
 11
137.4386419999999
 21
227.4999999999999
 31
0.0
 12
137.105308
 22
229.4999999999999
 32
0.0
 13
137.105308
 23
229.4999999999999
 33
0.0
  0
SOLID
  5
CD3
330
CCD
100
AcDbEntity
  8
0
  6
ByBlock
 62
     0
100
AcDbTrace
 10
136.771975
 20
215.5
 30
0.0
 11
137.4386419999999
 21
215.5
 31
0.0
 12
137.105308
 22
213.5
 32
0.0
 13
137.105308
 23
213.5
 33
0.0
  0
MTEXT
  5
CD4
330
CCD
100
AcDbEntity
  8
0
  6
ByBlock
 62
     0
100
AcDbMText
 10
137.105308
 20
221.502675
 30
0.0
 40
3.5
 41
0.0
 71
     5
 72
     1
  1
\A1;16
 11
0.0
 21
1.0
 31
0.0
 73
     1
 44
1.0
  0
POINT
  5
CD5
330
CCD
100
AcDbEntity
  8
DEFPOINTS
  6
ByBlock
 62
     0
100
AcDbPoint
 10
180.0
 20
229.4999999999999
 30
0.0
  0
POINT
  5
CD6
330
CCD
100
AcDbEntity
  8
DEFPOINTS
  6
ByBlock
 62
     0
100
AcDbPoint
 10
180.0
 20
213.5
 30
0.0
  0
POINT
  5
CD7
330
CCD
100
AcDbEntity
  8
DEFPOINTS
  6
ByBlock
 62
     0
100
AcDbPoint
 10
137.105308
 20
213.5
 30
0.0
  0
ENDBLK
  5
CD9
330
CCD
100
AcDbEntity
  8
0
100
AcDbBlockEnd
  0
BLOCK
  5
CE5
330
CDA
100
AcDbEntity
  8
0
100
AcDbBlockBegin
  2
*D47
 70
     1
 10
0.0
 20
0.0
 30
0.0
  3
*D47
  1

  0
LINE
  5
CDB
330
CDA
100
AcDbEntity
  8
0
  6
ByBlock
 62
     0
100
AcDbLine
 10
179.0
 20
229.2399749999999
 30
0.0
 11
143.5055189999999
 21
229.2399749999999
 31
0.0
  0
LINE
  5
CDC
330
CDA
100
AcDbEntity
  8
0
  6
ByBlock
 62
     0
100
AcDbLine
 10
179.0
 20
213.760025
 30
0.0
 11
143.5055189999999
 21
213.760025
 31
0.0
  0
LINE
  5
CDD
330
CDA
100
AcDbEntity
  8
0
  6
ByBlock
 62
     0
100
AcDbLine
 10
144.5055189999999
 20
227.2399749999999
 30
0.0
 11
144.5055189999999
 21
226.1520749999999
 31
0.0
  0
LINE
  5
CDE
330
CDA
100
AcDbEntity
  8
0
  6
ByBlock
 62
     0
100
AcDbLine
 10
144.5055189999999
 20
215.760025
 30
0.0
 11
144.5055189999999
 21
216.385025
 31
0.0
  0
SOLID
  5
CDF
330
CDA
100
AcDbEntity
  8
0
  6
ByBlock
 62
     0
100
AcDbTrace
 10
144.172185
 20
227.2399749999999
 30
0.0
 11
144.8388519999999
 21
227.2399749999999
 31
0.0
 12
144.5055189999999
 22
229.2399749999999
 32
0.0
 13
144.5055189999999
 23
229.2399749999999
 33
0.0
  0
SOLID
  5
CE0
330
CDA
100
AcDbEntity
  8
0
  6
ByBlock
 62
     0
100
AcDbTrace
 10
144.172185
 20
215.760025
 30
0.0
 11
144.8388519999999
 21
215.760025
 31
0.0
 12
144.5055189999999
 22
213.760025
 32
0.0
 13
144.5055189999999
 23
213.760025
 33
0.0
  0
MTEXT
  5
CE1
330
CDA
100
AcDbEntity
  8
0
  6
ByBlock
 62
     0
100
AcDbMText
 10
144.5055189999999
 20
220.860408
 30
0.0
 40
3.5
 41
0.0
 71
     5
 72
     1
  1
\A1;15.5
 11
0.0
 21
1.0
 31
0.0
 73
     1
 44
1.0
  0
POINT
  5
CE2
330
CDA
100
AcDbEntity
  8
DEFPOINTS
  6
ByBlock
 62
     0
100
AcDbPoint
 10
180.0
 20
229.2399749999999
 30
0.0
  0
POINT
  5
CE3
330
CDA
100
AcDbEntity
  8
DEFPOINTS
  6
ByBlock
 62
     0
100
AcDbPoint
 10
180.0
 20
213.760025
 30
0.0
  0
POINT
  5
CE4
330
CDA
100
AcDbEntity
  8
DEFPOINTS
  6
ByBlock
 62
     0
100
AcDbPoint
 10
144.5055189999999
 20
213.760025
 30
0.0
  0
ENDBLK
  5
CE6
330
CDA
100
AcDbEntity
  8
0
100
AcDbBlockEnd
  0
BLOCK
  5
CEE
330
CE7
100
AcDbEntity
  8
0
100
AcDbBlockBegin
  2
*D48
 70
     1
 10
0.0
 20
0.0
 30
0.0
  3
*D48
  1

  0
LINE
  5
CE8
330
CE7
100
AcDbEntity
  8
0
  6
ByBlock
 62
     0
100
AcDbLine
 10
164.738254
 20
243.179209
 30
0.0
 11
166.738254
 21
243.179209
 31
0.0
  0
LINE
  5
CE9
330
CE7
100
AcDbEntity
  8
0
  6
ByBlock
 62
     0
100
AcDbLine
 10
166.738254
 20
243.179209
 30
0.0
 11
176.869007
 21
226.618289
 31
0.0
  0
MTEXT
  5
CEA
330
CE7
100
AcDbEntity
  8
0
  6
ByBlock
 62
     0
100
AcDbMText
 10
161.196587
 20
243.179209
 30
0.0
 40
3.5
 41
0.0
 71
     5
 72
     1
  1
\A1;\U+22058
 73
     1
 44
1.0
  0
SOLID
  5
CEB
330
CE7
100
AcDbEntity
  8
0
  6
ByBlock
 62
     0
100
AcDbTrace
 10
177.1533559999999
 20
226.792233
 30
0.0
 11
176.584658
 21
226.444345
 31
0.0
 12
177.9126709999999
 22
224.912193
 32
0.0
 13
177.9126709999999
 23
224.912193
 33
0.0
  0
POINT
  5
CEC
330
CE7
100
AcDbEntity
  8
DEFPOINTS
  6
ByBlock
 62
     0
100
AcDbPoint
 10
177.9126709999999
 20
224.912193
 30
0.0
  0
POINT
  5
CED
330
CE7
100
AcDbEntity
  8
DEFPOINTS
  6
ByBlock
 62
     0
100
AcDbPoint
 10
182.087329
 20
218.0878069999999
 30
0.0
  0
ENDBLK
  5
CEF
330
CE7
100
AcDbEntity
  8
0
100
AcDbBlockEnd
  0
BLOCK
  5
CF7
330
CF0
100
AcDbEntity
  8
0
100
AcDbBlockBegin
  2
*D49
 70
     1
 10
0.0
 20
0.0
 30
0.0
  3
*D49
  1

  0
LINE
  5
CF1
330
CF0
100
AcDbEntity
  8
0
  6
ByBlock
 62
     0
100
AcDbLine
 10
160.567722
 20
237.719934
 30
0.0
 11
162.567722
 21
237.719934
 31
0.0
  0
LINE
  5
CF2
330
CF0
100
AcDbEntity
  8
0
  6
ByBlock
 62
     0
100
AcDbLine
 10
162.567722
 20
237.719934
 30
0.0
 11
176.522497
 21
224.7356569999999
 31
0.0
  0
MTEXT
  5
CF3
330
CF0
100
AcDbEntity
  8
0
  6
ByBlock
 62
     0
100
AcDbMText
 10
154.692722
 20
237.719934
 30
0.0
 40
3.5
 41
0.0
 71
     5
 72
     1
  1
\A1;\U+22055.5
 73
     1
 44
1.0
  0
SOLID
  5
CF4
330
CF0
100
AcDbEntity
  8
0
  6
ByBlock
 62
     0
100
AcDbTrace
 10
176.749561
 20
224.979692
 30
0.0
 11
176.295433
 21
224.4916209999999
 31
0.0
 12
177.986709
 22
223.373275
 32
0.0
 13
177.986709
 23
223.373275
 33
0.0
  0
POINT
  5
CF5
330
CF0
100
AcDbEntity
  8
DEFPOINTS
  6
ByBlock
 62
     0
100
AcDbPoint
 10
177.986709
 20
223.373275
 30
0.0
  0
POINT
  5
CF6
330
CF0
100
AcDbEntity
  8
DEFPOINTS
  6
ByBlock
 62
     0
100
AcDbPoint
 10
182.0132909999999
 20
219.626725
 30
0.0
  0
ENDBLK
  5
CF8
330
CF0
100
AcDbEntity
  8
0
100
AcDbBlockEnd
  0
BLOCK
  5
D00
330
CF9
100
AcDbEntity
  8
0
100
AcDbBlockBegin
  2
*D50
 70
     1
 10
0.0
 20
0.0
 30
0.0
  3
*D50
  1

  0
LINE
  5
CFA
330
CF9
100
AcDbEntity
  8
0
  6
ByBlock
 62
     0
100
AcDbLine
 10
193.9407629999999
 20
241.7341069999999
 30
0.0
 11
191.9407629999999
 21
241.7341069999999
 31
0.0
  0
LINE
  5
CFB
330
CF9
100
AcDbEntity
  8
0
  6
ByBlock
 62
     0
100
AcDbLine
 10
191.9407629999999
 20
241.7341069999999
 30
0.0
 11
185.082322
 21
230.1122009999999
 31
0.0
  0
MTEXT
  5
CFC
330
CF9
100
AcDbEntity
  8
0
  6
ByBlock
 62
     0
100
AcDbMText
 10
198.6490959999999
 20
241.7341069999999
 30
0.0
 40
3.5
 41
0.0
 71
     5
 72
     1
  1
\A1;\U+220516
 73
     1
 44
1.0
  0
SOLID
  5
CFD
330
CF9
100
AcDbEntity
  8
0
  6
ByBlock
 62
     0
100
AcDbTrace
 10
184.795249
 20
230.281612
 30
0.0
 11
185.369395
 21
229.9427899999999
 31
0.0
 12
184.065858
 22
228.3897609999999
 32
0.0
 13
184.065858
 23
228.3897609999999
 33
0.0
  0
POINT
  5
CFE
330
CF9
100
AcDbEntity
  8
DEFPOINTS
  6
ByBlock
 62
     0
100
AcDbPoint
 10
184.065858
 20
228.3897609999999
 30
0.0
  0
POINT
  5
CFF
330
CF9
100
AcDbEntity
  8
DEFPOINTS
  6
ByBlock
 62
     0
100
AcDbPoint
 10
175.9341419999999
 20
214.610239
 30
0.0
  0
ENDBLK
  5
D01
330
CF9
100
AcDbEntity
  8
0
100
AcDbBlockEnd
  0
BLOCK
  5
D9E
330
D02
100
AcDbEntity
  8
0
100
AcDbBlockBegin
  2
A$C150826DF
 70
     0
 10
0.0
 20
0.0
 30
0.0
  3
A$C150826DF
  1

  0
DIMENSION
  5
D03
330
D02
100
AcDbEntity
  8
0
100
AcDbDimension
  2
*D50
 10
119.730862
 20
80.610239
 30
8.243809999999999
 11
142.4458159999999
 21
107.734107
 31
8.243809999999999
 12
-56.20328
 22
-134.0
 32
8.243809999999999
 70
   131
 71
     5
 42
-1.0
  3
STANDARD
100
AcDbDiametricDimension
 15
127.862578
 25
94.38976
 35
8.243809999999999
 40
0.0
1001
ACAD
1000
DSTYLE
1002
{
1070
   140
1040
3.5
1070
    77
1070
     0
1070
    40
1040
1.0
1070
   141
1040
0.0
1070
    41
1040
2.0
1002
}
  0
DIMENSION
  5
D04
330
D02
100
AcDbEntity
  8
0
100
AcDbDimension
  2
*D39
 10
163.7733979999999
 20
54.0
 30
8.243809999999999
 11
143.29672
 21
54.0
 31
8.243809999999999
 12
-56.20328
 22
-134.0
 32
8.243809999999999
 70
   128
  1
40
 71
     5
 42
-1.0
  3
STANDARD
100
AcDbAlignedDimension
 13
123.7967199999999
 23
23.41238999999999
 33
8.243809999999999
 14
163.7733979999999
 24
25.810294
 34
8.243809999999999
100
AcDbRotatedDimension
1001
ACAD
1000
DSTYLE
1002
{
1070
   140
1040
3.5
1070
    77
1070
     0
1070
    40
1040
1.0
1070
   141
1040
0.0
1070
    41
1040
2.0
1002
}
  0
DIMENSION
  5
D05
330
D02
100
AcDbEntity
  8
0
100
AcDbDimension
  2
*D38
 10
136.1304379999999
 20
96.42185900000001
 30
8.243809999999999
 11
149.2795059999999
 21
96.42185900000001
 31
8.243809999999999
 12
-56.20328
 22
-101.5
 32
8.243809999999999
 70
   128
  1
6-2.1
 71
     5
 42
-1.0
  3
STANDARD
100
AcDbAlignedDimension
 13
138.2378389999999
 23
87.5
 33
8.243809999999999
 14
136.1304379999999
 24
87.5
 34
8.243809999999999
100
AcDbRotatedDimension
1001
ACAD
1000
DSTYLE
1002
{
1070
   140
1040
3.5
1070
    77
1070
     0
1070
    40
1040
1.0
1070
   141
1040
0.0
1070
    41
1040
2.0
1002
}
  0
DIMENSION
  5
D06
330
D02
100
AcDbEntity
  8
0
100
AcDbDimension
  2
*D36
 10
158.9226129999999
 20
25.325008
 30
8.243809999999999
 11
138.733457
 21
29.30324199999999
 31
8.243809999999999
 12
-56.20328
 22
-134.0
 32
8.243809999999999
 70
   132
 71
     5
 42
-1.0
  3
STANDARD
100
AcDbRadialDimension
 15
163.4848449999999
 25
23.60697
 35
8.243809999999999
 40
0.0
1001
ACAD
1000
DSTYLE
1002
{
1070
   140
1040
3.5
1070
    77
1070
     0
1070
    40
1040
1.0
1070
   287
1070
     4
1070
   141
1040
0.0
1070
    41
1040
2.0
1002
}
  0
DIMENSION
  5
D07
330
D02
100
AcDbEntity
  8
0
100
AcDbDimension
  2
*D35
 10
160.320111
 20
21.55836199999999
 30
8.243809999999999
 11
140.784447
 21
33.782371
 31
8.243809999999999
 12
-56.20328
 22
-134.0
 32
8.243809999999999
 70
   132
  1
6-R1.2
 71
     5
 42
-1.0
  3
STANDARD
100
AcDbRadialDimension
 15
161.018261
 25
20.582357
 35
8.243809999999999
 40
0.0
1001
ACAD
1000
DSTYLE
1002
{
1070
   140
1040
3.5
1070
    77
1070
     0
1070
    40
1040
1.0
1070
   287
1070
     4
1070
   141
1040
0.0
1070
    41
1040
2.0
1002
}
  0
DIMENSION
  5
D08
330
D02
100
AcDbEntity
  8
0
100
AcDbDimension
  2
*D34
 10
166.406635
 20
27.330346
 30
8.243809999999999
 11
152.617911
 21
11.067894
 31
8.243809999999999
 12
-56.20328
 22
-134.0
 32
8.243809999999999
 70
   130
 71
     5
 42
-1.0
  3
STANDARD
100
AcDb2LineAngularDimension
 13
123.7967199999999
 23
4.0
 33
8.243809999999999
 14
131.2967199999999
 24
4.0
 34
8.243809999999999
 15
121.298429
 25
15.243639
 35
8.243809999999999
 16
151.839493
 26
16.784216
 36
8.243809999999999
1001
ACAD
1000
DSTYLE
1002
{
1070
   140
1040
3.5
1070
    77
1070
     0
1070
    40
1040
1.0
1070
   141
1040
0.0
1070
    41
1040
2.0
1002
}
  0
LINE
  5
D09
330
D02
100
AcDbEntity
  8
3
100
AcDbLine
 10
138.2378389999999
 20
24.441283
 30
8.243809999999999
 11
159.5690379999999
 21
30.15696
 31
8.243809999999999
  0
LINE
  5
D0A
330
D02
100
AcDbEntity
  8
3
100
AcDbLine
 10
154.5661909999999
 20
19.49896599999999
 30
8.243809999999999
 11
131.638527
 21
13.355517
 31
8.243809999999999
  0
LINE
  5
D0B
330
D02
100
AcDbEntity
  8
3
100
AcDbLine
 10
130.411098
 20
83.0
 30
8.243809999999999
 11
160.7337239999999
 21
83.0
 31
8.243809999999999
  0
LINE
  5
D0C
330
D02
100
AcDbEntity
  8
3
100
AcDbLine
 10
130.411098
 20
17.685371
 30
8.243809999999999
 11
160.7337239999999
 21
25.810294
 31
8.243809999999999
  0
LINE
  5
D0D
330
D02
100
AcDbEntity
  8
3
100
AcDbLine
 10
130.411098
 20
92.0
 30
8.243809999999999
 11
160.7337239999999
 21
92.0
 31
8.243809999999999
  0
LINE
  5
D0E
330
D02
100
AcDbEntity
  8
1
100
AcDbLine
 10
113.1714879999999
 20
87.5
 30
8.243809999999999
 11
166.42557
 21
87.5
 31
8.243809999999999
  0
LINE
  5
D0F
330
D02
100
AcDbEntity
  8
1
100
AcDbLine
 10
121.298429
 20
15.243639
 30
8.243809999999999
 11
166.406635
 21
27.330346
 31
8.243809999999999
  0
LINE
  5
D10
330
D02
100
AcDbEntity
  8
1
100
AcDbLine
 10
21.54672
 20
0.042441
 30
8.243809999999999
 11
21.54672
 21
23.41238999999999
 31
8.243809999999999
  0
DIMENSION
  5
D11
330
D02
100
AcDbEntity
  8
0
100
AcDbDimension
  2
*D33
 10
134.144461
 20
4.0
 30
8.243809999999999
 11
137.3527949999999
 21
9.0
 31
8.243809999999999
 12
-56.20328
 22
-134.0
 32
8.243809999999999
 70
   128
 71
     5
 42
-1.0
  3
STANDARD
100
AcDbAlignedDimension
 13
128.84672
 23
5.0
 33
8.243809999999999
 14
131.2967199999999
 24
4.0
 34
8.243809999999999
 50
90.0
100
AcDbRotatedDimension
1001
ACAD
1000
DSTYLE
1002
{
1070
   140
1040
3.5
1070
    77
1070
     0
1070
    40
1040
1.0
1070
   141
1040
0.0
1070
    41
1040
2.0
1002
}
  0
LINE
  5
D12
330
D02
100
AcDbEntity
  8
1
100
AcDbLine
 10
123.7967199999999
 20
0.042441
 30
8.243809999999999
 11
123.7967199999999
 21
23.41238999999999
 31
8.243809999999999
  0
ELLIPSE
  5
D13
330
D02
100
AcDbEntity
  8
3
100
AcDbEllipse
 10
21.54672
 20
20.207853
 30
8.243809999999999
 11
-7.823404708261363
 21
0.0
 31
0.0
210
0.0
220
0.0
230
1.0
 40
0.284136
 41
0.0
 42
6.283185307179585
  0
ARC
  5
D14
330
D02
100
AcDbEntity
  8
3
100
AcDbCircle
 10
21.54672
 20
25.654256
 30
8.243809999999999
 40
4.502705
100
AcDbArc
 50
1.985946
 51
178.014054
  0
LINE
  5
D15
330
D02
100
AcDbEntity
  8
2
100
AcDbLine
 10
21.54672
 20
5.0
 30
8.243809999999999
 11
16.49671999999999
 21
5.0
 31
8.243809999999999
  0
LINE
  5
D16
330
D02
100
AcDbEntity
  8
3
100
AcDbLine
 10
21.54672
 20
4.0
 30
8.243809999999999
 11
14.04672
 21
4.0
 31
8.243809999999999
  0
LINE
  5
D17
330
D02
100
AcDbEntity
  8
3
100
AcDbLine
 10
21.54672
 20
17.685371
 30
8.243809999999999
 11
13.54672
 21
17.685371
 31
8.243809999999999
  0
LINE
  5
D18
330
D02
100
AcDbEntity
  8
2
100
AcDbLine
 10
26.59672
 20
11.0
 30
8.243809999999999
 11
16.49671999999999
 21
11.0
 31
8.243809999999999
  0
LINE
  5
D19
330
D02
100
AcDbEntity
  8
2
100
AcDbLine
 10
16.99672
 20
13.0
 30
8.243809999999999
 11
26.09672
 21
13.0
 31
8.243809999999999
  0
MTEXT
  5
D1A
102
{ACAD_REACTORS
330
D1B
102
}
330
D02
100
AcDbEntity
  8
0
100
AcDbMText
 10
-1.066877
 20
24.071531
 30
8.243809999999999
 40
3.5
 41
0.0
 71
     6
 72
     1
  1
\A1;C0.5
 73
     1
 44
1.0
  0
LEADER
  5
D1B
330
D02
100
AcDbEntity
  8
0
100
AcDbLeader
  3
STANDARD
 73
     0
 40
3.5
 41
9.916667
 76
     3
 10
16.629341
 20
12.768686
 30
8.243809999999999
 10
1.07932
 20
24.071531
 30
8.243809999999999
 10
-0.9768769999999999
 20
24.071531
 30
8.243809999999999
340
D1A
1001
ACAD
1000
DSTYLE
1002
{
1070
   140
1040
3.5
1070
    77
1070
     0
1070
    40
1040
1.0
1070
   141
1040
0.0
1070
    41
1040
2.0
1002
}
  0
MTEXT
  5
D1C
102
{ACAD_REACTORS
330
D1D
102
}
330
D02
100
AcDbEntity
  8
0
100
AcDbMText
 10
0.116276
 20
32.00039199999999
 30
8.243809999999999
 40
3.5
 41
0.0
 71
     6
 72
     1
  1
\A1;R0.75
 73
     1
 44
1.0
  0
LEADER
  5
D1D
330
D02
100
AcDbEntity
  8
0
100
AcDbLeader
  3
STANDARD
 73
     0
 40
3.5
 41
13.416667
 76
     3
 10
14.263034
 20
21.03494599999999
 30
8.243809999999999
 10
1.755408
 20
32.00039199999999
 30
8.243809999999999
 10
0.206276
 20
32.00039199999999
 30
8.243809999999999
340
D1C
1001
ACAD
1000
DSTYLE
1002
{
1070
   140
1040
3.5
1070
    77
1070
     0
1070
    40
1040
1.0
1070
   141
1040
0.0
1070
    41
1040
2.0
1002
}
  0
LINE
  5
D1E
330
D02
100
AcDbEntity
  8
3
100
AcDbLine
 10
17.04672
 20
25.810294
 30
8.243809999999999
 11
17.04672
 21
22.026227
 31
8.243809999999999
  0
LINE
  5
D1F
330
D02
100
AcDbEntity
  8
3
100
AcDbLine
 10
14.04672
 20
4.0
 30
8.243809999999999
 11
13.54672
 21
17.685371
 31
8.243809999999999
  0
LINE
  5
D20
330
D02
100
AcDbEntity
  8
2
100
AcDbLine
 10
17.04672
 20
13.0
 30
8.243809999999999
 11
17.04672
 21
11.0
 31
8.243809999999999
  0
LINE
  5
D21
330
D02
100
AcDbEntity
  8
2
100
AcDbLine
 10
16.49671999999999
 20
5.0
 30
8.243809999999999
 11
16.49671999999999
 21
12.5
 31
8.243809999999999
  0
LINE
  5
D22
330
D02
100
AcDbEntity
  8
2
100
AcDbLine
 10
16.49671999999999
 20
5.0
 30
8.243809999999999
 11
16.29672
 21
4.0
 31
8.243809999999999
  0
LINE
  5
D23
330
D02
100
AcDbEntity
  8
2
100
AcDbLine
 10
16.99672
 20
13.0
 30
8.243809999999999
 11
16.49671999999999
 21
12.5
 31
8.243809999999999
  0
LINE
  5
D24
330
D02
100
AcDbEntity
  8
3
100
AcDbLine
 10
13.54672
 20
17.685371
 30
8.243809999999999
 11
13.79672
 21
20.24999999999999
 31
8.243809999999999
  0
DIMENSION
  5
D25
330
D02
100
AcDbEntity
  8
0
100
AcDbDimension
  2
*D48
 10
125.884049
 20
84.08780699999999
 30
8.243809999999999
 11
104.993307
 21
109.179209
 31
8.243809999999999
 12
-56.20328
 22
-134.0
 32
8.243809999999999
 70
   131
 71
     5
 42
-1.0
  3
STANDARD
100
AcDbDiametricDimension
 15
121.709391
 25
90.91219200000001
 35
8.243809999999999
 40
0.0
1001
ACAD
1000
DSTYLE
1002
{
1070
   140
1040
3.5
1070
    77
1070
     0
1070
    40
1040
1.0
1070
   141
1040
0.0
1070
    41
1040
2.0
1002
}
  0
DIMENSION
  5
D26
330
D02
100
AcDbEntity
  8
0
100
AcDbDimension
  2
*D47
 10
88.302239
 20
79.76002499999999
 30
8.243809999999999
 11
88.302239
 21
86.86040799999998
 31
8.243809999999999
 12
-56.20328
 22
-134.0
 32
8.243809999999999
 70
   128
  1
15.5
 71
     5
 42
-1.0
  3
STANDARD
100
AcDbAlignedDimension
 13
123.7967199999999
 23
95.239975
 33
8.243809999999999
 14
123.7967199999999
 24
79.76002499999999
 34
8.243809999999999
 50
90.0
100
AcDbRotatedDimension
1001
ACAD
1000
DSTYLE
1002
{
1070
   140
1040
3.5
1070
    77
1070
     0
1070
    40
1040
1.0
1070
   141
1040
0.0
1070
    41
1040
2.0
1002
}
  0
DIMENSION
  5
D27
330
D02
100
AcDbEntity
  8
0
100
AcDbDimension
  2
*D46
 10
80.902028
 20
79.5
 30
8.243809999999999
 11
80.902028
 21
87.50267499999999
 31
8.243809999999999
 12
-56.20328
 22
-134.0
 32
8.243809999999999
 70
   128
 71
     5
 42
-1.0
  3
STANDARD
100
AcDbAlignedDimension
 13
123.7967199999999
 23
95.5
 33
8.243809999999999
 14
123.7967199999999
 24
79.5
 34
8.243809999999999
 50
90.0
100
AcDbRotatedDimension
1001
ACAD
1000
DSTYLE
1002
{
1070
   140
1040
3.5
1070
    77
1070
     0
1070
    40
1040
1.0
1070
   141
1040
0.0
1070
    41
1040
2.0
1002
}
  0
DIMENSION
  5
D28
330
D02
100
AcDbEntity
  8
0
100
AcDbDimension
  2
*D37
 10
131.300809
 20
74.983643
 30
8.243809999999999
 11
127.5487639999999
 21
74.983643
 31
8.243809999999999
 12
-56.20328
 22
-101.5
 32
8.243809999999999
 70
   128
 71
     5
 42
-1.0
  3
STANDARD
100
AcDbAlignedDimension
 13
123.7967199999999
 23
75.89237199999999
 33
8.243809999999999
 14
131.300809
 24
87.5
 34
8.243809999999999
100
AcDbRotatedDimension
1001
ACAD
1000
DSTYLE
1002
{
1070
   140
1040
3.5
1070
    77
1070
     0
1070
    40
1040
1.0
1070
   141
1040
0.0
1070
    41
1040
2.0
1002
}
  0
CIRCLE
  5
D29
330
D02
100
AcDbEntity
  8
3
100
AcDbCircle
 10
123.7967199999999
 20
87.5
 30
8.243809999999999
 40
2.75
  0
ARC
  5
D2A
330
D02
100
AcDbEntity
  8
3
100
AcDbCircle
 10
123.5265679999999
 20
86.913768
 30
8.243809999999999
 40
7.293749
100
AcDbArc
 50
341.195413
 51
4.61009
  0
ELLIPSE
  5
D2B
330
D02
100
AcDbEntity
  8
3
100
AcDbEllipse
 10
123.42172
 20
87.5
 30
8.243809999999999
 11
0.0
 21
-7.75
 31
0.0
210
0.0
220
0.0
230
1.0
 40
0.9516129999999998
 41
0.0
 42
6.283185307179585
  0
CIRCLE
  5
D2C
330
D02
100
AcDbEntity
  8
3
100
AcDbCircle
 10
123.7967199999999
 20
87.5
 30
8.243809999999999
 40
4.0
  0
ARC
  5
D2D
330
D02
100
AcDbEntity
  8
3
100
AcDbCircle
 10
123.7967199999999
 20
87.5
 30
8.243809999999999
 40
8.0
100
AcDbArc
 50
34.228866
 51
325.7711339999999
  0
LINE
  5
D2E
330
D02
100
AcDbEntity
  8
1
100
AcDbLine
 10
123.7967199999999
 20
75.89237199999999
 30
8.243809999999999
 11
123.7967199999999
 21
98.122324
 31
8.243809999999999
  0
DIMENSION
  5
D2F
330
D02
100
AcDbEntity
  8
0
100
AcDbDimension
  2
*D44
 10
83.808205
 20
11.0
 30
8.243809999999999
 11
80.01653799999999
 21
7.0
 31
8.243809999999999
 12
-56.20328
 22
-134.0
 32
8.243809999999999
 70
   128
 71
     5
 42
-1.0
  3
STANDARD
100
AcDbAlignedDimension
 13
119.24672
 23
13.0
 33
8.243809999999999
 14
118.7467199999999
 24
11.0
 34
8.243809999999999
 50
90.0
100
AcDbRotatedDimension
1001
ACAD
1000
DSTYLE
1002
{
1070
   140
1040
3.5
1070
    77
1070
     0
1070
    40
1040
1.0
1070
   141
1040
0.0
1070
    41
1040
2.0
1002
}
  0
DIMENSION
  5
D30
330
D02
100
AcDbEntity
  8
0
100
AcDbDimension
  2
*D43
 10
72.44090899999999
 20
4.0
 30
8.243809999999999
 11
72.44090899999999
 21
8.589067
 31
8.243809999999999
 12
-56.20328
 22
-134.0
 32
8.243809999999999
 70
   128
 71
     5
 42
-1.0
  3
STANDARD
100
AcDbAlignedDimension
 13
119.29672
 23
13.0
 33
8.243809999999999
 14
116.2967199999999
 24
4.0
 34
8.243809999999999
 50
90.0
100
AcDbRotatedDimension
1001
ACAD
1000
DSTYLE
1002
{
1070
   140
1040
3.5
1070
    77
1070
     0
1070
    40
1040
1.0
1070
   141
1040
0.0
1070
    41
1040
2.0
1002
}
  0
DIMENSION
  5
D31
330
D02
100
AcDbEntity
  8
0
100
AcDbDimension
  2
*D42
 10
65.853405
 20
4.0
 30
8.243809999999999
 11
65.853405
 21
10.725917
 31
8.243809999999999
 12
-56.20328
 22
-134.0
 32
8.243809999999999
 70
   128
  1
13.7
 71
     5
 42
-1.0
  3
STANDARD
100
AcDbAlignedDimension
 13
115.7967199999999
 23
17.685371
 33
8.243809999999999
 14
116.2967199999999
 24
4.0
 34
8.243809999999999
 50
90.0
100
AcDbRotatedDimension
1001
ACAD
1000
DSTYLE
1002
{
1070
   140
1040
3.5
1070
    77
1070
     0
1070
    40
1040
1.0
1070
   141
1040
0.0
1070
    41
1040
2.0
1002
}
  0
DIMENSION
  5
D32
330
D02
100
AcDbEntity
  8
0
100
AcDbDimension
  2
*D41
 10
59.924652
 20
18.451452
 30
8.243809999999999
 11
59.924652
 21
11.876529
 31
8.243809999999999
 12
-56.20328
 22
-134.0
 32
8.243809999999999
 70
   128
  1
14.5
 71
     5
 42
-1.0
  3
STANDARD
100
AcDbAlignedDimension
 13
116.2967199999999
 23
4.0
 33
8.243809999999999
 14
115.42437
 24
18.451452
 34
8.243809999999999
 50
90.0
100
AcDbRotatedDimension
1001
ACAD
1000
DSTYLE
1002
{
1070
   140
1040
3.5
1070
    77
1070
     0
1070
    40
1040
1.0
1070
   141
1040
0.0
1070
    41
1040
2.0
1002
}
  0
LINE
  5
D33
330
D02
100
AcDbEntity
  8
3
100
AcDbLine
 10
26.04672
 20
25.810294
 30
8.243809999999999
 11
26.04672
 21
22.026227
 31
8.243809999999999
  0
LINE
  5
D34
330
D02
100
AcDbEntity
  8
3
100
AcDbLine
 10
29.04672
 20
4.0
 30
8.243809999999999
 11
29.54672
 21
17.685371
 31
8.243809999999999
  0
LINE
  5
D35
330
D02
100
AcDbEntity
  8
2
100
AcDbLine
 10
26.04672
 20
13.0
 30
8.243809999999999
 11
26.04672
 21
11.0
 31
8.243809999999999
  0
LINE
  5
D36
330
D02
100
AcDbEntity
  8
2
100
AcDbLine
 10
25.04672
 20
13.0
 30
8.243809999999999
 11
25.04672
 21
11.0
 31
8.243809999999999
  0
LINE
  5
D37
330
D02
100
AcDbEntity
  8
2
100
AcDbLine
 10
24.04672
 20
13.0
 30
8.243809999999999
 11
24.04672
 21
11.0
 31
8.243809999999999
  0
LINE
  5
D38
330
D02
100
AcDbEntity
  8
2
100
AcDbLine
 10
26.59672
 20
12.5
 30
8.243809999999999
 11
26.59672
 21
5.0
 31
8.243809999999999
  0
LINE
  5
D39
330
D02
100
AcDbEntity
  8
2
100
AcDbLine
 10
23.04672
 20
13.0
 30
8.243809999999999
 11
23.04672
 21
11.0
 31
8.243809999999999
  0
LINE
  5
D3A
330
D02
100
AcDbEntity
  8
2
100
AcDbLine
 10
22.04671999999999
 20
13.0
 30
8.243809999999999
 11
22.04671999999999
 21
11.0
 31
8.243809999999999
  0
LINE
  5
D3B
330
D02
100
AcDbEntity
  8
2
100
AcDbLine
 10
21.04672
 20
13.0
 30
8.243809999999999
 11
21.04672
 21
11.0
 31
8.243809999999999
  0
LINE
  5
D3C
330
D02
100
AcDbEntity
  8
2
100
AcDbLine
 10
20.04672
 20
13.0
 30
8.243809999999999
 11
20.04672
 21
11.0
 31
8.243809999999999
  0
LINE
  5
D3D
330
D02
100
AcDbEntity
  8
2
100
AcDbLine
 10
19.04672
 20
13.0
 30
8.243809999999999
 11
19.04672
 21
11.0
 31
8.243809999999999
  0
LINE
  5
D3E
330
D02
100
AcDbEntity
  8
2
100
AcDbLine
 10
18.04672
 20
13.0
 30
8.243809999999999
 11
18.04672
 21
11.0
 31
8.243809999999999
  0
LINE
  5
D3F
330
D02
100
AcDbEntity
  8
3
100
AcDbLine
 10
21.54672
 20
4.0
 30
8.243809999999999
 11
29.04672
 21
4.0
 31
8.243809999999999
  0
LINE
  5
D40
330
D02
100
AcDbEntity
  8
2
100
AcDbLine
 10
21.54672
 20
5.0
 30
8.243809999999999
 11
26.59672
 21
5.0
 31
8.243809999999999
  0
LINE
  5
D41
330
D02
100
AcDbEntity
  8
2
100
AcDbLine
 10
26.59672
 20
5.0
 30
8.243809999999999
 11
26.79672
 21
4.0
 31
8.243809999999999
  0
LINE
  5
D42
330
D02
100
AcDbEntity
  8
3
100
AcDbLine
 10
21.54672
 20
17.685371
 30
8.243809999999999
 11
29.54672
 21
17.685371
 31
8.243809999999999
  0
LINE
  5
D43
330
D02
100
AcDbEntity
  8
2
100
AcDbLine
 10
18.04672
 20
14.5
 30
8.243809999999999
 11
18.04672
 21
20.50480899999999
 31
8.243809999999999
  0
LINE
  5
D44
330
D02
100
AcDbEntity
  8
2
100
AcDbLine
 10
25.04672
 20
14.5
 30
8.243809999999999
 11
25.04672
 21
20.50480899999999
 31
8.243809999999999
  0
LINE
  5
D45
330
D02
100
AcDbEntity
  8
2
100
AcDbLine
 10
21.54672
 20
14.5
 30
8.243809999999999
 11
25.04672
 21
14.5
 31
8.243809999999999
  0
LINE
  5
D46
330
D02
100
AcDbEntity
  8
2
100
AcDbLine
 10
19.04672
 20
14.5
 30
8.243809999999999
 11
19.04672
 21
13.0
 31
8.243809999999999
  0
LINE
  5
D47
330
D02
100
AcDbEntity
  8
2
100
AcDbLine
 10
21.54672
 20
14.5
 30
8.243809999999999
 11
18.04672
 21
14.5
 31
8.243809999999999
  0
LINE
  5
D48
330
D02
100
AcDbEntity
  8
2
100
AcDbLine
 10
24.04672
 20
14.5
 30
8.243809999999999
 11
24.04672
 21
13.0
 31
8.243809999999999
  0
ELLIPSE
  5
D49
330
D02
100
AcDbEntity
  8
3
100
AcDbEllipse
 10
21.54672
 20
20.50480899999999
 30
8.243809999999999
 11
-3.5
 21
0.0
 31
0.0
210
0.0
220
0.0
230
1.0
 40
0.2870880000000001
 41
0.0
 42
6.283185307179585
  0
LINE
  5
D4A
330
D02
100
AcDbEntity
  8
2
100
AcDbLine
 10
26.09672
 20
13.0
 30
8.243809999999999
 11
26.59672
 21
12.5
 31
8.243809999999999
  0
LINE
  5
D4B
330
D02
100
AcDbEntity
  8
3
100
AcDbLine
 10
29.54672
 20
17.685371
 30
8.243809999999999
 11
29.29672
 21
20.24999999999999
 31
8.243809999999999
  0
LINE
  5
D4C
330
D02
100
AcDbEntity
  8
1
100
AcDbLine
 10
21.54672
 20
23.41238999999999
 30
8.243809999999999
 11
21.54672
 21
31.93329699999999
 31
8.243809999999999
  0
ARC
  5
D4D
330
D02
100
AcDbEntity
  8
3
100
AcDbCircle
 10
21.54893299999999
 20
23.893067
 30
8.243809999999999
 40
1.106935
100
AcDbArc
 50
19.043492
 51
161.718975
  0
ARC
  5
D4E
330
D02
100
AcDbEntity
  8
3
100
AcDbCircle
 10
21.54450699999999
 20
23.143067
 30
8.243809999999999
 40
1.106935
100
AcDbArc
 50
19.043492
 51
161.718975
  0
ARC
  5
D4F
330
D02
100
AcDbEntity
  8
3
100
AcDbCircle
 10
21.54893299999999
 20
22.393067
 30
8.243809999999999
 40
1.106935
100
AcDbArc
 50
19.043492
 51
161.718975
  0
ARC
  5
D50
330
D02
100
AcDbEntity
  8
3
100
AcDbCircle
 10
21.524915
 20
26.002685
 30
8.243809999999999
 40
3.420244
100
AcDbArc
 50
252.525249
 51
288.237218
  0
ARC
  5
D51
330
D02
100
AcDbEntity
  8
3
100
AcDbCircle
 10
21.524915
 20
27.50268499999999
 30
8.243809999999999
 40
3.420244
100
AcDbArc
 50
252.525249
 51
261.561795
  0
ARC
  5
D52
330
D02
100
AcDbEntity
  8
3
100
AcDbCircle
 10
21.520489
 20
26.75268499999999
 30
8.243809999999999
 40
3.420244
100
AcDbArc
 50
252.525249
 51
261.6793589999999
  0
ARC
  5
D53
330
D02
100
AcDbEntity
  8
3
100
AcDbCircle
 10
21.524915
 20
27.50268499999999
 30
8.243809999999999
 40
3.420244
100
AcDbArc
 50
278.953154
 51
288.237218
  0
ARC
  5
D54
330
D02
100
AcDbEntity
  8
3
100
AcDbCircle
 10
21.520489
 20
26.75268499999999
 30
8.243809999999999
 40
3.420244
100
AcDbArc
 50
279.068291
 51
288.237218
  0
DIMENSION
  5
D55
330
D02
100
AcDbEntity
  8
0
100
AcDbDimension
  2
*D45
 10
94.945398
 20
13.0
 30
8.243809999999999
 11
89.403731
 21
7.438455
 31
8.243809999999999
 12
-56.20328
 22
-134.0
 32
8.243809999999999
 70
   128
 71
     5
 42
-1.0
  3
STANDARD
100
AcDbAlignedDimension
 13
120.29672
 23
14.5
 33
8.243809999999999
 14
119.24672
 24
13.0
 34
8.243809999999999
 50
90.0
100
AcDbRotatedDimension
1001
ACAD
1000
DSTYLE
1002
{
1070
   140
1040
3.5
1070
    77
1070
     0
1070
    40
1040
1.0
1070
   141
1040
0.0
1070
    41
1040
2.0
1002
}
  0
DIMENSION
  5
D56
330
D02
100
AcDbEntity
  8
0
100
AcDbDimension
  2
*D40
 10
116.5467199999999
 20
17.852708
 30
8.243809999999999
 11
88.01711899999999
 21
39.75
 31
8.243809999999999
 12
-56.20328
 22
-134.0
 32
8.243809999999999
 70
   132
 71
     5
 42
-1.0
  3
STANDARD
100
AcDbRadialDimension
 15
116.0523149999999
 25
18.416679
 35
8.243809999999999
 40
0.0
1001
ACAD
1000
DSTYLE
1002
{
1070
   140
1040
3.5
1070
    77
1070
     0
1070
    40
1040
1.0
1070
   141
1040
0.0
1070
    41
1040
2.0
1002
}
  0
ARC
  5
D57
330
D02
100
AcDbEntity
  8
3
100
AcDbCircle
 10
143.8418429999999
 20
19.153821
 30
8.243809999999999
 40
13.51078299999999
100
AcDbArc
 50
165.963333
 51
205.4143419999999
  0
LINE
  5
D58
330
D02
100
AcDbEntity
  8
3
100
AcDbLine
 10
116.352606
 20
18.57715199999999
 30
8.243809999999999
 11
131.300809
 21
22.582511
 31
8.243809999999999
  0
LINE
  5
D59
330
D02
100
AcDbEntity
  8
2
100
AcDbLine
 10
128.84672
 20
11.0
 30
8.243809999999999
 11
118.7467199999999
 21
11.0
 31
8.243809999999999
  0
LINE
  5
D5A
330
D02
100
AcDbEntity
  8
2
100
AcDbLine
 10
123.7967199999999
 20
5.0
 30
8.243809999999999
 11
128.84672
 21
5.0
 31
8.243809999999999
  0
LINE
  5
D5B
330
D02
100
AcDbEntity
  8
3
100
AcDbLine
 10
130.411098
 20
17.685371
 30
8.243809999999999
 11
115.7967199999999
 21
17.685371
 31
8.243809999999999
  0
LINE
  5
D5C
330
D02
100
AcDbEntity
  8
2
100
AcDbLine
 10
123.7967199999999
 20
14.5
 30
8.243809999999999
 11
127.2967199999999
 21
14.5
 31
8.243809999999999
  0
LINE
  5
D5D
330
D02
100
AcDbEntity
  8
2
100
AcDbLine
 10
119.24672
 20
13.0
 30
8.243809999999999
 11
128.34672
 21
13.0
 31
8.243809999999999
  0
LINE
  5
D5E
330
D02
100
AcDbEntity
  8
3
100
AcDbLine
 10
123.7967199999999
 20
4.0
 30
8.243809999999999
 11
131.2967199999999
 21
4.0
 31
8.243809999999999
  0
LINE
  5
D5F
330
D02
100
AcDbEntity
  8
2
100
AcDbLine
 10
125.29672
 20
13.0
 30
8.243809999999999
 11
125.29672
 21
11.0
 31
8.243809999999999
  0
LINE
  5
D60
330
D02
100
AcDbEntity
  8
2
100
AcDbLine
 10
124.29672
 20
13.0
 30
8.243809999999999
 11
124.29672
 21
11.0
 31
8.243809999999999
  0
LINE
  5
D61
330
D02
100
AcDbEntity
  8
2
100
AcDbLine
 10
123.29672
 20
13.0
 30
8.243809999999999
 11
123.29672
 21
11.0
 31
8.243809999999999
  0
LINE
  5
D62
330
D02
100
AcDbEntity
  8
2
100
AcDbLine
 10
122.29672
 20
13.0
 30
8.243809999999999
 11
122.29672
 21
11.0
 31
8.243809999999999
  0
LINE
  5
D63
330
D02
100
AcDbEntity
  8
2
100
AcDbLine
 10
121.29672
 20
13.0
 30
8.243809999999999
 11
121.29672
 21
11.0
 31
8.243809999999999
  0
LINE
  5
D64
330
D02
100
AcDbEntity
  8
2
100
AcDbLine
 10
120.29672
 20
13.0
 30
8.243809999999999
 11
120.29672
 21
11.0
 31
8.243809999999999
  0
LINE
  5
D65
330
D02
100
AcDbEntity
  8
2
100
AcDbLine
 10
119.29672
 20
13.0
 30
8.243809999999999
 11
119.29672
 21
11.0
 31
8.243809999999999
  0
LINE
  5
D66
330
D02
100
AcDbEntity
  8
3
100
AcDbLine
 10
116.2967199999999
 20
4.0
 30
8.243809999999999
 11
115.7967199999999
 21
17.685371
 31
8.243809999999999
  0
LINE
  5
D67
330
D02
100
AcDbEntity
  8
2
100
AcDbLine
 10
118.7467199999999
 20
5.0
 30
8.243809999999999
 11
118.7467199999999
 21
12.5
 31
8.243809999999999
  0
LINE
  5
D68
330
D02
100
AcDbEntity
  8
3
100
AcDbLine
 10
123.7967199999999
 20
4.0
 30
8.243809999999999
 11
116.2967199999999
 21
4.0
 31
8.243809999999999
  0
LINE
  5
D69
330
D02
100
AcDbEntity
  8
2
100
AcDbLine
 10
123.7967199999999
 20
5.0
 30
8.243809999999999
 11
118.7467199999999
 21
5.0
 31
8.243809999999999
  0
LINE
  5
D6A
330
D02
100
AcDbEntity
  8
2
100
AcDbLine
 10
118.7467199999999
 20
5.0
 30
8.243809999999999
 11
118.5467199999999
 21
4.0
 31
8.243809999999999
  0
ARC
  5
D6B
330
D02
100
AcDbEntity
  8
3
100
AcDbCircle
 10
116.5467199999999
 20
17.852708
 30
8.243809999999999
 40
0.75
100
AcDbArc
 50
105.0
 51
180.0
  0
LINE
  5
D6C
330
D02
100
AcDbEntity
  8
3
100
AcDbLine
 10
115.7967199999999
 20
17.685371
 30
8.243809999999999
 11
115.7967199999999
 21
17.852708
 31
8.243809999999999
  0
LINE
  5
D6D
330
D02
100
AcDbEntity
  8
2
100
AcDbLine
 10
120.29672
 20
14.5
 30
8.243809999999999
 11
120.29672
 21
19.5
 31
8.243809999999999
  0
LINE
  5
D6E
330
D02
100
AcDbEntity
  8
2
100
AcDbLine
 10
123.7967199999999
 20
14.5
 30
8.243809999999999
 11
120.29672
 21
14.5
 31
8.243809999999999
  0
LINE
  5
D6F
330
D02
100
AcDbEntity
  8
2
100
AcDbLine
 10
119.24672
 20
13.0
 30
8.243809999999999
 11
118.7467199999999
 21
12.5
 31
8.243809999999999
  0
LINE
  5
D70
330
D02
100
AcDbEntity
  8
2
100
AcDbLine
 10
121.29672
 20
14.5
 30
8.243809999999999
 11
121.29672
 21
13.0
 31
8.243809999999999
  0
LINE
  5
D71
330
D02
100
AcDbEntity
  8
2
100
AcDbLine
 10
128.2967199999999
 20
13.0
 30
8.243809999999999
 11
128.2967199999999
 21
11.0
 31
8.243809999999999
  0
LINE
  5
D72
330
D02
100
AcDbEntity
  8
2
100
AcDbLine
 10
127.2967199999999
 20
13.0
 30
8.243809999999999
 11
127.2967199999999
 21
11.0
 31
8.243809999999999
  0
LINE
  5
D73
330
D02
100
AcDbEntity
  8
2
100
AcDbLine
 10
126.29672
 20
13.0
 30
8.243809999999999
 11
126.29672
 21
11.0
 31
8.243809999999999
  0
LINE
  5
D74
330
D02
100
AcDbEntity
  8
3
100
AcDbLine
 10
131.2967199999999
 20
4.0
 30
8.243809999999999
 11
131.638527
 21
13.355517
 31
8.243809999999999
  0
LINE
  5
D75
330
D02
100
AcDbEntity
  8
2
100
AcDbLine
 10
128.84672
 20
12.5
 30
8.243809999999999
 11
128.84672
 21
5.0
 31
8.243809999999999
  0
LINE
  5
D76
330
D02
100
AcDbEntity
  8
2
100
AcDbLine
 10
128.84672
 20
5.0
 30
8.243809999999999
 11
129.0467199999999
 21
4.0
 31
8.243809999999999
  0
LINE
  5
D77
330
D02
100
AcDbEntity
  8
2
100
AcDbLine
 10
127.2967199999999
 20
14.5
 30
8.243809999999999
 11
127.2967199999999
 21
21.50961899999999
 31
8.243809999999999
  0
LINE
  5
D78
330
D02
100
AcDbEntity
  8
2
100
AcDbLine
 10
128.34672
 20
13.0
 30
8.243809999999999
 11
128.84672
 21
12.5
 31
8.243809999999999
  0
LINE
  5
D79
330
D02
100
AcDbEntity
  8
2
100
AcDbLine
 10
126.29672
 20
14.5
 30
8.243809999999999
 11
126.29672
 21
13.0
 31
8.243809999999999
  0
LINE
  5
D7A
330
D02
100
AcDbEntity
  8
3
100
AcDbLine
 10
133.40821
 20
23.147188
 30
8.243809999999999
 11
133.7156229999999
 21
23.22955899999999
 31
8.243809999999999
  0
ARC
  5
D7B
330
D02
100
AcDbEntity
  8
3
100
AcDbCircle
 10
134.898734
 20
23.02893399999999
 30
8.243809999999999
 40
1.199999999999999
100
AcDbArc
 50
39.624318
 51
170.375682
  0
LINE
  5
D7C
330
D02
100
AcDbEntity
  8
3
100
AcDbLine
 10
133.40821
 20
23.147188
 30
8.243809999999999
 11
133.7156229999999
 21
23.22955899999999
 31
8.243809999999999
  0
ARC
  5
D7D
330
D02
100
AcDbEntity
  8
3
100
AcDbCircle
 10
132.4839189999999
 20
22.38188599999999
 30
8.243809999999999
 40
1.199999999999999
100
AcDbArc
 50
39.624318
 51
170.375682
  0
ARC
  5
D7E
330
D02
100
AcDbEntity
  8
3
100
AcDbCircle
 10
131.896729
 20
24.57330999999999
 30
8.243809999999999
 40
2.078075999999999
100
AcDbArc
 50
253.335603
 51
316.6643969999999
  0
ARC
  5
D7F
330
D02
100
AcDbEntity
  8
3
100
AcDbCircle
 10
136.726358
 20
25.86740499999999
 30
8.243809999999999
 40
2.078075999999999
100
AcDbArc
 50
253.335603
 51
316.6643969999999
  0
ARC
  5
D80
330
D02
100
AcDbEntity
  8
3
100
AcDbCircle
 10
137.3135479999999
 20
23.675982
 30
8.243809999999999
 40
1.199999999999999
100
AcDbArc
 50
39.624318
 51
170.375682
  0
LINE
  5
D81
330
D02
100
AcDbEntity
  8
3
100
AcDbLine
 10
135.823025
 20
23.794235
 30
8.243809999999999
 11
136.1304379999999
 21
23.87660599999999
 31
8.243809999999999
  0
ARC
  5
D82
330
D02
100
AcDbEntity
  8
3
100
AcDbCircle
 10
134.311544
 20
25.22035699999999
 30
8.243809999999999
 40
2.078075999999999
100
AcDbArc
 50
253.335603
 51
316.6643969999999
  0
LINE
  5
D83
330
D02
100
AcDbEntity
  8
3
100
AcDbLine
 10
135.823025
 20
23.794235
 30
8.243809999999999
 11
136.1304379999999
 21
23.87660599999999
 31
8.243809999999999
  0
ARC
  5
D84
330
D02
100
AcDbEntity
  8
3
100
AcDbCircle
 10
133.181422
 20
83.746187
 30
8.243809999999999
 40
2.869057
100
AcDbArc
 50
163.465681
 51
195.074862
  0
DIMENSION
  5
D85
330
D02
100
AcDbEntity
  8
0
100
AcDbDimension
  2
*D49
 10
125.810011
 20
85.62672499999999
 30
8.243809999999999
 11
98.489441
 21
103.7199339999999
 31
8.243809999999999
 12
-56.20328
 22
-134.0
 32
8.243809999999999
 70
   131
 71
     5
 42
-1.0
  3
STANDARD
100
AcDbDiametricDimension
 15
121.783429
 25
89.373275
 35
8.243809999999999
 40
0.0
1001
ACAD
1000
DSTYLE
1002
{
1070
   140
1040
3.5
1070
    77
1070
     0
1070
    40
1040
1.0
1070
   141
1040
0.0
1070
    41
1040
2.0
1002
}
  0
ARC
  5
D86
330
D02
100
AcDbEntity
  8
3
100
AcDbCircle
 10
133.181422
 20
91.25381299999999
 30
8.243809999999999
 40
2.869057
100
AcDbArc
 50
164.9251379999999
 51
196.5343189999999
  0
ELLIPSE
  5
D87
330
D02
100
AcDbEntity
  8
3
100
AcDbEllipse
 10
132.35451
 20
87.5
 30
8.243809999999999
 11
-1.053700676307868
 21
0.0
 31
0.0
210
0.0
220
0.0
230
1.0
 40
0.988217
 41
0.0
 42
6.283185307179585
  0
ARC
  5
D88
330
D02
100
AcDbEntity
  8
3
100
AcDbCircle
 10
123.5265679999999
 20
88.08623100000001
 30
8.243809999999999
 40
7.293749
100
AcDbArc
 50
355.3899099999999
 51
18.80458699999999
  0
ELLIPSE
  5
D89
330
D02
100
AcDbEntity
  8
3
100
AcDbEllipse
 10
137.1841389999999
 20
87.5
 30
8.243809999999999
 11
-1.053700676307868
 21
0.0
 31
0.0
210
0.0
220
0.0
230
1.0
 40
0.988217
 41
0.0
 42
6.283185307179585
  0
ELLIPSE
  5
D8A
330
D02
100
AcDbEntity
  8
3
100
AcDbEllipse
 10
134.769324
 20
87.5
 30
8.243809999999999
 11
-1.053700676307868
 21
0.0
 31
0.0
210
0.0
220
0.0
230
1.0
 40
0.988217
 41
0.0
 42
6.283185307179585
  0
ARC
  5
D8B
330
D02
100
AcDbEntity
  8
3
100
AcDbCircle
 10
158.959635
 20
87.5
 30
8.243809999999999
 40
4.837085
100
AcDbArc
 50
291.5164349999999
 51
68.483565
  0
ARC
  5
D8C
330
D02
100
AcDbEntity
  8
3
100
AcDbCircle
 10
173.2139629999999
 20
87.5
 30
8.243809999999999
 40
13.644925
100
AcDbArc
 50
163.8700339999999
 51
196.129966
  0
DIMENSION
  5
D8D
330
D02
100
AcDbEntity
  8
0
100
AcDbDimension
  2
*D32
 10
156.41243
 20
41.937579
 30
8.243809999999999
 11
157.8613189999999
 21
42.325808
 31
8.243809999999999
 12
-56.20328
 22
-134.0
 32
8.243809999999999
 70
   129
 71
     5
 42
-1.0
  3
STANDARD
100
AcDbAlignedDimension
 13
163.631501
 23
26.58675099999999
 33
8.243809999999999
 14
160.7337239999999
 24
25.810294
 34
8.243809999999999
1001
ACAD
1000
DSTYLE
1002
{
1070
   140
1040
4.0
1070
    77
1070
     0
1070
    40
1040
1.0
1070
   141
1040
0.0
1070
    41
1040
2.0
1002
}
  0
LINE
  5
D8E
330
D02
100
AcDbEntity
  8
0
100
AcDbLine
 10
159.600884
 20
24.459192
 30
8.243809999999999
 11
160.922776
 21
19.525824
 31
8.243809999999999
  0
LINE
  5
D8F
330
D02
100
AcDbEntity
  8
0
100
AcDbLine
 10
157.2204639999999
 20
23.865224
 30
8.243809999999999
 11
158.542356
 21
18.93185599999999
 31
8.243809999999999
  0
LINE
  5
D90
330
D02
100
AcDbEntity
  8
0
100
AcDbLine
 10
154.85743
 20
22.92181499999999
 30
8.243809999999999
 11
156.1017629999999
 21
18.27790099999999
 31
8.243809999999999
  0
ARC
  5
D91
330
D02
100
AcDbEntity
  8
3
100
AcDbCircle
 10
158.9226129999999
 20
25.325008
 30
8.243809999999999
 40
4.875
100
AcDbArc
 50
307.619865
 51
82.38013499999999
  0
LINE
  5
D92
330
D02
100
AcDbEntity
  8
3
100
AcDbLine
 10
159.5690379999999
 20
30.15696
 30
8.243809999999999
 11
161.898409
 21
21.46362799999999
 31
8.243809999999999
  0
LINE
  5
D93
330
D02
100
AcDbEntity
  8
3
100
AcDbLine
 10
156.981005
 20
20.146013
 30
8.243809999999999
 11
156.6735919999999
 21
20.063642
 31
8.243809999999999
  0
ARC
  5
D94
330
D02
100
AcDbEntity
  8
3
100
AcDbCircle
 10
155.490482
 20
20.264267
 30
8.243809999999999
 40
1.199999999999999
100
AcDbArc
 50
219.624318
 51
350.3756819999999
  0
ARC
  5
D95
330
D02
100
AcDbEntity
  8
3
100
AcDbCircle
 10
156.0776719999999
 20
18.072843
 30
8.243809999999999
 40
2.078075999999999
100
AcDbArc
 50
73.33560300000001
 51
136.664397
  0
ARC
  5
D96
330
D02
100
AcDbEntity
  8
3
100
AcDbCircle
 10
160.9073009999999
 20
19.366939
 30
8.243809999999999
 40
2.078075999999999
100
AcDbArc
 50
73.33560300000001
 51
136.664397
  0
ARC
  5
D97
330
D02
100
AcDbEntity
  8
3
100
AcDbCircle
 10
160.320111
 20
21.55836199999999
 30
8.243809999999999
 40
1.199999999999999
100
AcDbArc
 50
219.624318
 51
350.3756819999999
  0
LINE
  5
D98
330
D02
100
AcDbEntity
  8
3
100
AcDbLine
 10
159.3958199999999
 20
20.79306099999999
 30
8.243809999999999
 11
159.088407
 21
20.71069
 31
8.243809999999999
  0
ARC
  5
D99
330
D02
100
AcDbEntity
  8
3
100
AcDbCircle
 10
158.492487
 20
18.719891
 30
8.243809999999999
 40
2.078075999999999
100
AcDbArc
 50
73.33560300000001
 51
136.664397
  0
ARC
  5
D9A
330
D02
100
AcDbEntity
  8
3
100
AcDbCircle
 10
157.905296
 20
20.911314
 30
8.243809999999999
 40
1.199999999999999
100
AcDbArc
 50
219.624318
 51
350.3756819999999
  0
LINE
  5
D9B
330
D02
100
AcDbEntity
  8
3
100
AcDbLine
 10
161.898409
 20
21.46362799999999
 30
8.243809999999999
 11
161.503221
 21
21.357737
 31
8.243809999999999
  0
ARC
  5
D9C
330
D02
100
AcDbEntity
  8
3
100
AcDbCircle
 10
161.2267939999999
 20
84.06853400000001
 30
8.243809999999999
 40
1.176811
100
AcDbArc
 50
197.7786219999999
 51
245.229221
  0
ARC
  5
D9D
330
D02
100
AcDbEntity
  8
3
100
AcDbCircle
 10
161.2267939999999
 20
90.931466
 30
8.243809999999999
 40
1.176811
100
AcDbArc
 50
114.770779
 51
162.221378
  0
ENDBLK
  5
D9F
330
D02
100
AcDbEntity
  8
0
100
AcDbBlockEnd
  0
BLOCK
  5
1120
330
111F
100
AcDbEntity
  8
0
100
AcDbBlockBegin
  2
*U52
 70
     1
 10
0.0
 20
0.0
 30
0.0
  3
*U52
  1

  0
ENDBLK
  5
1121
330
111F
100
AcDbEntity
  8
0
100
AcDbBlockEnd
  0
BLOCK
  5
1161
330
115F
100
AcDbEntity
  8
0
100
AcDbBlockBegin
  2
GENAXEH
 70
     0
 10
0.0
 20
0.0
 30
0.0
  3
GENAXEH
  1

  0
LINE
  5
1160
330
115F
100
AcDbEntity
  8
0
100
AcDbLine
 10
-1.0
 20
0.0
 30
0.0
 11
1.0
 21
0.0
 31
0.0
  0
ENDBLK
  5
1162
330
115F
100
AcDbEntity
  8
0
100
AcDbBlockEnd
  0
ENDSEC
  0
SECTION
  2
ENTITIES
  0
LINE
  5
DA7
330
18
100
AcDbEntity
  8
3
100
AcDbLine
 10
288.4774339999999
 20
160.940887
 30
8.243809999999999
 11
309.808632
 21
166.6565639999999
 31
8.243809999999999
  0
LINE
  5
DA8
330
18
100
AcDbEntity
  8
3
100
AcDbLine
 10
304.805785
 20
155.99857
 30
8.243809999999999
 11
281.878122
 21
149.855121
 31
8.243809999999999
  0
LINE
  5
DA9
330
18
100
AcDbEntity
  8
3
100
AcDbLine
 10
280.6506929999999
 20
180.762928
 30
8.243809999999999
 11
310.973318
 21
180.762928
 31
8.243809999999999
  0
LINE
  5
DAB
330
18
100
AcDbEntity
  8
3
100
AcDbLine
 10
280.6506929999999
 20
189.762928
 30
8.243809999999999
 11
310.973318
 21
189.762928
 31
8.243809999999999
  0
LINE
  5
DAC
330
18
100
AcDbEntity
  8
1
100
AcDbLine
 10
263.411083
 20
185.262928
 30
8.243809999999999
 11
316.6651649999999
 21
185.262928
 31
8.243809999999999
  0
LINE
  5
DAE
330
18
100
AcDbEntity
  8
1
100
AcDbLine
 10
222.303935
 20
136.542045
 30
8.243809999999999
 11
222.303935
 21
159.911994
 31
8.243809999999999
  0
LINE
  5
DB0
330
18
100
AcDbEntity
  8
1
100
AcDbLine
 10
274.0363139999999
 20
136.542045
 30
8.243809999999999
 11
274.0363139999999
 21
159.911994
 31
8.243809999999999
  0
ELLIPSE
  5
DB1
330
18
100
AcDbEntity
  8
3
100
AcDbEllipse
 10
222.303935
 20
156.707457
 30
8.243809999999999
 11
-7.823404708261363
 21
0.0
 31
0.0
210
0.0
220
0.0
230
1.0
 40
0.284136
 41
0.0
 42
6.283185307179585
  0
ARC
  5
DB2
330
18
100
AcDbEntity
  8
3
100
AcDbCircle
 10
222.303935
 20
162.15386
 30
8.243809999999999
 40
4.502705
100
AcDbArc
 50
1.985946
 51
178.014054
  0
LINE
  5
DB4
330
18
100
AcDbEntity
  8
3
100
AcDbLine
 10
222.303935
 20
140.499604
 30
8.243809999999999
 11
214.8039349999999
 21
140.499604
 31
8.243809999999999
  0
LINE
  5
DBC
330
18
100
AcDbEntity
  8
3
100
AcDbLine
 10
217.803935
 20
162.3098979999999
 30
8.243809999999999
 11
217.803935
 21
158.525832
 31
8.243809999999999
  0
LINE
  5
DBD
330
18
100
AcDbEntity
  8
3
100
AcDbLine
 10
214.8039349999999
 20
140.499604
 30
8.243809999999999
 11
214.303935
 21
154.184975
 31
8.243809999999999
  0
LINE
  5
DC2
330
18
100
AcDbEntity
  8
3
100
AcDbLine
 10
214.303935
 20
154.184975
 30
8.243809999999999
 11
214.5539349999999
 21
156.7496039999999
 31
8.243809999999999
  0
ARC
  5
DC8
330
18
100
AcDbEntity
  8
3
100
AcDbCircle
 10
273.766162
 20
184.676697
 30
8.243809999999999
 40
7.293749
100
AcDbArc
 50
341.195413
 51
4.61009
  0
ELLIPSE
  5
DC9
330
18
100
AcDbEntity
  8
3
100
AcDbEllipse
 10
273.661314
 20
185.262928
 30
8.243809999999999
 11
0.0
 21
-7.75
 31
0.0
210
0.0
220
0.0
230
1.0
 40
0.9516129999999998
 41
0.0
 42
6.283185307179585
  0
CIRCLE
  5
DCA
330
18
100
AcDbEntity
  8
3
100
AcDbCircle
 10
274.0363139999999
 20
185.262928
 30
8.243809999999999
 40
4.0
  0
ARC
  5
DCB
330
18
100
AcDbEntity
  8
3
100
AcDbCircle
 10
274.0363139999999
 20
185.262928
 30
8.243809999999999
 40
8.0
100
AcDbArc
 50
34.228866
 51
325.7711339999999
  0
LINE
  5
DCC
330
18
100
AcDbEntity
  8
1
100
AcDbLine
 10
274.0363139999999
 20
173.655301
 30
8.243809999999999
 11
274.0363139999999
 21
195.885252
 31
8.243809999999999
  0
LINE
  5
DD1
330
18
100
AcDbEntity
  8
3
100
AcDbLine
 10
226.803935
 20
162.3098979999999
 30
8.243809999999999
 11
226.803935
 21
158.525832
 31
8.243809999999999
  0
LINE
  5
DD2
330
18
100
AcDbEntity
  8
3
100
AcDbLine
 10
229.8039349999999
 20
140.499604
 30
8.243809999999999
 11
230.303935
 21
154.184975
 31
8.243809999999999
  0
LINE
  5
DDD
330
18
100
AcDbEntity
  8
3
100
AcDbLine
 10
222.303935
 20
140.499604
 30
8.243809999999999
 11
229.8039349999999
 21
140.499604
 31
8.243809999999999
  0
ELLIPSE
  5
DE7
330
18
100
AcDbEntity
  8
3
100
AcDbEllipse
 10
222.303935
 20
157.004413
 30
8.243809999999999
 11
3.500000000000009
 21
0.000000000000001
 31
0.0
210
0.0
220
0.0
230
1.0
 40
0.2870879999999984
 41
3.161063922407622
 42
6.263714038361751
  0
LINE
  5
DE9
330
18
100
AcDbEntity
  8
3
100
AcDbLine
 10
230.303935
 20
154.184975
 30
8.243809999999999
 11
230.053935
 21
156.7496039999999
 31
8.243809999999999
  0
LINE
  5
DEA
330
18
100
AcDbEntity
  8
1
100
AcDbLine
 10
222.303935
 20
159.911994
 30
8.243809999999999
 11
222.303935
 21
168.4329009999999
 31
8.243809999999999
  0
ARC
  5
DEB
330
18
100
AcDbEntity
  8
3
100
AcDbCircle
 10
222.306149
 20
160.392671
 30
8.243809999999999
 40
1.106935
100
AcDbArc
 50
19.043492
 51
161.718975
  0
ARC
  5
DEC
330
18
100
AcDbEntity
  8
3
100
AcDbCircle
 10
222.301722
 20
159.642671
 30
8.243809999999999
 40
1.106935
100
AcDbArc
 50
19.043492
 51
161.718975
  0
ARC
  5
DED
330
18
100
AcDbEntity
  8
3
100
AcDbCircle
 10
222.306149
 20
158.892671
 30
8.243809999999999
 40
1.106935
100
AcDbArc
 50
19.043492
 51
161.718975
  0
ARC
  5
DEE
330
18
100
AcDbEntity
  8
3
100
AcDbCircle
 10
222.282131
 20
162.5022899999999
 30
8.243809999999999
 40
3.420244
100
AcDbArc
 50
252.525249
 51
288.237218
  0
ARC
  5
DEF
330
18
100
AcDbEntity
  8
3
100
AcDbCircle
 10
222.282131
 20
164.0022899999999
 30
8.243809999999999
 40
3.420244
100
AcDbArc
 50
252.525249
 51
261.561795
  0
ARC
  5
DF0
330
18
100
AcDbEntity
  8
3
100
AcDbCircle
 10
222.2777039999999
 20
163.2522899999999
 30
8.243809999999999
 40
3.420244
100
AcDbArc
 50
252.525249
 51
261.6793589999999
  0
ARC
  5
DF1
330
18
100
AcDbEntity
  8
3
100
AcDbCircle
 10
222.282131
 20
164.0022899999999
 30
8.243809999999999
 40
3.420244
100
AcDbArc
 50
278.953154
 51
288.237218
  0
ARC
  5
DF2
330
18
100
AcDbEntity
  8
3
100
AcDbCircle
 10
222.2777039999999
 20
163.2522899999999
 30
8.243809999999999
 40
3.420244
100
AcDbArc
 50
279.068291
 51
288.237218
  0
ARC
  5
DF5
330
18
100
AcDbEntity
  8
3
100
AcDbCircle
 10
294.0814379999999
 20
155.653425
 30
8.243809999999999
 40
13.51078299999999
100
AcDbArc
 50
165.963333
 51
205.4143419999999
  0
LINE
  5
DF6
330
18
100
AcDbEntity
  8
3
100
AcDbLine
 10
266.5922
 20
155.076756
 30
8.243809999999999
 11
281.5404029999999
 21
159.082115
 31
8.243809999999999
  0
LINE
  5
DFC
330
18
100
AcDbEntity
  8
3
100
AcDbLine
 10
274.0363139999999
 20
140.499604
 30
8.243809999999999
 11
281.536314
 21
140.499604
 31
8.243809999999999
  0
LINE
  5
E04
330
18
100
AcDbEntity
  8
3
100
AcDbLine
 10
266.536314
 20
140.499604
 30
8.243809999999999
 11
266.036314
 21
154.184975
 31
8.243809999999999
  0
LINE
  5
E06
330
18
100
AcDbEntity
  8
3
100
AcDbLine
 10
274.0363139999999
 20
140.499604
 30
8.243809999999999
 11
266.536314
 21
140.499604
 31
8.243809999999999
  0
ARC
  5
E09
330
18
100
AcDbEntity
  8
3
100
AcDbCircle
 10
266.786314
 20
154.352312
 30
8.243809999999999
 40
0.75
100
AcDbArc
 50
105.0
 51
180.0
  0
LINE
  5
E0A
330
18
100
AcDbEntity
  8
3
100
AcDbLine
 10
266.036314
 20
154.184975
 30
8.243809999999999
 11
266.036314
 21
154.352312
 31
8.243809999999999
  0
LINE
  5
E12
330
18
100
AcDbEntity
  8
3
100
AcDbLine
 10
281.536314
 20
140.499604
 30
8.243809999999999
 11
281.878122
 21
149.855121
 31
8.243809999999999
  0
LINE
  5
E18
330
18
100
AcDbEntity
  8
3
100
AcDbLine
 10
283.647805
 20
159.646792
 30
8.243809999999999
 11
283.955218
 21
159.7291629999999
 31
8.243809999999999
  0
ARC
  5
E19
330
18
100
AcDbEntity
  8
3
100
AcDbCircle
 10
285.1383279999999
 20
159.5285379999999
 30
8.243809999999999
 40
1.199999999999999
100
AcDbArc
 50
39.624318
 51
170.375682
  0
LINE
  5
E1A
330
18
100
AcDbEntity
  8
3
100
AcDbLine
 10
283.647805
 20
159.646792
 30
8.243809999999999
 11
283.955218
 21
159.7291629999999
 31
8.243809999999999
  0
ARC
  5
E1B
330
18
100
AcDbEntity
  8
3
100
AcDbCircle
 10
282.723514
 20
158.8814909999999
 30
8.243809999999999
 40
1.199999999999999
100
AcDbArc
 50
39.624318
 51
170.375682
  0
ARC
  5
E1C
330
18
100
AcDbEntity
  8
3
100
AcDbCircle
 10
282.136323
 20
161.072914
 30
8.243809999999999
 40
2.078075999999999
100
AcDbArc
 50
253.335603
 51
316.6643969999999
  0
ARC
  5
E1D
330
18
100
AcDbEntity
  8
3
100
AcDbCircle
 10
286.9659529999999
 20
162.367009
 30
8.243809999999999
 40
2.078075999999999
100
AcDbArc
 50
253.335603
 51
316.6643969999999
  0
ARC
  5
E1E
330
18
100
AcDbEntity
  8
3
100
AcDbCircle
 10
287.553143
 20
160.175586
 30
8.243809999999999
 40
1.199999999999999
100
AcDbArc
 50
39.624318
 51
170.375682
  0
LINE
  5
E1F
330
18
100
AcDbEntity
  8
3
100
AcDbLine
 10
286.0626189999999
 20
160.293839
 30
8.243809999999999
 11
286.370033
 21
160.37621
 31
8.243809999999999
  0
ARC
  5
E20
330
18
100
AcDbEntity
  8
3
100
AcDbCircle
 10
284.5511379999999
 20
161.719962
 30
8.243809999999999
 40
2.078075999999999
100
AcDbArc
 50
253.335603
 51
316.6643969999999
  0
LINE
  5
E21
330
18
100
AcDbEntity
  8
3
100
AcDbLine
 10
286.0626189999999
 20
160.293839
 30
8.243809999999999
 11
286.370033
 21
160.37621
 31
8.243809999999999
  0
ARC
  5
E22
330
18
100
AcDbEntity
  8
3
100
AcDbCircle
 10
283.421017
 20
181.5091149999999
 30
8.243809999999999
 40
2.869057
100
AcDbArc
 50
163.465681
 51
195.074862
  0
ARC
  5
E24
330
18
100
AcDbEntity
  8
3
100
AcDbCircle
 10
283.421017
 20
189.016741
 30
8.243809999999999
 40
2.869057
100
AcDbArc
 50
164.9251379999999
 51
196.5343189999999
  0
ELLIPSE
  5
E25
330
18
100
AcDbEntity
  8
3
100
AcDbEllipse
 10
282.594104
 20
185.262928
 30
8.243809999999999
 11
-1.053700676307868
 21
0.0
 31
0.0
210
0.0
220
0.0
230
1.0
 40
0.988217
 41
0.0
 42
6.283185307179585
  0
ARC
  5
E26
330
18
100
AcDbEntity
  8
3
100
AcDbCircle
 10
273.766162
 20
185.849159
 30
8.243809999999999
 40
7.293749
100
AcDbArc
 50
355.3899099999999
 51
18.80458699999999
  0
ELLIPSE
  5
E27
330
18
100
AcDbEntity
  8
3
100
AcDbEllipse
 10
287.423733
 20
185.262928
 30
8.243809999999999
 11
-1.053700676307868
 21
0.0
 31
0.0
210
0.0
220
0.0
230
1.0
 40
0.988217
 41
0.0
 42
6.283185307179585
  0
ELLIPSE
  5
E28
330
18
100
AcDbEntity
  8
3
100
AcDbEllipse
 10
285.0089189999999
 20
185.262928
 30
8.243809999999999
 11
-1.053700676307868
 21
0.0
 31
0.0
210
0.0
220
0.0
230
1.0
 40
0.988217
 41
0.0
 42
6.283185307179585
  0
ARC
  5
E29
330
18
100
AcDbEntity
  8
3
100
AcDbCircle
 10
309.19923
 20
185.262928
 30
8.243809999999999
 40
4.837085
100
AcDbArc
 50
291.5164349999999
 51
68.483565
  0
ARC
  5
E2A
330
18
100
AcDbEntity
  8
3
100
AcDbCircle
 10
323.4535579999999
 20
185.262928
 30
8.243809999999999
 40
13.644925
100
AcDbArc
 50
163.8700339999999
 51
196.129966
  0
ARC
  5
E2F
330
18
100
AcDbEntity
  8
3
100
AcDbCircle
 10
309.1622069999999
 20
161.824612
 30
8.243809999999999
 40
4.875
100
AcDbArc
 50
307.619865
 51
82.38013499999999
  0
LINE
  5
E30
330
18
100
AcDbEntity
  8
3
100
AcDbLine
 10
309.808632
 20
166.6565639999999
 30
8.243809999999999
 11
312.138004
 21
157.9632319999999
 31
8.243809999999999
  0
LINE
  5
E31
330
18
100
AcDbEntity
  8
3
100
AcDbLine
 10
307.2205999999999
 20
156.6456179999999
 30
8.243809999999999
 11
306.913187
 21
156.5632459999999
 31
8.243809999999999
  0
ARC
  5
E32
330
18
100
AcDbEntity
  8
3
100
AcDbCircle
 10
305.7300759999999
 20
156.7638709999999
 30
8.243809999999999
 40
1.199999999999999
100
AcDbArc
 50
219.624318
 51
350.3756819999999
  0
ARC
  5
E33
330
18
100
AcDbEntity
  8
3
100
AcDbCircle
 10
306.317266
 20
154.572448
 30
8.243809999999999
 40
2.078075999999999
100
AcDbArc
 50
73.33560300000001
 51
136.664397
  0
ARC
  5
E34
330
18
100
AcDbEntity
  8
3
100
AcDbCircle
 10
311.1468959999999
 20
155.866543
 30
8.243809999999999
 40
2.078075999999999
100
AcDbArc
 50
73.33560300000001
 51
136.664397
  0
ARC
  5
E35
330
18
100
AcDbEntity
  8
3
100
AcDbCircle
 10
310.559705
 20
158.0579659999999
 30
8.243809999999999
 40
1.199999999999999
100
AcDbArc
 50
219.624318
 51
350.3756819999999
  0
LINE
  5
E36
330
18
100
AcDbEntity
  8
3
100
AcDbLine
 10
309.635414
 20
157.292665
 30
8.243809999999999
 11
309.3280009999999
 21
157.210294
 31
8.243809999999999
  0
ARC
  5
E37
330
18
100
AcDbEntity
  8
3
100
AcDbCircle
 10
308.732081
 20
155.219495
 30
8.243809999999999
 40
2.078075999999999
100
AcDbArc
 50
73.33560300000001
 51
136.664397
  0
ARC
  5
E38
330
18
100
AcDbEntity
  8
3
100
AcDbCircle
 10
308.144891
 20
157.410919
 30
8.243809999999999
 40
1.199999999999999
100
AcDbArc
 50
219.624318
 51
350.3756819999999
  0
LINE
  5
E39
330
18
100
AcDbEntity
  8
3
100
AcDbLine
 10
312.138004
 20
157.9632319999999
 30
8.243809999999999
 11
311.742816
 21
157.8573419999999
 31
8.243809999999999
  0
ARC
  5
E3A
330
18
100
AcDbEntity
  8
3
100
AcDbCircle
 10
311.466389
 20
181.831462
 30
8.243809999999999
 40
1.176811
100
AcDbArc
 50
197.7786219999999
 51
245.229221
  0
ARC
  5
E3B
330
18
100
AcDbEntity
  8
3
100
AcDbCircle
 10
311.466389
 20
188.6943939999999
 30
8.243809999999999
 40
1.176811
100
AcDbArc
 50
114.770779
 51
162.221378
  0
CIRCLE
  5
FED
330
18
100
AcDbEntity
  8
3
100
AcDbCircle
 10
274.0363139999999
 20
185.262928
 30
8.243809999999999
 40
3.5
  0
LINE
  5
FEF
330
18
100
AcDbEntity
  8
3
100
AcDbLine
 10
274.536314
 20
188.72703
 30
8.243809999999999
 11
274.536314
 21
181.7988259999999
 31
8.243809999999999
  0
LINE
  5
FF1
330
18
100
AcDbEntity
  8
3
100
AcDbLine
 10
273.536314
 20
181.7988259999999
 30
8.243809999999999
 11
273.536314
 21
188.72703
 31
8.243809999999999
  0
LINE
  5
FF2
330
18
100
AcDbEntity
  8
1
100
AcDbLine
 10
274.0363139999999
 20
136.542045
 30
8.243809999999999
 11
274.0363139999999
 21
96.375223
 31
8.243809999999999
  0
LINE
  5
FF4
330
18
100
AcDbEntity
  8
3
100
AcDbLine
 10
279.036314
 20
140.499604
 30
8.243809999999999
 11
279.036314
 21
124.4996039999999
 31
8.243809999999999
  0
LINE
  5
FF5
330
18
100
AcDbEntity
  8
3
100
AcDbLine
 10
278.536314
 20
123.999604
 30
8.243809999999999
 11
269.5363139999999
 21
123.999604
 31
8.243809999999999
  0
LINE
  5
FF6
330
18
100
AcDbEntity
  8
3
100
AcDbLine
 10
269.036314
 20
124.4996039999999
 30
8.243809999999999
 11
269.036314
 21
140.499604
 31
8.243809999999999
  0
LINE
  5
FF7
330
18
100
AcDbEntity
  8
3
100
AcDbLine
 10
274.0363139999999
 20
123.999604
 30
8.243809999999999
 11
276.536314
 21
123.999604
 31
8.243809999999999
  0
LINE
  5
FF8
330
18
100
AcDbEntity
  8
3
100
AcDbLine
 10
277.036314
 20
123.999604
 30
8.243809999999999
 11
277.036314
 21
104.499604
 31
8.243809999999999
  0
LINE
  5
FF9
330
18
100
AcDbEntity
  8
3
100
AcDbLine
 10
276.536314
 20
103.999604
 30
8.243809999999999
 11
271.536314
 21
103.999604
 31
8.243809999999999
  0
LINE
  5
FFA
330
18
100
AcDbEntity
  8
3
100
AcDbLine
 10
271.036314
 20
104.499604
 30
8.243809999999999
 11
271.036314
 21
123.999604
 31
8.243809999999999
  0
LINE
  5
FFD
330
18
100
AcDbEntity
  8
3
100
AcDbLine
 10
274.536314
 20
157.999604
 30
8.243809999999999
 11
277.5712139999999
 21
157.999604
 31
8.243809999999999
  0
LINE
  5
FFE
330
18
100
AcDbEntity
  8
3
100
AcDbLine
 10
273.536314
 20
157.999604
 30
8.243809999999999
 11
271.036314
 21
157.999604
 31
8.243809999999999
  0
LINE
  5
FFF
330
18
100
AcDbEntity
  8
3
100
AcDbLine
 10
270.536314
 20
157.499604
 30
8.243809999999999
 11
270.536314
 21
156.133579
 31
8.243809999999999
  0
LINE
  5
1000
330
18
100
AcDbEntity
  8
3
100
AcDbLine
 10
271.036314
 20
157.999604
 30
8.243809999999999
 11
270.536314
 21
157.499604
 31
8.243809999999999
  0
LINE
  5
1002
330
18
100
AcDbEntity
  8
3
100
AcDbLine
 10
273.536314
 20
157.999604
 30
8.243809999999999
 11
273.536314
 21
157.299604
 31
8.243809999999999
  0
LINE
  5
1003
330
18
100
AcDbEntity
  8
3
100
AcDbLine
 10
273.536314
 20
157.299604
 30
8.243809999999999
 11
274.536314
 21
157.299604
 31
8.243809999999999
  0
LINE
  5
1004
330
18
100
AcDbEntity
  8
3
100
AcDbLine
 10
274.536314
 20
157.299604
 30
8.243809999999999
 11
274.536314
 21
157.999604
 31
8.243809999999999
  0
LINE
  5
1005
330
18
100
AcDbEntity
  8
3
100
AcDbLine
 10
269.036314
 20
124.4996039999999
 30
8.243809999999999
 11
269.5363139999999
 21
123.999604
 31
8.243809999999999
  0
LINE
  5
1006
330
18
100
AcDbEntity
  8
3
100
AcDbLine
 10
279.036314
 20
124.4996039999999
 30
8.243809999999999
 11
278.536314
 21
123.999604
 31
8.243809999999999
  0
LINE
  5
1007
330
18
100
AcDbEntity
  8
3
100
AcDbLine
 10
271.036314
 20
104.499604
 30
8.243809999999999
 11
271.536314
 21
103.999604
 31
8.243809999999999
  0
LINE
  5
1008
330
18
100
AcDbEntity
  8
3
100
AcDbLine
 10
277.036314
 20
104.499604
 30
8.243809999999999
 11
276.536314
 21
103.999604
 31
8.243809999999999
  0
LINE
  5
1009
330
18
100
AcDbEntity
  8
0
100
AcDbLine
 10
277.036314
 20
104.499604
 30
8.243809999999999
 11
271.036314
 21
104.499604
 31
8.243809999999999
  0
LINE
  5
100A
330
18
100
AcDbEntity
  8
0
100
AcDbLine
 10
276.536314
 20
123.2036739999999
 30
0.0
 11
271.536314
 21
123.2036739999999
 31
0.0
  0
LINE
  5
100B
330
18
100
AcDbEntity
  8
0
100
AcDbLine
 10
276.536314
 20
103.999604
 30
8.243809999999999
 11
276.536314
 21
123.2036739999999
 31
8.243809999999999
  0
LINE
  5
100C
330
18
100
AcDbEntity
  8
0
100
AcDbLine
 10
271.536314
 20
103.999604
 30
8.243809999999999
 11
271.536314
 21
123.2036739999999
 31
8.243809999999999
  0
LINE
  5
100D
330
18
100
AcDbEntity
  8
1
100
AcDbLine
 10
222.303935
 20
136.542045
 30
8.243809999999999
 11
222.303935
 21
159.911994
 31
8.243809999999999
  0
LINE
  5
1011
330
18
100
AcDbEntity
  8
3
100
AcDbLine
 10
226.803935
 20
123.999604
 30
8.243809999999999
 11
217.803935
 21
123.999604
 31
8.243809999999999
  0
LINE
  5
1013
330
18
100
AcDbEntity
  8
3
100
AcDbLine
 10
217.3039349999999
 20
124.4996039999999
 30
8.243809999999999
 11
217.3039349999999
 21
140.499604
 31
8.243809999999999
  0
LINE
  5
1014
330
18
100
AcDbEntity
  8
1
100
AcDbLine
 10
222.303935
 20
136.542045
 30
8.243809999999999
 11
222.303935
 21
96.375223
 31
8.243809999999999
  0
LINE
  5
1018
330
18
100
AcDbEntity
  8
3
100
AcDbLine
 10
217.3039349999999
 20
124.4996039999999
 30
8.243809999999999
 11
217.803935
 21
123.999604
 31
8.243809999999999
  0
LINE
  5
1019
330
18
100
AcDbEntity
  8
3
100
AcDbLine
 10
227.3039349999999
 20
140.499604
 30
8.243809999999999
 11
227.3039349999999
 21
124.4996039999999
 31
8.243809999999999
  0
LINE
  5
101D
330
18
100
AcDbEntity
  8
3
100
AcDbLine
 10
227.3039349999999
 20
124.4996039999999
 30
8.243809999999999
 11
226.803935
 21
123.999604
 31
8.243809999999999
  0
LINE
  5
101F
330
18
100
AcDbEntity
  8
3
100
AcDbLine
 10
222.303935
 20
158.0092229999999
 30
8.243809999999999
 11
225.3039349999999
 21
158.0092229999999
 31
8.243809999999999
  0
LINE
  5
1020
330
18
100
AcDbEntity
  8
3
100
AcDbLine
 10
225.803935
 20
157.5092229999999
 30
8.243809999999999
 11
225.803935
 21
157.0099649999999
 31
8.243809999999999
  0
LINE
  5
1021
330
18
100
AcDbEntity
  8
3
100
AcDbLine
 10
222.303935
 20
157.999604
 30
8.243809999999999
 11
219.3039349999999
 21
157.999604
 31
8.243809999999999
  0
LINE
  5
1022
330
18
100
AcDbEntity
  8
3
100
AcDbLine
 10
218.8039349999999
 20
157.499604
 30
8.243809999999999
 11
218.8039349999999
 21
156.956493
 31
8.243809999999999
  0
LINE
  5
1023
330
18
100
AcDbEntity
  8
3
100
AcDbLine
 10
219.3039349999999
 20
157.999604
 30
8.243809999999999
 11
218.8039349999999
 21
157.499604
 31
8.243809999999999
  0
LINE
  5
1024
330
18
100
AcDbEntity
  8
3
100
AcDbLine
 10
225.3039349999999
 20
158.0092229999999
 30
8.243809999999999
 11
225.803935
 21
157.5092229999999
 31
8.243809999999999
  0
LINE
  5
1035
330
18
100
AcDbEntity
  8
0
100
AcDbLine
 10
224.8039349999999
 20
123.2036739999999
 30
0.0
 11
219.803935
 21
123.2036739999999
 31
0.0
  0
LINE
  5
1036
330
18
100
AcDbEntity
  8
3
100
AcDbLine
 10
224.8039349999999
 20
103.999604
 30
8.243809999999999
 11
219.803935
 21
103.999604
 31
8.243809999999999
  0
LINE
  5
1037
330
18
100
AcDbEntity
  8
0
100
AcDbLine
 10
225.3039349999999
 20
104.499604
 30
8.243809999999999
 11
219.3039349999999
 21
104.499604
 31
8.243809999999999
  0
LINE
  5
1038
330
18
100
AcDbEntity
  8
3
100
AcDbLine
 10
222.303935
 20
123.999604
 30
8.243809999999999
 11
224.8039349999999
 21
123.999604
 31
8.243809999999999
  0
LINE
  5
1039
330
18
100
AcDbEntity
  8
0
100
AcDbLine
 10
219.803935
 20
103.999604
 30
8.243809999999999
 11
219.803935
 21
123.2036739999999
 31
8.243809999999999
  0
LINE
  5
103A
330
18
100
AcDbEntity
  8
3
100
AcDbLine
 10
219.3039349999999
 20
104.499604
 30
8.243809999999999
 11
219.3039349999999
 21
123.999604
 31
8.243809999999999
  0
LINE
  5
103B
330
18
100
AcDbEntity
  8
3
100
AcDbLine
 10
219.3039349999999
 20
104.499604
 30
8.243809999999999
 11
219.803935
 21
103.999604
 31
8.243809999999999
  0
LINE
  5
103C
330
18
100
AcDbEntity
  8
3
100
AcDbLine
 10
225.3039349999999
 20
123.999604
 30
8.243809999999999
 11
225.3039349999999
 21
104.499604
 31
8.243809999999999
  0
LINE
  5
103D
330
18
100
AcDbEntity
  8
0
100
AcDbLine
 10
224.8039349999999
 20
103.999604
 30
8.243809999999999
 11
224.8039349999999
 21
123.2036739999999
 31
8.243809999999999
  0
LINE
  5
103E
330
18
100
AcDbEntity
  8
3
100
AcDbLine
 10
225.3039349999999
 20
104.499604
 30
8.243809999999999
 11
224.8039349999999
 21
103.999604
 31
8.243809999999999
  0
ENDSEC
  0
SECTION
  2
OBJECTS
  0
DICTIONARY
  5
C
330
0
100
AcDbDictionary
281
     1
  3
ACAD_GROUP
350
D
  3
ACAD_LAYOUT
350
1068
  3
ACAD_MLINESTYLE
350
1B
  3
ACAD_PLOTSETTINGS
350
1069
  3
ACAD_PLOTSTYLENAME
350
1066
  3
AcDbVariableDictionary
350
1177
  3
AcmDictionary
350
1129
  3
AMG
350
106D
  3
AMGSNAPSETTINGS
350
1167
  3
DWGPROPS
350
112C
  3
MAPISURF_MODULE
350
10FB
  0
DICTIONARY
  5
116E
330
18
100
AcDbDictionary
280
     1
281
     1
  3
ACAD_INDEX
360
116F
  0
DICTIONARY
  5
D
102
{ACAD_REACTORS
330
C
102
}
330
C
100
AcDbDictionary
281
     1
  0
DICTIONARY
  5
1068
102
{ACAD_REACTORS
330
C
102
}
330
C
100
AcDbDictionary
281
     1
  3
Model
350
106A
  3
ﾚｲｱｳﾄ1
350
106B
  0
DICTIONARY
  5
1B
102
{ACAD_REACTORS
330
C
102
}
330
C
100
AcDbDictionary
281
     1
  3
STANDARD
350
1C
  0
DICTIONARY
  5
1069
102
{ACAD_REACTORS
330
C
102
}
330
C
100
AcDbDictionary
281
     1
  0
ACDBDICTIONARYWDFLT
  5
1066
102
{ACAD_REACTORS
330
C
102
}
330
C
100
AcDbDictionary
281
     1
  3
Normal
350
1067
100
AcDbDictionaryWithDefault
340
1067
  0
DICTIONARY
  5
1177
102
{ACAD_REACTORS
330
C
102
}
330
C
100
AcDbDictionary
281
     1
  3
DIMASSOC
350
1179
  3
INDEXCTL
350
1178
  0
DICTIONARY
  5
1129
102
{ACAD_REACTORS
330
C
102
}
330
C
100
AcDbDictionary
281
     1
  3
AcmBOMDATA
350
112A
  3
AcmStdDictionary
350
1138
  0
DICTIONARY
  5
106D
102
{ACAD_REACTORS
330
C
102
}
330
C
100
AcDbDictionary
281
     1
  3
AcMgSettings
350
106E
  3
AMGLAYCFG
350
113A
  0
DICTIONARY
  5
1167
102
{ACAD_REACTORS
330
C
102
}
330
C
100
AcDbDictionary
281
     1
  3
DIMENSION
350
116C
  3
FEA
350
116B
  3
HATCH (1)
350
1168
  3
HATCH (2)
350
1169
  3
SIMPLE WELD
350
116D
  3
SYMBOLS
350
116A
  0
XRECORD
  5
112C
102
{ACAD_REACTORS
330
C
102
}
330
C
100
AcDbXrecord
280
     1
  1
DWGPROPS COOKIE
  2

  3

  4

  6

  7

  8

  9

300
AmdtFileType=84
301
=
302
=
303
=
304
=
305
=
306
=
307
=
308
=
309
=
 40
0.0740480671296297
 41
2452822.416695023
 42
2452822.6283603
  1

 90
        1
  0
DICTIONARY
  5
116F
102
{ACAD_REACTORS
330
116E
102
}
330
116E
100
AcDbDictionary
281
     1
  3
*A1
350
1170
  0
LAYOUT
  5
106A
102
{ACAD_REACTORS
330
1068
102
}
330
1068
100
AcDbPlotSettings
  1

  2
EPSON PM-3700C
  4

  6

 40
0.0
 41
0.0
 42
0.0
 43
0.0
 44
0.0
 45
0.0
 46
0.0
 47
0.0
 48
0.0
 49
0.0
140
0.0
141
0.0
142
1.0
143
1.0
 70
  1712
 72
     0
 73
     0
 74
     0
  7

 75
     0
147
1.0
148
0.0
149
0.0
100
AcDbLayout
  1
Model
 70
     1
 71
     0
 10
0.0
 20
0.0
 11
12.0
 21
9.0
 12
0.0
 22
0.0
 32
0.0
 14
0.0
 24
0.0
 34
0.0
 15
0.0
 25
0.0
 35
0.0
146
0.0
 13
0.0
 23
0.0
 33
0.0
 16
1.0
 26
0.0
 36
0.0
 17
0.0
 27
1.0
 37
0.0
 76
     0
330
18
  0
LAYOUT
  5
106B
102
{ACAD_REACTORS
330
1068
102
}
330
1068
100
AcDbPlotSettings
  1

  2
EPSON PM-3700C
  4

  6

 40
0.0
 41
0.0
 42
0.0
 43
0.0
 44
0.0
 45
0.0
 46
0.0
 47
0.0
 48
0.0
 49
0.0
140
0.0
141
0.0
142
1.0
143
1.0
 70
   688
 72
     0
 73
     0
 74
     5
  7

 75
    16
147
1.0
148
0.0
149
0.0
100
AcDbLayout
  1
ﾚｲｱｳﾄ1
 70
     1
 71
     1
 10
0.0
 20
0.0
 11
420.0
 21
297.0
 12
0.0
 22
0.0
 32
0.0
 14
1.000000000000000E+20
 24
1.000000000000000E+20
 34
1.000000000000000E+20
 15
-1.000000000000000E+20
 25
-1.000000000000000E+20
 35
-1.000000000000000E+20
146
0.0
 13
0.0
 23
0.0
 33
0.0
 16
1.0
 26
0.0
 36
0.0
 17
0.0
 27
1.0
 37
0.0
 76
     0
330
15
  0
MLINESTYLE
  5
1C
102
{ACAD_REACTORS
330
1B
102
}
330
1B
100
AcDbMlineStyle
  2
STANDARD
 70
     0
  3

 62
   256
 51
90.0
 52
90.0
 71
     2
 49
0.5
 62
   256
  6
BYLAYER
 49
-0.5
 62
   256
  6
BYLAYER
  0
ACDBPLACEHOLDER
  5
1067
102
{ACAD_REACTORS
330
1066
102
}
330
1066
  0
DICTIONARYVAR
  5
1179
102
{ACAD_REACTORS
330
1177
102
}
330
1177
100
DictionaryVariables
280
     0
  1
1
  0
DICTIONARYVAR
  5
1178
102
{ACAD_REACTORS
330
1177
102
}
330
1177
100
DictionaryVariables
280
     0
  1
1
  0
ACMDATADICTIONARY
  5
112A
102
{ACAD_REACTORS
330
1129
102
}
330
1129
100
AcDbDictionary
281
     1
  3
*A1
350
112B
100
AcmDataDictionary
  0
DICTIONARY
  5
1138
102
{ACAD_REACTORS
330
1129
102
}
330
1129
100
AcDbDictionary
281
     1
  3
ISO
350
1139
  0
DICTIONARY
  5
106E
102
{ACAD_REACTORS
330
106D
102
}
330
106D
100
AcDbDictionary
281
     1
  3
DWGSETTINGS
350
106F
  3
TRANSSETTINGS
350
1073
  0
ACAMGFILTERDAT
  5
116C
102
{ACAD_REACTORS
330
1167
102
}
330
1167
100
AcAmgFilterDat
 70
    15
  1
DIMENSION,AMDT_*_DIM
  2
*
  3
*
  4
*
  5
*
290
     1
  0
ACAMGFILTERDAT
  5
116B
102
{ACAD_REACTORS
330
1167
102
}
330
1167
100
AcAmgFilterDat
 70
    15
  1
*
  2
AM_FEA-AM_*
  3
*
  4
*
  5
*
290
     1
  0
ACAMGFILTERDAT
  5
1168
102
{ACAD_REACTORS
330
1167
102
}
330
1167
100
AcAmgFilterDat
 70
    15
  1
HATCH
  2
*
  3
*
  4
*
  5
*
290
     1
  0
ACAMGFILTERDAT
  5
1169
102
{ACAD_REACTORS
330
1167
102
}
330
1167
100
AcAmgFilterDat
 70
    15
  1
LINE
  2
8,8N,*-8,*-8N,AM_8,AM_8N,*-AM_8,*-AM_8N
  3
*
  4
*
  5
INSERT,STDPART2D
290
     1
  0
ACAMGFILTERDAT
  5
116D
102
{ACAD_REACTORS
330
1167
102
}
330
1167
100
AcAmgFilterDat
 70
    15
  1
ARC
  2
AM_5
  3
*
  4
2
  5
INSERT
290
     0
  0
ACAMGFILTERDAT
  5
116A
102
{ACAD_REACTORS
330
1167
102
}
330
1167
100
AcAmgFilterDat
 70
    15
  1
ACMFCFRAME,ACMDATUMTARGET,ACMDATUMID,ACMWELDSYM,ACMSURFSYM,ACMFEATID,ACMPARTREF,ACMBALLOON,AMDTEDGESYM,AMGSCREWCALCTABLE
  2
*
  3
*
  4
*
  5
*
290
     1
  0
LAYER_INDEX
  5
1170
102
{ACAD_REACTORS
330
116F
102
}
330
116F
100
AcDbIndex
 40
2454455.638578367
100
AcDbLayerIndex
  8
0
360
1171
 90
        8
  8
1
360
1172
 90
        8
  8
2
360
1173
 90
        0
  8
3
360
1174
 90
      104
  8
DEFPOINTS
360
1175
 90
        0
  0
ACMDATAENTRYBLOCK
  5
112B
102
{ACAD_REACTORS
330
112A
102
}
330
112A
100
AcmDataEntry
100
AcmDataEntryBlock
  0
IDBUFFER
  5
1171
330
0
100
AcDbIdBuffer
330
1009
330
100A
330
100B
330
100C
330
1035
330
1037
330
1039
330
103D
  0
IDBUFFER
  5
1172
330
0
100
AcDbIdBuffer
330
DAC
330
DAE
330
DB0
330
DCC
330
DEA
330
FF2
330
100D
330
1014
  0
IDBUFFER
  5
1173
330
0
100
AcDbIdBuffer
  0
IDBUFFER
  5
1174
330
0
100
AcDbIdBuffer
330
E26
330
E27
330
E28
330
E29
330
E2A
330
E2F
330
E30
330
E31
330
E32
330
E33
330
E34
330
E35
330
E36
330
E37
330
E38
330
E39
330
E3A
330
E3B
330
FED
330
FEF
330
FF1
330
FF4
330
FF5
330
FF6
330
FF7
330
FF8
330
FF9
330
FFA
330
FFD
330
FFE
330
FFF
330
1000
330
1002
330
1003
330
1004
330
1005
330
1006
330
1007
330
1008
330
1011
330
1013
330
1018
330
1019
330
101D
330
101F
330
1020
330
1021
330
1022
330
1023
330
1024
330
1036
330
1038
330
103A
330
103B
330
103C
330
103E
330
DA7
330
DA8
330
DA9
330
DAB
330
DB1
330
DB2
330
DB4
330
DBC
330
DBD
330
DC2
330
DC8
330
DC9
330
DCA
330
DCB
330
DD1
330
DD2
330
DDD
330
DE7
330
DE9
330
DEB
330
DEC
330
DED
330
DEE
330
DEF
330
DF0
330
DF1
330
DF2
330
DF5
330
DF6
330
DFC
330
E04
330
E06
330
E09
330
E0A
330
E12
330
E18
330
E19
330
E1A
330
E1B
330
E1C
330
E1D
330
E1E
330
E1F
330
E20
330
E21
330
E22
330
E24
330
E25
  0
IDBUFFER
  5
1175
330
0
100
AcDbIdBuffer
  0
ENDSEC
  0
EOF
