  0
SECTION
  2
HEADER
  9
$ACADVER
  1
AC1014
  9
$ACADMAINTVER
 70
     0
  9
$DWGCODEPAGE
  3
ANSI_932
  9
$INSBASE
 10
0.0
 20
0.0
 30
0.0
  9
$EXTMIN
 10
163.786314
 20
101.375223
 30
0.0
  9
$EXTMAX
 10
316.665165
 20
224.621928
 30
8.24381
  9
$LIMMIN
 10
0.0
 20
0.0
  9
$LIMMAX
 10
420.0
 20
297.0
  9
$ORTHOMODE
 70
     1
  9
$REGENMODE
 70
     1
  9
$FILLMODE
 70
     1
  9
$QTEXTMODE
 70
     0
  9
$MIRRTEXT
 70
     1
  9
$DRAGMODE
 70
     2
  9
$LTSCALE
 40
1.0
  9
$OSMODE
 70
     0
  9
$ATTMODE
 70
     1
  9
$TEXTSIZE
 40
2.5
  9
$TRACEWID
 40
1.0
  9
$TEXTSTYLE
  7
STANDARD
  9
$CLAYER
  8
3
  9
$CELTYPE
  6
BYLAYER
  9
$CECOLOR
 62
   256
  9
$CELTSCALE
 40
1.0
  9
$DELOBJ
 70
     1
  9
$DISPSILH
 70
     0
  9
$DIMSCALE
 40
1.0
  9
$DIMASZ
 40
2.5
  9
$DIMEXO
 40
0.625
  9
$DIMDLI
 40
3.75
  9
$DIMRND
 40
0.0
  9
$DIMDLE
 40
0.0
  9
$DIMEXE
 40
1.25
  9
$DIMTP
 40
0.0
  9
$DIMTM
 40
0.0
  9
$DIMTXT
 40
2.5
  9
$DIMCEN
 40
2.5
  9
$DIMTSZ
 40
0.0
  9
$DIMTOL
 70
     0
  9
$DIMLIM
 70
     0
  9
$DIMTIH
 70
     0
  9
$DIMTOH
 70
     0
  9
$DIMSE1
 70
     0
  9
$DIMSE2
 70
     0
  9
$DIMTAD
 70
     1
  9
$DIMZIN
 70
     8
  9
$DIMBLK
  1

  9
$DIMASO
 70
     1
  9
$DIMSHO
 70
     1
  9
$DIMPOST
  1

  9
$DIMAPOST
  1

  9
$DIMALT
 70
     0
  9
$DIMALTD
 70
     4
  9
$DIMALTF
 40
0.0394
  9
$DIMLFAC
 40
1.0
  9
$DIMTOFL
 70
     1
  9
$DIMTVP
 40
0.0
  9
$DIMTIX
 70
     0
  9
$DIMSOXD
 70
     0
  9
$DIMSAH
 70
     0
  9
$DIMBLK1
  1

  9
$DIMBLK2
  1

  9
$DIMSTYLE
  2
STANDARD
  9
$DIMCLRD
 70
     0
  9
$DIMCLRE
 70
     0
  9
$DIMCLRT
 70
     0
  9
$DIMTFAC
 40
1.0
  9
$DIMGAP
 40
0.625
  9
$DIMJUST
 70
     0
  9
$DIMSD1
 70
     0
  9
$DIMSD2
 70
     0
  9
$DIMTOLJ
 70
     1
  9
$DIMTZIN
 70
     0
  9
$DIMALTZ
 70
     0
  9
$DIMALTTZ
 70
     0
  9
$DIMFIT
 70
     3
  9
$DIMUPT
 70
     0
  9
$DIMUNIT
 70
     8
  9
$DIMDEC
 70
     4
  9
$DIMTDEC
 70
     4
  9
$DIMALTU
 70
     8
  9
$DIMALTTD
 70
     4
  9
$DIMTXSTY
  7
STANDARD
  9
$DIMAUNIT
 70
     0
  9
$LUNITS
 70
     2
  9
$LUPREC
 70
     4
  9
$SKETCHINC
 40
1.0
  9
$FILLETRAD
 40
1.0
  9
$AUNITS
 70
     0
  9
$AUPREC
 70
     0
  9
$MENU
  1
.
  9
$ELEVATION
 40
0.0
  9
$PELEVATION
 40
0.0
  9
$THICKNESS
 40
0.0
  9
$LIMCHECK
 70
     0
  9
$BLIPMODE
 70
     0
  9
$CHAMFERA
 40
0.5
  9
$CHAMFERB
 40
0.5
  9
$CHAMFERC
 40
20.0
  9
$CHAMFERD
 40
0.0
  9
$SKPOLY
 70
     0
  9
$TDCREATE
 40
2452822.416695023
  9
$TDUPDATE
 40
2452822.626228124
  9
$TDINDWG
 40
0.0672894676
  9
$TDUSRTIMER
 40
0.0672894676
  9
$USRTIMER
 70
     1
  9
$ANGBASE
 50
0.0
  9
$ANGDIR
 70
     0
  9
$PDMODE
 70
     0
  9
$PDSIZE
 40
0.0
  9
$PLINEWID
 40
0.0
  9
$COORDS
 70
     2
  9
$SPLFRAME
 70
     0
  9
$SPLINETYPE
 70
     6
  9
$SPLINESEGS
 70
     8
  9
$ATTDIA
 70
     0
  9
$ATTREQ
 70
     1
  9
$HANDLING
 70
     1
  9
$HANDSEED
  5
102E
  9
$SURFTAB1
 70
     6
  9
$SURFTAB2
 70
     6
  9
$SURFTYPE
 70
     6
  9
$SURFU
 70
     6
  9
$SURFV
 70
     6
  9
$UCSNAME
  2

  9
$UCSORG
 10
0.0
 20
0.0
 30
0.0
  9
$UCSXDIR
 10
1.0
 20
0.0
 30
0.0
  9
$UCSYDIR
 10
0.0
 20
1.0
 30
0.0
  9
$PUCSNAME
  2

  9
$PUCSORG
 10
0.0
 20
0.0
 30
0.0
  9
$PUCSXDIR
 10
1.0
 20
0.0
 30
0.0
  9
$PUCSYDIR
 10
0.0
 20
1.0
 30
0.0
  9
$USERI1
 70
     0
  9
$USERI2
 70
     0
  9
$USERI3
 70
     0
  9
$USERI4
 70
     0
  9
$USERI5
 70
     0
  9
$USERR1
 40
0.0
  9
$USERR2
 40
0.0
  9
$USERR3
 40
0.0
  9
$USERR4
 40
0.0
  9
$USERR5
 40
0.0
  9
$WORLDVIEW
 70
     1
  9
$SHADEDGE
 70
     3
  9
$SHADEDIF
 70
    70
  9
$TILEMODE
 70
     1
  9
$MAXACTVP
 70
    48
  9
$PINSBASE
 10
0.0
 20
0.0
 30
0.0
  9
$PLIMCHECK
 70
     0
  9
$PEXTMIN
 10
1.000000E+20
 20
1.000000E+20
 30
1.000000E+20
  9
$PEXTMAX
 10
-1.000000E+20
 20
-1.000000E+20
 30
-1.000000E+20
  9
$PLIMMIN
 10
0.0
 20
0.0
  9
$PLIMMAX
 10
420.0
 20
297.0
  9
$UNITMODE
 70
     0
  9
$VISRETAIN
 70
     1
  9
$PLINEGEN
 70
     0
  9
$PSLTSCALE
 70
     1
  9
$TREEDEPTH
 70
  3020
  9
$PICKSTYLE
 70
     1
  9
$CMLSTYLE
  2
STANDARD
  9
$CMLJUST
 70
     0
  9
$CMLSCALE
 40
20.0
  9
$PROXYGRAPHICS
 70
     1
  9
$MEASUREMENT
 70
     1
  0
ENDSEC
  0
SECTION
  2
CLASSES
  0
CLASS
  1
XRECORD
  2
AcDbXrecord
  3
"<Built In>"
 90
        0
280
     0
281
     0
  0
CLASS
  1
LWPOLYLINE
  2
AcDbPolyline
  3
"AutoCAD"
 90
        0
280
     0
281
     1
  0
ENDSEC
  0
SECTION
  2
TABLES
  0
TABLE
  2
VPORT
  5
8
100
AcDbSymbolTable
 70
     2
  0
VPORT
  5
102D
100
AcDbSymbolTableRecord
100
AcDbViewportTableRecord
  2
*ACTIVE
 70
     0
 10
0.0
 20
0.0
 11
1.0
 21
1.0
 12
278.587208
 22
202.446532
 13
0.0
 23
0.0
 14
10.0
 24
10.0
 15
10.0
 25
10.0
 16
0.0
 26
0.0
 36
1.0
 17
0.0
 27
0.0
 37
0.0
 40
279.566798
 41
1.454412
 42
50.0
 43
0.0
 44
0.0
 50
0.0
 51
0.0
 71
     0
 72
 20000
 73
     1
 74
     1
 75
     0
 76
     0
 77
     0
 78
     0
  0
ENDTAB
  0
TABLE
  2
LTYPE
  5
5
100
AcDbSymbolTable
 70
     3
  0
LTYPE
  5
12
100
AcDbSymbolTableRecord
100
AcDbLinetypeTableRecord
  2
BYBLOCK
 70
     0
  3

 72
    65
 73
     0
 40
0.0
  0
LTYPE
  5
13
100
AcDbSymbolTableRecord
100
AcDbLinetypeTableRecord
  2
BYLAYER
 70
     0
  3

 72
    65
 73
     0
 40
0.0
  0
LTYPE
  5
14
100
AcDbSymbolTableRecord
100
AcDbLinetypeTableRecord
  2
CONTINUOUS
 70
     0
  3
Solid line
 72
    65
 73
     0
 40
0.0
  0
LTYPE
  5
54
100
AcDbSymbolTableRecord
100
AcDbLinetypeTableRecord
  2
TENSEN
 70
     0
  3

 72
    65
 73
     2
 40
4.0
 49
3.0
 74
     0
 49
-1.0
 74
     0
  0
LTYPE
  5
55
100
AcDbSymbolTableRecord
100
AcDbLinetypeTableRecord
  2
ITTEN1
 70
     0
  3

 72
    65
 73
     4
 40
8.2
 49
5.0
 74
     0
 49
-1.0
 74
     0
 49
1.2
 74
     0
 49
-1.0
 74
     0
  0
ENDTAB
  0
TABLE
  2
LAYER
  5
2
100
AcDbSymbolTable
 70
     5
  0
LAYER
  5
E
100
AcDbSymbolTableRecord
100
AcDbLayerTableRecord
  2
0
 70
     0
 62
     7
  6
CONTINUOUS
  0
LAYER
  5
56
100
AcDbSymbolTableRecord
100
AcDbLayerTableRecord
  2
1
 70
     0
 62
     1
  6
ITTEN1
  0
LAYER
  5
57
100
AcDbSymbolTableRecord
100
AcDbLayerTableRecord
  2
2
 70
     0
 62
     2
  6
TENSEN
  0
LAYER
  5
58
100
AcDbSymbolTableRecord
100
AcDbLayerTableRecord
  2
3
 70
     0
 62
     3
  6
CONTINUOUS
  0
LAYER
  5
59
102
{ACAD_XDICTIONARY
360
5A
102
}
100
AcDbSymbolTableRecord
100
AcDbLayerTableRecord
  2
DEFPOINTS
 70
     0
 62
     7
  6
CONTINUOUS
  0
ENDTAB
  0
TABLE
  2
STYLE
  5
3
100
AcDbSymbolTable
 70
     2
  0
STYLE
  5
F
100
AcDbSymbolTableRecord
100
AcDbTextStyleTableRecord
  2
STANDARD
 70
     0
 40
0.0
 41
1.0
 50
0.0
 71
     0
 42
2.5
  3
txt
  4

  0
STYLE
  5
5C
100
AcDbSymbolTableRecord
100
AcDbTextStyleTableRecord
  2
BIGFONT
 70
     0
 40
7.0
 41
0.7
 50
0.0
 71
     0
 42
7.0
  3
txt.shx
  4
bigfont.shx
  0
ENDTAB
  0
TABLE
  2
VIEW
  5
6
100
AcDbSymbolTable
 70
     0
  0
ENDTAB
  0
TABLE
  2
UCS
  5
7
100
AcDbSymbolTable
 70
     0
  0
ENDTAB
  0
TABLE
  2
APPID
  5
9
100
AcDbSymbolTable
 70
     1
  0
APPID
  5
10
100
AcDbSymbolTableRecord
100
AcDbRegAppTableRecord
  2
ACAD
 70
     0
  0
ENDTAB
  0
TABLE
  2
DIMSTYLE
  5
A
100
AcDbSymbolTable
 70
     1
  0
DIMSTYLE
105
1D
100
AcDbSymbolTableRecord
100
AcDbDimStyleTableRecord
  2
STANDARD
 70
     0
  3

  4

  5

  6

  7

 40
1.0
 41
0.18
 42
0.0625
 43
0.38
 44
0.18
 45
0.0
 46
0.0
 47
0.0
 48
0.0
140
0.18
141
0.09
142
0.0
143
25.4
144
1.0
145
0.0
146
1.0
147
0.09
 71
     0
 72
     0
 73
     1
 74
     1
 75
     0
 76
     0
 77
     0
 78
     0
170
     0
171
     2
172
     0
173
     0
174
     0
175
     0
176
     0
177
     0
178
     0
270
     2
271
     4
272
     4
273
     2
274
     2
340
F
275
     0
280
     0
281
     0
282
     0
283
     1
284
     0
285
     0
286
     0
287
     3
288
     0
  0
ENDTAB
  0
TABLE
  2
BLOCK_RECORD
  5
1
100
AcDbSymbolTable
 70
    71
  0
BLOCK_RECORD
  5
18
100
AcDbSymbolTableRecord
100
AcDbBlockTableRecord
  2
*MODEL_SPACE
  0
BLOCK_RECORD
  5
15
100
AcDbSymbolTableRecord
100
AcDbBlockTableRecord
  2
*PAPER_SPACE
  0
BLOCK_RECORD
  5
20
100
AcDbSymbolTableRecord
100
AcDbBlockTableRecord
  2
*D0
  0
BLOCK_RECORD
  5
2D
100
AcDbSymbolTableRecord
100
AcDbBlockTableRecord
  2
*D1
  0
BLOCK_RECORD
  5
3A
100
AcDbSymbolTableRecord
100
AcDbBlockTableRecord
  2
*D2
  0
BLOCK_RECORD
  5
47
100
AcDbSymbolTableRecord
100
AcDbBlockTableRecord
  2
*D3
  0
BLOCK_RECORD
  5
5D
100
AcDbSymbolTableRecord
100
AcDbBlockTableRecord
  2
A$C4F953287
  0
BLOCK_RECORD
  5
1C5
100
AcDbSymbolTableRecord
100
AcDbBlockTableRecord
  2
*D5
  0
BLOCK_RECORD
  5
1D2
100
AcDbSymbolTableRecord
100
AcDbBlockTableRecord
  2
*D6
  0
BLOCK_RECORD
  5
1DF
100
AcDbSymbolTableRecord
100
AcDbBlockTableRecord
  2
A$C35F207D7
  0
BLOCK_RECORD
  5
2F8
100
AcDbSymbolTableRecord
100
AcDbBlockTableRecord
  2
*D8
  0
BLOCK_RECORD
  5
305
100
AcDbSymbolTableRecord
100
AcDbBlockTableRecord
  2
*D9
  0
BLOCK_RECORD
  5
312
100
AcDbSymbolTableRecord
100
AcDbBlockTableRecord
  2
*D10
  0
BLOCK_RECORD
  5
31F
100
AcDbSymbolTableRecord
100
AcDbBlockTableRecord
  2
A$C1AE72FE9
  0
BLOCK_RECORD
  5
456
100
AcDbSymbolTableRecord
100
AcDbBlockTableRecord
  2
*D12
  0
BLOCK_RECORD
  5
463
100
AcDbSymbolTableRecord
100
AcDbBlockTableRecord
  2
*D13
  0
BLOCK_RECORD
  5
470
100
AcDbSymbolTableRecord
100
AcDbBlockTableRecord
  2
A$C0CFF4D5E
  0
BLOCK_RECORD
  5
58C
100
AcDbSymbolTableRecord
100
AcDbBlockTableRecord
  2
*D15
  0
BLOCK_RECORD
  5
599
100
AcDbSymbolTableRecord
100
AcDbBlockTableRecord
  2
*D16
  0
BLOCK_RECORD
  5
5A6
100
AcDbSymbolTableRecord
100
AcDbBlockTableRecord
  2
*D17
  0
BLOCK_RECORD
  5
5B3
100
AcDbSymbolTableRecord
100
AcDbBlockTableRecord
  2
A$C418C508D
  0
BLOCK_RECORD
  5
6F0
100
AcDbSymbolTableRecord
100
AcDbBlockTableRecord
  2
*D19
  0
BLOCK_RECORD
  5
6FD
100
AcDbSymbolTableRecord
100
AcDbBlockTableRecord
  2
*D20
  0
BLOCK_RECORD
  5
70A
100
AcDbSymbolTableRecord
100
AcDbBlockTableRecord
  2
A$C7E974A43
  0
BLOCK_RECORD
  5
823
100
AcDbSymbolTableRecord
100
AcDbBlockTableRecord
  2
*D22
  0
BLOCK_RECORD
  5
82F
100
AcDbSymbolTableRecord
100
AcDbBlockTableRecord
  2
*D23
  0
BLOCK_RECORD
  5
83B
100
AcDbSymbolTableRecord
100
AcDbBlockTableRecord
  2
A$C71157D8E
  0
BLOCK_RECORD
  5
94A
100
AcDbSymbolTableRecord
100
AcDbBlockTableRecord
  2
*D25
  0
BLOCK_RECORD
  5
956
100
AcDbSymbolTableRecord
100
AcDbBlockTableRecord
  2
*D26
  0
BLOCK_RECORD
  5
962
100
AcDbSymbolTableRecord
100
AcDbBlockTableRecord
  2
*D27
  0
BLOCK_RECORD
  5
96E
100
AcDbSymbolTableRecord
100
AcDbBlockTableRecord
  2
*D28
  0
BLOCK_RECORD
  5
97A
100
AcDbSymbolTableRecord
100
AcDbBlockTableRecord
  2
A$C39FF7109
  0
BLOCK_RECORD
  5
AEC
100
AcDbSymbolTableRecord
100
AcDbBlockTableRecord
  2
*D30
  0
BLOCK_RECORD
  5
AF9
100
AcDbSymbolTableRecord
100
AcDbBlockTableRecord
  2
A$C11050335
  0
BLOCK_RECORD
  5
C20
100
AcDbSymbolTableRecord
100
AcDbBlockTableRecord
  2
*D32
  0
BLOCK_RECORD
  5
C2D
100
AcDbSymbolTableRecord
100
AcDbBlockTableRecord
  2
*D33
  0
BLOCK_RECORD
  5
C3B
100
AcDbSymbolTableRecord
100
AcDbBlockTableRecord
  2
*D34
  0
BLOCK_RECORD
  5
C49
100
AcDbSymbolTableRecord
100
AcDbBlockTableRecord
  2
*D35
  0
BLOCK_RECORD
  5
C52
100
AcDbSymbolTableRecord
100
AcDbBlockTableRecord
  2
*D36
  0
BLOCK_RECORD
  5
C5B
100
AcDbSymbolTableRecord
100
AcDbBlockTableRecord
  2
*D37
  0
BLOCK_RECORD
  5
C67
100
AcDbSymbolTableRecord
100
AcDbBlockTableRecord
  2
*D38
  0
BLOCK_RECORD
  5
C74
100
AcDbSymbolTableRecord
100
AcDbBlockTableRecord
  2
*D39
  0
BLOCK_RECORD
  5
C81
100
AcDbSymbolTableRecord
100
AcDbBlockTableRecord
  2
*D40
  0
BLOCK_RECORD
  5
C8A
100
AcDbSymbolTableRecord
100
AcDbBlockTableRecord
  2
*D41
  0
BLOCK_RECORD
  5
C97
100
AcDbSymbolTableRecord
100
AcDbBlockTableRecord
  2
*D42
  0
BLOCK_RECORD
  5
CA4
100
AcDbSymbolTableRecord
100
AcDbBlockTableRecord
  2
*D43
  0
BLOCK_RECORD
  5
CB1
100
AcDbSymbolTableRecord
100
AcDbBlockTableRecord
  2
*D44
  0
BLOCK_RECORD
  5
CBF
100
AcDbSymbolTableRecord
100
AcDbBlockTableRecord
  2
*D45
  0
BLOCK_RECORD
  5
CCD
100
AcDbSymbolTableRecord
100
AcDbBlockTableRecord
  2
*D46
  0
BLOCK_RECORD
  5
CDA
100
AcDbSymbolTableRecord
100
AcDbBlockTableRecord
  2
*D47
  0
BLOCK_RECORD
  5
CE7
100
AcDbSymbolTableRecord
100
AcDbBlockTableRecord
  2
*D48
  0
BLOCK_RECORD
  5
CF0
100
AcDbSymbolTableRecord
100
AcDbBlockTableRecord
  2
*D49
  0
BLOCK_RECORD
  5
CF9
100
AcDbSymbolTableRecord
100
AcDbBlockTableRecord
  2
*D50
  0
BLOCK_RECORD
  5
D02
100
AcDbSymbolTableRecord
100
AcDbBlockTableRecord
  2
A$C150826DF
  0
ENDTAB
  0
ENDSEC
  0
SECTION
  2
BLOCKS
  0
BLOCK
  5
19
100
AcDbEntity
  8
0
100
AcDbBlockBegin
  2
*MODEL_SPACE
 70
     0
 10
0.0
 20
0.0
 30
0.0
  3
*MODEL_SPACE
  1

  0
ENDBLK
  5
1A
100
AcDbEntity
  8
0
100
AcDbBlockEnd
  0
BLOCK
  5
16
100
AcDbEntity
 67
     1
  8
0
100
AcDbBlockBegin
  2
*PAPER_SPACE
 70
     0
 10
0.0
 20
0.0
 30
0.0
  3
*PAPER_SPACE
  1

  0
ENDBLK
  5
17
100
AcDbEntity
 67
     1
  8
0
100
AcDbBlockEnd
  0
BLOCK
  5
2B
100
AcDbEntity
  8
0
100
AcDbBlockBegin
  2
*D0
 70
     1
 10
0.0
 20
0.0
 30
0.0
  3
*D0
  1

  0
LINE
  5
21
100
AcDbEntity
  8
0
  6
BYBLOCK
 62
     0
100
AcDbLine
 10
168.0
 20
182.003847
 30
0.0
 11
168.0
 21
193.427611
 31
0.0
  0
LINE
  5
22
100
AcDbEntity
  8
0
  6
BYBLOCK
 62
     0
100
AcDbLine
 10
192.0
 20
180.50132
 30
0.0
 11
192.0
 21
193.427611
 31
0.0
  0
LINE
  5
23
100
AcDbEntity
  8
0
  6
BYBLOCK
 62
     0
100
AcDbLine
 10
170.5
 20
192.427611
 30
0.0
 11
177.727496
 21
192.427611
 31
0.0
  0
LINE
  5
24
100
AcDbEntity
  8
0
  6
BYBLOCK
 62
     0
100
AcDbLine
 10
189.5
 20
192.427611
 30
0.0
 11
185.644163
 21
192.427611
 31
0.0
  0
SOLID
  5
25
100
AcDbEntity
  8
0
  6
BYBLOCK
 62
     0
100
AcDbTrace
 10
170.5
 20
192.844277
 30
0.0
 11
170.5
 21
192.010944
 31
0.0
 12
168.0
 22
192.427611
 32
0.0
 13
168.0
 23
192.427611
 33
0.0
  0
SOLID
  5
26
100
AcDbEntity
  8
0
  6
BYBLOCK
 62
     0
100
AcDbTrace
 10
189.5
 20
192.844277
 30
0.0
 11
189.5
 21
192.010944
 31
0.0
 12
192.0
 22
192.427611
 32
0.0
 13
192.0
 23
192.427611
 33
0.0
  0
MTEXT
  5
27
100
AcDbEntity
  8
0
  6
BYBLOCK
 62
     0
100
AcDbMText
 10
181.685829
 20
192.427611
 30
0.0
 40
4.0
 41
0.0
 71
     5
 72
     1
  1
\A1;24
  0
POINT
  5
28
100
AcDbEntity
  8
DEFPOINTS
  6
BYBLOCK
 62
     0
100
AcDbPoint
 10
168.0
 20
181.003847
 30
0.0
  0
POINT
  5
29
100
AcDbEntity
  8
DEFPOINTS
  6
BYBLOCK
 62
     0
100
AcDbPoint
 10
192.0
 20
179.50132
 30
0.0
  0
POINT
  5
2A
100
AcDbEntity
  8
DEFPOINTS
  6
BYBLOCK
 62
     0
100
AcDbPoint
 10
192.0
 20
192.427611
 30
0.0
  0
ENDBLK
  5
2C
100
AcDbEntity
  8
0
100
AcDbBlockEnd
  0
BLOCK
  5
38
100
AcDbEntity
  8
0
100
AcDbBlockBegin
  2
*D1
 70
     1
 10
0.0
 20
0.0
 30
0.0
  3
*D1
  1

  0
LINE
  5
2E
100
AcDbEntity
  8
0
  6
BYBLOCK
 62
     0
100
AcDbLine
 10
182.0
 20
181.50132
 30
0.0
 11
182.0
 21
187.961446
 31
0.0
  0
LINE
  5
2F
100
AcDbEntity
  8
0
  6
BYBLOCK
 62
     0
100
AcDbLine
 10
192.0
 20
180.50132
 30
0.0
 11
192.0
 21
187.961446
 31
0.0
  0
LINE
  5
30
100
AcDbEntity
  8
0
  6
BYBLOCK
 62
     0
100
AcDbLine
 10
184.5
 20
186.961446
 30
0.0
 11
185.125
 21
186.961446
 31
0.0
  0
LINE
  5
31
100
AcDbEntity
  8
0
  6
BYBLOCK
 62
     0
100
AcDbLine
 10
189.5
 20
186.961446
 30
0.0
 11
188.875
 21
186.961446
 31
0.0
  0
SOLID
  5
32
100
AcDbEntity
  8
0
  6
BYBLOCK
 62
     0
100
AcDbTrace
 10
184.5
 20
187.378113
 30
0.0
 11
184.5
 21
186.544779
 31
0.0
 12
182.0
 22
186.961446
 32
0.0
 13
182.0
 23
186.961446
 33
0.0
  0
SOLID
  5
33
100
AcDbEntity
  8
0
  6
BYBLOCK
 62
     0
100
AcDbTrace
 10
189.5
 20
187.378113
 30
0.0
 11
189.5
 21
186.544779
 31
0.0
 12
192.0
 22
186.961446
 32
0.0
 13
192.0
 23
186.961446
 33
0.0
  0
MTEXT
  5
34
100
AcDbEntity
  8
0
  6
BYBLOCK
 62
     0
100
AcDbMText
 10
187.286965
 20
186.961446
 30
0.0
 40
4.0
 41
0.0
 71
     5
 72
     1
  1
\A1;10
  0
POINT
  5
35
100
AcDbEntity
  8
DEFPOINTS
  6
BYBLOCK
 62
     0
100
AcDbPoint
 10
182.0
 20
180.50132
 30
0.0
  0
POINT
  5
36
100
AcDbEntity
  8
DEFPOINTS
  6
BYBLOCK
 62
     0
100
AcDbPoint
 10
192.0
 20
179.50132
 30
0.0
  0
POINT
  5
37
100
AcDbEntity
  8
DEFPOINTS
  6
BYBLOCK
 62
     0
100
AcDbPoint
 10
192.0
 20
186.961446
 30
0.0
  0
ENDBLK
  5
39
100
AcDbEntity
  8
0
100
AcDbBlockEnd
  0
BLOCK
  5
45
100
AcDbEntity
  8
0
100
AcDbBlockBegin
  2
*D2
 70
     1
 10
0.0
 20
0.0
 30
0.0
  3
*D2
  1

  0
LINE
  5
3B
100
AcDbEntity
  8
0
  6
BYBLOCK
 62
     0
100
AcDbLine
 10
193.0
 20
179.50132
 30
0.0
 11
206.708477
 21
179.50132
 31
0.0
  0
LINE
  5
3C
100
AcDbEntity
  8
0
  6
BYBLOCK
 62
     0
100
AcDbLine
 10
193.0
 20
161.50132
 30
0.0
 11
206.708477
 21
161.50132
 31
0.0
  0
LINE
  5
3D
100
AcDbEntity
  8
0
  6
BYBLOCK
 62
     0
100
AcDbLine
 10
205.708477
 20
177.00132
 30
0.0
 11
205.708477
 21
175.730386
 31
0.0
  0
LINE
  5
3E
100
AcDbEntity
  8
0
  6
BYBLOCK
 62
     0
100
AcDbLine
 10
205.708477
 20
164.00132
 30
0.0
 11
205.708477
 21
165.147053
 31
0.0
  0
SOLID
  5
3F
100
AcDbEntity
  8
0
  6
BYBLOCK
 62
     0
100
AcDbTrace
 10
205.29181
 20
177.00132
 30
0.0
 11
206.125143
 21
177.00132
 31
0.0
 12
205.708477
 22
179.50132
 32
0.0
 13
205.708477
 23
179.50132
 33
0.0
  0
SOLID
  5
40
100
AcDbEntity
  8
0
  6
BYBLOCK
 62
     0
100
AcDbTrace
 10
205.29181
 20
164.00132
 30
0.0
 11
206.125143
 21
164.00132
 31
0.0
 12
205.708477
 22
161.50132
 32
0.0
 13
205.708477
 23
161.50132
 33
0.0
  0
MTEXT
  5
41
100
AcDbEntity
  8
0
  6
BYBLOCK
 62
     0
100
AcDbMText
 10
205.708477
 20
170.43872
 30
0.0
 40
4.0
 41
0.0
 71
     5
 72
     1
  1
\A1;\U+220518
 11
0.0
 21
1.0
 31
0.0
  0
POINT
  5
42
100
AcDbEntity
  8
DEFPOINTS
  6
BYBLOCK
 62
     0
100
AcDbPoint
 10
192.0
 20
179.50132
 30
0.0
  0
POINT
  5
43
100
AcDbEntity
  8
DEFPOINTS
  6
BYBLOCK
 62
     0
100
AcDbPoint
 10
192.0
 20
161.50132
 30
0.0
  0
POINT
  5
44
100
AcDbEntity
  8
DEFPOINTS
  6
BYBLOCK
 62
     0
100
AcDbPoint
 10
205.708477
 20
161.50132
 30
0.0
  0
ENDBLK
  5
46
100
AcDbEntity
  8
0
100
AcDbBlockEnd
  0
BLOCK
  5
52
100
AcDbEntity
  8
0
100
AcDbBlockBegin
  2
*D3
 70
     1
 10
0.0
 20
0.0
 30
0.0
  3
*D3
  1

  0
LINE
  5
48
100
AcDbEntity
  8
0
  6
BYBLOCK
 62
     0
100
AcDbLine
 10
155.440099
 20
204.195789
 30
0.0
 11
155.440099
 21
251.023023
 31
0.0
  0
LINE
  5
49
100
AcDbEntity
  8
0
  6
BYBLOCK
 62
     0
100
AcDbLine
 10
192.0
 20
180.50132
 30
0.0
 11
192.0
 21
251.023023
 31
0.0
  0
LINE
  5
4A
100
AcDbEntity
  8
0
  6
BYBLOCK
 62
     0
100
AcDbLine
 10
157.940099
 20
250.023023
 30
0.0
 11
170.752088
 21
250.023023
 31
0.0
  0
LINE
  5
4B
100
AcDbEntity
  8
0
  6
BYBLOCK
 62
     0
100
AcDbLine
 10
189.5
 20
250.023023
 30
0.0
 11
178.668755
 21
250.023023
 31
0.0
  0
SOLID
  5
4C
100
AcDbEntity
  8
0
  6
BYBLOCK
 62
     0
100
AcDbTrace
 10
157.940099
 20
250.43969
 30
0.0
 11
157.940099
 21
249.606356
 31
0.0
 12
155.440099
 22
250.023023
 32
0.0
 13
155.440099
 23
250.023023
 33
0.0
  0
SOLID
  5
4D
100
AcDbEntity
  8
0
  6
BYBLOCK
 62
     0
100
AcDbTrace
 10
189.5
 20
250.43969
 30
0.0
 11
189.5
 21
249.606356
 31
0.0
 12
192.0
 22
250.023023
 32
0.0
 13
192.0
 23
250.023023
 33
0.0
  0
MTEXT
  5
4E
100
AcDbEntity
  8
0
  6
BYBLOCK
 62
     0
100
AcDbMText
 10
174.710421
 20
250.023023
 30
0.0
 40
4.0
 41
0.0
 71
     5
 72
     1
  1
\A1;36
  0
POINT
  5
4F
100
AcDbEntity
  8
DEFPOINTS
  6
BYBLOCK
 62
     0
100
AcDbPoint
 10
155.440099
 20
203.195789
 30
0.0
  0
POINT
  5
50
100
AcDbEntity
  8
DEFPOINTS
  6
BYBLOCK
 62
     0
100
AcDbPoint
 10
192.0
 20
179.50132
 30
0.0
  0
POINT
  5
51
100
AcDbEntity
  8
DEFPOINTS
  6
BYBLOCK
 62
     0
100
AcDbPoint
 10
192.0
 20
250.023023
 30
0.0
  0
ENDBLK
  5
53
100
AcDbEntity
  8
0
100
AcDbBlockEnd
  0
BLOCK
  5
D8
100
AcDbEntity
  8
0
100
AcDbBlockBegin
  2
A$C4F953287
 70
     0
 10
0.0
 20
0.0
 30
0.0
  3
A$C4F953287
  1

  0
DIMENSION
  5
5E
100
AcDbEntity
  8
0
100
AcDbDimension
  2
*D3
 10
162.987185
 20
123.349936
 30
9.567247
 11
145.697606
 21
123.349936
 31
9.567247
 12
-29.012815
 22
-126.673087
 32
9.567247
 70
   128
  1
36
  3
STANDARD
100
AcDbAlignedDimension
 13
126.427283
 23
76.522702
 33
9.567247
 14
162.987185
 24
52.828234
 34
9.567247
100
AcDbRotatedDimension
1001
ACAD
1000
DSTYLE
1002
{
1070
   140
1040
4.0
1070
   272
1070
     1
1070
    77
1070
     0
1070
    40
1040
1.0
1070
   271
1070
     1
1070
   141
1040
0.0
1002
}
  0
DIMENSION
  5
5F
100
AcDbEntity
  8
0
100
AcDbDimension
  2
*D0
 10
162.987185
 20
65.754524
 30
9.567247
 11
152.673014
 21
65.754524
 31
9.567247
 12
-29.012815
 22
-126.673087
 32
9.567247
 70
   128
  3
STANDARD
100
AcDbAlignedDimension
 13
138.987185
 23
54.330761
 33
9.567247
 14
162.987185
 24
52.828234
 34
9.567247
100
AcDbRotatedDimension
1001
ACAD
1000
DSTYLE
1002
{
1070
   140
1040
4.0
1070
   272
1070
     1
1070
    77
1070
     0
1070
    40
1040
1.0
1070
   271
1070
     1
1070
   141
1040
0.0
1002
}
  0
ARC
  5
60
100
AcDbEntity
  8
3
100
AcDbCircle
 10
143.708676
 20
47.988674
 30
9.567247
 40
7.906614
100
AcDbArc
 50
84.380049
 51
126.666563
  0
ARC
  5
61
100
AcDbEntity
  8
3
100
AcDbCircle
 10
143.708676
 20
39.665153
 30
9.567247
 40
7.906614
100
AcDbArc
 50
233.333437
 51
275.619951
  0
LINE
  5
62
100
AcDbEntity
  8
3
100
AcDbLine
 10
136.776985
 20
27.482958
 30
9.567247
 11
145.967054
 21
31.909765
 31
9.567247
  0
LINE
  5
63
100
AcDbEntity
  8
3
100
AcDbLine
 10
152.392022
 20
53.826913
 30
9.567247
 11
138.987185
 21
68.714493
 31
9.567247
  0
LINE
  5
64
100
AcDbEntity
  8
1
100
AcDbLine
 10
144.482966
 20
54.803088
 30
9.567247
 11
133.487185
 21
67.826913
 31
9.567247
  0
ARC
  5
65
100
AcDbEntity
  8
2
100
AcDbCircle
 10
144.487185
 20
41.306539
 30
9.567247
 40
3.709157
100
AcDbArc
 50
90.065167
 51
118.151547
  0
ARC
  5
66
100
AcDbEntity
  8
2
100
AcDbCircle
 10
144.487185
 20
37.193966
 30
9.567247
 40
4.30263
100
AcDbArc
 50
253.11091
 51
269.943822
  0
LINE
  5
67
100
AcDbEntity
  8
1
100
AcDbLine
 10
122.697986
 20
43.826913
 30
9.567247
 11
169.197986
 21
43.826913
 31
9.567247
  0
LINE
  5
68
100
AcDbEntity
  8
3
100
AcDbLine
 10
138.987185
 20
54.330761
 30
9.567247
 11
138.987185
 21
33.323066
 31
9.567247
  0
LINE
  5
69
100
AcDbEntity
  8
3
100
AcDbLine
 10
126.504416
 20
77.808915
 30
9.567247
 11
126.504416
 21
9.844912
 31
9.567247
  0
LINE
  5
6A
100
AcDbEntity
  8
3
100
AcDbLine
 10
127.491013
 20
64.076913
 30
9.567247
 11
127.491013
 21
10.609192
 31
9.567247
  0
ARC
  5
6B
100
AcDbEntity
  8
3
100
AcDbCircle
 10
144.254628
 20
31.850074
 30
9.567247
 40
14.339743
100
AcDbArc
 50
170.476761
 51
192.170638
  0
ARC
  5
6C
100
AcDbEntity
  8
2
100
AcDbCircle
 10
145.212185
 20
37.785247
 30
9.567247
 40
5.105784
100
AcDbArc
 50
208.782115
 51
247.24346
  0
LINE
  5
6D
100
AcDbEntity
  8
1
100
AcDbLine
 10
44.487185
 20
43.826913
 30
9.567247
 11
81.76287
 21
22.305786
 31
9.567247
  0
LINE
  5
6E
100
AcDbEntity
  8
1
100
AcDbLine
 10
44.487185
 20
43.826913
 30
9.567247
 11
6.677003
 21
21.997194
 31
9.567247
  0
ARC
  5
6F
100
AcDbEntity
  8
3
100
AcDbCircle
 10
58.762055
 20
35.585313
 30
9.567247
 40
10.384921
100
AcDbArc
 50
296.547903
 51
3.452097
  0
ARC
  5
70
100
AcDbEntity
  8
3
100
AcDbCircle
 10
49.911406
 20
33.297795
 30
9.567247
 40
0.631456
100
AcDbArc
 50
163.090958
 51
220.066877
  0
ARC
  5
71
100
AcDbEntity
  8
3
100
AcDbCircle
 10
41.842341
 20
45.353914
 30
9.567247
 40
14.024269
100
AcDbArc
 50
302.159972
 51
357.840028
  0
ARC
  5
72
100
AcDbEntity
  8
3
100
AcDbCircle
 10
30.212315
 20
35.585313
 30
9.567247
 40
10.384921
100
AcDbArc
 50
176.547903
 51
243.452097
  0
ARC
  5
73
100
AcDbEntity
  8
3
100
AcDbCircle
 10
39.062964
 20
33.297795
 30
9.567247
 40
0.631456
100
AcDbArc
 50
319.933123
 51
16.909042
  0
ARC
  5
74
100
AcDbEntity
  8
3
100
AcDbCircle
 10
47.132028
 20
45.353914
 30
9.567247
 40
14.024269
100
AcDbArc
 50
182.159972
 51
237.840028
  0
LINE
  5
75
100
AcDbEntity
  8
1
100
AcDbLine
 10
133.487185
 20
22.623982
 30
9.567247
 11
133.487185
 21
43.826913
 31
9.567247
  0
ARC
  5
76
100
AcDbEntity
  8
3
100
AcDbCircle
 10
44.487185
 20
43.826913
 30
9.567247
 40
33.5
100
AcDbArc
 50
110.990243
 51
69.009757
  0
CIRCLE
  5
77
100
AcDbEntity
  8
3
100
AcDbCircle
 10
44.487185
 20
43.826913
 30
9.567247
 40
40.0
  0
LINE
  5
78
100
AcDbEntity
  8
1
100
AcDbLine
 10
44.487185
 20
1.326913
 30
9.567247
 11
44.487185
 21
85.826913
 31
9.567247
  0
LINE
  5
79
100
AcDbEntity
  8
1
100
AcDbLine
 10
133.487185
 20
16.547572
 30
9.567247
 11
133.487185
 21
22.623982
 31
9.567247
  0
ARC
  5
7A
100
AcDbEntity
  8
3
100
AcDbCircle
 10
44.487185
 20
43.826913
 30
9.567247
 40
24.0
100
AcDbArc
 50
225.713861
 51
314.286139
  0
LINE
  5
7B
100
AcDbEntity
  8
3
100
AcDbLine
 10
39.546213
 20
32.891338
 30
9.567247
 11
27.729374
 21
26.646233
 31
9.567247
  0
ARC
  5
7C
100
AcDbEntity
  8
3
100
AcDbCircle
 10
26.062331
 20
30.086783
 30
9.567247
 40
3.823142
100
AcDbArc
 50
262.61345
 51
295.851488
  0
LINE
  5
7D
100
AcDbEntity
  8
3
100
AcDbLine
 10
139.985256
 20
10.168589
 30
9.567247
 11
139.986337
 21
29.028886
 31
9.567247
  0
ARC
  5
7E
100
AcDbEntity
  8
3
100
AcDbCircle
 10
62.912039
 20
30.086783
 30
9.567247
 40
3.823142
100
AcDbArc
 50
244.148512
 51
277.38655
  0
ARC
  5
7F
100
AcDbEntity
  8
3
100
AcDbCircle
 10
44.487185
 20
43.826913
 30
9.567247
 40
12.0
100
AcDbArc
 50
245.685335
 51
294.314665
  0
LINE
  5
80
100
AcDbEntity
  8
3
100
AcDbLine
 10
49.428156
 20
32.891338
 30
9.567247
 11
61.244996
 21
26.646233
 31
9.567247
  0
ARC
  5
81
100
AcDbEntity
  8
3
100
AcDbCircle
 10
145.104319
 20
16.697645
 30
9.567247
 40
8.17137
100
AcDbArc
 50
174.77187
 51
229.586839
  0
ARC
  5
82
100
AcDbEntity
  8
3
100
AcDbCircle
 10
139.482715
 20
10.095356
 30
9.567247
 40
0.5
100
AcDbArc
 50
357.78824
 51
49.586839
  0
LINE
  5
83
100
AcDbEntity
  8
3
100
AcDbLine
 10
136.987185
 20
17.63755
 30
9.567247
 11
136.987185
 21
27.603516
 31
9.567247
  0
ARC
  5
84
100
AcDbEntity
  8
3
100
AcDbCircle
 10
133.810793
 20
32.259593
 30
9.567247
 40
5.622681
100
AcDbArc
 50
266.700571
 51
301.839426
  0
ARC
  5
85
100
AcDbEntity
  8
3
100
AcDbCircle
 10
133.487185
 20
29.826913
 30
9.567247
 40
3.400368
100
AcDbArc
 50
197.102729
 51
233.972627
  0
ARC
  5
86
100
AcDbEntity
  8
3
100
AcDbCircle
 10
133.088717
 20
29.654977
 30
9.567247
 40
3.035015
100
AcDbArc
 50
238.150829
 51
277.544164
  0
LINE
  5
87
100
AcDbEntity
  8
3
100
AcDbLine
 10
127.342255
 20
10.420902
 30
9.567247
 11
126.948509
 21
10.377622
 31
9.567247
  0
ARC
  5
88
100
AcDbEntity
  8
3
100
AcDbCircle
 10
133.237185
 20
10.326913
 30
9.567247
 40
6.75
100
AcDbArc
 50
184.094842
 51
1.363125
  0
ARC
  5
89
100
AcDbEntity
  8
3
100
AcDbCircle
 10
127.00314
 20
9.880615
 30
9.567247
 40
0.5
100
AcDbArc
 50
96.272761
 51
184.094842
  0
LINE
  5
8A
100
AcDbEntity
  8
1
100
AcDbLine
 10
133.237185
 20
10.326913
 30
9.567247
 11
133.237185
 21
0.0
 31
9.567247
  0
ARC
  5
8B
100
AcDbEntity
  8
3
100
AcDbCircle
 10
139.487185
 20
10.306111
 30
9.567247
 40
12.0
100
AcDbArc
 50
134.872625
 51
178.55274
  0
ARC
  5
8C
100
AcDbEntity
  8
3
100
AcDbCircle
 10
127.291077
 20
10.614243
 30
9.567247
 40
0.2
100
AcDbArc
 50
284.82648
 51
358.55274
  0
ARC
  5
8D
100
AcDbEntity
  8
3
100
AcDbCircle
 10
127.487185
 20
10.306111
 30
9.567247
 40
12.0
100
AcDbArc
 50
38.64507
 51
45.127375
  0
ARC
  5
8E
100
AcDbEntity
  8
3
100
AcDbCircle
 10
133.487185
 20
16.326913
 30
9.567247
 40
3.5
100
AcDbArc
 50
45.002386
 51
90.0
  0
ARC
  5
8F
100
AcDbEntity
  8
3
100
AcDbCircle
 10
133.487185
 20
16.326913
 30
9.567247
 40
3.5
100
AcDbArc
 50
90.0
 51
134.997614
  0
ARC
  5
90
100
AcDbEntity
  8
3
100
AcDbCircle
 10
136.469024
 20
17.487794
 30
9.567247
 40
0.5
100
AcDbArc
 50
354.77187
 51
38.64507
  0
LINE
  5
91
100
AcDbEntity
  8
1
100
AcDbLine
 10
54.146398
 20
72.326913
 30
9.567247
 11
34.737185
 21
72.326913
 31
9.567247
  0
CIRCLE
  5
92
100
AcDbEntity
  8
3
100
AcDbCircle
 10
44.487185
 20
43.826913
 30
9.567247
 40
10.393661
  0
ARC
  5
93
100
AcDbEntity
  8
3
100
AcDbCircle
 10
33.15697
 20
72.087905
 30
9.567247
 40
3.089474
100
AcDbArc
 50
4.436955
 51
102.520913
  0
ARC
  5
94
100
AcDbEntity
  8
3
100
AcDbCircle
 10
44.487185
 20
43.826913
 30
9.567247
 40
12.0
100
AcDbArc
 50
125.685335
 51
174.314665
  0
ARC
  5
95
100
AcDbEntity
  8
3
100
AcDbCircle
 10
44.487185
 20
43.826913
 30
9.567247
 40
24.0
100
AcDbArc
 50
105.713861
 51
194.286139
  0
LINE
  5
96
100
AcDbEntity
  8
1
100
AcDbLine
 10
89.697986
 20
43.826913
 30
9.567247
 11
-0.512815
 21
43.826913
 31
9.567247
  0
ARC
  5
97
100
AcDbEntity
  8
3
100
AcDbCircle
 10
23.375456
 20
34.740587
 30
9.567247
 40
3.823142
100
AcDbArc
 50
124.148512
 51
157.38655
  0
LINE
  5
98
100
AcDbEntity
  8
3
100
AcDbLine
 10
32.546213
 20
45.015694
 30
9.567247
 11
21.229374
 21
37.904563
 31
9.567247
  0
ARC
  5
99
100
AcDbEntity
  8
3
100
AcDbCircle
 10
32.65659
 20
44.393959
 30
9.567247
 40
0.631456
100
AcDbArc
 50
43.090958
 51
100.066877
  0
ARC
  5
9A
100
AcDbEntity
  8
3
100
AcDbCircle
 10
44.487185
 20
72.326913
 30
9.567247
 40
8.25
100
AcDbArc
 50
180.0
 51
0.0
  0
ARC
  5
9B
100
AcDbEntity
  8
3
100
AcDbCircle
 10
44.487185
 20
43.826913
 30
9.567247
 40
24.0
100
AcDbArc
 50
345.713861
 51
74.286139
  0
LINE
  5
9C
100
AcDbEntity
  8
3
100
AcDbLine
 10
56.428156
 20
45.015694
 30
9.567247
 11
67.744996
 21
37.904563
 31
9.567247
  0
ARC
  5
9D
100
AcDbEntity
  8
3
100
AcDbCircle
 10
44.487185
 20
43.826913
 30
9.567247
 40
12.0
100
AcDbArc
 50
5.685335
 51
54.314665
  0
ARC
  5
9E
100
AcDbEntity
  8
3
100
AcDbCircle
 10
56.317779
 20
44.393959
 30
9.567247
 40
0.631456
100
AcDbArc
 50
79.933123
 51
136.909042
  0
ARC
  5
9F
100
AcDbEntity
  8
3
100
AcDbCircle
 10
44.487185
 20
40.772911
 30
9.567247
 40
14.024269
100
AcDbArc
 50
62.159972
 51
117.840028
  0
LINE
  5
A0
100
AcDbEntity
  8
3
100
AcDbLine
 10
37.487185
 20
53.573708
 30
9.567247
 11
37.987185
 21
66.929943
 31
9.567247
  0
ARC
  5
A1
100
AcDbEntity
  8
3
100
AcDbCircle
 10
38.080811
 20
53.788986
 30
9.567247
 40
0.631456
100
AcDbArc
 50
199.933123
 51
256.909042
  0
ARC
  5
A2
100
AcDbEntity
  8
3
100
AcDbCircle
 10
41.80031
 20
66.65337
 30
9.567247
 40
3.823142
100
AcDbArc
 50
171.663378
 51
175.851488
  0
LINE
  5
A3
100
AcDbEntity
  8
3
100
AcDbLine
 10
51.487185
 20
53.573708
 30
9.567247
 11
50.987185
 21
66.929943
 31
9.567247
  0
ARC
  5
A4
100
AcDbEntity
  8
3
100
AcDbCircle
 10
50.893558
 20
53.788986
 30
9.567247
 40
0.631456
100
AcDbArc
 50
283.090958
 51
340.066877
  0
ARC
  5
A5
100
AcDbEntity
  8
3
100
AcDbCircle
 10
47.17406
 20
66.65337
 30
9.567247
 40
3.823142
100
AcDbArc
 50
4.148512
 51
8.336622
  0
ARC
  5
A6
100
AcDbEntity
  8
3
100
AcDbCircle
 10
65.598914
 20
34.740587
 30
9.567247
 40
3.823142
100
AcDbArc
 50
22.61345
 51
55.851488
  0
ARC
  5
A7
100
AcDbEntity
  8
3
100
AcDbCircle
 10
55.817399
 20
72.087905
 30
9.567247
 40
3.089474
100
AcDbArc
 50
77.479087
 51
175.563045
  0
LINE
  5
A8
100
AcDbEntity
  8
3
100
AcDbLine
 10
138.987185
 20
76.373926
 30
9.567247
 11
138.987185
 21
68.714493
 31
9.567247
  0
LWPOLYLINE
  5
A9
100
AcDbEntity
  8
0
100
AcDbPolyline
 90
        3
 70
     1
 43
0.0
 38
9.567247
 10
138.639304
 20
50.950766
 10
136.014304
 20
52.466311
 10
136.014304
 20
49.435222
  0
LINE
  5
AA
100
AcDbEntity
  8
3
100
AcDbLine
 10
136.987185
 20
40.785347
 30
9.567247
 11
136.987185
 21
58.59579
 31
9.567247
  0
LINE
  5
AB
100
AcDbEntity
  8
2
100
AcDbLine
 10
138.987185
 20
42.087844
 30
9.567247
 11
142.737185
 21
44.576913
 31
9.567247
  0
ARC
  5
AC
100
AcDbEntity
  8
2
100
AcDbCircle
 10
146.799685
 20
39.256601
 30
9.567247
 40
6.694
100
AcDbArc
 50
127.364737
 51
168.624497
  0
LINE
  5
AD
100
AcDbEntity
  8
3
100
AcDbLine
 10
131.97285
 20
37.519767
 30
9.567247
 11
138.987185
 21
42.087844
 31
9.567247
  0
ARC
  5
AE
100
AcDbEntity
  8
3
100
AcDbCircle
 10
133.487185
 20
35.076913
 30
9.567247
 40
2.850439
100
AcDbArc
 50
122.749199
 51
142.125016
  0
ARC
  5
AF
100
AcDbEntity
  8
3
100
AcDbCircle
 10
135.996931
 20
33.323664
 30
9.567247
 40
5.952683
100
AcDbArc
 50
157.757554
 51
171.314821
  0
ARC
  5
B0
100
AcDbEntity
  8
3
100
AcDbCircle
 10
135.862185
 20
33.201913
 30
9.567247
 40
5.87633
100
AcDbArc
 50
141.911227
 51
156.16126
  0
ARC
  5
B1
100
AcDbEntity
  8
2
100
AcDbCircle
 10
148.007247
 20
38.66811
 30
9.567247
 40
8.001087
100
AcDbArc
 50
166.19796
 51
204.682704
  0
LWPOLYLINE
  5
B2
100
AcDbEntity
  8
0
100
AcDbPolyline
 90
        3
 70
     1
 43
0.0
 38
9.567247
 10
138.639304
 20
47.919677
 10
136.014304
 20
49.435222
 10
136.014304
 20
46.404133
  0
LINE
  5
B3
100
AcDbEntity
  8
3
100
AcDbLine
 10
126.989113
 20
64.076913
 30
9.567247
 11
132.627303
 21
64.076913
 31
9.567247
  0
LINE
  5
B4
100
AcDbEntity
  8
3
100
AcDbLine
 10
126.989113
 20
64.076913
 30
9.567247
 11
126.504416
 21
64.076913
 31
9.567247
  0
LINE
  5
B5
100
AcDbEntity
  8
3
100
AcDbLine
 10
139.909074
 20
54.922473
 30
9.567247
 11
132.627303
 21
64.076913
 31
9.567247
  0
ARC
  5
B6
100
AcDbEntity
  8
3
100
AcDbCircle
 10
145.104319
 20
70.956181
 30
9.567247
 40
8.17137
100
AcDbArc
 50
128.772319
 51
138.469744
  0
LINE
  5
B7
100
AcDbEntity
  8
3
100
AcDbLine
 10
139.985256
 20
77.485237
 30
9.567247
 11
139.985822
 21
67.605394
 31
9.567247
  0
ARC
  5
B8
100
AcDbEntity
  8
3
100
AcDbCircle
 10
133.237185
 20
77.326913
 30
9.567247
 40
6.75
100
AcDbArc
 50
358.636875
 51
175.905158
  0
LINE
  5
B9
100
AcDbEntity
  8
1
100
AcDbLine
 10
123.487185
 20
72.326913
 30
9.567247
 11
142.987185
 21
72.326913
 31
9.567247
  0
ARC
  5
BA
100
AcDbEntity
  8
3
100
AcDbCircle
 10
143.368642
 20
52.556814
 30
9.567247
 40
20.790156
100
AcDbArc
 50
273.072448
 51
295.723062
  0
ARC
  5
BB
100
AcDbEntity
  8
2
100
AcDbCircle
 10
144.785256
 20
46.459404
 30
9.567247
 40
13.571433
100
AcDbArc
 50
268.723688
 51
299.182099
  0
LINE
  5
BC
100
AcDbEntity
  8
1
100
AcDbLine
 10
144.482966
 20
28.826913
 30
9.567247
 11
144.482966
 21
59.552334
 31
9.567247
  0
TEXT
  5
BD
100
AcDbEntity
  8
0
100
AcDbText
 10
152.865003
 20
69.588905
 30
9.567247
 40
3.43
  1
%%P0.1
 41
0.7
  7
BIGFONT
100
AcDbText
  0
TEXT
  5
BE
100
AcDbEntity
  8
0
100
AcDbText
 10
173.757534
 20
45.81439
 30
9.567247
 40
3.43
  1
-0.1
 50
90.0
 41
0.7
  7
BIGFONT
100
AcDbText
  0
LWPOLYLINE
  5
BF
100
AcDbEntity
  8
0
100
AcDbPolyline
 90
        3
 70
     1
 43
0.0
 38
9.567247
 10
169.941558
 20
52.973151
 10
171.457102
 20
55.598151
 10
168.426013
 20
55.598151
  0
MTEXT
  5
C0
102
{ACAD_REACTORS
330
C1
102
}
100
AcDbEntity
  8
0
100
AcDbMText
 10
177.112185
 20
67.326913
 30
9.567247
 40
4.0
 41
0.0
 71
     4
 72
     1
  1
\A1;R1
  0
LEADER
  5
C1
100
AcDbEntity
  8
0
100
AcDbLeader
  3
STANDARD
 73
     0
 40
4.0
 41
5.333333
 76
     3
 10
162.987185
 20
52.826913
 30
9.567247
 10
175.487185
 20
67.326913
 30
9.567247
 10
177.022185
 20
67.326913
 30
9.567247
 77
   256
340
C0
1001
ACAD
1000
DSTYLE
1002
{
1070
   140
1040
4.0
1070
   272
1070
     1
1070
    77
1070
     0
1070
    40
1040
1.0
1070
   271
1070
     1
1070
   141
1040
0.0
1002
}
  0
DIMENSION
  5
C2
100
AcDbEntity
  8
0
100
AcDbDimension
  2
*D2
 10
176.695661
 20
34.828234
 30
9.567247
 11
176.695661
 21
43.765633
 31
9.567247
 12
-29.012815
 22
-126.673087
 32
9.567247
 70
   128
  1
%%C18
  3
STANDARD
100
AcDbAlignedDimension
 13
162.987185
 23
52.828234
 33
9.567247
 14
162.987185
 24
34.828234
 34
9.567247
 50
90.0
100
AcDbRotatedDimension
1001
ACAD
1000
DSTYLE
1002
{
1070
   140
1040
4.0
1070
   272
1070
     1
1070
    77
1070
     0
1070
    40
1040
1.0
1070
   271
1070
     1
1070
   141
1040
0.0
1002
}
  0
LINE
  5
C3
100
AcDbEntity
  8
3
100
AcDbLine
 10
162.987185
 20
52.828234
 30
9.567247
 11
162.987185
 21
43.828234
 31
9.567247
  0
LINE
  5
C4
100
AcDbEntity
  8
3
100
AcDbLine
 10
162.987185
 20
34.828234
 30
9.567247
 11
152.987185
 21
34.828234
 31
9.567247
  0
ARC
  5
C5
100
AcDbEntity
  8
2
100
AcDbCircle
 10
149.835521
 20
41.519765
 30
9.567247
 40
2.32966
100
AcDbArc
 50
10.343914
 51
51.302641
  0
LINE
  5
C6
100
AcDbEntity
  8
2
100
AcDbLine
 10
152.080557
 20
35.917354
 30
9.567247
 11
152.392022
 21
38.826913
 31
9.567247
  0
LINE
  5
C7
100
AcDbEntity
  8
3
100
AcDbLine
 10
152.987185
 20
34.828234
 30
9.567247
 11
152.987185
 21
33.828234
 31
9.567247
  0
ARC
  5
C8
100
AcDbEntity
  8
2
100
AcDbCircle
 10
150.098326
 20
36.066525
 30
9.567247
 40
1.954689
100
AcDbArc
 50
311.851917
 51
348.01604
  0
LINE
  5
C9
100
AcDbEntity
  8
2
100
AcDbLine
 10
152.080557
 20
35.917354
 30
9.567247
 11
152.010414
 21
35.660658
 31
9.567247
  0
LINE
  5
CA
100
AcDbEntity
  8
3
100
AcDbLine
 10
152.987185
 20
33.826913
 30
9.567247
 11
152.392022
 21
33.826913
 31
9.567247
  0
LINE
  5
CB
100
AcDbEntity
  8
2
100
AcDbLine
 10
152.392022
 20
38.826913
 30
9.567247
 11
152.127318
 21
41.93807
 31
9.567247
  0
ARC
  5
CC
100
AcDbEntity
  8
2
100
AcDbCircle
 10
144.471375
 20
30.312414
 30
9.567247
 40
14.703285
100
AcDbArc
 50
62.361775
 51
89.954831
  0
LINE
  5
CD
100
AcDbEntity
  8
3
100
AcDbLine
 10
162.987185
 20
43.828234
 30
9.567247
 11
162.987185
 21
34.828234
 31
9.567247
  0
TEXT
  5
CE
100
AcDbEntity
  8
0
100
AcDbText
 10
169.641534
 20
45.81439
 30
9.567247
 40
3.43
  1
0
 50
90.0
 41
0.7
  7
BIGFONT
100
AcDbText
  0
DIMENSION
  5
CF
100
AcDbEntity
  8
0
100
AcDbDimension
  2
*D1
 10
162.987185
 20
60.288359
 30
9.567247
 11
158.27415
 21
60.288359
 31
9.567247
 12
-29.012815
 22
-126.673087
 32
9.567247
 70
   128
  3
STANDARD
100
AcDbAlignedDimension
 13
152.987185
 23
53.828234
 33
9.567247
 14
162.987185
 24
52.828234
 34
9.567247
100
AcDbRotatedDimension
1001
ACAD
1000
DSTYLE
1002
{
1070
   140
1040
4.0
1070
   272
1070
     1
1070
    77
1070
     0
1070
    40
1040
1.0
1070
   271
1070
     1
1070
   141
1040
0.0
1002
}
  0
LINE
  5
D0
100
AcDbEntity
  8
3
100
AcDbLine
 10
152.987185
 20
52.828234
 30
9.567247
 11
162.987185
 21
52.828234
 31
9.567247
  0
ARC
  5
D1
100
AcDbEntity
  8
3
100
AcDbCircle
 10
143.368642
 20
35.097012
 30
9.567247
 40
20.790156
100
AcDbArc
 50
64.276938
 51
86.927552
  0
LINE
  5
D2
100
AcDbEntity
  8
3
100
AcDbLine
 10
152.987185
 20
53.828234
 30
9.567247
 11
152.987185
 21
52.828234
 31
9.567247
  0
LINE
  5
D3
100
AcDbEntity
  8
3
100
AcDbLine
 10
152.987185
 20
53.826913
 30
9.567247
 11
152.392022
 21
53.826913
 31
9.567247
  0
LWPOLYLINE
  5
D4
100
AcDbEntity
  8
0
100
AcDbPolyline
 90
        3
 70
     1
 43
0.0
 38
9.567247
 10
172.972647
 20
52.973151
 10
174.488191
 20
55.598151
 10
171.457102
 20
55.598151
  0
LWPOLYLINE
  5
D5
100
AcDbEntity
  8
0
100
AcDbPolyline
 90
        3
 70
     1
 43
0.0
 38
9.567247
 10
163.061701
 20
73.553212
 10
165.686701
 20
72.037668
 10
165.686701
 20
75.068757
  0
LWPOLYLINE
  5
D6
100
AcDbEntity
  8
0
100
AcDbPolyline
 90
        3
 70
     1
 43
0.0
 38
9.567247
 10
163.061701
 20
76.584301
 10
165.686701
 20
75.068757
 10
165.686701
 20
78.099846
  0
TEXT
  5
D7
100
AcDbEntity
  8
0
100
AcDbText
 10
149.884766
 20
125.271376
 30
9.567247
 40
2.8
  1
%%P0.3
 41
0.7
  7
BIGFONT
100
AcDbText
  0
ENDBLK
  5
D9
100
AcDbEntity
  8
0
100
AcDbBlockEnd
  0
BLOCK
  5
1D0
100
AcDbEntity
  8
0
100
AcDbBlockBegin
  2
*D5
 70
     1
 10
0.0
 20
0.0
 30
0.0
  3
*D5
  1

  0
LINE
  5
1C6
100
AcDbEntity
  8
0
  6
BYBLOCK
 62
     0
100
AcDbLine
 10
244.0
 20
225.0
 30
0.0
 11
244.0
 21
232.910558
 31
0.0
  0
LINE
  5
1C7
100
AcDbEntity
  8
0
  6
BYBLOCK
 62
     0
100
AcDbLine
 10
234.0
 20
227.0
 30
0.0
 11
234.0
 21
232.910558
 31
0.0
  0
LINE
  5
1C8
100
AcDbEntity
  8
0
  6
BYBLOCK
 62
     0
100
AcDbLine
 10
242.0
 20
231.910558
 30
0.0
 11
241.375
 21
231.910558
 31
0.0
  0
LINE
  5
1C9
100
AcDbEntity
  8
0
  6
BYBLOCK
 62
     0
100
AcDbLine
 10
236.0
 20
231.910558
 30
0.0
 11
236.625
 21
231.910558
 31
0.0
  0
SOLID
  5
1CA
100
AcDbEntity
  8
0
  6
BYBLOCK
 62
     0
100
AcDbTrace
 10
242.0
 20
232.243892
 30
0.0
 11
242.0
 21
231.577225
 31
0.0
 12
244.0
 22
231.910558
 32
0.0
 13
244.0
 23
231.910558
 33
0.0
  0
SOLID
  5
1CB
100
AcDbEntity
  8
0
  6
BYBLOCK
 62
     0
100
AcDbTrace
 10
236.0
 20
232.243892
 30
0.0
 11
236.0
 21
231.577225
 31
0.0
 12
234.0
 22
231.910558
 32
0.0
 13
234.0
 23
231.910558
 33
0.0
  0
MTEXT
  5
1CC
100
AcDbEntity
  8
0
  6
BYBLOCK
 62
     0
100
AcDbMText
 10
239.216893
 20
231.910558
 30
0.0
 40
4.0
 41
0.0
 71
     5
 72
     1
  1
\A1;10
  0
POINT
  5
1CD
100
AcDbEntity
  8
DEFPOINTS
  6
BYBLOCK
 62
     0
100
AcDbPoint
 10
244.0
 20
224.0
 30
0.0
  0
POINT
  5
1CE
100
AcDbEntity
  8
DEFPOINTS
  6
BYBLOCK
 62
     0
100
AcDbPoint
 10
234.0
 20
226.0
 30
0.0
  0
POINT
  5
1CF
100
AcDbEntity
  8
DEFPOINTS
  6
BYBLOCK
 62
     0
100
AcDbPoint
 10
234.0
 20
231.910558
 30
0.0
  0
ENDBLK
  5
1D1
100
AcDbEntity
  8
0
100
AcDbBlockEnd
  0
BLOCK
  5
1DD
100
AcDbEntity
  8
0
100
AcDbBlockBegin
  2
*D6
 70
     1
 10
0.0
 20
0.0
 30
0.0
  3
*D6
  1

  0
LINE
  5
1D3
100
AcDbEntity
  8
0
  6
BYBLOCK
 62
     0
100
AcDbLine
 10
244.0
 20
225.5
 30
0.0
 11
244.0
 21
241.000094
 31
0.0
  0
LINE
  5
1D4
100
AcDbEntity
  8
0
  6
BYBLOCK
 62
     0
100
AcDbLine
 10
217.0
 20
227.394776
 30
0.0
 11
217.0
 21
241.000094
 31
0.0
  0
LINE
  5
1D5
100
AcDbEntity
  8
0
  6
BYBLOCK
 62
     0
100
AcDbLine
 10
242.0
 20
240.000094
 30
0.0
 11
236.940552
 21
240.000094
 31
0.0
  0
LINE
  5
1D6
100
AcDbEntity
  8
0
  6
BYBLOCK
 62
     0
100
AcDbLine
 10
219.0
 20
240.000094
 30
0.0
 11
229.023885
 21
240.000094
 31
0.0
  0
SOLID
  5
1D7
100
AcDbEntity
  8
0
  6
BYBLOCK
 62
     0
100
AcDbTrace
 10
242.0
 20
240.333428
 30
0.0
 11
242.0
 21
239.666761
 31
0.0
 12
244.0
 22
240.000094
 32
0.0
 13
244.0
 23
240.000094
 33
0.0
  0
SOLID
  5
1D8
100
AcDbEntity
  8
0
  6
BYBLOCK
 62
     0
100
AcDbTrace
 10
219.0
 20
240.333428
 30
0.0
 11
219.0
 21
239.666761
 31
0.0
 12
217.0
 22
240.000094
 32
0.0
 13
217.0
 23
240.000094
 33
0.0
  0
MTEXT
  5
1D9
100
AcDbEntity
  8
0
  6
BYBLOCK
 62
     0
100
AcDbMText
 10
232.982218
 20
240.000094
 30
0.0
 40
4.0
 41
0.0
 71
     5
 72
     1
  1
\A1;27
  0
POINT
  5
1DA
100
AcDbEntity
  8
DEFPOINTS
  6
BYBLOCK
 62
     0
100
AcDbPoint
 10
244.0
 20
224.5
 30
0.0
  0
POINT
  5
1DB
100
AcDbEntity
  8
DEFPOINTS
  6
BYBLOCK
 62
     0
100
AcDbPoint
 10
217.0
 20
226.394776
 30
0.0
  0
POINT
  5
1DC
100
AcDbEntity
  8
DEFPOINTS
  6
BYBLOCK
 62
     0
100
AcDbPoint
 10
217.0
 20
240.000094
 30
0.0
  0
ENDBLK
  5
1DE
100
AcDbEntity
  8
0
100
AcDbBlockEnd
  0
BLOCK
  5
24F
100
AcDbEntity
  8
0
100
AcDbBlockBegin
  2
A$C35F207D7
 70
     0
 10
0.0
 20
0.0
 30
0.0
  3
A$C35F207D7
  1

  0
TEXT
  5
1E0
100
AcDbEntity
  8
0
100
AcDbText
 10
164.368814
 20
88.591307
 30
10.823265
 40
4.9
  1
%%P0.1
 41
0.7
  7
BIGFONT
100
AcDbText
  0
DIMENSION
  5
1E1
100
AcDbEntity
  8
0
100
AcDbDimension
  2
*D6
 10
149.919861
 20
83.000094
 30
10.823265
 11
165.902079
 21
83.000094
 31
10.823265
 12
-67.080139
 22
-157.0
 32
10.823265
 70
   128
  3
STANDARD
100
AcDbAlignedDimension
 13
176.919861
 23
67.5
 33
10.823265
 14
149.919861
 24
69.394776
 34
10.823265
100
AcDbRotatedDimension
1001
ACAD
1000
DSTYLE
1002
{
1070
   140
1040
4.0
1070
    77
1070
     0
1070
    40
1040
1.0
1070
   141
1040
0.0
1070
    41
1040
2.0
1002
}
  0
DIMENSION
  5
1E2
100
AcDbEntity
  8
0
100
AcDbDimension
  2
*D5
 10
166.919861
 20
74.910558
 30
10.823265
 11
172.136754
 21
74.910558
 31
10.823265
 12
-67.080139
 22
-157.0
 32
10.823265
 70
   128
  3
STANDARD
100
AcDbAlignedDimension
 13
176.919861
 23
67.0
 33
10.823265
 14
166.919861
 24
69.0
 34
10.823265
100
AcDbRotatedDimension
1001
ACAD
1000
DSTYLE
1002
{
1070
   140
1040
4.0
1070
    77
1070
     0
1070
    40
1040
1.0
1070
   141
1040
0.0
1070
    41
1040
2.0
1002
}
  0
LINE
  5
1E3
100
AcDbEntity
  8
3
100
AcDbLine
 10
176.919861
 20
42.5
 30
10.823265
 11
166.919861
 21
42.5
 31
10.823265
  0
LINE
  5
1E4
100
AcDbEntity
  8
3
100
AcDbLine
 10
176.919861
 20
67.5
 30
10.823265
 11
166.919861
 21
67.5
 31
10.823265
  0
ARC
  5
1E5
100
AcDbEntity
  8
3
100
AcDbCircle
 10
156.756068
 20
49.612069
 30
10.823265
 40
21.890513
100
AcDbArc
 50
62.334989
 51
90.880016
  0
ARC
  5
1E6
100
AcDbEntity
  8
3
100
AcDbCircle
 10
156.756068
 20
60.387931
 30
10.823265
 40
21.890513
100
AcDbArc
 50
269.119984
 51
297.665011
  0
LINE
  5
1E7
100
AcDbEntity
  8
1
100
AcDbLine
 10
132.669861
 20
55.0
 30
10.823265
 11
180.608007
 21
55.0
 31
10.823265
  0
LINE
  5
1E8
100
AcDbEntity
  8
3
100
AcDbLine
 10
149.919861
 20
40.605224
 30
10.823265
 11
149.919861
 21
69.394776
 31
10.823265
  0
ARC
  5
1E9
100
AcDbEntity
  8
2
100
AcDbCircle
 10
152.501576
 20
47.75
 30
10.823265
 40
12.018309
100
AcDbArc
 50
341.818755
 51
18.181245
  0
LINE
  5
1EA
100
AcDbEntity
  8
3
100
AcDbLine
 10
135.419861
 20
12.5
 30
10.823265
 11
135.419861
 21
97.5
 31
10.823265
  0
LINE
  5
1EB
100
AcDbEntity
  8
3
100
AcDbLine
 10
136.420488
 20
12.811689
 30
10.823265
 11
136.420488
 21
84.25
 31
10.823265
  0
LINE
  5
1EC
100
AcDbEntity
  8
3
100
AcDbLine
 10
140.950276
 20
45.26859
 30
10.823265
 11
149.919861
 21
51.1613
 31
10.823265
  0
ARC
  5
1ED
100
AcDbEntity
  8
2
100
AcDbCircle
 10
167.621543
 20
47.099942
 30
10.823265
 40
16.202215
100
AcDbArc
 50
167.384245
 51
195.144226
  0
LINE
  5
1EE
100
AcDbEntity
  8
1
100
AcDbLine
 10
52.419861
 20
55.0
 30
10.823265
 11
2.959823
 21
26.444234
 31
10.823265
  0
LINE
  5
1EF
100
AcDbEntity
  8
1
100
AcDbLine
 10
52.419861
 20
55.0
 30
10.823265
 11
101.172766
 21
26.852497
 31
10.823265
  0
ARC
  5
1F0
100
AcDbEntity
  8
3
100
AcDbCircle
 10
52.419861
 20
55.0
 30
10.823265
 40
31.0
100
AcDbArc
 50
343.050305
 51
76.949695
  0
ARC
  5
1F1
100
AcDbEntity
  8
3
100
AcDbCircle
 10
43.383372
 20
60.21722
 30
10.823265
 40
25.712172
100
AcDbArc
 50
313.740589
 51
346.259411
  0
LINE
  5
1F2
100
AcDbEntity
  8
3
100
AcDbLine
 10
69.066975
 20
54.626388
 30
10.823265
 11
82.073255
 21
45.962509
 31
10.823265
  0
ARC
  5
1F3
100
AcDbEntity
  8
3
100
AcDbCircle
 10
61.456351
 20
60.21722
 30
10.823265
 40
25.712172
100
AcDbArc
 50
193.740589
 51
226.259411
  0
LINE
  5
1F4
100
AcDbEntity
  8
3
100
AcDbLine
 10
35.772747
 20
54.626388
 30
10.823265
 11
22.766467
 21
45.962509
 31
10.823265
  0
LINE
  5
1F5
100
AcDbEntity
  8
3
100
AcDbLine
 10
147.422118
 20
49.520369
 30
10.823265
 11
147.45898
 21
75.502189
 31
10.823265
  0
ARC
  5
1F6
100
AcDbEntity
  8
3
100
AcDbCircle
 10
52.419861
 20
55.0
 30
10.823265
 40
42.5
100
AcDbArc
 50
106.400686
 51
73.599314
  0
ARC
  5
1F7
100
AcDbEntity
  8
3
100
AcDbCircle
 10
52.419861
 20
55.0
 30
10.823265
 40
31.0
100
AcDbArc
 50
103.050305
 51
196.949695
  0
CIRCLE
  5
1F8
100
AcDbEntity
  8
3
100
AcDbCircle
 10
52.419861
 20
55.0
 30
10.823265
 40
14.277582
  0
CIRCLE
  5
1F9
100
AcDbEntity
  8
3
100
AcDbCircle
 10
52.419861
 20
55.0
 30
10.823265
 40
50.0
  0
LINE
  5
1FA
100
AcDbEntity
  8
1
100
AcDbLine
 10
52.419861
 20
0.0
 30
10.823265
 11
52.419861
 21
109.5
 31
10.823265
  0
LINE
  5
1FB
100
AcDbEntity
  8
1
100
AcDbLine
 10
143.419861
 20
26.222418
 30
10.823265
 11
143.419861
 21
55.0
 31
10.823265
  0
LINE
  5
1FC
100
AcDbEntity
  8
1
100
AcDbLine
 10
156.419861
 20
55.0
 30
10.823265
 11
156.419861
 21
35.426039
 31
10.823265
  0
ARC
  5
1FD
100
AcDbEntity
  8
3
100
AcDbCircle
 10
52.419861
 20
55.0
 30
10.823265
 40
16.651306
100
AcDbArc
 50
238.714325
 51
301.285675
  0
ARC
  5
1FE
100
AcDbEntity
  8
3
100
AcDbCircle
 10
52.419861
 20
55.0
 30
10.823265
 40
31.0
100
AcDbArc
 50
223.050305
 51
316.949695
  0
LINE
  5
1FF
100
AcDbEntity
  8
3
100
AcDbLine
 10
43.772747
 20
40.769982
 30
10.823265
 11
29.766467
 21
33.838153
 31
10.823265
  0
ARC
  5
200
100
AcDbEntity
  8
3
100
AcDbCircle
 10
39.47498
 20
47.526269
 30
10.823265
 40
18.004196
100
AcDbArc
 50
190.679081
 51
229.320919
  0
ARC
  5
201
100
AcDbEntity
  8
3
100
AcDbCircle
 10
28.787999
 20
35.92999
 30
10.823265
 40
2.309368
100
AcDbArc
 50
242.996909
 51
295.068098
  0
ARC
  5
202
100
AcDbEntity
  8
3
100
AcDbCircle
 10
24.088817
 20
44.069212
 30
10.823265
 40
2.309368
100
AcDbArc
 50
124.931902
 51
177.003091
  0
ARC
  5
203
100
AcDbEntity
  8
3
100
AcDbCircle
 10
42.981134
 20
41.125268
 30
10.823265
 40
0.867686
100
AcDbArc
 50
335.828833
 51
36.447878
  0
LINE
  5
204
100
AcDbEntity
  8
3
100
AcDbLine
 10
61.066975
 20
40.769982
 30
10.823265
 11
75.073255
 21
33.838153
 31
10.823265
  0
ARC
  5
205
100
AcDbEntity
  8
3
100
AcDbCircle
 10
61.858588
 20
41.125268
 30
10.823265
 40
0.867686
100
AcDbArc
 50
143.552122
 51
204.171167
  0
ARC
  5
206
100
AcDbEntity
  8
3
100
AcDbCircle
 10
65.364742
 20
47.526269
 30
10.823265
 40
18.004196
100
AcDbArc
 50
310.679081
 51
349.320919
  0
ARC
  5
207
100
AcDbEntity
  8
3
100
AcDbCircle
 10
76.051723
 20
35.92999
 30
10.823265
 40
2.309368
100
AcDbArc
 50
244.931902
 51
297.003091
  0
ARC
  5
208
100
AcDbEntity
  8
3
100
AcDbCircle
 10
80.750905
 20
44.069212
 30
10.823265
 40
2.309368
100
AcDbArc
 50
2.996909
 51
55.068098
  0
LINE
  5
209
100
AcDbEntity
  8
1
100
AcDbLine
 10
143.169861
 20
12.5
 30
10.823265
 11
143.169861
 21
0.057323
 31
10.823265
  0
ARC
  5
20A
100
AcDbEntity
  8
3
100
AcDbCircle
 10
143.169861
 20
12.5
 30
10.823265
 40
7.75
100
AcDbArc
 50
180.0
 51
0.0
  0
ARC
  5
20B
100
AcDbEntity
  8
3
100
AcDbCircle
 10
156.218016
 20
19.774658
 30
10.823265
 40
9.0
100
AcDbArc
 50
166.226174
 51
233.92971
  0
ARC
  5
20C
100
AcDbEntity
  8
3
100
AcDbCircle
 10
154.112601
 20
39.381507
 30
10.823265
 40
14.704411
100
AcDbArc
 50
169.087755
 51
193.303793
  0
ARC
  5
20D
100
AcDbEntity
  8
3
100
AcDbCircle
 10
146.397993
 20
41.140643
 30
10.823265
 40
6.801522
100
AcDbArc
 50
143.518838
 51
171.336782
  0
ARC
  5
20E
100
AcDbEntity
  8
3
100
AcDbCircle
 10
142.876023
 20
37.13385
 30
10.823265
 40
3.276471
100
AcDbArc
 50
200.287161
 51
253.032642
  0
ARC
  5
20F
100
AcDbEntity
  8
3
100
AcDbCircle
 10
143.419861
 20
19.0
 30
10.823265
 40
5.0
100
AcDbArc
 50
90.0
 51
142.434455
  0
ARC
  5
210
100
AcDbEntity
  8
3
100
AcDbCircle
 10
152.419861
 20
12.67
 30
10.823265
 40
16.0
100
AcDbArc
 50
144.115978
 51
179.492608
  0
LINE
  5
211
100
AcDbEntity
  8
3
100
AcDbLine
 10
136.284877
 20
12.624105
 30
10.823265
 11
135.419861
 21
12.5
 31
10.823265
  0
ARC
  5
212
100
AcDbEntity
  8
3
100
AcDbCircle
 10
136.220496
 20
12.81346
 30
10.823265
 40
0.2
100
AcDbArc
 50
288.778033
 51
359.492608
  0
LINE
  5
213
100
AcDbEntity
  8
3
100
AcDbLine
 10
147.476828
 20
21.917466
 30
10.823265
 11
147.476828
 21
35.152598
 31
10.823265
  0
LINE
  5
214
100
AcDbEntity
  8
3
100
AcDbLine
 10
150.919861
 20
36.760554
 30
10.823265
 11
150.919861
 21
27.321123
 31
10.823265
  0
LINE
  5
215
100
AcDbEntity
  8
3
100
AcDbLine
 10
150.919861
 20
12.5
 30
10.823265
 11
150.919861
 21
27.321123
 31
10.823265
  0
LINE
  5
216
100
AcDbEntity
  8
1
100
AcDbLine
 10
143.419861
 20
26.222418
 30
10.823265
 11
143.419861
 21
19.808505
 31
10.823265
  0
ARC
  5
217
100
AcDbEntity
  8
3
100
AcDbCircle
 10
134.419861
 20
12.67
 30
10.823265
 40
16.0
100
AcDbArc
 50
0.507392
 51
0.796963
  0
ARC
  5
218
100
AcDbEntity
  8
3
100
AcDbCircle
 10
143.419861
 20
19.0
 30
10.823265
 40
5.0
100
AcDbArc
 50
37.565545
 51
90.0
  0
ARC
  5
219
100
AcDbEntity
  8
3
100
AcDbCircle
 10
134.419861
 20
12.67
 30
10.823265
 40
16.0
100
AcDbArc
 50
35.307652
 51
35.884022
  0
LINE
  5
21A
100
AcDbEntity
  8
3
100
AcDbLine
 10
146.189169
 20
34.55124
 30
10.823265
 11
154.800887
 21
38.573061
 31
10.823265
  0
ARC
  5
21B
100
AcDbEntity
  8
3
100
AcDbCircle
 10
156.05875
 20
48.472222
 30
10.823265
 40
9.978758
100
AcDbArc
 50
232.033861
 51
272.073871
  0
ARC
  5
21C
100
AcDbEntity
  8
2
100
AcDbCircle
 10
155.96416
 20
45.549794
 30
10.823265
 40
4.801486
100
AcDbArc
 50
213.967165
 51
275.446044
  0
ARC
  5
21D
100
AcDbEntity
  8
3
100
AcDbCircle
 10
143.419861
 20
40.870099
 30
10.823265
 40
7.031946
100
AcDbArc
 50
257.683472
 51
270.0
  0
ARC
  5
21E
100
AcDbEntity
  8
3
100
AcDbCircle
 10
143.963699
 20
37.13385
 30
10.823265
 40
3.276471
100
AcDbArc
 50
286.967358
 51
304.091379
  0
ARC
  5
21F
100
AcDbEntity
  8
3
100
AcDbCircle
 10
143.419861
 20
40.870099
 30
10.823265
 40
7.031946
100
AcDbArc
 50
270.0
 51
282.316528
  0
LINE
  5
220
100
AcDbEntity
  8
2
100
AcDbLine
 10
154.800887
 20
38.573061
 30
10.823265
 11
160.6063
 21
41.243787
 31
10.823265
  0
ARC
  5
221
100
AcDbEntity
  8
2
100
AcDbCircle
 10
157.624408
 20
48.295453
 30
10.823265
 40
7.621263
100
AcDbArc
 50
260.906224
 51
325.693875
  0
LINE
  5
222
100
AcDbEntity
  8
3
100
AcDbLine
 10
166.919861
 20
42.5
 30
10.823265
 11
166.919861
 21
41.0
 31
10.823265
  0
LINE
  5
223
100
AcDbEntity
  8
1
100
AcDbLine
 10
143.419861
 20
86.0
 30
10.823265
 11
156.919861
 21
70.157709
 31
5.340899
  0
ARC
  5
224
100
AcDbEntity
  8
3
100
AcDbCircle
 10
52.419861
 20
92.5
 30
10.823265
 40
8.25
100
AcDbArc
 50
180.0
 51
0.0
  0
ARC
  5
225
100
AcDbEntity
  8
3
100
AcDbCircle
 10
52.419861
 20
44.56556
 30
10.823265
 40
25.712172
100
AcDbArc
 50
73.740589
 51
106.259411
  0
LINE
  5
226
100
AcDbEntity
  8
1
100
AcDbLine
 10
69.000518
 20
92.5
 30
10.823265
 11
36.141191
 21
92.5
 31
10.823265
  0
LINE
  5
227
100
AcDbEntity
  8
1
100
AcDbLine
 10
107.419861
 20
55.0
 30
10.823265
 11
-0.580139
 21
55.0
 31
10.823265
  0
ARC
  5
228
100
AcDbEntity
  8
3
100
AcDbCircle
 10
52.419861
 20
55.0
 30
10.823265
 40
16.651306
100
AcDbArc
 50
118.714325
 51
181.285675
  0
LINE
  5
229
100
AcDbEntity
  8
3
100
AcDbLine
 10
44.419861
 20
69.603629
 30
10.823265
 11
45.419861
 21
85.199338
 31
10.823265
  0
ARC
  5
22A
100
AcDbEntity
  8
3
100
AcDbCircle
 10
35.684627
 20
53.763188
 30
10.823265
 40
0.867686
100
AcDbArc
 50
23.552122
 51
84.171167
  0
ARC
  5
22B
100
AcDbEntity
  8
3
100
AcDbCircle
 10
45.123354
 20
70.111543
 30
10.823265
 40
0.867686
100
AcDbArc
 50
215.828833
 51
276.447878
  0
ARC
  5
22C
100
AcDbEntity
  8
3
100
AcDbCircle
 10
47.720679
 20
85.000797
 30
10.823265
 40
2.309368
100
AcDbArc
 50
125.505483
 51
175.068098
  0
ARC
  5
22D
100
AcDbEntity
  8
3
100
AcDbCircle
 10
40.732166
 20
92.343652
 30
10.823265
 40
3.441248
100
AcDbArc
 50
2.604035
 51
95.206954
  0
ARC
  5
22E
100
AcDbEntity
  8
3
100
AcDbCircle
 10
52.419861
 20
55.0
 30
10.823265
 40
16.651306
100
AcDbArc
 50
358.714325
 51
61.285675
  0
LINE
  5
22F
100
AcDbEntity
  8
3
100
AcDbLine
 10
60.419861
 20
69.603629
 30
10.823265
 11
59.419861
 21
85.199338
 31
10.823265
  0
ARC
  5
230
100
AcDbEntity
  8
3
100
AcDbCircle
 10
69.155095
 20
53.763188
 30
10.823265
 40
0.867686
100
AcDbArc
 50
95.828833
 51
156.447878
  0
ARC
  5
231
100
AcDbEntity
  8
3
100
AcDbCircle
 10
59.716368
 20
70.111543
 30
10.823265
 40
0.867686
100
AcDbArc
 50
263.552122
 51
324.171167
  0
ARC
  5
232
100
AcDbEntity
  8
3
100
AcDbCircle
 10
57.119043
 20
85.000797
 30
10.823265
 40
2.309368
100
AcDbArc
 50
4.931902
 51
54.494517
  0
ARC
  5
233
100
AcDbEntity
  8
3
100
AcDbCircle
 10
64.107556
 20
92.343652
 30
10.823265
 40
3.441248
100
AcDbArc
 50
84.793046
 51
177.395965
  0
LINE
  5
234
100
AcDbEntity
  8
3
100
AcDbLine
 10
149.919861
 20
96.654436
 30
10.823265
 11
149.919861
 21
86.44542
 31
10.823265
  0
LINE
  5
235
100
AcDbEntity
  8
3
100
AcDbLine
 10
150.91902
 20
97.5
 30
10.823265
 11
150.91902
 21
85.349666
 31
10.823265
  0
LINE
  5
236
100
AcDbEntity
  8
3
100
AcDbLine
 10
135.921296
 20
84.25
 30
10.823265
 11
140.839592
 21
84.25
 31
10.823265
  0
LINE
  5
237
100
AcDbEntity
  8
3
100
AcDbLine
 10
135.921296
 20
84.25
 30
10.823265
 11
135.419861
 21
84.25
 31
10.823265
  0
ARC
  5
238
100
AcDbEntity
  8
3
100
AcDbCircle
 10
156.05875
 20
61.527778
 30
10.823265
 40
9.978758
100
AcDbArc
 50
87.926129
 51
127.966139
  0
LINE
  5
239
100
AcDbEntity
  8
1
100
AcDbLine
 10
156.419861
 20
55.0
 30
10.823265
 11
156.419861
 21
83.372651
 31
10.823265
  0
LINE
  5
23A
100
AcDbEntity
  8
2
100
AcDbLine
 10
149.919861
 20
51.1613
 30
10.823265
 11
153.732594
 21
53.666135
 31
10.823265
  0
ARC
  5
23B
100
AcDbEntity
  8
2
100
AcDbCircle
 10
156.893141
 20
49.538318
 30
10.823265
 40
5.20039
100
AcDbArc
 50
109.765508
 51
167.784167
  0
ARC
  5
23C
100
AcDbEntity
  8
2
100
AcDbCircle
 10
157.444076
 20
46.524214
 30
10.823265
 40
8.166654
100
AcDbArc
 50
37.537518
 51
97.204677
  0
ARC
  5
23D
100
AcDbEntity
  8
2
100
AcDbCircle
 10
156.424425
 20
50.242527
 30
10.823265
 40
4.383864
100
AcDbArc
 50
90.059646
 51
107.111956
  0
LINE
  5
23E
100
AcDbEntity
  8
3
100
AcDbLine
 10
166.919861
 20
67.5
 30
10.823265
 11
166.919861
 21
69.0
 31
10.823265
  0
LINE
  5
23F
100
AcDbEntity
  8
3
100
AcDbLine
 10
165.023874
 20
69.881206
 30
10.823265
 11
149.919861
 21
86.44542
 31
10.823265
  0
LWPOLYLINE
  5
240
100
AcDbEntity
  8
0
100
AcDbPolyline
 90
        3
 70
     1
 43
0.0
 38
10.823265
 10
149.79168
 20
78.90256
 10
145.639387
 20
81.299888
 10
145.639387
 20
76.505233
  0
LINE
  5
241
100
AcDbEntity
  8
3
100
AcDbLine
 10
151.419861
 20
70.277733
 30
10.823265
 11
141.143191
 21
83.832801
 31
10.823265
  0
LINE
  5
242
100
AcDbEntity
  8
3
100
AcDbLine
 10
150.919861
 20
69.983151
 30
10.823265
 11
150.919861
 21
70.93724
 31
10.823265
  0
LWPOLYLINE
  5
243
100
AcDbEntity
  8
0
100
AcDbPolyline
 90
        3
 70
     1
 43
0.0
 38
10.823265
 10
149.79168
 20
83.697216
 10
145.639387
 20
86.094544
 10
145.639387
 20
81.299888
  0
ARC
  5
244
100
AcDbEntity
  8
3
100
AcDbCircle
 10
147.456579
 20
88.746163
 30
10.823265
 40
8.0
100
AcDbArc
 50
214.195635
 51
217.891655
  0
ARC
  5
245
100
AcDbEntity
  8
3
100
AcDbCircle
 10
143.169861
 20
97.5
 30
10.823265
 40
7.75
100
AcDbArc
 50
0.0
 51
180.0
  0
LINE
  5
246
100
AcDbEntity
  8
1
100
AcDbLine
 10
132.669861
 20
90.0
 30
10.823265
 11
154.576207
 21
90.0
 31
10.823265
  0
LINE
  5
247
100
AcDbEntity
  8
1
100
AcDbLine
 10
143.419861
 20
97.5
 30
10.823265
 11
143.419861
 21
109.0
 31
10.823265
  0
ARC
  5
248
100
AcDbEntity
  8
3
100
AcDbCircle
 10
156.218016
 20
90.225342
 30
10.823265
 40
9.0
100
AcDbArc
 50
126.07029
 51
134.410558
  0
LINE
  5
249
100
AcDbEntity
  8
3
100
AcDbLine
 10
176.919861
 20
42.5
 30
10.823265
 11
176.919861
 21
55.0
 31
10.823265
  0
LINE
  5
24A
100
AcDbEntity
  8
3
100
AcDbLine
 10
176.919861
 20
55.0
 30
10.823265
 11
176.919861
 21
67.0
 31
10.823265
  0
LINE
  5
24B
100
AcDbEntity
  8
3
100
AcDbLine
 10
176.919861
 20
67.0
 30
10.823265
 11
176.919861
 21
67.5
 31
10.823265
  0
TEXT
  5
24C
100
AcDbEntity
  8
0
100
AcDbText
 10
189.189506
 20
56.610541
 30
10.823265
 40
4.9
  1
0
 50
90.0
 41
0.7
  7
BIGFONT
100
AcDbText
  0
LWPOLYLINE
  5
24D
100
AcDbEntity
  8
0
100
AcDbPolyline
 90
        3
 70
     1
 43
0.0
 38
10.823265
 10
177.024738
 20
105.541948
 10
181.177031
 20
103.144621
 10
181.177031
 20
107.939276
  0
LWPOLYLINE
  5
24E
100
AcDbEntity
  8
0
100
AcDbPolyline
 90
        3
 70
     1
 43
0.0
 38
10.823265
 10
177.024738
 20
100.747293
 10
181.177031
 20
98.349965
 10
181.177031
 20
103.144621
  0
ENDBLK
  5
250
100
AcDbEntity
  8
0
100
AcDbBlockEnd
  0
BLOCK
  5
303
100
AcDbEntity
  8
0
100
AcDbBlockBegin
  2
*D8
 70
     1
 10
0.0
 20
0.0
 30
0.0
  3
*D8
  1

  0
LINE
  5
2F9
100
AcDbEntity
  8
0
  6
BYBLOCK
 62
     0
100
AcDbLine
 10
275.0
 20
247.529123
 30
0.0
 11
275.0
 21
266.5
 31
0.0
  0
LINE
  5
2FA
100
AcDbEntity
  8
0
  6
BYBLOCK
 62
     0
100
AcDbLine
 10
305.0
 20
245.5
 30
0.0
 11
305.0
 21
266.5
 31
0.0
  0
LINE
  5
2FB
100
AcDbEntity
  8
0
  6
BYBLOCK
 62
     0
100
AcDbLine
 10
277.0
 20
265.5
 30
0.0
 11
288.16
 21
265.5
 31
0.0
  0
LINE
  5
2FC
100
AcDbEntity
  8
0
  6
BYBLOCK
 62
     0
100
AcDbLine
 10
303.0
 20
265.5
 30
0.0
 11
295.84
 21
265.5
 31
0.0
  0
SOLID
  5
2FD
100
AcDbEntity
  8
0
  6
BYBLOCK
 62
     0
100
AcDbTrace
 10
277.0
 20
265.833333
 30
0.0
 11
277.0
 21
265.166667
 31
0.0
 12
275.0
 22
265.5
 32
0.0
 13
275.0
 23
265.5
 33
0.0
  0
SOLID
  5
2FE
100
AcDbEntity
  8
0
  6
BYBLOCK
 62
     0
100
AcDbTrace
 10
303.0
 20
265.833333
 30
0.0
 11
303.0
 21
265.166667
 31
0.0
 12
305.0
 22
265.5
 32
0.0
 13
305.0
 23
265.5
 33
0.0
  0
MTEXT
  5
2FF
100
AcDbEntity
  8
0
  6
BYBLOCK
 62
     0
100
AcDbMText
 10
292.0
 20
265.5
 30
0.0
 40
5.0
 41
0.0
 71
     5
 72
     1
  1
\A1;30
  0
POINT
  5
300
100
AcDbEntity
  8
DEFPOINTS
  6
BYBLOCK
 62
     0
100
AcDbPoint
 10
275.0
 20
246.529123
 30
0.0
  0
POINT
  5
301
100
AcDbEntity
  8
DEFPOINTS
  6
BYBLOCK
 62
     0
100
AcDbPoint
 10
305.0
 20
244.5
 30
0.0
  0
POINT
  5
302
100
AcDbEntity
  8
DEFPOINTS
  6
BYBLOCK
 62
     0
100
AcDbPoint
 10
305.0
 20
265.5
 30
0.0
  0
ENDBLK
  5
304
100
AcDbEntity
  8
0
100
AcDbBlockEnd
  0
BLOCK
  5
310
100
AcDbEntity
  8
0
100
AcDbBlockBegin
  2
*D9
 70
     1
 10
0.0
 20
0.0
 30
0.0
  3
*D9
  1

  0
LINE
  5
306
100
AcDbEntity
  8
0
  6
BYBLOCK
 62
     0
100
AcDbLine
 10
293.0
 20
247.0
 30
0.0
 11
293.0
 21
257.0
 31
0.0
  0
LINE
  5
307
100
AcDbEntity
  8
0
  6
BYBLOCK
 62
     0
100
AcDbLine
 10
305.0
 20
245.5
 30
0.0
 11
305.0
 21
257.0
 31
0.0
  0
LINE
  5
308
100
AcDbEntity
  8
0
  6
BYBLOCK
 62
     0
100
AcDbLine
 10
295.0
 20
256.0
 30
0.0
 11
295.576667
 21
256.0
 31
0.0
  0
LINE
  5
309
100
AcDbEntity
  8
0
  6
BYBLOCK
 62
     0
100
AcDbLine
 10
303.0
 20
256.0
 30
0.0
 11
302.423333
 21
256.0
 31
0.0
  0
SOLID
  5
30A
100
AcDbEntity
  8
0
  6
BYBLOCK
 62
     0
100
AcDbTrace
 10
295.0
 20
256.333333
 30
0.0
 11
295.0
 21
255.666667
 31
0.0
 12
293.0
 22
256.0
 32
0.0
 13
293.0
 23
256.0
 33
0.0
  0
SOLID
  5
30B
100
AcDbEntity
  8
0
  6
BYBLOCK
 62
     0
100
AcDbTrace
 10
303.0
 20
256.333333
 30
0.0
 11
303.0
 21
255.666667
 31
0.0
 12
305.0
 22
256.0
 32
0.0
 13
305.0
 23
256.0
 33
0.0
  0
MTEXT
  5
30C
100
AcDbEntity
  8
0
  6
BYBLOCK
 62
     0
100
AcDbMText
 10
299.0
 20
256.0
 30
0.0
 40
5.0
 41
0.0
 71
     5
 72
     1
  1
\A1;12
  0
POINT
  5
30D
100
AcDbEntity
  8
DEFPOINTS
  6
BYBLOCK
 62
     0
100
AcDbPoint
 10
293.0
 20
246.0
 30
0.0
  0
POINT
  5
30E
100
AcDbEntity
  8
DEFPOINTS
  6
BYBLOCK
 62
     0
100
AcDbPoint
 10
305.0
 20
244.5
 30
0.0
  0
POINT
  5
30F
100
AcDbEntity
  8
DEFPOINTS
  6
BYBLOCK
 62
     0
100
AcDbPoint
 10
305.0
 20
256.0
 30
0.0
  0
ENDBLK
  5
311
100
AcDbEntity
  8
0
100
AcDbBlockEnd
  0
BLOCK
  5
31D
100
AcDbEntity
  8
0
100
AcDbBlockBegin
  2
*D10
 70
     1
 10
0.0
 20
0.0
 30
0.0
  3
*D10
  1

  0
LINE
  5
313
100
AcDbEntity
  8
0
  6
BYBLOCK
 62
     0
100
AcDbLine
 10
306.0
 20
244.5
 30
0.0
 11
328.5
 21
244.5
 31
0.0
  0
LINE
  5
314
100
AcDbEntity
  8
0
  6
BYBLOCK
 62
     0
100
AcDbLine
 10
306.0
 20
214.5
 30
0.0
 11
328.5
 21
214.5
 31
0.0
  0
LINE
  5
315
100
AcDbEntity
  8
0
  6
BYBLOCK
 62
     0
100
AcDbLine
 10
327.5
 20
242.5
 30
0.0
 11
327.5
 21
235.84
 31
0.0
  0
LINE
  5
316
100
AcDbEntity
  8
0
  6
BYBLOCK
 62
     0
100
AcDbLine
 10
327.5
 20
216.5
 30
0.0
 11
327.5
 21
223.16
 31
0.0
  0
SOLID
  5
317
100
AcDbEntity
  8
0
  6
BYBLOCK
 62
     0
100
AcDbTrace
 10
327.166667
 20
242.5
 30
0.0
 11
327.833333
 21
242.5
 31
0.0
 12
327.5
 22
244.5
 32
0.0
 13
327.5
 23
244.5
 33
0.0
  0
SOLID
  5
318
100
AcDbEntity
  8
0
  6
BYBLOCK
 62
     0
100
AcDbTrace
 10
327.166667
 20
216.5
 30
0.0
 11
327.833333
 21
216.5
 31
0.0
 12
327.5
 22
214.5
 32
0.0
 13
327.5
 23
214.5
 33
0.0
  0
MTEXT
  5
319
100
AcDbEntity
  8
0
  6
BYBLOCK
 62
     0
100
AcDbMText
 10
327.5
 20
229.5
 30
0.0
 40
5.0
 41
0.0
 71
     5
 72
     1
  1
\A1;\U+220530
 11
0.0
 21
1.0
 31
0.0
  0
POINT
  5
31A
100
AcDbEntity
  8
DEFPOINTS
  6
BYBLOCK
 62
     0
100
AcDbPoint
 10
305.0
 20
244.5
 30
0.0
  0
POINT
  5
31B
100
AcDbEntity
  8
DEFPOINTS
  6
BYBLOCK
 62
     0
100
AcDbPoint
 10
305.0
 20
214.5
 30
0.0
  0
POINT
  5
31C
100
AcDbEntity
  8
DEFPOINTS
  6
BYBLOCK
 62
     0
100
AcDbPoint
 10
327.5
 20
214.5
 30
0.0
  0
ENDBLK
  5
31E
100
AcDbEntity
  8
0
100
AcDbBlockEnd
  0
BLOCK
  5
390
100
AcDbEntity
  8
0
100
AcDbBlockBegin
  2
A$C1AE72FE9
 70
     0
 10
0.0
 20
0.0
 30
0.0
  3
A$C1AE72FE9
  1

  0
DIMENSION
  5
320
100
AcDbEntity
  8
0
100
AcDbDimension
  2
*D8
 10
246.5
 20
104.5
 30
0.0
 11
233.5
 21
104.5
 31
0.0
 12
-58.5
 22
-161.0
 32
0.0
 70
   128
  3
STANDARD
100
AcDbAlignedDimension
 13
216.5
 23
85.529124
 33
0.0
 14
246.5
 24
83.5
 34
0.0
100
AcDbRotatedDimension
1001
ACAD
1000
DSTYLE
1002
{
1070
    78
1070
     8
1070
   288
1070
     1
1070
   284
1070
     8
1070
   140
1040
5.0
1070
    73
1070
     0
1070
   272
1070
     2
1070
    42
1040
1.0
1070
    44
1040
1.0
1070
   271
1070
     2
1070
    41
1040
2.0
1002
}
  0
LINE
  5
321
100
AcDbEntity
  8
2
100
AcDbLine
 10
215.498612
 20
62.901296
 30
0.0
 11
221.711223
 21
68.232644
 31
0.0
  0
LINE
  5
322
100
AcDbEntity
  8
3
100
AcDbLine
 10
212.879649
 20
42.528774
 30
0.0
 11
224.321396
 21
49.504782
 31
0.0
  0
LINE
  5
323
100
AcDbEntity
  8
3
100
AcDbLine
 10
233.921635
 20
85.315989
 30
0.0
 11
214.495713
 21
111.339024
 31
0.0
  0
LINE
  5
324
100
AcDbEntity
  8
1
100
AcDbLine
 10
194.872067
 20
115.5
 30
0.0
 11
218.798036
 21
115.5
 31
0.0
  0
ARC
  5
325
100
AcDbEntity
  8
3
100
AcDbCircle
 10
207.5
 20
14.0
 30
0.0
 40
8.0
100
AcDbArc
 50
270.0
 51
358.932668
  0
LINE
  5
326
100
AcDbEntity
  8
1
100
AcDbLine
 10
196.0
 20
14.0
 30
0.0
 11
218.259056
 21
14.0
 31
0.0
  0
ARC
  5
327
100
AcDbEntity
  8
3
100
AcDbCircle
 10
225.0
 20
68.744701
 30
0.0
 40
19.251883
100
AcDbArc
 50
243.799399
 51
299.568136
  0
LINE
  5
328
100
AcDbEntity
  8
3
100
AcDbLine
 10
216.847727
 20
90.00506
 30
0.0
 11
206.62766
 21
105.5
 31
0.0
  0
ARC
  5
329
100
AcDbEntity
  8
3
100
AcDbCircle
 10
225.0
 20
68.2553
 30
0.0
 40
19.251883
100
AcDbArc
 50
60.431864
 51
116.200601
  0
LINE
  5
32A
100
AcDbEntity
  8
1
100
AcDbLine
 10
193.259056
 20
68.5
 30
0.0
 11
253.5
 21
68.5
 31
0.0
  0
LINE
  5
32B
100
AcDbEntity
  8
1
100
AcDbLine
 10
196.0
 20
123.0
 30
0.0
 11
218.259056
 21
123.0
 31
0.0
  0
ARC
  5
32C
100
AcDbEntity
  8
3
100
AcDbCircle
 10
207.5
 20
123.0
 30
0.0
 40
8.0
100
AcDbArc
 50
1.067332
 51
90.0
  0
LINE
  5
32D
100
AcDbEntity
  8
3
100
AcDbLine
 10
211.93133
 20
23.338614
 30
0.0
 11
211.93133
 21
41.88544
 31
0.0
  0
ARC
  5
32E
100
AcDbEntity
  8
3
100
AcDbCircle
 10
68.5
 20
68.5
 30
0.0
 40
54.5
100
AcDbArc
 50
107.072287
 51
72.927713
  0
ARC
  5
32F
100
AcDbEntity
  8
3
100
AcDbCircle
 10
68.5
 20
68.5
 30
0.0
 40
42.5
100
AcDbArc
 50
221.467525
 51
318.532475
  0
CIRCLE
  5
330
100
AcDbEntity
  8
3
100
AcDbCircle
 10
68.5
 20
68.5
 30
0.0
 40
62.5
  0
LINE
  5
331
100
AcDbEntity
  8
1
100
AcDbLine
 10
68.5
 20
136.0
 30
0.0
 11
68.5
 21
0.0
 31
0.0
  0
LINE
  5
332
100
AcDbEntity
  8
3
100
AcDbLine
 10
199.501388
 20
13.850981
 30
0.0
 11
199.501388
 21
68.5
 31
0.0
  0
LINE
  5
333
100
AcDbEntity
  8
3
100
AcDbLine
 10
215.498612
 20
13.850981
 30
0.0
 11
215.498612
 21
44.12555
 31
0.0
  0
LINE
  5
334
100
AcDbEntity
  8
1
100
AcDbLine
 10
207.5
 20
29.25468
 30
0.0
 11
207.5
 21
2.929739
 31
0.0
  0
LINE
  5
335
100
AcDbEntity
  8
3
100
AcDbLine
 10
199.640074
 20
14.045087
 30
0.0
 11
200.365616
 21
14.278626
 31
0.0
  0
ARC
  5
336
100
AcDbEntity
  8
3
100
AcDbCircle
 10
222.888995
 20
22.173717
 30
0.0
 40
11.01941
100
AcDbArc
 50
173.931744
 51
227.881241
  0
LINE
  5
337
100
AcDbEntity
  8
1
100
AcDbLine
 10
207.5
 20
28.781778
 30
0.0
 11
207.5
 21
2.772103
 31
0.0
  0
ARC
  5
338
100
AcDbEntity
  8
3
100
AcDbCircle
 10
207.5
 20
14.0
 30
0.0
 40
8.0
100
AcDbArc
 50
181.067332
 51
270.0
  0
ARC
  5
339
100
AcDbEntity
  8
3
100
AcDbCircle
 10
199.701354
 20
13.854707
 30
0.0
 40
0.2
100
AcDbArc
 50
107.842417
 51
181.067332
  0
ARC
  5
33A
100
AcDbEntity
  8
3
100
AcDbCircle
 10
207.5
 20
21.0
 30
0.0
 40
5.0
100
AcDbArc
 50
90.0
 51
147.890561
  0
ARC
  5
33B
100
AcDbEntity
  8
3
100
AcDbCircle
 10
218.5
 20
14.071788
 30
0.0
 40
18.0
100
AcDbArc
 50
147.769398
 51
178.749408
  0
ARC
  5
33C
100
AcDbEntity
  8
3
100
AcDbCircle
 10
200.304336
 20
14.469007
 30
0.0
 40
0.2
100
AcDbArc
 50
287.842417
 51
358.749408
  0
ARC
  5
33D
100
AcDbEntity
  8
3
100
AcDbCircle
 10
207.5
 20
21.0
 30
0.0
 40
5.0
100
AcDbArc
 50
32.109439
 51
90.0
  0
ARC
  5
33E
100
AcDbEntity
  8
3
100
AcDbCircle
 10
196.5
 20
14.071788
 30
0.0
 40
18.0
100
AcDbArc
 50
30.985669
 51
32.230602
  0
LINE
  5
33F
100
AcDbEntity
  8
1
100
AcDbLine
 10
68.5
 20
68.5
 30
0.0
 11
9.902568
 21
34.668757
 31
0.0
  0
ARC
  5
340
100
AcDbEntity
  8
3
100
AcDbCircle
 10
68.5
 20
68.5
 30
0.0
 40
42.5
100
AcDbArc
 50
101.467525
 51
198.532475
  0
LINE
  5
341
100
AcDbEntity
  8
3
100
AcDbLine
 10
28.203895
 20
54.991711
 30
0.0
 11
49.508932
 21
69.082507
 31
0.0
  0
LINE
  5
342
100
AcDbEntity
  8
3
100
AcDbLine
 10
36.653426
 20
40.356694
 30
0.0
 11
59.508932
 21
51.761999
 31
0.0
  0
LINE
  5
343
100
AcDbEntity
  8
1
100
AcDbLine
 10
137.0
 20
68.5
 30
0.0
 11
0.0
 21
68.5
 31
0.0
  0
ARC
  5
344
100
AcDbEntity
  8
3
100
AcDbCircle
 10
46.568545
 20
55.837869
 30
0.0
 40
19.504043
100
AcDbArc
 50
187.633426
 51
232.366574
  0
ARC
  5
345
100
AcDbEntity
  8
3
100
AcDbCircle
 10
35.697577
 20
42.706523
 30
0.0
 40
2.536798
100
AcDbArc
 50
245.838376
 51
292.135202
  0
ARC
  5
346
100
AcDbEntity
  8
3
100
AcDbCircle
 10
29.760982
 20
52.989007
 30
0.0
 40
2.536798
100
AcDbArc
 50
127.864798
 51
174.161624
  0
ARC
  5
347
100
AcDbEntity
  8
3
100
AcDbCircle
 10
68.5
 20
68.5
 30
0.0
 40
42.5
100
AcDbArc
 50
341.467525
 51
78.532475
  0
LINE
  5
348
100
AcDbEntity
  8
3
100
AcDbLine
 10
60.050469
 20
110.151596
 30
0.0
 11
58.5
 21
84.655495
 31
0.0
  0
LINE
  5
349
100
AcDbEntity
  8
3
100
AcDbLine
 10
76.949531
 20
110.151596
 30
0.0
 11
78.5
 21
84.655495
 31
0.0
  0
LINE
  5
34A
100
AcDbEntity
  8
1
100
AcDbLine
 10
68.5
 20
68.5
 30
0.0
 11
127.847432
 21
34.235745
 31
0.0
  0
ARC
  5
34B
100
AcDbEntity
  8
3
100
AcDbCircle
 10
68.5
 20
68.5
 30
0.0
 40
19.0
100
AcDbArc
 50
1.756864
 51
58.243136
  0
ARC
  5
34C
100
AcDbEntity
  8
3
100
AcDbCircle
 10
63.28677
 20
71.50986
 30
0.0
 40
23.507973
100
AcDbArc
 50
306.720484
 51
353.279516
  0
LINE
  5
34D
100
AcDbEntity
  8
3
100
AcDbLine
 10
100.346575
 20
40.356694
 30
0.0
 11
77.491069
 21
51.761999
 31
0.0
  0
LINE
  5
34E
100
AcDbEntity
  8
3
100
AcDbLine
 10
108.796106
 20
54.991711
 30
0.0
 11
87.491069
 21
69.082507
 31
0.0
  0
CIRCLE
  5
34F
100
AcDbEntity
  8
3
100
AcDbCircle
 10
68.5
 20
68.5
 30
0.0
 40
17.029123
  0
ARC
  5
350
100
AcDbEntity
  8
3
100
AcDbCircle
 10
73.713231
 20
71.50986
 30
0.0
 40
23.507973
100
AcDbArc
 50
186.720484
 51
233.279516
  0
ARC
  5
351
100
AcDbEntity
  8
3
100
AcDbCircle
 10
68.5
 20
68.5
 30
0.0
 40
19.0
100
AcDbArc
 50
241.756864
 51
298.243136
  0
ARC
  5
352
100
AcDbEntity
  8
3
100
AcDbCircle
 10
59.227528
 20
52.272806
 30
0.0
 40
0.583191
100
AcDbArc
 50
298.850433
 51
42.494728
  0
ARC
  5
353
100
AcDbEntity
  8
3
100
AcDbCircle
 10
77.772473
 20
52.272806
 30
0.0
 40
0.583191
100
AcDbArc
 50
137.505272
 51
241.149567
  0
ARC
  5
354
100
AcDbEntity
  8
3
100
AcDbCircle
 10
68.5
 20
62.48028
 30
0.0
 40
23.507973
100
AcDbArc
 50
66.720484
 51
113.279516
  0
ARC
  5
355
100
AcDbEntity
  8
3
100
AcDbCircle
 10
68.5
 20
68.5
 30
0.0
 40
19.0
100
AcDbArc
 50
121.756864
 51
178.243136
  0
ARC
  5
356
100
AcDbEntity
  8
3
100
AcDbCircle
 10
49.810601
 20
68.583401
 30
0.0
 40
0.583191
100
AcDbArc
 50
17.505272
 51
121.149567
  0
ARC
  5
357
100
AcDbEntity
  8
3
100
AcDbCircle
 10
59.083074
 20
84.643795
 30
0.0
 40
0.583191
100
AcDbArc
 50
178.850433
 51
282.494728
  0
ARC
  5
358
100
AcDbEntity
  8
3
100
AcDbCircle
 10
87.1894
 20
68.583401
 30
0.0
 40
0.583191
100
AcDbArc
 50
58.850433
 51
162.494728
  0
ARC
  5
359
100
AcDbEntity
  8
3
100
AcDbCircle
 10
77.916927
 20
84.643795
 30
0.0
 40
0.583191
100
AcDbArc
 50
257.505272
 51
1.149567
  0
ARC
  5
35A
100
AcDbEntity
  8
3
100
AcDbCircle
 10
107.239018
 20
52.989007
 30
0.0
 40
2.536798
100
AcDbArc
 50
5.838376
 51
52.135202
  0
ARC
  5
35B
100
AcDbEntity
  8
3
100
AcDbCircle
 10
90.431455
 20
55.837869
 30
0.0
 40
19.504043
100
AcDbArc
 50
307.633426
 51
352.366574
  0
ARC
  5
35C
100
AcDbEntity
  8
3
100
AcDbCircle
 10
101.302424
 20
42.706523
 30
0.0
 40
2.536798
100
AcDbArc
 50
247.864798
 51
294.161624
  0
ARC
  5
35D
100
AcDbEntity
  8
3
100
AcDbCircle
 10
83.788971
 20
115.355515
 30
0.0
 40
5.290944
100
AcDbArc
 50
82.276875
 51
178.435171
  0
ARC
  5
35E
100
AcDbEntity
  8
3
100
AcDbCircle
 10
53.21103
 20
115.355515
 30
0.0
 40
5.290944
100
AcDbArc
 50
1.564829
 51
97.723125
  0
ARC
  5
35F
100
AcDbEntity
  8
3
100
AcDbCircle
 10
68.5
 20
115.5
 30
0.0
 40
10.0
100
AcDbArc
 50
180.0
 51
0.0
  0
LINE
  5
360
100
AcDbEntity
  8
1
100
AcDbLine
 10
52.0
 20
115.5
 30
0.0
 11
86.157795
 21
115.5
 31
0.0
  0
LINE
  5
361
100
AcDbEntity
  8
3
100
AcDbLine
 10
215.498612
 20
92.050492
 30
0.0
 11
215.498612
 21
68.5
 31
0.0
  0
LINE
  5
362
100
AcDbEntity
  8
3
100
AcDbLine
 10
211.93133
 20
59.733552
 30
0.0
 11
211.93133
 21
97.458952
 31
0.0
  0
LINE
  5
363
100
AcDbEntity
  8
3
100
AcDbLine
 10
199.501388
 20
123.149019
 30
0.0
 11
199.501388
 21
68.5
 31
0.0
  0
LINE
  5
364
100
AcDbEntity
  8
1
100
AcDbLine
 10
207.5
 20
107.745321
 30
0.0
 11
207.5
 21
68.5
 31
0.0
  0
LINE
  5
365
100
AcDbEntity
  8
3
100
AcDbLine
 10
216.5
 20
51.470877
 30
0.0
 11
216.5
 21
85.529124
 31
0.0
  0
LINE
  5
366
100
AcDbEntity
  8
3
100
AcDbLine
 10
205.905661
 20
54.382763
 30
0.0
 11
215.5
 21
62.902528
 31
0.0
  0
LINE
  5
367
100
AcDbEntity
  8
1
100
AcDbLine
 10
207.5
 20
29.25468
 30
0.0
 11
207.5
 21
68.5
 31
0.0
  0
ARC
  5
368
100
AcDbEntity
  8
3
100
AcDbCircle
 10
212.92804
 20
47.747917
 30
0.0
 40
9.65722
100
AcDbArc
 50
135.326082
 51
223.795418
  0
ARC
  5
369
100
AcDbEntity
  8
3
100
AcDbCircle
 10
206.170087
 20
51.398527
 30
0.0
 40
11.121634
100
AcDbArc
 50
276.867801
 51
307.105834
  0
ARC
  5
36A
100
AcDbEntity
  8
3
100
AcDbCircle
 10
207.609451
 20
42.630782
 30
0.0
 40
2.276721
100
AcDbArc
 50
223.475576
 51
267.244517
  0
LINE
  5
36B
100
AcDbEntity
  8
3
100
AcDbLine
 10
215.5
 20
68.5
 30
0.0
 11
215.5
 21
85.0
 31
0.0
  0
LINE
  5
36C
100
AcDbEntity
  8
3
100
AcDbLine
 10
215.498612
 20
62.901296
 30
0.0
 11
215.498612
 21
68.5
 31
0.0
  0
LINE
  5
36D
100
AcDbEntity
  8
3
100
AcDbLine
 10
215.5
 20
68.5
 30
0.0
 11
215.5
 21
62.902528
 31
0.0
  0
LINE
  5
36E
100
AcDbEntity
  8
3
100
AcDbLine
 10
215.498612
 20
123.149019
 30
0.0
 11
215.498612
 21
109.995536
 31
0.0
  0
LINE
  5
36F
100
AcDbEntity
  8
1
100
AcDbLine
 10
207.5
 20
108.218222
 30
0.0
 11
207.5
 21
134.227897
 31
0.0
  0
LINE
  5
370
100
AcDbEntity
  8
1
100
AcDbLine
 10
207.5
 20
107.745321
 30
0.0
 11
207.5
 21
134.070262
 31
0.0
  0
LWPOLYLINE
  5
371
100
AcDbEntity
  8
0
100
AcDbPolyline
 90
        3
 70
     1
 43
0.0
 10
216.18
 20
105.26
 10
212.085
 20
107.62425
 10
212.085
 20
102.895751
  0
LWPOLYLINE
  5
372
100
AcDbEntity
  8
0
100
AcDbPolyline
 90
        3
 70
     1
 43
0.0
 10
216.18
 20
100.531502
 10
212.085
 20
102.895751
 10
212.085
 20
98.167252
  0
LINE
  5
373
100
AcDbEntity
  8
3
100
AcDbLine
 10
199.501388
 20
105.5
 30
0.0
 11
206.62766
 21
105.5
 31
0.0
  0
LINE
  5
374
100
AcDbEntity
  8
3
100
AcDbLine
 10
214.495713
 20
111.339024
 30
0.0
 11
215.498612
 21
111.590851
 31
0.0
  0
ARC
  5
375
100
AcDbEntity
  8
3
100
AcDbCircle
 10
207.5
 20
123.0
 30
0.0
 40
8.0
100
AcDbArc
 50
90.0
 51
178.932668
  0
MTEXT
  5
376
102
{ACAD_REACTORS
330
377
102
}
100
AcDbEntity
  8
0
100
AcDbMText
 10
263.09
 20
97.5
 30
0.0
 40
5.0
 41
0.0
 71
     4
 72
     1
  1
\A1;R1
  0
LEADER
  5
377
100
AcDbEntity
  8
0
100
AcDbLeader
  3
STANDARD
 73
     0
 40
5.0
 41
6.666667
 76
     3
 10
246.5
 20
83.5
 30
0.0
 10
262.0
 20
97.5
 30
0.0
 10
263.0
 20
97.5
 30
0.0
 77
   256
340
376
1001
ACAD
1000
DSTYLE
1002
{
1070
    78
1070
     8
1070
   288
1070
     1
1070
   284
1070
     8
1070
   140
1040
5.0
1070
    73
1070
     0
1070
   272
1070
     2
1070
    42
1040
1.0
1070
    44
1040
1.0
1070
   271
1070
     2
1070
    41
1040
2.0
1002
}
  0
DIMENSION
  5
378
100
AcDbEntity
  8
0
100
AcDbDimension
  2
*D9
 10
246.5
 20
95.0
 30
0.0
 11
240.5
 21
95.0
 31
0.0
 12
-58.5
 22
-161.0
 32
0.0
 70
   128
  3
STANDARD
100
AcDbAlignedDimension
 13
234.5
 23
85.0
 33
0.0
 14
246.5
 24
83.5
 34
0.0
100
AcDbRotatedDimension
1001
ACAD
1000
DSTYLE
1002
{
1070
    78
1070
     8
1070
   288
1070
     1
1070
   284
1070
     8
1070
   140
1040
5.0
1070
    73
1070
     0
1070
   272
1070
     2
1070
    42
1040
1.0
1070
    44
1040
1.0
1070
   271
1070
     2
1070
    41
1040
2.0
1002
}
  0
ARC
  5
379
100
AcDbEntity
  8
3
100
AcDbCircle
 10
208.5
 20
84.499112
 30
0.0
 40
10.0
100
AcDbArc
 50
10.46885
 51
33.407825
  0
LINE
  5
37A
100
AcDbEntity
  8
1
100
AcDbLine
 10
224.0
 20
68.5
 30
0.0
 11
224.0
 21
99.5
 31
0.0
  0
TEXT
  5
37B
100
AcDbEntity
  8
0
100
AcDbText
 10
260.993958
 20
73.795325
 30
0.0
 40
3.5
  1
0
 50
90.0
 41
0.7
  7
BIGFONT
100
AcDbText
  0
LWPOLYLINE
  5
37C
100
AcDbEntity
  8
0
100
AcDbPolyline
 90
        3
 70
     1
 43
0.0
 10
260.031502
 20
83.32
 10
262.395751
 20
87.415
 10
257.667252
 20
87.415
  0
DIMENSION
  5
37D
100
AcDbEntity
  8
0
100
AcDbDimension
  2
*D10
 10
269.0
 20
53.5
 30
0.0
 11
269.0
 21
68.5
 31
0.0
 12
-58.5
 22
-161.0
 32
0.0
 70
   128
  1
%%C30
  3
STANDARD
100
AcDbAlignedDimension
 13
246.5
 23
83.5
 33
0.0
 14
246.5
 24
53.5
 34
0.0
 50
90.0
100
AcDbRotatedDimension
1001
ACAD
1000
DSTYLE
1002
{
1070
    78
1070
     8
1070
   288
1070
     1
1070
   284
1070
     8
1070
   140
1040
5.0
1070
    73
1070
     0
1070
   272
1070
     2
1070
    42
1040
1.0
1070
    44
1040
1.0
1070
   271
1070
     2
1070
    41
1040
2.0
1002
}
  0
LINE
  5
37E
100
AcDbEntity
  8
3
100
AcDbLine
 10
246.5
 20
83.5
 30
0.0
 11
246.5
 21
53.5
 31
0.0
  0
ARC
  5
37F
100
AcDbEntity
  8
2
100
AcDbCircle
 10
219.196834
 20
60.369283
 30
0.0
 40
14.724243
100
AcDbArc
 50
341.812294
 51
21.6608
  0
ARC
  5
380
100
AcDbEntity
  8
2
100
AcDbCircle
 10
229.297752
 20
60.416931
 30
0.0
 40
10.8735
100
AcDbArc
 50
132.618221
 51
225.755684
  0
LINE
  5
381
100
AcDbEntity
  8
1
100
AcDbLine
 10
224.0
 20
68.5
 30
0.0
 11
224.0
 21
45.5
 31
0.0
  0
LINE
  5
382
100
AcDbEntity
  8
3
100
AcDbLine
 10
246.5
 20
53.5
 30
0.0
 11
234.5
 21
53.5
 31
0.0
  0
LINE
  5
383
100
AcDbEntity
  8
2
100
AcDbLine
 10
224.321396
 20
49.504782
 30
0.0
 11
229.830488
 21
52.922871
 31
0.0
  0
ARC
  5
384
100
AcDbEntity
  8
2
100
AcDbCircle
 10
225.037609
 20
61.908328
 30
0.0
 40
10.199247
100
AcDbArc
 50
264.160979
 51
323.021947
  0
ARC
  5
385
100
AcDbEntity
  8
2
100
AcDbCircle
 10
224.014849
 20
55.260724
 30
0.0
 40
3.498756
100
AcDbArc
 50
228.818364
 51
269.75683
  0
LINE
  5
386
100
AcDbEntity
  8
3
100
AcDbLine
 10
234.5
 20
53.5
 30
0.0
 11
234.5
 21
52.0
 31
0.0
  0
LINE
  5
387
100
AcDbEntity
  8
3
100
AcDbLine
 10
234.5
 20
83.5
 30
0.0
 11
246.5
 21
83.5
 31
0.0
  0
ARC
  5
388
100
AcDbEntity
  8
2
100
AcDbCircle
 10
225.646508
 20
59.873713
 30
0.0
 40
9.354831
100
AcDbArc
 50
39.34179
 51
100.137215
  0
ARC
  5
389
100
AcDbEntity
  8
2
100
AcDbCircle
 10
224.026753
 20
65.456756
 30
0.0
 40
3.62585
100
AcDbArc
 50
90.422752
 51
125.229023
  0
LINE
  5
38A
100
AcDbEntity
  8
3
100
AcDbLine
 10
234.5
 20
85.0
 30
0.0
 11
234.5
 21
83.5
 31
0.0
  0
TEXT
  5
38B
100
AcDbEntity
  8
0
100
AcDbText
 10
265.193958
 20
73.795325
 30
0.0
 40
3.5
  1
-0.1
 50
90.0
 41
0.7
  7
BIGFONT
100
AcDbText
  0
LWPOLYLINE
  5
38C
100
AcDbEntity
  8
0
100
AcDbPolyline
 90
        3
 70
     1
 43
0.0
 10
264.76
 20
83.32
 10
267.12425
 20
87.415
 10
262.395751
 20
87.415
  0
LWPOLYLINE
  5
38D
100
AcDbEntity
  8
0
100
AcDbPolyline
 90
        3
 70
     1
 43
0.0
 10
246.82
 20
117.24
 10
250.915
 20
114.875751
 10
250.915
 20
119.60425
  0
TEXT
  5
38E
100
AcDbEntity
  8
0
100
AcDbText
 10
236.391354
 20
109.247647
 30
0.0
 40
3.5
  1
%%P0.1
 41
0.7
  7
BIGFONT
100
AcDbText
  0
LWPOLYLINE
  5
38F
100
AcDbEntity
  8
0
100
AcDbPolyline
 90
        3
 70
     1
 43
0.0
 10
246.82
 20
121.968499
 10
250.915
 20
119.60425
 10
250.915
 20
124.332748
  0
ENDBLK
  5
391
100
AcDbEntity
  8
0
100
AcDbBlockEnd
  0
BLOCK
  5
461
100
AcDbEntity
  8
0
100
AcDbBlockBegin
  2
*D12
 70
     1
 10
0.0
 20
0.0
 30
0.0
  3
*D12
  1

  0
LINE
  5
457
100
AcDbEntity
  8
0
  6
BYBLOCK
 62
     0
100
AcDbLine
 10
288.5
 20
236.165244
 30
0.0
 11
288.5
 21
265.367737
 31
0.0
  0
LINE
  5
458
100
AcDbEntity
  8
0
  6
BYBLOCK
 62
     0
100
AcDbLine
 10
319.5
 20
233.0
 30
0.0
 11
319.5
 21
265.367737
 31
0.0
  0
LINE
  5
459
100
AcDbEntity
  8
0
  6
BYBLOCK
 62
     0
100
AcDbLine
 10
290.5
 20
264.367737
 30
0.0
 11
300.605098
 21
264.367737
 31
0.0
  0
LINE
  5
45A
100
AcDbEntity
  8
0
  6
BYBLOCK
 62
     0
100
AcDbLine
 10
317.5
 20
264.367737
 30
0.0
 11
307.451765
 21
264.367737
 31
0.0
  0
SOLID
  5
45B
100
AcDbEntity
  8
0
  6
BYBLOCK
 62
     0
100
AcDbTrace
 10
290.5
 20
264.70107
 30
0.0
 11
290.5
 21
264.034403
 31
0.0
 12
288.5
 22
264.367737
 32
0.0
 13
288.5
 23
264.367737
 33
0.0
  0
SOLID
  5
45C
100
AcDbEntity
  8
0
  6
BYBLOCK
 62
     0
100
AcDbTrace
 10
317.5
 20
264.70107
 30
0.0
 11
317.5
 21
264.034403
 31
0.0
 12
319.5
 22
264.367737
 32
0.0
 13
319.5
 23
264.367737
 33
0.0
  0
MTEXT
  5
45D
100
AcDbEntity
  8
0
  6
BYBLOCK
 62
     0
100
AcDbMText
 10
304.028431
 20
264.367737
 30
0.0
 40
5.0
 41
0.0
 71
     5
 72
     1
  1
\A1;31
  0
POINT
  5
45E
100
AcDbEntity
  8
DEFPOINTS
  6
BYBLOCK
 62
     0
100
AcDbPoint
 10
288.5
 20
235.165244
 30
0.0
  0
POINT
  5
45F
100
AcDbEntity
  8
DEFPOINTS
  6
BYBLOCK
 62
     0
100
AcDbPoint
 10
319.5
 20
232.0
 30
0.0
  0
POINT
  5
460
100
AcDbEntity
  8
DEFPOINTS
  6
BYBLOCK
 62
     0
100
AcDbPoint
 10
319.5
 20
264.367737
 30
0.0
  0
ENDBLK
  5
462
100
AcDbEntity
  8
0
100
AcDbBlockEnd
  0
BLOCK
  5
46E
100
AcDbEntity
  8
0
100
AcDbBlockBegin
  2
*D13
 70
     1
 10
0.0
 20
0.0
 30
0.0
  3
*D13
  1

  0
LINE
  5
464
100
AcDbEntity
  8
0
  6
BYBLOCK
 62
     0
100
AcDbLine
 10
305.5
 20
235.0
 30
0.0
 11
305.5
 21
251.612385
 31
0.0
  0
LINE
  5
465
100
AcDbEntity
  8
0
  6
BYBLOCK
 62
     0
100
AcDbLine
 10
319.5
 20
233.0
 30
0.0
 11
319.5
 21
251.612385
 31
0.0
  0
LINE
  5
466
100
AcDbEntity
  8
0
  6
BYBLOCK
 62
     0
100
AcDbLine
 10
307.5
 20
250.612385
 30
0.0
 11
309.338688
 21
250.612385
 31
0.0
  0
LINE
  5
467
100
AcDbEntity
  8
0
  6
BYBLOCK
 62
     0
100
AcDbLine
 10
317.5
 20
250.612385
 30
0.0
 11
316.185354
 21
250.612385
 31
0.0
  0
SOLID
  5
468
100
AcDbEntity
  8
0
  6
BYBLOCK
 62
     0
100
AcDbTrace
 10
307.5
 20
250.945718
 30
0.0
 11
307.5
 21
250.279052
 31
0.0
 12
305.5
 22
250.612385
 32
0.0
 13
305.5
 23
250.612385
 33
0.0
  0
SOLID
  5
469
100
AcDbEntity
  8
0
  6
BYBLOCK
 62
     0
100
AcDbTrace
 10
317.5
 20
250.945718
 30
0.0
 11
317.5
 21
250.279052
 31
0.0
 12
319.5
 22
250.612385
 32
0.0
 13
319.5
 23
250.612385
 33
0.0
  0
MTEXT
  5
46A
100
AcDbEntity
  8
0
  6
BYBLOCK
 62
     0
100
AcDbMText
 10
312.762021
 20
250.612385
 30
0.0
 40
5.0
 41
0.0
 71
     5
 72
     1
  1
\A1;14
  0
POINT
  5
46B
100
AcDbEntity
  8
DEFPOINTS
  6
BYBLOCK
 62
     0
100
AcDbPoint
 10
305.5
 20
234.0
 30
0.0
  0
POINT
  5
46C
100
AcDbEntity
  8
DEFPOINTS
  6
BYBLOCK
 62
     0
100
AcDbPoint
 10
319.5
 20
232.0
 30
0.0
  0
POINT
  5
46D
100
AcDbEntity
  8
DEFPOINTS
  6
BYBLOCK
 62
     0
100
AcDbPoint
 10
319.5
 20
250.612385
 30
0.0
  0
ENDBLK
  5
46F
100
AcDbEntity
  8
0
100
AcDbBlockEnd
  0
BLOCK
  5
4E0
100
AcDbEntity
  8
0
100
AcDbBlockBegin
  2
A$C0CFF4D5E
 70
     0
 10
0.0
 20
0.0
 30
0.0
  3
A$C0CFF4D5E
  1

  0
ARC
  5
471
100
AcDbEntity
  8
3
100
AcDbCircle
 10
222.028118
 20
53.160566
 30
0.0
 40
10.892304
100
AcDbArc
 50
131.572905
 51
165.396871
  0
ARC
  5
472
100
AcDbEntity
  8
3
100
AcDbCircle
 10
215.032821
 20
47.130716
 30
0.0
 40
3.012377
100
AcDbArc
 50
212.774801
 51
269.375725
  0
LINE
  5
473
100
AcDbEntity
  8
1
100
AcDbLine
 10
202.0
 20
131.0
 30
0.0
 11
225.5
 21
131.0
 31
0.0
  0
LINE
  5
474
100
AcDbEntity
  8
3
100
AcDbLine
 10
207.0
 20
121.0
 30
0.0
 11
213.877193
 21
121.0
 31
0.0
  0
ARC
  5
475
100
AcDbEntity
  8
3
100
AcDbCircle
 10
215.0
 20
14.5
 30
5.786942
 40
8.0
100
AcDbArc
 50
181.067332
 51
270.0
  0
LINE
  5
476
100
AcDbEntity
  8
1
100
AcDbLine
 10
203.5
 20
14.5
 30
5.786942
 11
225.759056
 21
14.5
 31
5.786942
  0
ARC
  5
477
100
AcDbEntity
  8
3
100
AcDbCircle
 10
215.0
 20
21.5
 30
5.786942
 40
5.0
100
AcDbArc
 50
90.0
 51
147.890561
  0
LINE
  5
478
100
AcDbEntity
  8
1
100
AcDbLine
 10
202.5
 20
76.5
 30
5.786942
 11
262.0
 21
76.5
 31
5.786942
  0
LINE
  5
479
100
AcDbEntity
  8
1
100
AcDbLine
 10
203.5
 20
138.5
 30
5.786942
 11
225.759056
 21
138.5
 31
5.786942
  0
ARC
  5
47A
100
AcDbEntity
  8
3
100
AcDbCircle
 10
215.0
 20
138.5
 30
5.786942
 40
8.0
100
AcDbArc
 50
90.0
 51
178.932668
  0
LINE
  5
47B
100
AcDbEntity
  8
1
100
AcDbLine
 10
74.5
 20
76.5
 30
0.0
 11
138.52147
 21
39.537187
 31
0.0
  0
LINE
  5
47C
100
AcDbEntity
  8
1
100
AcDbLine
 10
74.5
 20
76.5
 30
0.0
 11
10.695036
 21
39.662187
 31
0.0
  0
ARC
  5
47D
100
AcDbEntity
  8
3
100
AcDbCircle
 10
223.676223
 20
51.839779
 30
0.0
 40
12.849153
100
AcDbArc
 50
161.547568
 51
209.564332
  0
LINE
  5
47E
100
AcDbEntity
  8
3
100
AcDbLine
 10
85.992536
 20
57.740426
 30
0.0
 11
112.594014
 21
44.114106
 31
0.0
  0
ARC
  5
47F
100
AcDbEntity
  8
3
100
AcDbCircle
 10
102.055279
 20
60.590953
 30
0.0
 40
20.679523
100
AcDbArc
 50
307.718156
 51
352.281844
  0
ARC
  5
480
100
AcDbEntity
  8
3
100
AcDbCircle
 10
46.944721
 20
60.590953
 30
0.0
 40
20.679523
100
AcDbArc
 50
187.718156
 51
232.281844
  0
LINE
  5
481
100
AcDbEntity
  8
3
100
AcDbLine
 10
63.007464
 20
57.740426
 30
0.0
 11
36.405986
 21
44.114106
 31
0.0
  0
ARC
  5
482
100
AcDbEntity
  8
3
100
AcDbCircle
 10
74.5
 20
76.5
 30
0.0
 40
62.0
100
AcDbArc
 50
105.647577
 51
74.352423
  0
ARC
  5
483
100
AcDbEntity
  8
3
100
AcDbCircle
 10
74.5
 20
76.5
 30
0.0
 40
62.0
100
AcDbArc
 50
105.647577
 51
74.352423
  0
CIRCLE
  5
484
100
AcDbEntity
  8
3
100
AcDbCircle
 10
74.5
 20
76.5
 30
0.0
 40
70.0
  0
LINE
  5
485
100
AcDbEntity
  8
1
100
AcDbLine
 10
74.5
 20
155.5
 30
0.0
 11
74.5
 21
0.0
 31
0.0
  0
LINE
  5
486
100
AcDbEntity
  8
3
100
AcDbLine
 10
207.0
 20
14.5
 30
0.0
 11
207.0
 21
76.5
 31
0.0
  0
ARC
  5
487
100
AcDbEntity
  8
3
100
AcDbCircle
 10
74.5
 20
76.5
 30
0.0
 40
50.0
100
AcDbArc
 50
220.36976
 51
319.63024
  0
ARC
  5
488
100
AcDbEntity
  8
3
100
AcDbCircle
 10
35.45539
 20
46.053693
 30
0.0
 40
2.160007
100
AcDbArc
 50
237.456905
 51
296.109597
  0
ARC
  5
489
100
AcDbEntity
  8
3
100
AcDbCircle
 10
113.54461
 20
46.053693
 30
0.0
 40
2.160007
100
AcDbArc
 50
243.890403
 51
302.543095
  0
ARC
  5
48A
100
AcDbEntity
  8
3
100
AcDbCircle
 10
226.0
 20
14.571788
 30
5.786942
 40
18.0
100
AcDbArc
 50
147.769398
 51
178.749408
  0
ARC
  5
48B
100
AcDbEntity
  8
3
100
AcDbCircle
 10
207.201353
 20
14.354707
 30
5.786942
 40
0.2
100
AcDbArc
 50
107.842417
 51
181.067332
  0
ARC
  5
48C
100
AcDbEntity
  8
3
100
AcDbCircle
 10
207.804335
 20
14.969007
 30
5.786942
 40
0.2
100
AcDbArc
 50
287.842417
 51
358.749408
  0
LINE
  5
48D
100
AcDbEntity
  8
3
100
AcDbLine
 10
207.140073
 20
14.545087
 30
5.786942
 11
207.865615
 21
14.778626
 31
5.786942
  0
LINE
  5
48E
100
AcDbEntity
  8
3
100
AcDbLine
 10
52.507464
 20
75.92696
 30
0.0
 11
27.405986
 21
59.702564
 31
0.0
  0
ARC
  5
48F
100
AcDbEntity
  8
3
100
AcDbCircle
 10
74.5
 20
76.5
 30
0.0
 40
50.0
100
AcDbArc
 50
100.36976
 51
199.63024
  0
LINE
  5
490
100
AcDbEntity
  8
1
100
AcDbLine
 10
150.0
 20
76.5
 30
5.786942
 11
0.0
 21
76.5
 31
5.786942
  0
ARC
  5
491
100
AcDbEntity
  8
3
100
AcDbCircle
 10
28.610419
 20
57.90953
 30
0.0
 40
2.160007
100
AcDbArc
 50
123.890403
 51
182.543095
  0
ARC
  5
492
100
AcDbEntity
  8
3
100
AcDbCircle
 10
74.5
 20
76.5
 30
0.0
 40
50.0
100
AcDbArc
 50
340.36976
 51
79.63024
  0
LINE
  5
493
100
AcDbEntity
  8
3
100
AcDbLine
 10
64.0
 20
95.832615
 30
0.0
 11
65.5
 21
125.683331
 31
0.0
  0
LINE
  5
494
100
AcDbEntity
  8
3
100
AcDbLine
 10
85.0
 20
95.832615
 30
0.0
 11
83.5
 21
125.683331
 31
0.0
  0
CIRCLE
  5
495
100
AcDbEntity
  8
3
100
AcDbCircle
 10
74.5
 20
76.5
 30
0.0
 40
19.165244
  0
ARC
  5
496
100
AcDbEntity
  8
3
100
AcDbCircle
 10
74.5
 20
76.5
 30
0.0
 40
22.0
100
AcDbArc
 50
238.507431
 51
301.492569
  0
ARC
  5
497
100
AcDbEntity
  8
3
100
AcDbCircle
 10
74.5
 20
69.427207
 30
0.0
 40
27.091534
100
AcDbArc
 50
69.613664
 51
110.386336
  0
ARC
  5
498
100
AcDbEntity
  8
3
100
AcDbCircle
 10
74.5
 20
76.5
 30
0.0
 40
22.0
100
AcDbArc
 50
118.507431
 51
181.492569
  0
ARC
  5
499
100
AcDbEntity
  8
3
100
AcDbCircle
 10
80.625218
 20
80.036397
 30
0.0
 40
27.091534
100
AcDbArc
 50
189.613664
 51
230.386336
  0
ARC
  5
49A
100
AcDbEntity
  8
3
100
AcDbCircle
 10
52.975871
 20
74.92305
 30
0.0
 40
1.107808
100
AcDbArc
 50
32.116331
 51
115.012919
  0
ARC
  5
49B
100
AcDbEntity
  8
3
100
AcDbCircle
 10
62.372256
 20
58.648033
 30
0.0
 40
1.107808
100
AcDbArc
 50
304.987081
 51
27.883669
  0
ARC
  5
49C
100
AcDbEntity
  8
3
100
AcDbCircle
 10
65.103614
 20
95.928918
 30
0.0
 40
1.107808
100
AcDbArc
 50
184.987081
 51
267.883669
  0
ARC
  5
49D
100
AcDbEntity
  8
3
100
AcDbCircle
 10
74.5
 20
76.5
 30
0.0
 40
22.0
100
AcDbArc
 50
358.507431
 51
61.492569
  0
LINE
  5
49E
100
AcDbEntity
  8
3
100
AcDbLine
 10
96.492536
 20
75.92696
 30
0.0
 11
121.594014
 21
59.702564
 31
0.0
  0
ARC
  5
49F
100
AcDbEntity
  8
3
100
AcDbCircle
 10
68.374781
 20
80.036397
 30
0.0
 40
27.091534
100
AcDbArc
 50
309.613664
 51
350.386336
  0
ARC
  5
4A0
100
AcDbEntity
  8
3
100
AcDbCircle
 10
86.627744
 20
58.648033
 30
0.0
 40
1.107808
100
AcDbArc
 50
152.116331
 51
235.012919
  0
ARC
  5
4A1
100
AcDbEntity
  8
3
100
AcDbCircle
 10
96.024129
 20
74.92305
 30
0.0
 40
1.107808
100
AcDbArc
 50
64.987081
 51
147.883669
  0
ARC
  5
4A2
100
AcDbEntity
  8
3
100
AcDbCircle
 10
120.389581
 20
57.90953
 30
0.0
 40
2.160007
100
AcDbArc
 50
357.456905
 51
56.109597
  0
ARC
  5
4A3
100
AcDbEntity
  8
3
100
AcDbCircle
 10
83.896386
 20
95.928918
 30
0.0
 40
1.107808
100
AcDbArc
 50
272.116331
 51
355.012919
  0
ARC
  5
4A4
100
AcDbEntity
  8
3
100
AcDbCircle
 10
89.997724
 20
130.840344
 30
0.0
 40
5.5
100
AcDbArc
 50
77.131949
 51
178.336556
  0
ARC
  5
4A5
100
AcDbEntity
  8
3
100
AcDbCircle
 10
74.5
 20
131.0
 30
0.0
 40
10.0
100
AcDbArc
 50
180.0
 51
0.0
  0
LINE
  5
4A6
100
AcDbEntity
  8
1
100
AcDbLine
 10
56.5
 20
131.0
 30
0.0
 11
93.5
 21
131.0
 31
0.0
  0
ARC
  5
4A7
100
AcDbEntity
  8
3
100
AcDbCircle
 10
59.002276
 20
130.840344
 30
0.0
 40
5.5
100
AcDbArc
 50
1.663444
 51
102.868051
  0
ARC
  5
4A8
100
AcDbEntity
  8
3
100
AcDbCircle
 10
67.65503
 20
125.536778
 30
0.0
 40
2.160007
100
AcDbArc
 50
158.100789
 51
176.109597
  0
ARC
  5
4A9
100
AcDbEntity
  8
3
100
AcDbCircle
 10
81.34497
 20
125.536778
 30
0.0
 40
2.160007
100
AcDbArc
 50
3.890403
 51
21.899211
  0
LINE
  5
4AA
100
AcDbEntity
  8
3
100
AcDbLine
 10
207.0
 20
138.5
 30
0.0
 11
207.0
 21
76.5
 31
0.0
  0
LINE
  5
4AB
100
AcDbEntity
  8
3
100
AcDbLine
 10
219.37945
 20
45.599447
 30
0.0
 11
231.995912
 21
55.005526
 31
0.0
  0
LINE
  5
4AC
100
AcDbEntity
  8
1
100
AcDbLine
 10
215.0
 20
29.75468
 30
5.786942
 11
215.0
 21
76.5
 31
5.786942
  0
LINE
  5
4AD
100
AcDbEntity
  8
3
100
AcDbLine
 10
223.0
 20
48.298712
 30
0.0
 11
223.0
 21
14.5
 31
0.0
  0
ARC
  5
4AE
100
AcDbEntity
  8
3
100
AcDbCircle
 10
214.717517
 20
52.45666
 30
0.0
 40
8.291863
100
AcDbArc
 50
272.207526
 51
304.21015
  0
ARC
  5
4AF
100
AcDbEntity
  8
3
100
AcDbCircle
 10
229.972975
 20
22.742804
 30
5.786942
 40
10.837971
100
AcDbArc
 50
172.446775
 51
229.512589
  0
LINE
  5
4B0
100
AcDbEntity
  8
1
100
AcDbLine
 10
215.0
 20
29.75468
 30
5.786942
 11
215.0
 21
3.429739
 31
5.786942
  0
LINE
  5
4B1
100
AcDbEntity
  8
1
100
AcDbLine
 10
215.0
 20
29.281778
 30
5.786942
 11
215.0
 21
3.272104
 31
5.786942
  0
ARC
  5
4B2
100
AcDbEntity
  8
3
100
AcDbCircle
 10
215.0
 20
14.5
 30
5.786942
 40
8.0
100
AcDbArc
 50
270.0
 51
358.932668
  0
LINE
  5
4B3
100
AcDbEntity
  8
3
100
AcDbLine
 10
219.235172
 20
24.157691
 30
5.786942
 11
219.235172
 21
45.503546
 31
5.786942
  0
ARC
  5
4B4
100
AcDbEntity
  8
3
100
AcDbCircle
 10
215.0
 20
21.5
 30
5.786942
 40
5.0
100
AcDbArc
 50
32.109439
 51
90.0
  0
ARC
  5
4B5
100
AcDbEntity
  8
3
100
AcDbCircle
 10
204.0
 20
14.571788
 30
5.786942
 40
18.0
100
AcDbArc
 50
32.177922
 51
32.230602
  0
DIMENSION
  5
4B6
100
AcDbEntity
  8
0
100
AcDbDimension
  2
*D13
 10
257.0
 20
111.112385
 30
0.0
 11
250.262021
 21
111.112385
 31
0.0
 12
-62.5
 22
-139.5
 32
0.0
 70
   128
  3
STANDARD
100
AcDbAlignedDimension
 13
243.0
 23
94.5
 33
0.0
 14
257.0
 24
92.5
 34
0.0
100
AcDbRotatedDimension
1001
ACAD
1000
DSTYLE
1002
{
1070
    78
1070
     8
1070
   288
1070
     1
1070
   284
1070
     8
1070
   140
1040
5.0
1070
    73
1070
     0
1070
   272
1070
     2
1070
    42
1040
1.0
1070
    44
1040
1.0
1070
   271
1070
     2
1070
    41
1040
2.0
1002
}
  0
DIMENSION
  5
4B7
100
AcDbEntity
  8
0
100
AcDbDimension
  2
*D12
 10
257.0
 20
124.867737
 30
0.0
 11
241.528431
 21
124.867737
 31
0.0
 12
-62.5
 22
-139.5
 32
0.0
 70
   128
  3
STANDARD
100
AcDbAlignedDimension
 13
226.0
 23
95.665245
 33
0.0
 14
257.0
 24
92.5
 34
0.0
100
AcDbRotatedDimension
1001
ACAD
1000
DSTYLE
1002
{
1070
    78
1070
     8
1070
   288
1070
     1
1070
   284
1070
     8
1070
   140
1040
5.0
1070
    73
1070
     0
1070
   272
1070
     2
1070
    42
1040
1.0
1070
    44
1040
1.0
1070
   271
1070
     2
1070
    41
1040
2.0
1002
}
  0
LINE
  5
4B8
100
AcDbEntity
  8
3
100
AcDbLine
 10
241.355062
 20
97.506444
 30
0.0
 11
221.995712
 21
127.328623
 31
0.0
  0
LINE
  5
4B9
100
AcDbEntity
  8
3
100
AcDbLine
 10
226.521712
 20
100.407497
 30
0.0
 11
213.877193
 21
121.0
 31
0.0
  0
LINE
  5
4BA
100
AcDbEntity
  8
1
100
AcDbLine
 10
233.0
 20
76.5
 30
0.0
 11
233.0
 21
111.0
 31
0.0
  0
LINE
  5
4BB
100
AcDbEntity
  8
3
100
AcDbLine
 10
257.0
 20
60.5
 30
0.0
 11
243.0
 21
60.5
 31
0.0
  0
LINE
  5
4BC
100
AcDbEntity
  8
3
100
AcDbLine
 10
243.0
 20
92.5
 30
0.0
 11
257.0
 21
92.5
 31
0.0
  0
LINE
  5
4BD
100
AcDbEntity
  8
3
100
AcDbLine
 10
226.0
 20
57.334756
 30
0.0
 11
226.0
 21
95.665245
 31
0.0
  0
LINE
  5
4BE
100
AcDbEntity
  8
3
100
AcDbLine
 10
223.0
 20
76.5
 30
0.0
 11
223.0
 21
106.142857
 31
0.0
  0
LINE
  5
4BF
100
AcDbEntity
  8
2
100
AcDbLine
 10
231.995912
 20
55.005526
 30
0.0
 11
237.634819
 21
59.169522
 31
0.0
  0
ARC
  5
4C0
100
AcDbEntity
  8
2
100
AcDbCircle
 10
232.030765
 20
68.48721
 30
0.0
 40
10.790402
100
AcDbArc
 50
275.153472
 51
328.779501
  0
ARC
  5
4C1
100
AcDbEntity
  8
2
100
AcDbCircle
 10
233.636613
 20
66.516433
 30
0.0
 40
9.432035
100
AcDbArc
 50
38.205761
 51
93.870108
  0
ARC
  5
4C2
100
AcDbEntity
  8
3
100
AcDbCircle
 10
233.524193
 20
69.266129
 30
0.0
 40
14.342261
100
AcDbArc
 50
253.705001
 51
311.352614
  0
LINE
  5
4C3
100
AcDbEntity
  8
3
100
AcDbLine
 10
214.800285
 20
61.309229
 30
0.0
 11
226.070337
 21
71.182312
 31
0.0
  0
ARC
  5
4C4
100
AcDbEntity
  8
2
100
AcDbCircle
 10
243.006048
 20
66.75
 30
0.0
 40
15.140007
100
AcDbArc
 50
149.210275
 51
210.789725
  0
LINE
  5
4C5
100
AcDbEntity
  8
1
100
AcDbLine
 10
233.0
 20
76.5
 30
0.0
 11
233.0
 21
51.775201
 31
0.0
  0
ARC
  5
4C6
100
AcDbEntity
  8
2
100
AcDbCircle
 10
232.75
 20
61.34741
 30
0.0
 40
3.615637
100
AcDbArc
 50
220.484186
 51
273.964829
  0
ARC
  5
4C7
100
AcDbEntity
  8
3
100
AcDbCircle
 10
231.019348
 20
62.654022
 30
0.0
 40
7.31358
100
AcDbArc
 50
226.661658
 51
258.009858
  0
LINE
  5
4C8
100
AcDbEntity
  8
3
100
AcDbLine
 10
223.0
 20
76.5
 30
0.0
 11
223.0
 21
68.492556
 31
0.0
  0
LINE
  5
4C9
100
AcDbEntity
  8
2
100
AcDbLine
 10
226.070337
 20
71.182312
 30
0.0
 11
230.3564
 21
74.919785
 31
0.0
  0
ARC
  5
4CA
100
AcDbEntity
  8
2
100
AcDbCircle
 10
232.75
 20
72.585514
 30
0.0
 40
3.350785
100
AcDbArc
 50
85.721221
 51
145.155262
  0
ARC
  5
4CB
100
AcDbEntity
  8
2
100
AcDbCircle
 10
228.24715
 20
67.335164
 30
0.0
 40
13.748352
100
AcDbArc
 50
341.154415
 51
21.392882
  0
LINE
  5
4CC
100
AcDbEntity
  8
3
100
AcDbLine
 10
243.0
 20
60.5
 30
0.0
 11
243.0
 21
58.5
 31
0.0
  0
ARC
  5
4CD
100
AcDbEntity
  8
3
100
AcDbCircle
 10
233.524193
 20
83.733871
 30
0.0
 40
14.342261
100
AcDbArc
 50
48.647386
 51
106.294999
  0
ARC
  5
4CE
100
AcDbEntity
  8
3
100
AcDbCircle
 10
231.019348
 20
90.345978
 30
0.0
 40
7.31358
100
AcDbArc
 50
101.990142
 51
133.338342
  0
ARC
  5
4CF
100
AcDbEntity
  8
3
100
AcDbCircle
 10
218.0
 20
95.174867
 30
0.0
 40
10.0
100
AcDbArc
 50
9.053996
 51
31.551385
  0
LINE
  5
4D0
100
AcDbEntity
  8
3
100
AcDbLine
 10
243.0
 20
94.5
 30
0.0
 11
243.0
 21
92.5
 31
0.0
  0
ARC
  5
4D1
100
AcDbEntity
  8
3
100
AcDbCircle
 10
238.0
 20
95.328474
 30
0.0
 40
4.0
100
AcDbArc
 50
360.0
 51
32.99
  0
LINE
  5
4D2
100
AcDbEntity
  8
3
100
AcDbLine
 10
242.0
 20
95.303709
 30
0.0
 11
242.0
 21
95.328474
 31
0.0
  0
LINE
  5
4D3
100
AcDbEntity
  8
3
100
AcDbLine
 10
257.0
 20
92.5
 30
0.0
 11
257.0
 21
60.5
 31
0.0
  0
LWPOLYLINE
  5
4D4
100
AcDbEntity
  8
0
100
AcDbPolyline
 90
        3
 70
     1
 43
0.0
 10
225.8609
 20
112.556012
 10
222.208671
 20
114.664627
 10
222.208671
 20
110.447396
  0
LWPOLYLINE
  5
4D5
100
AcDbEntity
  8
0
100
AcDbPolyline
 90
        3
 70
     1
 43
0.0
 10
225.8609
 20
116.773242
 10
222.208671
 20
118.881857
 10
222.208671
 20
114.664627
  0
LINE
  5
4D6
100
AcDbEntity
  8
3
100
AcDbLine
 10
223.0
 20
125.781565
 30
0.0
 11
223.0
 21
138.5
 31
0.0
  0
LINE
  5
4D7
100
AcDbEntity
  8
3
100
AcDbLine
 10
221.995712
 20
127.328623
 30
0.0
 11
223.0
 21
127.4731
 31
0.0
  0
TEXT
  5
4D8
100
AcDbEntity
  8
0
100
AcDbText
 10
242.422949
 20
128.651328
 30
0.0
 40
5.0
  1
%%P0.1
 41
0.7
  7
BIGFONT
100
AcDbText
  0
LWPOLYLINE
  5
4D9
100
AcDbEntity
  8
0
100
AcDbPolyline
 90
        3
 70
     1
 43
0.0
 10
257.725272
 20
140.353776
 10
261.377501
 20
138.245161
 10
261.377501
 20
142.462391
  0
LWPOLYLINE
  5
4DA
100
AcDbEntity
  8
0
100
AcDbPolyline
 90
        3
 70
     1
 43
0.0
 10
257.725272
 20
136.136546
 10
261.377501
 20
134.02793
 10
261.377501
 20
138.245161
  0
LINE
  5
4DB
100
AcDbEntity
  8
3
100
AcDbLine
 10
219.235172
 20
65.194393
 30
5.786942
 11
219.235172
 21
112.274149
 31
5.786942
  0
LINE
  5
4DC
100
AcDbEntity
  8
1
100
AcDbLine
 10
215.0
 20
123.245321
 30
5.786942
 11
215.0
 21
76.5
 31
5.786942
  0
ARC
  5
4DD
100
AcDbEntity
  8
3
100
AcDbCircle
 10
215.0
 20
138.5
 30
5.786942
 40
8.0
100
AcDbArc
 50
1.067332
 51
90.0
  0
LINE
  5
4DE
100
AcDbEntity
  8
1
100
AcDbLine
 10
215.0
 20
123.718223
 30
5.786942
 11
215.0
 21
149.727897
 31
5.786942
  0
LINE
  5
4DF
100
AcDbEntity
  8
1
100
AcDbLine
 10
215.0
 20
123.245321
 30
5.786942
 11
215.0
 21
149.570262
 31
5.786942
  0
ENDBLK
  5
4E1
100
AcDbEntity
  8
0
100
AcDbBlockEnd
  0
BLOCK
  5
597
100
AcDbEntity
  8
0
100
AcDbBlockBegin
  2
*D15
 70
     1
 10
0.0
 20
0.0
 30
0.0
  3
*D15
  1

  0
LINE
  5
58D
100
AcDbEntity
  8
0
  6
BYBLOCK
 62
     0
100
AcDbLine
 10
254.0
 20
295.5
 30
0.0
 11
254.0
 21
331.005734
 31
0.0
  0
LINE
  5
58E
100
AcDbEntity
  8
0
  6
BYBLOCK
 62
     0
100
AcDbLine
 10
308.0
 20
241.5
 30
0.0
 11
308.0
 21
331.005734
 31
0.0
  0
LINE
  5
58F
100
AcDbEntity
  8
0
  6
BYBLOCK
 62
     0
100
AcDbLine
 10
256.0
 20
330.005734
 30
0.0
 11
278.437533
 21
330.005734
 31
0.0
  0
LINE
  5
590
100
AcDbEntity
  8
0
  6
BYBLOCK
 62
     0
100
AcDbLine
 10
306.0
 20
330.005734
 30
0.0
 11
286.950866
 21
330.005734
 31
0.0
  0
SOLID
  5
591
100
AcDbEntity
  8
0
  6
BYBLOCK
 62
     0
100
AcDbTrace
 10
256.0
 20
330.339068
 30
0.0
 11
256.0
 21
329.672401
 31
0.0
 12
254.0
 22
330.005734
 32
0.0
 13
254.0
 23
330.005734
 33
0.0
  0
SOLID
  5
592
100
AcDbEntity
  8
0
  6
BYBLOCK
 62
     0
100
AcDbTrace
 10
306.0
 20
330.339068
 30
0.0
 11
306.0
 21
329.672401
 31
0.0
 12
308.0
 22
330.005734
 32
0.0
 13
308.0
 23
330.005734
 33
0.0
  0
MTEXT
  5
593
100
AcDbEntity
  8
0
  6
BYBLOCK
 62
     0
100
AcDbMText
 10
282.6942
 20
330.005734
 30
0.0
 40
5.0
 41
0.0
 71
     5
 72
     1
  1
\A1;54
  0
POINT
  5
594
100
AcDbEntity
  8
DEFPOINTS
  6
BYBLOCK
 62
     0
100
AcDbPoint
 10
254.0
 20
294.5
 30
-5.786942
  0
POINT
  5
595
100
AcDbEntity
  8
DEFPOINTS
  6
BYBLOCK
 62
     0
100
AcDbPoint
 10
308.0
 20
240.5
 30
-5.786942
  0
POINT
  5
596
100
AcDbEntity
  8
DEFPOINTS
  6
BYBLOCK
 62
     0
100
AcDbPoint
 10
308.0
 20
330.005734
 30
0.0
  0
ENDBLK
  5
598
100
AcDbEntity
  8
0
100
AcDbBlockEnd
  0
BLOCK
  5
5A4
100
AcDbEntity
  8
0
100
AcDbBlockBegin
  2
*D16
 70
     1
 10
0.0
 20
0.0
 30
0.0
  3
*D16
  1

  0
LINE
  5
59A
100
AcDbEntity
  8
0
  6
BYBLOCK
 62
     0
100
AcDbLine
 10
274.0
 20
244.423729
 30
0.0
 11
274.0
 21
271.136468
 31
0.0
  0
LINE
  5
59B
100
AcDbEntity
  8
0
  6
BYBLOCK
 62
     0
100
AcDbLine
 10
308.0
 20
241.5
 30
0.0
 11
308.0
 21
271.136468
 31
0.0
  0
LINE
  5
59C
100
AcDbEntity
  8
0
  6
BYBLOCK
 62
     0
100
AcDbLine
 10
276.0
 20
270.136468
 30
0.0
 11
288.031633
 21
270.136468
 31
0.0
  0
LINE
  5
59D
100
AcDbEntity
  8
0
  6
BYBLOCK
 62
     0
100
AcDbLine
 10
306.0
 20
270.136468
 30
0.0
 11
296.544966
 21
270.136468
 31
0.0
  0
SOLID
  5
59E
100
AcDbEntity
  8
0
  6
BYBLOCK
 62
     0
100
AcDbTrace
 10
276.0
 20
270.469801
 30
0.0
 11
276.0
 21
269.803134
 31
0.0
 12
274.0
 22
270.136468
 32
0.0
 13
274.0
 23
270.136468
 33
0.0
  0
SOLID
  5
59F
100
AcDbEntity
  8
0
  6
BYBLOCK
 62
     0
100
AcDbTrace
 10
306.0
 20
270.469801
 30
0.0
 11
306.0
 21
269.803134
 31
0.0
 12
308.0
 22
270.136468
 32
0.0
 13
308.0
 23
270.136468
 33
0.0
  0
MTEXT
  5
5A0
100
AcDbEntity
  8
0
  6
BYBLOCK
 62
     0
100
AcDbMText
 10
292.288299
 20
270.136468
 30
0.0
 40
5.0
 41
0.0
 71
     5
 72
     1
  1
\A1;34
  0
POINT
  5
5A1
100
AcDbEntity
  8
DEFPOINTS
  6
BYBLOCK
 62
     0
100
AcDbPoint
 10
274.0
 20
243.423729
 30
0.0
  0
POINT
  5
5A2
100
AcDbEntity
  8
DEFPOINTS
  6
BYBLOCK
 62
     0
100
AcDbPoint
 10
308.0
 20
240.5
 30
-5.786942
  0
POINT
  5
5A3
100
AcDbEntity
  8
DEFPOINTS
  6
BYBLOCK
 62
     0
100
AcDbPoint
 10
308.0
 20
270.136468
 30
0.0
  0
ENDBLK
  5
5A5
100
AcDbEntity
  8
0
100
AcDbBlockEnd
  0
BLOCK
  5
5B1
100
AcDbEntity
  8
0
100
AcDbBlockBegin
  2
*D17
 70
     1
 10
0.0
 20
0.0
 30
0.0
  3
*D17
  1

  0
LINE
  5
5A7
100
AcDbEntity
  8
0
  6
BYBLOCK
 62
     0
100
AcDbLine
 10
292.0
 20
243.5
 30
0.0
 11
292.0
 21
259.991973
 31
0.0
  0
LINE
  5
5A8
100
AcDbEntity
  8
0
  6
BYBLOCK
 62
     0
100
AcDbLine
 10
308.0
 20
241.5
 30
0.0
 11
308.0
 21
259.991973
 31
0.0
  0
LINE
  5
5A9
100
AcDbEntity
  8
0
  6
BYBLOCK
 62
     0
100
AcDbLine
 10
294.0
 20
258.991973
 30
0.0
 11
296.384665
 21
258.991973
 31
0.0
  0
LINE
  5
5AA
100
AcDbEntity
  8
0
  6
BYBLOCK
 62
     0
100
AcDbLine
 10
306.0
 20
258.991973
 30
0.0
 11
303.231332
 21
258.991973
 31
0.0
  0
SOLID
  5
5AB
100
AcDbEntity
  8
0
  6
BYBLOCK
 62
     0
100
AcDbTrace
 10
294.0
 20
259.325306
 30
0.0
 11
294.0
 21
258.658639
 31
0.0
 12
292.0
 22
258.991973
 32
0.0
 13
292.0
 23
258.991973
 33
0.0
  0
SOLID
  5
5AC
100
AcDbEntity
  8
0
  6
BYBLOCK
 62
     0
100
AcDbTrace
 10
306.0
 20
259.325306
 30
0.0
 11
306.0
 21
258.658639
 31
0.0
 12
308.0
 22
258.991973
 32
0.0
 13
308.0
 23
258.991973
 33
0.0
  0
MTEXT
  5
5AD
100
AcDbEntity
  8
0
  6
BYBLOCK
 62
     0
100
AcDbMText
 10
299.807999
 20
258.991973
 30
0.0
 40
5.0
 41
0.0
 71
     5
 72
     1
  1
\A1;16
  0
POINT
  5
5AE
100
AcDbEntity
  8
DEFPOINTS
  6
BYBLOCK
 62
     0
100
AcDbPoint
 10
292.0
 20
242.5
 30
-5.786942
  0
POINT
  5
5AF
100
AcDbEntity
  8
DEFPOINTS
  6
BYBLOCK
 62
     0
100
AcDbPoint
 10
308.0
 20
240.5
 30
-5.786942
  0
POINT
  5
5B0
100
AcDbEntity
  8
DEFPOINTS
  6
BYBLOCK
 62
     0
100
AcDbPoint
 10
308.0
 20
258.991973
 30
0.0
  0
ENDBLK
  5
5B2
100
AcDbEntity
  8
0
100
AcDbBlockEnd
  0
BLOCK
  5
627
100
AcDbEntity
  8
0
100
AcDbBlockBegin
  2
A$C418C508D
 70
     0
 10
0.0
 20
0.0
 30
0.0
  3
A$C418C508D
  1

  0
DIMENSION
  5
5B4
100
AcDbEntity
  8
0
100
AcDbDimension
  2
*D16
 10
268.5
 20
131.136468
 30
0.0
 11
252.788299
 21
131.136468
 31
0.0
 12
-39.5
 22
-139.0
 32
0.0
 70
   128
  3
STANDARD
100
AcDbAlignedDimension
 13
234.5
 23
104.423729
 33
0.0
 14
268.5
 24
101.5
 34
-5.786942
100
AcDbRotatedDimension
1001
ACAD
1000
DSTYLE
1002
{
1070
    78
1070
     8
1070
   288
1070
     1
1070
   284
1070
     8
1070
   140
1040
5.0
1070
    73
1070
     0
1070
   272
1070
     2
1070
    42
1040
1.0
1070
    44
1040
1.0
1070
   271
1070
     2
1070
    41
1040
2.0
1002
}
  0
DIMENSION
  5
5B5
100
AcDbEntity
  8
0
100
AcDbDimension
  2
*D15
 10
268.5
 20
191.005734
 30
0.0
 11
243.194199
 21
191.005734
 31
0.0
 12
-39.5
 22
-139.0
 32
0.0
 70
   128
  3
STANDARD
100
AcDbAlignedDimension
 13
214.5
 23
155.5
 33
-5.786942
 14
268.5
 24
101.5
 34
-5.786942
100
AcDbRotatedDimension
1001
ACAD
1000
DSTYLE
1002
{
1070
    78
1070
     8
1070
   288
1070
     1
1070
   284
1070
     8
1070
   140
1040
5.0
1070
    73
1070
     0
1070
   272
1070
     2
1070
    42
1040
1.0
1070
    44
1040
1.0
1070
   271
1070
     2
1070
    41
1040
2.0
1002
}
  0
LINE
  5
5B6
100
AcDbEntity
  8
3
100
AcDbLine
 10
226.975661
 20
47.663744
 30
0.0
 11
242.135914
 21
61.528139
 31
0.0
  0
LINE
  5
5B7
100
AcDbEntity
  8
3
100
AcDbLine
 10
230.994425
 20
141.456732
 30
0.0
 11
250.814744
 21
106.993679
 31
0.0
  0
LINE
  5
5B8
100
AcDbEntity
  8
2
100
AcDbLine
 10
234.5
 20
78.961131
 30
0.0
 11
239.898098
 21
84.281404
 31
0.0
  0
LINE
  5
5B9
100
AcDbEntity
  8
1
100
AcDbLine
 10
209.554541
 20
147.5
 30
0.0
 11
236.046961
 21
147.5
 31
0.0
  0
LINE
  5
5BA
100
AcDbEntity
  8
1
100
AcDbLine
 10
210.0
 20
155.5
 30
0.0
 11
237.0
 21
155.5
 31
0.0
  0
LINE
  5
5BB
100
AcDbEntity
  8
3
100
AcDbLine
 10
235.892878
 20
109.652737
 30
0.0
 11
222.6
 21
135.5
 31
0.0
  0
ARC
  5
5BC
100
AcDbEntity
  8
3
100
AcDbCircle
 10
243.0
 20
94.21875
 30
-5.786942
 40
13.28125
100
AcDbArc
 50
44.332692
 51
129.791819
  0
ARC
  5
5BD
100
AcDbEntity
  8
3
100
AcDbCircle
 10
243.0
 20
74.78125
 30
-5.786942
 40
13.28125
100
AcDbArc
 50
230.208181
 51
315.667308
  0
LINE
  5
5BE
100
AcDbEntity
  8
1
100
AcDbLine
 10
210.0
 20
13.5
 30
0.0
 11
237.0
 21
13.5
 31
0.0
  0
LINE
  5
5BF
100
AcDbEntity
  8
1
100
AcDbLine
 10
210.0
 20
84.5
 30
0.0
 11
271.099374
 21
84.5
 31
0.0
  0
LINE
  5
5C0
100
AcDbEntity
  8
0
100
AcDbLine
 10
215.844857
 20
13.768972
 30
0.0
 11
215.844857
 21
135.5
 31
0.0
  0
LINE
  5
5C1
100
AcDbEntity
  8
3
100
AcDbLine
 10
232.5
 20
52.75
 30
-5.786942
 11
232.5
 21
34.789474
 31
-5.786942
  0
ARC
  5
5C2
100
AcDbEntity
  8
3
100
AcDbCircle
 10
235.779063
 20
56.083195
 30
0.0
 40
16.783713
100
AcDbArc
 50
151.733479
 51
208.6248
  0
LINE
  5
5C3
100
AcDbEntity
  8
1
100
AcDbLine
 10
83.5
 20
84.5
 30
0.0
 11
157.77804
 21
41.615554
 31
0.0
  0
LINE
  5
5C4
100
AcDbEntity
  8
1
100
AcDbLine
 10
83.5
 20
84.5
 30
0.0
 11
8.255454
 21
41.057541
 31
0.0
  0
LINE
  5
5C5
100
AcDbEntity
  8
3
100
AcDbLine
 10
94.492645
 20
64.296987
 30
0.0
 11
127.317846
 21
46.500049
 31
0.0
  0
LINE
  5
5C6
100
AcDbEntity
  8
3
100
AcDbLine
 10
72.507354
 20
64.296987
 30
0.0
 11
39.682153
 21
46.500049
 31
0.0
  0
ARC
  5
5C7
100
AcDbEntity
  8
3
100
AcDbCircle
 10
105.456575
 20
71.823365
 30
0.0
 40
34.512842
100
AcDbArc
 50
312.881679
 51
347.118321
  0
ARC
  5
5C8
100
AcDbEntity
  8
3
100
AcDbCircle
 10
61.543424
 20
71.823365
 30
0.0
 40
34.512842
100
AcDbArc
 50
192.881679
 51
227.118321
  0
ARC
  5
5C9
100
AcDbEntity
  8
3
100
AcDbCircle
 10
83.5
 20
84.5
 30
0.0
 40
71.0
100
AcDbArc
 50
106.580572
 51
73.419428
  0
CIRCLE
  5
5CA
100
AcDbEntity
  8
3
100
AcDbCircle
 10
83.5
 20
84.5
 30
0.0
 40
80.0
  0
LINE
  5
5CB
100
AcDbEntity
  8
1
100
AcDbLine
 10
83.5
 20
169.0
 30
0.0
 11
83.5
 21
0.0
 31
0.0
  0
LINE
  5
5CC
100
AcDbEntity
  8
1
100
AcDbLine
 10
223.5
 20
29.932321
 30
0.0
 11
223.5
 21
84.5
 31
0.0
  0
LINE
  5
5CD
100
AcDbEntity
  8
3
100
AcDbLine
 10
214.5
 20
13.5
 30
-5.786942
 11
214.5
 21
84.5
 31
-5.786942
  0
ARC
  5
5CE
100
AcDbEntity
  8
3
100
AcDbCircle
 10
240.825225
 20
23.268251
 30
-5.786942
 40
12.834645
100
AcDbArc
 50
177.859292
 51
229.559913
  0
LINE
  5
5CF
100
AcDbEntity
  8
3
100
AcDbLine
 10
232.5
 20
34.789474
 30
-5.786942
 11
232.5
 21
13.5
 31
-5.786942
  0
ARC
  5
5D0
100
AcDbEntity
  8
3
100
AcDbCircle
 10
83.5
 20
84.5
 30
0.0
 40
58.0
100
AcDbArc
 50
220.932661
 51
319.067339
  0
ARC
  5
5D1
100
AcDbEntity
  8
3
100
AcDbCircle
 10
38.898872
 20
47.908521
 30
0.0
 40
1.611621
100
AcDbArc
 50
238.545667
 51
299.07935
  0
ARC
  5
5D2
100
AcDbEntity
  8
3
100
AcDbCircle
 10
128.101127
 20
47.908521
 30
0.0
 40
1.611621
100
AcDbArc
 50
240.92065
 51
301.454333
  0
ARC
  5
5D3
100
AcDbEntity
  8
3
100
AcDbCircle
 10
235.0
 20
13.5
 30
0.0
 40
19.0
100
AcDbArc
 50
144.126748
 51
178.611971
  0
LINE
  5
5D4
100
AcDbEntity
  8
1
100
AcDbLine
 10
223.5
 20
29.932321
 30
0.0
 11
223.5
 21
0.765844
 31
0.0
  0
LINE
  5
5D5
100
AcDbEntity
  8
1
100
AcDbLine
 10
223.5
 20
28.986514
 30
0.0
 11
223.5
 21
1.081112
 31
0.0
  0
ARC
  5
5D6
100
AcDbEntity
  8
3
100
AcDbCircle
 10
223.5
 20
13.5
 30
0.0
 40
9.0
100
AcDbArc
 50
181.065609
 51
270.0
  0
ARC
  5
5D7
100
AcDbEntity
  8
3
100
AcDbCircle
 10
223.5
 20
13.5
 30
0.0
 40
9.0
100
AcDbArc
 50
270.0
 51
358.934391
  0
ARC
  5
5D8
100
AcDbEntity
  8
3
100
AcDbCircle
 10
215.805634
 20
13.965088
 30
0.0
 40
0.2
100
AcDbArc
 50
281.309932
 51
358.611971
  0
ARC
  5
5D9
100
AcDbEntity
  8
3
100
AcDbCircle
 10
214.701522
 20
13.336344
 30
0.0
 40
0.2
100
AcDbArc
 50
101.309932
 51
181.065609
  0
LINE
  5
5DA
100
AcDbEntity
  8
3
100
AcDbLine
 10
214.662298
 20
13.53246
 30
0.0
 11
215.844857
 21
13.768972
 31
0.0
  0
LINE
  5
5DB
100
AcDbEntity
  8
3
100
AcDbLine
 10
227.999537
 20
23.747673
 30
0.0
 11
227.999537
 21
48.600102
 31
0.0
  0
ARC
  5
5DC
100
AcDbEntity
  8
3
100
AcDbCircle
 10
223.5
 20
21.5
 30
0.0
 40
5.0
100
AcDbArc
 50
38.812786
 51
90.0
  0
ARC
  5
5DD
100
AcDbEntity
  8
3
100
AcDbCircle
 10
223.5
 20
21.5
 30
0.0
 40
5.0
100
AcDbArc
 50
90.0
 51
141.187214
  0
ARC
  5
5DE
100
AcDbEntity
  8
3
100
AcDbCircle
 10
212.0
 20
13.5
 30
0.0
 40
19.0
100
AcDbArc
 50
32.639483
 51
35.873252
  0
ARC
  5
5DF
100
AcDbEntity
  8
3
100
AcDbCircle
 10
224.177062
 20
50.236112
 30
0.0
 40
3.801215
100
AcDbArc
 50
259.005768
 51
317.411931
  0
ARC
  5
5E0
100
AcDbEntity
  8
3
100
AcDbCircle
 10
223.598397
 20
49.36654
 30
0.0
 40
2.874692
100
AcDbArc
 50
207.422814
 51
268.038445
  0
LINE
  5
5E1
100
AcDbEntity
  8
3
100
AcDbLine
 10
214.5
 20
155.5
 30
-5.786942
 11
214.5
 21
84.5
 31
-5.786942
  0
LINE
  5
5E2
100
AcDbEntity
  8
3
100
AcDbLine
 10
232.5
 20
84.5
 30
-5.786942
 11
232.5
 21
116.25
 31
-5.786942
  0
LINE
  5
5E3
100
AcDbEntity
  8
3
100
AcDbLine
 10
232.5
 20
84.5
 30
-5.786942
 11
232.5
 21
76.93204
 31
-5.786942
  0
LINE
  5
5E4
100
AcDbEntity
  8
3
100
AcDbLine
 10
232.5
 20
138.838878
 30
-5.786942
 11
232.5
 21
155.5
 31
-5.786942
  0
CIRCLE
  5
5E5
100
AcDbEntity
  8
3
100
AcDbCircle
 10
83.5
 20
84.5
 30
0.0
 40
19.923729
  0
ARC
  5
5E6
100
AcDbEntity
  8
3
100
AcDbCircle
 10
83.5
 20
84.5
 30
0.0
 40
23.0
100
AcDbArc
 50
121.448981
 51
178.551019
  0
ARC
  5
5E7
100
AcDbEntity
  8
3
100
AcDbCircle
 10
88.315104
 20
87.280002
 30
0.0
 40
26.661822
100
AcDbArc
 50
186.079944
 51
233.920056
  0
ARC
  5
5E8
100
AcDbEntity
  8
3
100
AcDbCircle
 10
65.115096
 20
146.282211
 30
0.0
 40
6.5
100
AcDbArc
 50
10.798299
 51
106.606589
  0
ARC
  5
5E9
100
AcDbEntity
  8
3
100
AcDbCircle
 10
83.5
 20
84.5
 30
0.0
 40
58.0
100
AcDbArc
 50
100.932661
 51
199.067339
  0
LINE
  5
5EA
100
AcDbEntity
  8
1
100
AcDbLine
 10
167.0
 20
84.5
 30
0.0
 11
0.0
 21
84.5
 31
0.0
  0
LINE
  5
5EB
100
AcDbEntity
  8
3
100
AcDbLine
 10
60.507354
 20
85.081597
 30
0.0
 11
28.682153
 21
65.552608
 31
0.0
  0
ARC
  5
5EC
100
AcDbEntity
  8
3
100
AcDbCircle
 10
29.510285
 20
64.17003
 30
0.0
 40
1.611621
100
AcDbArc
 50
120.92065
 51
181.454333
  0
ARC
  5
5ED
100
AcDbEntity
  8
3
100
AcDbCircle
 10
60.930184
 20
84.302451
 30
0.0
 40
0.886484
100
AcDbArc
 50
9.98041
 51
118.487938
  0
ARC
  5
5EE
100
AcDbEntity
  8
3
100
AcDbCircle
 10
83.5
 20
84.5
 30
0.0
 40
58.0
100
AcDbArc
 50
340.932661
 51
79.067339
  0
LINE
  5
5EF
100
AcDbEntity
  8
3
100
AcDbLine
 10
71.5
 20
104.121417
 30
0.0
 11
72.5
 21
141.447344
 31
0.0
  0
LINE
  5
5F0
100
AcDbEntity
  8
3
100
AcDbLine
 10
95.5
 20
104.121417
 30
0.0
 11
94.5
 21
141.447344
 31
0.0
  0
LINE
  5
5F1
100
AcDbEntity
  8
3
100
AcDbLine
 10
106.492645
 20
85.081597
 30
0.0
 11
138.317846
 21
65.552608
 31
0.0
  0
ARC
  5
5F2
100
AcDbEntity
  8
3
100
AcDbCircle
 10
78.684895
 20
87.280002
 30
0.0
 40
26.661822
100
AcDbArc
 50
306.079944
 51
353.920056
  0
ARC
  5
5F3
100
AcDbEntity
  8
3
100
AcDbCircle
 10
83.5
 20
84.5
 30
0.0
 40
23.0
100
AcDbArc
 50
1.448981
 51
58.551019
  0
ARC
  5
5F4
100
AcDbEntity
  8
3
100
AcDbCircle
 10
83.5
 20
84.5
 30
0.0
 40
23.0
100
AcDbArc
 50
241.448981
 51
298.551019
  0
ARC
  5
5F5
100
AcDbEntity
  8
3
100
AcDbCircle
 10
72.044009
 20
65.052741
 30
0.0
 40
0.886484
100
AcDbArc
 50
301.512062
 51
50.01959
  0
ARC
  5
5F6
100
AcDbEntity
  8
3
100
AcDbCircle
 10
94.955991
 20
65.052741
 30
0.0
 40
0.886484
100
AcDbArc
 50
129.98041
 51
238.487938
  0
ARC
  5
5F7
100
AcDbEntity
  8
3
100
AcDbCircle
 10
83.5
 20
78.939997
 30
0.0
 40
26.661822
100
AcDbArc
 50
66.079944
 51
113.920056
  0
ARC
  5
5F8
100
AcDbEntity
  8
3
100
AcDbCircle
 10
72.386175
 20
104.144809
 30
0.0
 40
0.886484
100
AcDbArc
 50
181.512062
 51
290.01959
  0
ARC
  5
5F9
100
AcDbEntity
  8
3
100
AcDbCircle
 10
106.069816
 20
84.302451
 30
0.0
 40
0.886484
100
AcDbArc
 50
61.512062
 51
170.01959
  0
ARC
  5
5FA
100
AcDbEntity
  8
3
100
AcDbCircle
 10
94.613825
 20
104.144809
 30
0.0
 40
0.886484
100
AcDbArc
 50
249.98041
 51
358.487938
  0
ARC
  5
5FB
100
AcDbEntity
  8
3
100
AcDbCircle
 10
137.489714
 20
64.17003
 30
0.0
 40
1.611621
100
AcDbArc
 50
358.545667
 51
59.07935
  0
ARC
  5
5FC
100
AcDbEntity
  8
3
100
AcDbCircle
 10
83.5
 20
147.5
 30
0.0
 40
12.0
100
AcDbArc
 50
180.0
 51
0.0
  0
LINE
  5
5FD
100
AcDbEntity
  8
1
100
AcDbLine
 10
64.5
 20
147.5
 30
0.0
 11
103.0
 21
147.5
 31
0.0
  0
ARC
  5
5FE
100
AcDbEntity
  8
3
100
AcDbCircle
 10
74.111413
 20
141.421449
 30
0.0
 40
1.611621
100
AcDbArc
 50
149.816763
 51
179.07935
  0
ARC
  5
5FF
100
AcDbEntity
  8
3
100
AcDbCircle
 10
101.884903
 20
146.282211
 30
0.0
 40
6.5
100
AcDbArc
 50
73.393411
 51
169.201701
  0
ARC
  5
600
100
AcDbEntity
  8
3
100
AcDbCircle
 10
92.888586
 20
141.421449
 30
0.0
 40
1.611621
100
AcDbArc
 50
0.92065
 51
30.183237
  0
LINE
  5
601
100
AcDbEntity
  8
3
100
AcDbLine
 10
227.999537
 20
72.366116
 30
0.0
 11
227.999537
 21
125.000899
 31
0.0
  0
LINE
  5
602
100
AcDbEntity
  8
1
100
AcDbLine
 10
223.5
 20
139.067679
 30
0.0
 11
223.5
 21
84.5
 31
0.0
  0
LINE
  5
603
100
AcDbEntity
  8
3
100
AcDbLine
 10
234.5
 20
64.576271
 30
0.0
 11
234.5
 21
104.423729
 31
0.0
  0
ARC
  5
604
100
AcDbEntity
  8
3
100
AcDbCircle
 10
234.384157
 20
57.550374
 30
0.0
 40
14.967045
100
AcDbArc
 50
132.484077
 51
154.981759
  0
LINE
  5
605
100
AcDbEntity
  8
3
100
AcDbLine
 10
224.275635
 20
68.588047
 30
0.0
 11
234.5
 21
78.961131
 31
0.0
  0
LINE
  5
606
100
AcDbEntity
  8
1
100
AcDbLine
 10
223.5
 20
140.013486
 30
0.0
 11
223.5
 21
167.918889
 31
0.0
  0
LINE
  5
607
100
AcDbEntity
  8
1
100
AcDbLine
 10
223.5
 20
139.067679
 30
0.0
 11
223.5
 21
168.234157
 31
0.0
  0
LWPOLYLINE
  5
608
100
AcDbEntity
  8
0
100
AcDbPolyline
 90
        3
 70
     1
 43
0.0
 10
234.45579
 20
124.445827
 10
230.255131
 20
126.871079
 10
230.255131
 20
122.020575
  0
LINE
  5
609
100
AcDbEntity
  8
3
100
AcDbLine
 10
214.5
 20
135.5
 30
0.0
 11
222.6
 21
135.5
 31
0.0
  0
LWPOLYLINE
  5
60A
100
AcDbEntity
  8
0
100
AcDbPolyline
 90
        3
 70
     1
 43
0.0
 10
234.45579
 20
129.296331
 10
230.255131
 20
131.721583
 10
230.255131
 20
126.871079
  0
ARC
  5
60B
100
AcDbEntity
  8
3
100
AcDbCircle
 10
223.5
 20
155.5
 30
0.0
 40
9.0
100
AcDbArc
 50
90.0
 51
178.934391
  0
LINE
  5
60C
100
AcDbEntity
  8
3
100
AcDbLine
 10
230.994425
 20
141.456732
 30
0.0
 11
232.5
 21
141.92482
 31
0.0
  0
ARC
  5
60D
100
AcDbEntity
  8
3
100
AcDbCircle
 10
223.5
 20
155.5
 30
0.0
 40
9.0
100
AcDbArc
 50
1.065609
 51
90.0
  0
DIMENSION
  5
60E
100
AcDbEntity
  8
0
100
AcDbDimension
  2
*D17
 10
268.5
 20
119.991973
 30
0.0
 11
260.307998
 21
119.991973
 31
0.0
 12
-39.5
 22
-139.0
 32
0.0
 70
   128
  3
STANDARD
100
AcDbAlignedDimension
 13
252.5
 23
103.5
 33
-5.786942
 14
268.5
 24
101.5
 34
-5.786942
100
AcDbRotatedDimension
1001
ACAD
1000
DSTYLE
1002
{
1070
    78
1070
     8
1070
   288
1070
     1
1070
   284
1070
     8
1070
   140
1040
5.0
1070
    73
1070
     0
1070
   272
1070
     2
1070
    42
1040
1.0
1070
    44
1040
1.0
1070
   271
1070
     2
1070
    41
1040
2.0
1002
}
  0
LINE
  5
60F
100
AcDbEntity
  8
1
100
AcDbLine
 10
242.0
 20
84.5
 30
-5.786942
 11
242.0
 21
111.527984
 31
-5.786942
  0
LINE
  5
610
100
AcDbEntity
  8
3
100
AcDbLine
 10
268.5
 20
101.5
 30
-5.786942
 11
268.5
 21
67.5
 31
-5.786942
  0
LINE
  5
611
100
AcDbEntity
  8
1
100
AcDbLine
 10
242.0
 20
84.5
 30
-5.786942
 11
242.0
 21
56.80008
 31
-5.786942
  0
LINE
  5
612
100
AcDbEntity
  8
3
100
AcDbLine
 10
268.5
 20
67.5
 30
-5.786942
 11
252.5
 21
67.5
 31
-5.786942
  0
LINE
  5
613
100
AcDbEntity
  8
3
100
AcDbLine
 10
252.5
 20
67.5
 30
-5.786942
 11
252.5
 21
65.5
 31
-5.786942
  0
LINE
  5
614
100
AcDbEntity
  8
3
100
AcDbLine
 10
252.5
 20
101.5
 30
-5.786942
 11
268.5
 21
101.5
 31
-5.786942
  0
LINE
  5
615
100
AcDbEntity
  8
1
100
AcDbLine
 10
252.5
 20
84.5
 30
-5.786942
 11
242.5
 21
84.5
 31
-5.786942
  0
LINE
  5
616
100
AcDbEntity
  8
1
100
AcDbLine
 10
252.5
 20
84.5
 30
-5.786942
 11
242.5
 21
84.5
 31
-5.786942
  0
LINE
  5
617
100
AcDbEntity
  8
1
100
AcDbLine
 10
252.5
 20
84.5
 30
-5.786942
 11
242.5
 21
84.5
 31
-5.786942
  0
LINE
  5
618
100
AcDbEntity
  8
1
100
AcDbLine
 10
252.5
 20
84.5
 30
-5.786942
 11
242.5
 21
84.5
 31
-5.786942
  0
LINE
  5
619
100
AcDbEntity
  8
3
100
AcDbLine
 10
252.5
 20
103.5
 30
-5.786942
 11
252.5
 21
101.5
 31
-5.786942
  0
ARC
  5
61A
100
AcDbEntity
  8
2
100
AcDbCircle
 10
242.505733
 20
76.441612
 30
0.0
 40
8.664708
100
AcDbArc
 50
22.849961
 51
93.30709
  0
ARC
  5
61B
100
AcDbEntity
  8
2
100
AcDbCircle
 10
256.277488
 20
74.62003
 30
0.0
 40
19.308457
100
AcDbArc
 50
153.484614
 51
206.51538
  0
LINE
  5
61C
100
AcDbEntity
  8
2
100
AcDbLine
 10
242.135914
 20
61.528139
 30
0.0
 11
247.139597
 21
66.038644
 31
0.0
  0
ARC
  5
61D
100
AcDbEntity
  8
2
100
AcDbCircle
 10
241.202987
 20
74.94905
 30
0.0
 40
10.566487
100
AcDbArc
 50
274.364485
 51
332.840674
  0
ARC
  5
61E
100
AcDbEntity
  8
2
100
AcDbCircle
 10
241.831003
 20
67.613591
 30
0.0
 40
3.258566
100
AcDbArc
 50
209.6819
 51
272.928073
  0
ARC
  5
61F
100
AcDbEntity
  8
2
100
AcDbCircle
 10
238.974392
 20
74.829826
 30
0.0
 40
12.545332
100
AcDbArc
 50
337.97804
 51
23.370678
  0
ARC
  5
620
100
AcDbEntity
  8
2
100
AcDbCircle
 10
241.847058
 20
81.962274
 30
0.0
 40
3.120653
100
AcDbArc
 50
87.623397
 51
155.828992
  0
ARC
  5
621
100
AcDbEntity
  8
3
100
AcDbCircle
 10
227.0
 20
105.079257
 30
0.0
 40
10.0
100
AcDbArc
 50
5.534591
 51
27.216112
  0
ARC
  5
622
100
AcDbEntity
  8
3
100
AcDbCircle
 10
246.480434
 20
104.500939
 30
0.0
 40
5.0
100
AcDbArc
 50
0.0
 51
29.903979
  0
LINE
  5
623
100
AcDbEntity
  8
3
100
AcDbLine
 10
251.480434
 20
104.413194
 30
0.0
 11
251.480434
 21
104.500939
 31
0.0
  0
LWPOLYLINE
  5
624
100
AcDbEntity
  8
0
100
AcDbPolyline
 90
        3
 70
     1
 43
0.0
 10
268.527806
 20
139.19679
 10
272.728465
 20
136.771538
 10
272.728465
 20
141.622041
  0
TEXT
  5
625
100
AcDbEntity
  8
0
100
AcDbText
 10
254.862341
 20
135.015491
 30
0.0
 40
5.0
  1
%%P0.1
 41
0.7
  7
BIGFONT
100
AcDbText
  0
LWPOLYLINE
  5
626
100
AcDbEntity
  8
0
100
AcDbPolyline
 90
        3
 70
     1
 43
0.0
 10
268.527806
 20
144.047293
 10
272.728465
 20
141.622041
 10
272.728465
 20
146.472545
  0
ENDBLK
  5
628
100
AcDbEntity
  8
0
100
AcDbBlockEnd
  0
BLOCK
  5
6FB
100
AcDbEntity
  8
0
100
AcDbBlockBegin
  2
*D19
 70
     1
 10
0.0
 20
0.0
 30
0.0
  3
*D19
  1

  0
LINE
  5
6F1
100
AcDbEntity
  8
0
  6
BYBLOCK
 62
     0
100
AcDbLine
 10
361.0
 20
356.601818
 30
0.0
 11
361.0
 21
395.394113
 31
0.0
  0
LINE
  5
6F2
100
AcDbEntity
  8
0
  6
BYBLOCK
 62
     0
100
AcDbLine
 10
398.0
 20
353.5
 30
0.0
 11
398.0
 21
395.394113
 31
0.0
  0
LINE
  5
6F3
100
AcDbEntity
  8
0
  6
BYBLOCK
 62
     0
100
AcDbLine
 10
363.0
 20
394.394113
 30
0.0
 11
378.008685
 21
394.394113
 31
0.0
  0
LINE
  5
6F4
100
AcDbEntity
  8
0
  6
BYBLOCK
 62
     0
100
AcDbLine
 10
396.0
 20
394.394113
 30
0.0
 11
386.522018
 21
394.394113
 31
0.0
  0
SOLID
  5
6F5
100
AcDbEntity
  8
0
  6
BYBLOCK
 62
     0
100
AcDbTrace
 10
363.0
 20
394.727447
 30
0.0
 11
363.0
 21
394.06078
 31
0.0
 12
361.0
 22
394.394113
 32
0.0
 13
361.0
 23
394.394113
 33
0.0
  0
SOLID
  5
6F6
100
AcDbEntity
  8
0
  6
BYBLOCK
 62
     0
100
AcDbTrace
 10
396.0
 20
394.727447
 30
0.0
 11
396.0
 21
394.06078
 31
0.0
 12
398.0
 22
394.394113
 32
0.0
 13
398.0
 23
394.394113
 33
0.0
  0
MTEXT
  5
6F7
100
AcDbEntity
  8
0
  6
BYBLOCK
 62
     0
100
AcDbMText
 10
382.265351
 20
394.394113
 30
0.0
 40
5.0
 41
0.0
 71
     5
 72
     1
  1
\A1;37
  0
POINT
  5
6F8
100
AcDbEntity
  8
DEFPOINTS
  6
BYBLOCK
 62
     0
100
AcDbPoint
 10
361.0
 20
355.601818
 30
0.0
  0
POINT
  5
6F9
100
AcDbEntity
  8
DEFPOINTS
  6
BYBLOCK
 62
     0
100
AcDbPoint
 10
398.0
 20
352.5
 30
0.0
  0
POINT
  5
6FA
100
AcDbEntity
  8
DEFPOINTS
  6
BYBLOCK
 62
     0
100
AcDbPoint
 10
398.0
 20
394.394113
 30
0.0
  0
ENDBLK
  5
6FC
100
AcDbEntity
  8
0
100
AcDbBlockEnd
  0
BLOCK
  5
708
100
AcDbEntity
  8
0
100
AcDbBlockBegin
  2
*D20
 70
     1
 10
0.0
 20
0.0
 30
0.0
  3
*D20
  1

  0
LINE
  5
6FE
100
AcDbEntity
  8
0
  6
BYBLOCK
 62
     0
100
AcDbLine
 10
381.0
 20
355.5
 30
0.0
 11
381.0
 21
382.423165
 31
0.0
  0
LINE
  5
6FF
100
AcDbEntity
  8
0
  6
BYBLOCK
 62
     0
100
AcDbLine
 10
398.0
 20
353.5
 30
0.0
 11
398.0
 21
382.423165
 31
0.0
  0
LINE
  5
700
100
AcDbEntity
  8
0
  6
BYBLOCK
 62
     0
100
AcDbLine
 10
383.0
 20
381.423165
 30
0.0
 11
386.85737
 21
381.423165
 31
0.0
  0
LINE
  5
701
100
AcDbEntity
  8
0
  6
BYBLOCK
 62
     0
100
AcDbLine
 10
396.0
 20
381.423165
 30
0.0
 11
393.704037
 21
381.423165
 31
0.0
  0
SOLID
  5
702
100
AcDbEntity
  8
0
  6
BYBLOCK
 62
     0
100
AcDbTrace
 10
383.0
 20
381.756499
 30
0.0
 11
383.0
 21
381.089832
 31
0.0
 12
381.0
 22
381.423165
 32
0.0
 13
381.0
 23
381.423165
 33
0.0
  0
SOLID
  5
703
100
AcDbEntity
  8
0
  6
BYBLOCK
 62
     0
100
AcDbTrace
 10
396.0
 20
381.756499
 30
0.0
 11
396.0
 21
381.089832
 31
0.0
 12
398.0
 22
381.423165
 32
0.0
 13
398.0
 23
381.423165
 33
0.0
  0
MTEXT
  5
704
100
AcDbEntity
  8
0
  6
BYBLOCK
 62
     0
100
AcDbMText
 10
390.280704
 20
381.423165
 30
0.0
 40
5.0
 41
0.0
 71
     5
 72
     1
  1
\A1;17
  0
POINT
  5
705
100
AcDbEntity
  8
DEFPOINTS
  6
BYBLOCK
 62
     0
100
AcDbPoint
 10
381.0
 20
354.5
 30
0.0
  0
POINT
  5
706
100
AcDbEntity
  8
DEFPOINTS
  6
BYBLOCK
 62
     0
100
AcDbPoint
 10
398.0
 20
352.5
 30
0.0
  0
POINT
  5
707
100
AcDbEntity
  8
DEFPOINTS
  6
BYBLOCK
 62
     0
100
AcDbPoint
 10
398.0
 20
381.423165
 30
0.0
  0
ENDBLK
  5
709
100
AcDbEntity
  8
0
100
AcDbBlockEnd
  0
BLOCK
  5
777
100
AcDbEntity
  8
0
100
AcDbBlockBegin
  2
A$C7E974A43
 70
     0
 10
0.0
 20
0.0
 30
0.0
  3
A$C7E974A43
  1

  0
DIMENSION
  5
70B
100
AcDbEntity
  8
0
100
AcDbDimension
  2
*D19
 10
330.499999
 20
167.894113
 30
0.0
 11
314.765351
 21
167.894113
 31
0.0
 12
-67.500001
 22
-226.5
 32
0.0
 70
   128
  3
STANDARD
100
AcDbAlignedDimension
 13
293.499999
 23
129.101818
 33
0.0
 14
330.499999
 24
126.0
 34
0.0
100
AcDbRotatedDimension
1001
ACAD
1000
DSTYLE
1002
{
1070
    78
1070
     8
1070
   288
1070
     1
1070
   284
1070
     8
1070
   140
1040
5.0
1070
    73
1070
     0
1070
   272
1070
     2
1070
    42
1040
1.0
1070
    44
1040
1.0
1070
   271
1070
     2
1070
    41
1040
2.0
1002
}
  0
ARC
  5
70C
100
AcDbEntity
  8
3
100
AcDbCircle
 10
302.999999
 20
93.525
 30
0.0
 40
13.525
100
AcDbArc
 50
225.379887
 51
320.92669
  0
ARC
  5
70D
100
AcDbEntity
  8
3
100
AcDbCircle
 10
302.999999
 20
119.475
 30
0.0
 40
13.525
100
AcDbArc
 50
39.07331
 51
134.620113
  0
LINE
  5
70E
100
AcDbEntity
  8
1
100
AcDbLine
 10
267.999999
 20
106.5
 30
0.0
 11
334.999999
 21
106.5
 31
0.0
  0
ARC
  5
70F
100
AcDbEntity
  8
3
100
AcDbCircle
 10
105.499999
 20
106.5
 30
0.0
 40
89.0
100
AcDbArc
 50
103.316918
 51
270.0
  0
ARC
  5
710
100
AcDbEntity
  8
3
100
AcDbCircle
 10
105.499999
 20
106.5
 30
0.0
 40
100.0
100
AcDbArc
 50
90.0
 51
270.0
  0
LINE
  5
711
100
AcDbEntity
  8
3
100
AcDbLine
 10
288.639949
 20
30.251938
 30
0.0
 11
288.639949
 21
62.894943
 31
0.0
  0
ARC
  5
712
100
AcDbEntity
  8
3
100
AcDbCircle
 10
105.499999
 20
106.5
 30
0.0
 40
89.0
100
AcDbArc
 50
270.0
 51
76.683082
  0
ARC
  5
713
100
AcDbEntity
  8
3
100
AcDbCircle
 10
105.499999
 20
106.5
 30
0.0
 40
74.0
100
AcDbArc
 50
218.940309
 51
321.059691
  0
ARC
  5
714
100
AcDbEntity
  8
3
100
AcDbCircle
 10
105.499999
 20
106.5
 30
0.0
 40
100.0
100
AcDbArc
 50
270.0
 51
90.0
  0
LINE
  5
715
100
AcDbEntity
  8
1
100
AcDbLine
 10
105.499999
 20
210.5
 30
0.0
 11
105.499999
 21
0.0
 31
0.0
  0
LINE
  5
716
100
AcDbEntity
  8
3
100
AcDbLine
 10
272.499999
 20
17.5
 30
0.0
 11
272.499999
 21
106.5
 31
0.0
  0
LINE
  5
717
100
AcDbEntity
  8
1
100
AcDbLine
 10
283.499999
 20
35.595951
 30
0.0
 11
283.499999
 21
106.5
 31
0.0
  0
LINE
  5
718
100
AcDbEntity
  8
3
100
AcDbLine
 10
294.499999
 20
17.5
 30
0.0
 11
294.499999
 21
69.473586
 31
0.0
  0
ARC
  5
719
100
AcDbEntity
  8
3
100
AcDbCircle
 10
283.499999
 20
17.5
 30
0.0
 40
11.0
100
AcDbArc
 50
270.0
 51
359.173034
  0
ARC
  5
71A
100
AcDbEntity
  8
3
100
AcDbCircle
 10
283.499999
 20
17.5
 30
0.0
 40
11.0
100
AcDbArc
 50
180.826966
 51
270.0
  0
LINE
  5
71B
100
AcDbEntity
  8
1
100
AcDbLine
 10
283.499999
 20
8.5
 30
0.0
 11
283.499999
 21
2.807998
 31
0.0
  0
ARC
  5
71C
100
AcDbEntity
  8
3
100
AcDbCircle
 10
283.499999
 20
25.5
 30
0.0
 40
7.0
100
AcDbArc
 50
90.0
 51
148.719015
  0
LINE
  5
71D
100
AcDbEntity
  8
1
100
AcDbLine
 10
267.499999
 20
17.5
 30
0.0
 11
299.499999
 21
17.5
 31
0.0
  0
ARC
  5
71E
100
AcDbEntity
  8
3
100
AcDbCircle
 10
294.999999
 20
17.5
 30
0.0
 40
21.0
100
AcDbArc
 50
143.995012
 51
178.559807
  0
LINE
  5
71F
100
AcDbEntity
  8
3
100
AcDbLine
 10
272.652617
 20
17.538154
 30
0.0
 11
273.855204
 21
17.838801
 31
0.0
  0
ARC
  5
720
100
AcDbEntity
  8
3
100
AcDbCircle
 10
273.806696
 20
18.032829
 30
0.0
 40
0.2
100
AcDbArc
 50
284.036243
 51
358.559807
  0
ARC
  5
721
100
AcDbEntity
  8
3
100
AcDbCircle
 10
272.701124
 20
17.344126
 30
0.0
 40
0.2
100
AcDbArc
 50
104.036243
 51
180.826966
  0
ARC
  5
722
100
AcDbEntity
  8
3
100
AcDbCircle
 10
304.464251
 20
29.80143
 30
0.0
 40
15.830714
100
AcDbArc
 50
178.369265
 51
230.992265
  0
LINE
  5
723
100
AcDbEntity
  8
1
100
AcDbLine
 10
283.499999
 20
35.595951
 30
0.0
 11
283.499999
 21
8.5
 31
0.0
  0
LINE
  5
724
100
AcDbEntity
  8
1
100
AcDbLine
 10
283.499999
 20
35.123047
 30
0.0
 11
283.499999
 21
8.5
 31
0.0
  0
ARC
  5
725
100
AcDbEntity
  8
3
100
AcDbCircle
 10
283.499999
 20
25.5
 30
0.0
 40
7.0
100
AcDbArc
 50
42.753713
 51
90.0
  0
LINE
  5
726
100
AcDbEntity
  8
3
100
AcDbLine
 10
78.76641
 20
105.499111
 30
0.0
 11
36.442713
 21
79.908813
 31
0.0
  0
LINE
  5
727
100
AcDbEntity
  8
1
100
AcDbLine
 10
105.499999
 20
106.5
 30
0.0
 11
14.891833
 21
54.18735
 31
0.0
  0
LINE
  5
728
100
AcDbEntity
  8
1
100
AcDbLine
 10
-0.000001
 20
106.5
 30
0.0
 11
105.499999
 21
106.5
 31
0.0
  0
ARC
  5
729
100
AcDbEntity
  8
3
100
AcDbCircle
 10
105.499999
 20
106.5
 30
0.0
 40
74.0
100
AcDbArc
 50
98.940309
 51
201.059691
  0
LINE
  5
72A
100
AcDbEntity
  8
3
100
AcDbLine
 10
91.26641
 20
83.848476
 30
0.0
 11
47.942713
 21
59.990229
 31
0.0
  0
ARC
  5
72B
100
AcDbEntity
  8
3
100
AcDbCircle
 10
73.781575
 20
88.253032
 30
0.0
 40
39.275546
100
AcDbArc
 50
194.315136
 51
225.850802
  0
ARC
  5
72C
100
AcDbEntity
  8
3
100
AcDbCircle
 10
37.155107
 20
78.672143
 30
0.0
 40
1.435505
100
AcDbArc
 50
121.274677
 51
185.203326
  0
ARC
  5
72D
100
AcDbEntity
  8
3
100
AcDbCircle
 10
47.227922
 20
61.225515
 30
0.0
 40
1.435505
100
AcDbArc
 50
234.796674
 51
298.725323
  0
LINE
  5
72E
100
AcDbEntity
  8
1
100
AcDbLine
 10
105.499999
 20
106.5
 30
0.0
 11
196.108166
 21
54.18735
 31
0.0
  0
ARC
  5
72F
100
AcDbEntity
  8
3
100
AcDbCircle
 10
105.499999
 20
106.5
 30
0.0
 40
74.0
100
AcDbArc
 50
338.940309
 51
81.059691
  0
LINE
  5
730
100
AcDbEntity
  8
1
100
AcDbLine
 10
210.999999
 20
106.5
 30
0.0
 11
105.499999
 21
106.5
 31
0.0
  0
LINE
  5
731
100
AcDbEntity
  8
3
100
AcDbLine
 10
92.999999
 20
130.152411
 30
0.0
 11
93.999999
 21
179.600957
 31
0.0
  0
LINE
  5
732
100
AcDbEntity
  8
3
100
AcDbLine
 10
117.999999
 20
130.152411
 30
0.0
 11
116.999999
 21
179.600957
 31
0.0
  0
ARC
  5
733
100
AcDbEntity
  8
3
100
AcDbCircle
 10
105.499999
 20
106.5
 30
0.0
 40
26.490755
100
AcDbArc
 50
357.944612
 51
62.055388
  0
LINE
  5
734
100
AcDbEntity
  8
3
100
AcDbLine
 10
119.733588
 20
83.848476
 30
0.0
 11
163.057286
 21
59.990229
 31
0.0
  0
LINE
  5
735
100
AcDbEntity
  8
3
100
AcDbLine
 10
132.233588
 20
105.499111
 30
0.0
 11
174.557286
 21
79.908813
 31
0.0
  0
ARC
  5
736
100
AcDbEntity
  8
3
100
AcDbCircle
 10
98.250346
 20
110.685589
 30
0.0
 40
33.20573
100
AcDbArc
 50
310.168575
 51
349.831425
  0
ARC
  5
737
100
AcDbEntity
  8
3
100
AcDbCircle
 10
112.749653
 20
110.685589
 30
0.0
 40
33.20573
100
AcDbArc
 50
190.168575
 51
229.831425
  0
CIRCLE
  5
738
100
AcDbEntity
  8
3
100
AcDbCircle
 10
105.499999
 20
106.5
 30
0.0
 40
22.5
  0
ARC
  5
739
100
AcDbEntity
  8
3
100
AcDbCircle
 10
105.499999
 20
106.5
 30
0.0
 40
26.490755
100
AcDbArc
 50
237.944612
 51
302.055388
  0
ARC
  5
73A
100
AcDbEntity
  8
3
100
AcDbCircle
 10
90.592591
 20
84.610964
 30
0.0
 40
1.017556
100
AcDbArc
 50
311.467406
 51
43.502229
  0
ARC
  5
73B
100
AcDbEntity
  8
3
100
AcDbCircle
 10
120.407408
 20
84.610964
 30
0.0
 40
1.017556
100
AcDbArc
 50
136.497771
 51
228.532594
  0
ARC
  5
73C
100
AcDbEntity
  8
3
100
AcDbCircle
 10
105.499999
 20
98.128821
 30
0.0
 40
33.20573
100
AcDbArc
 50
70.168575
 51
109.831425
  0
ARC
  5
73D
100
AcDbEntity
  8
3
100
AcDbCircle
 10
105.499999
 20
106.5
 30
0.0
 40
26.490755
100
AcDbArc
 50
117.944612
 51
182.055388
  0
ARC
  5
73E
100
AcDbEntity
  8
3
100
AcDbCircle
 10
79.089835
 20
104.534323
 30
0.0
 40
1.017556
100
AcDbArc
 50
16.497771
 51
108.532594
  0
ARC
  5
73F
100
AcDbEntity
  8
3
100
AcDbCircle
 10
93.997243
 20
130.354712
 30
0.0
 40
1.017556
100
AcDbArc
 50
191.467406
 51
283.502229
  0
ARC
  5
740
100
AcDbEntity
  8
3
100
AcDbCircle
 10
131.910164
 20
104.534323
 30
0.0
 40
1.017556
100
AcDbArc
 50
71.467406
 51
163.502229
  0
ARC
  5
741
100
AcDbEntity
  8
3
100
AcDbCircle
 10
117.002756
 20
130.354712
 30
0.0
 40
1.017556
100
AcDbArc
 50
256.497771
 51
348.532594
  0
ARC
  5
742
100
AcDbEntity
  8
3
100
AcDbCircle
 10
163.750848
 20
61.247068
 30
0.0
 40
1.435505
100
AcDbArc
 50
241.108739
 51
305.037387
  0
ARC
  5
743
100
AcDbEntity
  8
3
100
AcDbCircle
 10
137.218424
 20
88.253032
 30
0.0
 40
39.275546
100
AcDbArc
 50
314.149198
 51
345.684864
  0
ARC
  5
744
100
AcDbEntity
  8
3
100
AcDbCircle
 10
173.844892
 20
78.672143
 30
0.0
 40
1.435505
100
AcDbArc
 50
354.796674
 51
58.725323
  0
ARC
  5
745
100
AcDbEntity
  8
3
100
AcDbCircle
 10
105.499999
 20
186.5
 30
0.0
 40
12.0
100
AcDbArc
 50
180.0
 51
360.0
  0
LINE
  5
746
100
AcDbEntity
  8
1
100
AcDbLine
 10
82.999999
 20
186.5
 30
0.0
 11
129.999999
 21
186.5
 31
0.0
  0
ARC
  5
747
100
AcDbEntity
  8
3
100
AcDbCircle
 10
86.504978
 20
186.236037
 30
0.0
 40
7.0
100
AcDbArc
 50
359.431232
 51
102.415348
  0
ARC
  5
748
100
AcDbEntity
  8
3
100
AcDbCircle
 10
95.427184
 20
179.602341
 30
0.0
 40
1.435505
100
AcDbArc
 50
114.796674
 51
178.725323
  0
ARC
  5
749
100
AcDbEntity
  8
3
100
AcDbCircle
 10
124.495021
 20
186.236037
 30
0.0
 40
7.0
100
AcDbArc
 50
77.584652
 51
180.568768
  0
ARC
  5
74A
100
AcDbEntity
  8
3
100
AcDbCircle
 10
115.564763
 20
179.57318
 30
0.0
 40
1.435505
100
AcDbArc
 50
1.108739
 51
65.037387
  0
LINE
  5
74B
100
AcDbEntity
  8
3
100
AcDbLine
 10
312.185256
 20
129.402572
 30
0.0
 11
292.361174
 21
176.5
 31
0.0
  0
LINE
  5
74C
100
AcDbEntity
  8
3
100
AcDbLine
 10
294.499999
 20
138.166666
 30
0.0
 11
294.499999
 21
129.995248
 31
0.0
  0
LINE
  5
74D
100
AcDbEntity
  8
3
100
AcDbLine
 10
288.639949
 20
89.186599
 30
0.0
 11
288.639949
 21
154.30513
 31
0.0
  0
ARC
  5
74E
100
AcDbEntity
  8
3
100
AcDbCircle
 10
286.499999
 20
131.132049
 30
0.0
 40
10.0
100
AcDbArc
 50
1.160329
 51
21.16126
  0
LINE
  5
74F
100
AcDbEntity
  8
1
100
AcDbLine
 10
302.499999
 20
106.5
 30
0.0
 11
302.499999
 21
139.0
 31
0.0
  0
LINE
  5
750
100
AcDbEntity
  8
3
100
AcDbLine
 10
272.499999
 20
195.5
 30
0.0
 11
272.499999
 21
106.5
 31
0.0
  0
LINE
  5
751
100
AcDbEntity
  8
1
100
AcDbLine
 10
283.499999
 20
177.404048
 30
0.0
 11
283.499999
 21
106.5
 31
0.0
  0
LINE
  5
752
100
AcDbEntity
  8
3
100
AcDbLine
 10
293.499999
 20
83.898182
 30
0.0
 11
293.499999
 21
129.101818
 31
0.0
  0
ARC
  5
753
100
AcDbEntity
  8
2
100
AcDbCircle
 10
295.473957
 20
94.246702
 30
0.0
 40
16.733446
100
AcDbArc
 50
342.272786
 51
19.160238
  0
LINE
  5
754
100
AcDbEntity
  8
3
100
AcDbLine
 10
293.499999
 20
95.666666
 30
0.0
 11
280.2073
 21
77.943068
 31
0.0
  0
ARC
  5
755
100
AcDbEntity
  8
2
100
AcDbCircle
 10
312.949999
 20
94.25
 30
0.0
 40
16.467088
100
AcDbArc
 50
147.902413
 51
212.097587
  0
LINE
  5
756
100
AcDbEntity
  8
1
100
AcDbLine
 10
302.499999
 20
106.5
 30
0.0
 11
302.499999
 21
59.0
 31
0.0
  0
ARC
  5
757
100
AcDbEntity
  8
3
100
AcDbCircle
 10
283.499999
 20
63.25
 30
0.0
 40
3.25
100
AcDbArc
 50
202.619865
 51
270.0
  0
ARC
  5
758
100
AcDbEntity
  8
3
100
AcDbCircle
 10
295.499999
 20
70.0
 30
0.0
 40
17.0
100
AcDbArc
 50
165.600566
 51
208.072487
  0
ARC
  5
759
100
AcDbEntity
  8
3
100
AcDbCircle
 10
292.028685
 20
72.167197
 30
0.0
 40
13.156968
100
AcDbArc
 50
153.378852
 51
171.992496
  0
LINE
  5
75A
100
AcDbEntity
  8
3
100
AcDbLine
 10
287.319551
 20
61.41263
 30
0.0
 11
302.985838
 21
79.000007
 31
0.0
  0
ARC
  5
75B
100
AcDbEntity
  8
3
100
AcDbCircle
 10
283.58518
 20
65.749407
 30
0.0
 40
5.723038
100
AcDbArc
 50
269.216868
 51
310.731524
  0
LINE
  5
75C
100
AcDbEntity
  8
2
100
AcDbLine
 10
302.985838
 20
79.000007
 30
0.0
 11
309.123228
 21
85.71237
 31
0.0
  0
ARC
  5
75D
100
AcDbEntity
  8
2
100
AcDbCircle
 10
302.969517
 20
92.768956
 30
0.0
 40
9.185588
100
AcDbArc
 50
267.330939
 51
336.808435
  0
ARC
  5
75E
100
AcDbEntity
  8
2
100
AcDbCircle
 10
302.499999
 20
87.5625
 30
0.0
 40
4.0625
100
AcDbArc
 50
210.510237
 51
270.0
  0
LINE
  5
75F
100
AcDbEntity
  8
2
100
AcDbLine
 10
293.499999
 20
95.666666
 30
0.0
 11
299.187446
 21
103.223624
 31
0.0
  0
ARC
  5
760
100
AcDbEntity
  8
2
100
AcDbCircle
 10
303.430243
 20
96.639394
 30
0.0
 40
8.439905
100
AcDbArc
 50
21.545076
 51
96.042744
  0
ARC
  5
761
100
AcDbEntity
  8
2
100
AcDbCircle
 10
302.499999
 20
100.9375
 30
0.0
 40
4.0625
100
AcDbArc
 50
90.0
 51
149.489763
  0
LINE
  5
762
100
AcDbEntity
  8
3
100
AcDbLine
 10
294.499999
 20
195.5
 30
0.0
 11
294.499999
 21
171.526535
 31
0.0
  0
LINE
  5
763
100
AcDbEntity
  8
1
100
AcDbLine
 10
283.499999
 20
177.404048
 30
0.0
 11
283.499999
 21
204.5
 31
0.0
  0
LINE
  5
764
100
AcDbEntity
  8
3
100
AcDbLine
 10
295.82568
 20
134.74199
 30
0.0
 11
280.82258
 21
174.5
 31
0.0
  0
LINE
  5
765
100
AcDbEntity
  8
3
100
AcDbLine
 10
272.499999
 20
174.5
 30
0.0
 11
280.82258
 21
174.5
 31
0.0
  0
LWPOLYLINE
  5
766
100
AcDbEntity
  8
0
100
AcDbPolyline
 90
        3
 70
     1
 43
0.0
 10
294.001774
 20
166.597017
 10
288.276522
 20
169.902493
 10
288.276522
 20
163.291541
  0
LWPOLYLINE
  5
767
100
AcDbEntity
  8
0
100
AcDbPolyline
 90
        3
 70
     1
 43
0.0
 10
294.001774
 20
159.986066
 10
288.276522
 20
163.291541
 10
288.276522
 20
156.68059
  0
LINE
  5
768
100
AcDbEntity
  8
3
100
AcDbLine
 10
292.361174
 20
176.5
 30
0.0
 11
294.499999
 21
177.061318
 31
0.0
  0
ARC
  5
769
100
AcDbEntity
  8
3
100
AcDbCircle
 10
283.499999
 20
195.5
 30
0.0
 40
11.0
100
AcDbArc
 50
90.0
 51
179.173034
  0
LINE
  5
76A
100
AcDbEntity
  8
1
100
AcDbLine
 10
267.499999
 20
195.5
 30
0.0
 11
299.499999
 21
195.5
 31
0.0
  0
ARC
  5
76B
100
AcDbEntity
  8
3
100
AcDbCircle
 10
283.499999
 20
195.5
 30
0.0
 40
11.0
100
AcDbArc
 50
0.826966
 51
90.0
  0
LINE
  5
76C
100
AcDbEntity
  8
1
100
AcDbLine
 10
283.499999
 20
177.876952
 30
0.0
 11
283.499999
 21
204.5
 31
0.0
  0
LINE
  5
76D
100
AcDbEntity
  8
1
100
AcDbLine
 10
283.499999
 20
204.5
 30
0.0
 11
283.499999
 21
210.192001
 31
0.0
  0
DIMENSION
  5
76E
100
AcDbEntity
  8
0
100
AcDbDimension
  2
*D20
 10
330.499999
 20
154.923165
 30
0.0
 11
322.780703
 21
154.923165
 31
0.0
 12
-67.500001
 22
-226.5
 32
0.0
 70
   128
  3
STANDARD
100
AcDbAlignedDimension
 13
313.499999
 23
128.0
 33
0.0
 14
330.499999
 24
126.0
 34
0.0
100
AcDbRotatedDimension
1001
ACAD
1000
DSTYLE
1002
{
1070
    78
1070
     8
1070
   288
1070
     1
1070
   284
1070
     8
1070
   140
1040
5.0
1070
    73
1070
     0
1070
   272
1070
     2
1070
    42
1040
1.0
1070
    44
1040
1.0
1070
   271
1070
     2
1070
    41
1040
2.0
1002
}
  0
LINE
  5
76F
100
AcDbEntity
  8
3
100
AcDbLine
 10
330.499999
 20
126.0
 30
0.0
 11
330.499999
 21
87.0
 31
0.0
  0
LINE
  5
770
100
AcDbEntity
  8
3
100
AcDbLine
 10
330.499999
 20
87.0
 30
0.0
 11
313.499999
 21
87.0
 31
0.0
  0
LINE
  5
771
100
AcDbEntity
  8
3
100
AcDbLine
 10
313.499999
 20
87.0
 30
0.0
 11
313.499999
 21
85.0
 31
0.0
  0
LINE
  5
772
100
AcDbEntity
  8
3
100
AcDbLine
 10
313.499999
 20
126.0
 30
0.0
 11
330.499999
 21
126.0
 31
0.0
  0
LINE
  5
773
100
AcDbEntity
  8
3
100
AcDbLine
 10
313.499999
 20
128.0
 30
0.0
 11
313.499999
 21
126.0
 31
0.0
  0
TEXT
  5
774
100
AcDbEntity
  8
0
100
AcDbText
 10
315.047475
 20
173.631227
 30
0.0
 40
5.0
  1
%%P0.1
 41
0.7
  7
BIGFONT
100
AcDbText
  0
LWPOLYLINE
  5
775
100
AcDbEntity
  8
0
100
AcDbPolyline
 90
        3
 70
     1
 43
0.0
 10
331.330417
 20
165.757721
 10
337.055668
 20
162.452245
 10
337.055668
 20
169.063196
  0
LWPOLYLINE
  5
776
100
AcDbEntity
  8
0
100
AcDbPolyline
 90
        3
 70
     1
 43
0.0
 10
331.330417
 20
172.368672
 10
337.055668
 20
169.063196
 10
337.055668
 20
175.674147
  0
ENDBLK
  5
778
100
AcDbEntity
  8
0
100
AcDbBlockEnd
  0
BLOCK
  5
82D
100
AcDbEntity
  8
0
100
AcDbBlockBegin
  2
*D22
 70
     1
 10
0.0
 20
0.0
 30
0.0
  3
*D22
  1

  0
LINE
  5
824
100
AcDbEntity
  8
0
  6
BYBLOCK
 62
     0
100
AcDbLine
 10
395.5
 20
355.5
 30
0.0
 11
395.5
 21
374.800992
 31
0.0
  0
LINE
  5
825
100
AcDbEntity
  8
0
  6
BYBLOCK
 62
     0
100
AcDbLine
 10
413.5
 20
353.0
 30
0.0
 11
413.5
 21
374.800992
 31
0.0
  0
LINE
  5
826
100
AcDbEntity
  8
0
  6
BYBLOCK
 62
     0
100
AcDbLine
 10
398.0
 20
374.300992
 30
0.0
 11
411.0
 21
374.300992
 31
0.0
  0
SOLID
  5
827
100
AcDbEntity
  8
0
  6
BYBLOCK
 62
     0
100
AcDbTrace
 10
398.0
 20
374.717659
 30
0.0
 11
398.0
 21
373.884326
 31
0.0
 12
395.5
 22
374.300992
 32
0.0
 13
395.5
 23
374.300992
 33
0.0
  0
SOLID
  5
828
100
AcDbEntity
  8
0
  6
BYBLOCK
 62
     0
100
AcDbTrace
 10
411.0
 20
374.717659
 30
0.0
 11
411.0
 21
373.884326
 31
0.0
 12
413.5
 22
374.300992
 32
0.0
 13
413.5
 23
374.300992
 33
0.0
  0
MTEXT
  5
829
100
AcDbEntity
  8
0
  6
BYBLOCK
 62
     0
100
AcDbMText
 10
404.5
 20
383.390992
 30
0.0
 40
18.0
 41
0.0
 71
     5
 72
     1
  1
\A1;18
  0
POINT
  5
82A
100
AcDbEntity
  8
DEFPOINTS
  6
BYBLOCK
 62
     0
100
AcDbPoint
 10
395.5
 20
355.0
 30
0.0
  0
POINT
  5
82B
100
AcDbEntity
  8
DEFPOINTS
  6
BYBLOCK
 62
     0
100
AcDbPoint
 10
413.5
 20
352.5
 30
0.0
  0
POINT
  5
82C
100
AcDbEntity
  8
DEFPOINTS
  6
BYBLOCK
 62
     0
100
AcDbPoint
 10
413.5
 20
374.300992
 30
0.0
  0
ENDBLK
  5
82E
100
AcDbEntity
  8
0
100
AcDbBlockEnd
  0
BLOCK
  5
839
100
AcDbEntity
  8
0
100
AcDbBlockBegin
  2
*D23
 70
     1
 10
0.0
 20
0.0
 30
0.0
  3
*D23
  1

  0
LINE
  5
830
100
AcDbEntity
  8
0
  6
BYBLOCK
 62
     0
100
AcDbLine
 10
373.5
 20
357.399664
 30
0.0
 11
373.5
 21
402.240517
 31
0.0
  0
LINE
  5
831
100
AcDbEntity
  8
0
  6
BYBLOCK
 62
     0
100
AcDbLine
 10
413.5
 20
353.0
 30
0.0
 11
413.5
 21
402.240517
 31
0.0
  0
LINE
  5
832
100
AcDbEntity
  8
0
  6
BYBLOCK
 62
     0
100
AcDbLine
 10
376.0
 20
401.740517
 30
0.0
 11
411.0
 21
401.740517
 31
0.0
  0
SOLID
  5
833
100
AcDbEntity
  8
0
  6
BYBLOCK
 62
     0
100
AcDbTrace
 10
376.0
 20
402.157184
 30
0.0
 11
376.0
 21
401.323851
 31
0.0
 12
373.5
 22
401.740517
 32
0.0
 13
373.5
 23
401.740517
 33
0.0
  0
SOLID
  5
834
100
AcDbEntity
  8
0
  6
BYBLOCK
 62
     0
100
AcDbTrace
 10
411.0
 20
402.157184
 30
0.0
 11
411.0
 21
401.323851
 31
0.0
 12
413.5
 22
401.740517
 32
0.0
 13
413.5
 23
401.740517
 33
0.0
  0
MTEXT
  5
835
100
AcDbEntity
  8
0
  6
BYBLOCK
 62
     0
100
AcDbMText
 10
395.429009
 20
410.830517
 30
0.0
 40
18.0
 41
0.0
 71
     5
 72
     1
  1
\A1;40
  0
POINT
  5
836
100
AcDbEntity
  8
DEFPOINTS
  6
BYBLOCK
 62
     0
100
AcDbPoint
 10
373.5
 20
356.899664
 30
0.0
  0
POINT
  5
837
100
AcDbEntity
  8
DEFPOINTS
  6
BYBLOCK
 62
     0
100
AcDbPoint
 10
413.5
 20
352.5
 30
0.0
  0
POINT
  5
838
100
AcDbEntity
  8
DEFPOINTS
  6
BYBLOCK
 62
     0
100
AcDbPoint
 10
413.5
 20
401.740517
 30
0.0
  0
ENDBLK
  5
83A
100
AcDbEntity
  8
0
100
AcDbBlockEnd
  0
BLOCK
  5
8A7
100
AcDbEntity
  8
0
100
AcDbBlockBegin
  2
A$C71157D8E
 70
     0
 10
0.0
 20
0.0
 30
0.0
  3
A$C71157D8E
  1

  0
DIMENSION
  5
83C
100
AcDbEntity
  8
0
100
AcDbDimension
  2
*D23
 10
366.999999
 20
200.240517
 30
0.0
 11
348.929009
 21
200.240517
 31
0.0
 12
-46.500001
 22
-201.5
 32
0.0
 70
   128
  3
STANDARD
100
AcDbAlignedDimension
 13
326.999999
 23
155.399664
 33
0.0
 14
366.999999
 24
151.0
 34
0.0
100
AcDbRotatedDimension
1001
ACAD
1000
DSTYLE
1002
{
1070
   140
1040
18.0
1070
    73
1070
     0
1070
    40
1040
1.0
1002
}
  0
ARC
  5
83D
100
AcDbEntity
  8
3
100
AcDbCircle
 10
336.845955
 20
147.308089
 30
0.0
 40
12.74427
100
AcDbArc
 50
84.80452
 51
140.58605
  0
ARC
  5
83E
100
AcDbEntity
  8
3
100
AcDbCircle
 10
336.845955
 20
110.69191
 30
0.0
 40
12.74427
100
AcDbArc
 50
219.41395
 51
275.19548
  0
LINE
  5
83F
100
AcDbEntity
  8
3
100
AcDbLine
 10
321.57416
 20
69.841027
 30
0.0
 11
339.42553
 21
97.06976
 31
0.0
  0
ARC
  5
840
100
AcDbEntity
  8
2
100
AcDbCircle
 10
338.389288
 20
107.228122
 30
0.0
 40
6.391471
100
AcDbArc
 50
211.164806
 51
328.835194
  0
ARC
  5
841
100
AcDbEntity
  8
2
100
AcDbCircle
 10
338.228897
 20
123.738496
 30
0.0
 40
6.359651
100
AcDbArc
 50
27.725869
 51
147.970293
  0
LINE
  5
842
100
AcDbEntity
  8
1
100
AcDbLine
 10
301.007591
 20
231.0
 30
0.0
 11
334.341692
 21
231.0
 31
0.0
  0
ARC
  5
843
100
AcDbEntity
  8
3
100
AcDbCircle
 10
317.999999
 20
17.0
 30
0.0
 40
13.0
100
AcDbArc
 50
270.0
 51
359.266991
  0
LINE
  5
844
100
AcDbEntity
  8
1
100
AcDbLine
 10
302.999999
 20
17.0
 30
0.0
 11
334.115062
 21
17.0
 31
0.0
  0
LINE
  5
845
100
AcDbEntity
  8
3
100
AcDbLine
 10
345.036995
 20
161.549281
 30
0.0
 11
326.638316
 21
219.0
 31
0.0
  0
LINE
  5
846
100
AcDbEntity
  8
1
100
AcDbLine
 10
301.999999
 20
129.0
 30
0.0
 11
372.999999
 21
129.0
 31
0.0
  0
ARC
  5
847
100
AcDbEntity
  8
3
100
AcDbCircle
 10
317.999999
 20
241.0
 30
0.0
 40
13.0
100
AcDbArc
 50
0.733009
 51
90.0
  0
LINE
  5
848
100
AcDbEntity
  8
1
100
AcDbLine
 10
302.999999
 20
241.0
 30
0.0
 11
334.115062
 21
241.0
 31
0.0
  0
LINE
  5
849
100
AcDbEntity
  8
0
100
AcDbLine
 10
306.505051
 20
17.460594
 30
0.0
 11
306.505051
 21
217.0
 31
0.0
  0
LINE
  5
84A
100
AcDbEntity
  8
3
100
AcDbLine
 10
324.605452
 20
30.476438
 30
0.0
 11
324.605452
 21
74.464664
 31
0.0
  0
LINE
  5
84B
100
AcDbEntity
  8
3
100
AcDbLine
 10
330.999833
 20
52.037682
 30
0.0
 11
330.999833
 21
84.218026
 31
0.0
  0
ARC
  5
84C
100
AcDbEntity
  8
3
100
AcDbCircle
 10
336.130843
 20
82.295923
 30
0.0
 40
25.10054
100
AcDbArc
 50
170.01608
 51
208.126859
  0
LINE
  5
84D
100
AcDbEntity
  8
1
100
AcDbLine
 10
128.999999
 20
129.0
 30
0.0
 11
243.365682
 21
62.970942
 31
0.0
  0
LINE
  5
84E
100
AcDbEntity
  8
1
100
AcDbLine
 10
128.999999
 20
129.0
 30
0.0
 11
14.615829
 21
62.960268
 31
0.0
  0
ARC
  5
84F
100
AcDbEntity
  8
3
100
AcDbCircle
 10
167.70625
 20
106.652936
 30
0.0
 40
54.315491
100
AcDbArc
 50
315.784148
 51
344.215852
  0
LINE
  5
850
100
AcDbEntity
  8
3
100
AcDbLine
 10
143.112688
 20
101.222126
 30
0.0
 11
202.097163
 21
68.322124
 31
0.0
  0
ARC
  5
851
100
AcDbEntity
  8
3
100
AcDbCircle
 10
90.293749
 20
106.652936
 30
0.0
 40
54.315491
100
AcDbArc
 50
195.784148
 51
224.215852
  0
LINE
  5
852
100
AcDbEntity
  8
3
100
AcDbLine
 10
114.887311
 20
101.222126
 30
0.0
 11
55.902836
 21
68.322124
 31
0.0
  0
ARC
  5
853
100
AcDbEntity
  8
3
100
AcDbCircle
 10
128.999999
 20
129.0
 30
0.0
 40
112.0
100
AcDbArc
 50
102.157458
 51
77.842542
  0
CIRCLE
  5
854
100
AcDbEntity
  8
3
100
AcDbCircle
 10
128.999999
 20
129.0
 30
0.0
 40
125.0
  0
LINE
  5
855
100
AcDbEntity
  8
1
100
AcDbLine
 10
128.999999
 20
0.0
 30
0.0
 11
128.999999
 21
258.0
 31
0.0
  0
LINE
  5
856
100
AcDbEntity
  8
3
100
AcDbLine
 10
304.999999
 20
17.0
 30
0.0
 11
304.999999
 21
129.0
 31
0.0
  0
LINE
  5
857
100
AcDbEntity
  8
1
100
AcDbLine
 10
317.999999
 20
38.074021
 30
0.0
 11
317.999999
 21
129.0
 31
0.0
  0
ARC
  5
858
100
AcDbEntity
  8
3
100
AcDbCircle
 10
128.999999
 20
129.0
 30
0.0
 40
95.0
100
AcDbArc
 50
219.696028
 51
320.303972
  0
ARC
  5
859
100
AcDbEntity
  8
3
100
AcDbCircle
 10
54.014224
 20
72.357602
 30
0.0
 40
4.455552
100
AcDbArc
 50
233.514644
 51
295.079688
  0
ARC
  5
85A
100
AcDbEntity
  8
3
100
AcDbCircle
 10
203.985775
 20
72.357602
 30
0.0
 40
4.455552
100
AcDbArc
 50
244.920312
 51
306.485356
  0
ARC
  5
85B
100
AcDbEntity
  8
3
100
AcDbCircle
 10
308.499999
 20
17.0
 30
0.0
 40
21.0
100
AcDbArc
 50
39.921329
 51
47.501958
  0
ARC
  5
85C
100
AcDbEntity
  8
3
100
AcDbCircle
 10
327.499999
 20
17.0
 30
0.0
 40
21.0
100
AcDbArc
 50
132.498042
 51
178.743228
  0
LINE
  5
85D
100
AcDbEntity
  8
3
100
AcDbLine
 10
330.999999
 20
17.0
 30
0.0
 11
330.999833
 21
52.037682
 31
0.0
  0
LINE
  5
85E
100
AcDbEntity
  8
1
100
AcDbLine
 10
317.999999
 20
38.074021
 30
0.0
 11
317.999999
 21
0.71467
 31
0.0
  0
ARC
  5
85F
100
AcDbEntity
  8
3
100
AcDbCircle
 10
317.999999
 20
17.0
 30
0.0
 40
13.0
100
AcDbArc
 50
180.733009
 51
270.0
  0
LINE
  5
860
100
AcDbEntity
  8
3
100
AcDbLine
 10
305.161824
 20
17.032365
 30
0.0
 11
306.344323
 21
17.268864
 31
0.0
  0
ARC
  5
861
100
AcDbEntity
  8
3
100
AcDbCircle
 10
305.201047
 20
16.836248
 30
0.0
 40
0.2
100
AcDbArc
 50
101.309932
 51
180.733009
  0
ARC
  5
862
100
AcDbEntity
  8
3
100
AcDbCircle
 10
306.305099
 20
17.46498
 30
0.0
 40
0.2
100
AcDbArc
 50
281.309932
 51
358.743228
  0
ARC
  5
863
100
AcDbEntity
  8
3
100
AcDbCircle
 10
341.662167
 20
30.314501
 30
0.0
 40
17.057484
100
AcDbArc
 50
179.456046
 51
231.312475
  0
ARC
  5
864
100
AcDbEntity
  8
3
100
AcDbCircle
 10
317.999999
 20
26.0
 30
0.0
 40
8.0
100
AcDbArc
 50
54.136362
 51
90.0
  0
ARC
  5
865
100
AcDbEntity
  8
3
100
AcDbCircle
 10
317.999999
 20
26.0
 30
0.0
 40
8.0
100
AcDbArc
 50
90.0
 51
125.863638
  0
ARC
  5
866
100
AcDbEntity
  8
3
100
AcDbCircle
 10
318.011426
 20
73.195316
 30
0.0
 40
4.858151
100
AcDbArc
 50
214.224791
 51
320.165198
  0
ARC
  5
867
100
AcDbEntity
  8
3
100
AcDbCircle
 10
128.999999
 20
129.0
 30
0.0
 40
31.0
100
AcDbArc
 50
123.145679
 51
176.854321
  0
ARC
  5
868
100
AcDbEntity
  8
3
100
AcDbCircle
 10
128.999999
 20
129.0
 30
0.0
 40
95.0
100
AcDbArc
 50
99.696028
 51
200.303972
  0
LINE
  5
869
100
AcDbEntity
  8
3
100
AcDbLine
 10
97.887311
 20
130.66699
 30
0.0
 11
39.902836
 21
96.034937
 31
0.0
  0
LINE
  5
86A
100
AcDbEntity
  8
1
100
AcDbLine
 10
261.999999
 20
129.0
 30
0.0
 11
-0.000001
 21
129.0
 31
0.0
  0
ARC
  5
86B
100
AcDbEntity
  8
3
100
AcDbCircle
 10
42.453356
 20
92.381612
 30
0.0
 40
4.455552
100
AcDbArc
 50
124.920312
 51
186.485356
  0
ARC
  5
86C
100
AcDbEntity
  8
3
100
AcDbCircle
 10
317.999999
 20
241.0
 30
0.0
 40
13.0
100
AcDbArc
 50
90.0
 51
179.266991
  0
LINE
  5
86D
100
AcDbEntity
  8
1
100
AcDbLine
 10
317.999999
 20
219.925978
 30
0.0
 11
317.999999
 21
257.285329
 31
0.0
  0
ARC
  5
86E
100
AcDbEntity
  8
3
100
AcDbCircle
 10
128.999999
 20
129.0
 30
0.0
 40
95.0
100
AcDbArc
 50
339.696028
 51
80.303972
  0
LINE
  5
86F
100
AcDbEntity
  8
3
100
AcDbLine
 10
160.112688
 20
130.66699
 30
0.0
 11
218.097163
 21
96.034937
 31
0.0
  0
LINE
  5
870
100
AcDbEntity
  8
3
100
AcDbLine
 10
111.999999
 20
155.110883
 30
0.0
 11
112.999999
 21
222.642939
 31
0.0
  0
LINE
  5
871
100
AcDbEntity
  8
3
100
AcDbLine
 10
145.999999
 20
155.110883
 30
0.0
 11
144.999999
 21
222.642939
 31
0.0
  0
CIRCLE
  5
872
100
AcDbEntity
  8
3
100
AcDbCircle
 10
128.999999
 20
129.0
 30
0.0
 40
26.399664
  0
ARC
  5
873
100
AcDbEntity
  8
3
100
AcDbCircle
 10
128.999999
 20
129.0
 30
0.0
 40
31.0
100
AcDbArc
 50
3.145679
 51
56.854321
  0
ARC
  5
874
100
AcDbEntity
  8
3
100
AcDbCircle
 10
121.487202
 20
133.337515
 30
0.0
 40
37.288139
100
AcDbArc
 50
305.408608
 51
354.591392
  0
ARC
  5
875
100
AcDbEntity
  8
3
100
AcDbCircle
 10
136.512797
 20
133.337515
 30
0.0
 40
37.288139
100
AcDbArc
 50
185.408608
 51
234.591392
  0
ARC
  5
876
100
AcDbEntity
  8
3
100
AcDbCircle
 10
128.999999
 20
129.0
 30
0.0
 40
31.0
100
AcDbArc
 50
243.145679
 51
296.854321
  0
ARC
  5
877
100
AcDbEntity
  8
3
100
AcDbCircle
 10
114.043126
 20
102.094356
 30
0.0
 40
1.21385
100
AcDbArc
 50
314.063917
 51
44.566736
  0
ARC
  5
878
100
AcDbEntity
  8
3
100
AcDbCircle
 10
143.956873
 20
102.094356
 30
0.0
 40
1.21385
100
AcDbArc
 50
135.433264
 51
225.936083
  0
ARC
  5
879
100
AcDbEntity
  8
3
100
AcDbCircle
 10
128.999999
 20
120.324969
 30
0.0
 40
37.288139
100
AcDbArc
 50
65.408608
 51
114.591392
  0
ARC
  5
87A
100
AcDbEntity
  8
3
100
AcDbCircle
 10
98.220592
 20
129.49979
 30
0.0
 40
1.21385
100
AcDbArc
 50
15.433264
 51
105.936083
  0
ARC
  5
87B
100
AcDbEntity
  8
3
100
AcDbCircle
 10
113.177465
 20
155.405854
 30
0.0
 40
1.21385
100
AcDbArc
 50
194.063917
 51
284.566736
  0
ARC
  5
87C
100
AcDbEntity
  8
3
100
AcDbCircle
 10
144.822534
 20
155.405854
 30
0.0
 40
1.21385
100
AcDbArc
 50
255.433264
 51
345.936083
  0
ARC
  5
87D
100
AcDbEntity
  8
3
100
AcDbCircle
 10
159.779407
 20
129.49979
 30
0.0
 40
1.21385
100
AcDbArc
 50
74.063917
 51
164.566736
  0
LINE
  5
87E
100
AcDbEntity
  8
1
100
AcDbLine
 10
101.999999
 20
231.0
 30
0.0
 11
159.999999
 21
231.0
 31
0.0
  0
ARC
  5
87F
100
AcDbEntity
  8
3
100
AcDbCircle
 10
128.999999
 20
231.0
 30
0.0
 40
14.0
100
AcDbArc
 50
180.0
 51
0.0
  0
ARC
  5
880
100
AcDbEntity
  8
3
100
AcDbCircle
 10
117.439132
 20
222.260785
 30
0.0
 40
4.455552
100
AcDbArc
 50
113.514644
 51
175.079688
  0
ARC
  5
881
100
AcDbEntity
  8
3
100
AcDbCircle
 10
107.008632
 20
230.628455
 30
0.0
 40
8.0
100
AcDbArc
 50
359.273893
 51
101.470161
  0
ARC
  5
882
100
AcDbEntity
  8
3
100
AcDbCircle
 10
128.999999
 20
173.694128
 30
0.0
 40
54.315491
100
AcDbArc
 50
104.08129
 51
104.215852
  0
ARC
  5
883
100
AcDbEntity
  8
3
100
AcDbCircle
 10
140.560867
 20
222.260785
 30
0.0
 40
4.455552
100
AcDbArc
 50
4.920312
 51
66.485356
  0
ARC
  5
884
100
AcDbEntity
  8
3
100
AcDbCircle
 10
150.991367
 20
230.628455
 30
0.0
 40
8.0
100
AcDbArc
 50
78.529839
 51
180.726107
  0
ARC
  5
885
100
AcDbEntity
  8
3
100
AcDbCircle
 10
128.999999
 20
173.694128
 30
0.0
 40
54.315491
100
AcDbArc
 50
75.784148
 51
75.91871
  0
LINE
  5
886
100
AcDbEntity
  8
3
100
AcDbLine
 10
324.605452
 20
113.099534
 30
0.0
 11
324.605452
 21
178.94338
 31
0.0
  0
ARC
  5
887
100
AcDbEntity
  8
3
100
AcDbCircle
 10
310.005584
 20
156.617534
 30
0.0
 40
20.0
100
AcDbArc
 50
4.047312
 51
16.294047
  0
LINE
  5
888
100
AcDbEntity
  8
3
100
AcDbLine
 10
304.999999
 20
241.0
 30
0.0
 11
304.999999
 21
129.0
 31
0.0
  0
LINE
  5
889
100
AcDbEntity
  8
1
100
AcDbLine
 10
317.999999
 20
219.925978
 30
0.0
 11
317.999999
 21
129.0
 31
0.0
  0
ARC
  5
88A
100
AcDbEntity
  8
3
100
AcDbCircle
 10
215.546643
 20
92.381612
 30
0.0
 40
4.455552
100
AcDbArc
 50
353.514644
 51
55.079688
  0
LINE
  5
88B
100
AcDbEntity
  8
3
100
AcDbLine
 10
326.999999
 20
102.600336
 30
0.0
 11
326.999999
 21
155.399664
 31
0.0
  0
LINE
  5
88C
100
AcDbEntity
  8
3
100
AcDbLine
 10
313.345418
 20
94.058359
 30
0.0
 11
326.999999
 21
117.148811
 31
0.0
  0
ARC
  5
88D
100
AcDbEntity
  8
2
100
AcDbCircle
 10
354.656817
 20
115.593775
 30
0.0
 40
24.672747
100
AcDbArc
 50
152.172226
 51
208.237223
  0
ARC
  5
88E
100
AcDbEntity
  8
3
100
AcDbCircle
 10
328.576557
 20
86.123391
 30
0.0
 40
17.174147
100
AcDbArc
 50
152.481832
 51
178.250718
  0
LINE
  5
88F
100
AcDbEntity
  8
2
100
AcDbLine
 10
326.999999
 20
117.148811
 30
0.0
 11
333.002968
 21
127.300074
 31
0.0
  0
LINE
  5
890
100
AcDbEntity
  8
3
100
AcDbLine
 10
325.999999
 20
156.0
 30
0.0
 11
325.999999
 21
156.0
 31
0.0
  0
LINE
  5
891
100
AcDbEntity
  8
3
100
AcDbLine
 10
329.202273
 20
162.228874
 30
0.0
 11
313.089875
 21
217.0
 31
0.0
  0
LWPOLYLINE
  5
892
100
AcDbEntity
  8
0
100
AcDbPolyline
 90
        3
 70
     1
 43
0.0
 10
327.225032
 20
192.550763
 10
322.199407
 20
195.452309
 10
322.199407
 20
189.649217
  0
LWPOLYLINE
  5
893
100
AcDbEntity
  8
0
100
AcDbPolyline
 90
        3
 70
     1
 43
0.0
 10
327.225032
 20
198.353855
 10
322.199407
 20
201.255401
 10
322.199407
 20
195.452309
  0
LINE
  5
894
100
AcDbEntity
  8
3
100
AcDbLine
 10
330.999103
 20
205.964501
 30
0.0
 11
330.998936
 21
241.16631
 31
0.0
  0
LINE
  5
895
100
AcDbEntity
  8
3
100
AcDbLine
 10
304.999999
 20
217.0
 30
0.0
 11
313.089875
 21
217.0
 31
0.0
  0
LINE
  5
896
100
AcDbEntity
  8
3
100
AcDbLine
 10
326.638316
 20
219.0
 30
0.0
 11
330.999039
 21
219.465938
 31
0.0
  0
DIMENSION
  5
897
100
AcDbEntity
  8
0
100
AcDbDimension
  2
*D22
 10
366.999999
 20
172.800992
 30
0.0
 11
357.999999
 21
172.800992
 31
0.0
 12
-46.500001
 22
-201.5
 32
0.0
 70
   128
  3
STANDARD
100
AcDbAlignedDimension
 13
348.999999
 23
153.5
 33
0.0
 14
366.999999
 24
151.0
 34
0.0
100
AcDbRotatedDimension
1001
ACAD
1000
DSTYLE
1002
{
1070
   140
1040
18.0
1070
    73
1070
     0
1070
    40
1040
1.0
1002
}
  0
ARC
  5
898
100
AcDbEntity
  8
3
100
AcDbCircle
 10
332.195652
 20
137.619565
 30
0.0
 40
23.120863
100
AcDbArc
 50
43.38083
 51
75.460716
  0
ARC
  5
899
100
AcDbEntity
  8
3
100
AcDbCircle
 10
326.005584
 20
155.400672
 30
0.0
 40
20.0
100
AcDbArc
 50
2.216442
 51
17.904448
  0
LINE
  5
89A
100
AcDbEntity
  8
1
100
AcDbLine
 10
337.999999
 20
129.0
 30
0.0
 11
337.999999
 21
184.0
 31
0.0
  0
LINE
  5
89B
100
AcDbEntity
  8
3
100
AcDbLine
 10
366.999999
 20
151.0
 30
0.0
 11
366.999999
 21
107.0
 31
0.0
  0
ARC
  5
89C
100
AcDbEntity
  8
2
100
AcDbCircle
 10
316.039313
 20
115.308899
 30
0.0
 40
30.059844
100
AcDbArc
 50
337.73712
 51
22.26288
  0
LINE
  5
89D
100
AcDbEntity
  8
1
100
AcDbLine
 10
337.999999
 20
129.0
 30
0.0
 11
337.999999
 21
74.0
 31
0.0
  0
LINE
  5
89E
100
AcDbEntity
  8
3
100
AcDbLine
 10
366.999999
 20
107.0
 30
0.0
 11
348.999999
 21
107.0
 31
0.0
  0
ARC
  5
89F
100
AcDbEntity
  8
3
100
AcDbCircle
 10
332.195652
 20
120.380434
 30
0.0
 40
23.120863
100
AcDbArc
 50
284.539284
 51
316.61917
  0
LINE
  5
8A0
100
AcDbEntity
  8
2
100
AcDbLine
 10
339.42553
 20
97.06976
 30
0.0
 11
343.517473
 21
103.311208
 31
0.0
  0
LINE
  5
8A1
100
AcDbEntity
  8
3
100
AcDbLine
 10
348.999999
 20
107.0
 30
0.0
 11
348.999999
 21
104.5
 31
0.0
  0
LINE
  5
8A2
100
AcDbEntity
  8
3
100
AcDbLine
 10
348.999999
 20
151.0
 30
0.0
 11
366.999999
 21
151.0
 31
0.0
  0
LINE
  5
8A3
100
AcDbEntity
  8
3
100
AcDbLine
 10
348.999999
 20
153.5
 30
0.0
 11
348.999999
 21
151.0
 31
0.0
  0
LWPOLYLINE
  5
8A4
100
AcDbEntity
  8
0
100
AcDbPolyline
 90
        3
 70
     1
 43
0.0
 10
368.039198
 20
205.051441
 10
373.064823
 20
202.149896
 10
373.064823
 20
207.952987
  0
TEXT
  5
8A5
100
AcDbEntity
  8
0
100
AcDbText
 10
345.120067
 20
222.820287
 30
0.0
 40
8.4
  1
%%P0.1
 41
0.7
  7
BIGFONT
100
AcDbText
  0
LWPOLYLINE
  5
8A6
100
AcDbEntity
  8
0
100
AcDbPolyline
 90
        3
 70
     1
 43
0.0
 10
368.039198
 20
210.854533
 10
373.064823
 20
207.952987
 10
373.064823
 20
213.756079
  0
ENDBLK
  5
8A8
100
AcDbEntity
  8
0
100
AcDbBlockEnd
  0
BLOCK
  5
954
100
AcDbEntity
  8
0
100
AcDbBlockBegin
  2
*D25
 70
     1
 10
0.0
 20
0.0
 30
0.0
  3
*D25
  1

  0
LINE
  5
94B
100
AcDbEntity
  8
0
  6
BYBLOCK
 62
     0
100
AcDbLine
 10
386.5
 20
349.506892
 30
0.0
 11
386.5
 21
402.5
 31
0.0
  0
LINE
  5
94C
100
AcDbEntity
  8
0
  6
BYBLOCK
 62
     0
100
AcDbLine
 10
431.5
 20
347.5
 30
0.0
 11
431.5
 21
402.5
 31
0.0
  0
LINE
  5
94D
100
AcDbEntity
  8
0
  6
BYBLOCK
 62
     0
100
AcDbLine
 10
389.0
 20
402.0
 30
0.0
 11
429.0
 21
402.0
 31
0.0
  0
SOLID
  5
94E
100
AcDbEntity
  8
0
  6
BYBLOCK
 62
     0
100
AcDbTrace
 10
389.0
 20
402.416667
 30
0.0
 11
389.0
 21
401.583333
 31
0.0
 12
386.5
 22
402.0
 32
0.0
 13
386.5
 23
402.0
 33
0.0
  0
SOLID
  5
94F
100
AcDbEntity
  8
0
  6
BYBLOCK
 62
     0
100
AcDbTrace
 10
429.0
 20
402.416667
 30
0.0
 11
429.0
 21
401.583333
 31
0.0
 12
431.5
 22
402.0
 32
0.0
 13
431.5
 23
402.0
 33
0.0
  0
MTEXT
  5
950
100
AcDbEntity
  8
0
  6
BYBLOCK
 62
     0
100
AcDbMText
 10
412.5
 20
404.59
 30
0.0
 40
5.0
 41
0.0
 71
     5
 72
     1
  1
\A1;45
  0
POINT
  5
951
100
AcDbEntity
  8
DEFPOINTS
  6
BYBLOCK
 62
     0
100
AcDbPoint
 10
386.5
 20
349.006892
 30
0.0
  0
POINT
  5
952
100
AcDbEntity
  8
DEFPOINTS
  6
BYBLOCK
 62
     0
100
AcDbPoint
 10
431.5
 20
347.0
 30
0.0
  0
POINT
  5
953
100
AcDbEntity
  8
DEFPOINTS
  6
BYBLOCK
 62
     0
100
AcDbPoint
 10
431.5
 20
402.0
 30
0.0
  0
ENDBLK
  5
955
100
AcDbEntity
  8
0
100
AcDbBlockEnd
  0
BLOCK
  5
960
100
AcDbEntity
  8
0
100
AcDbBlockBegin
  2
*D26
 70
     1
 10
0.0
 20
0.0
 30
0.0
  3
*D26
  1

  0
LINE
  5
957
100
AcDbEntity
  8
0
  6
BYBLOCK
 62
     0
100
AcDbLine
 10
411.5
 20
347.0
 30
0.0
 11
411.5
 21
383.0
 31
0.0
  0
LINE
  5
958
100
AcDbEntity
  8
0
  6
BYBLOCK
 62
     0
100
AcDbLine
 10
431.5
 20
347.0
 30
0.0
 11
431.5
 21
383.0
 31
0.0
  0
LINE
  5
959
100
AcDbEntity
  8
0
  6
BYBLOCK
 62
     0
100
AcDbLine
 10
414.0
 20
382.5
 30
0.0
 11
429.0
 21
382.5
 31
0.0
  0
SOLID
  5
95A
100
AcDbEntity
  8
0
  6
BYBLOCK
 62
     0
100
AcDbTrace
 10
414.0
 20
382.916667
 30
0.0
 11
414.0
 21
382.083333
 31
0.0
 12
411.5
 22
382.5
 32
0.0
 13
411.5
 23
382.5
 33
0.0
  0
SOLID
  5
95B
100
AcDbEntity
  8
0
  6
BYBLOCK
 62
     0
100
AcDbTrace
 10
429.0
 20
382.916667
 30
0.0
 11
429.0
 21
382.083333
 31
0.0
 12
431.5
 22
382.5
 32
0.0
 13
431.5
 23
382.5
 33
0.0
  0
MTEXT
  5
95C
100
AcDbEntity
  8
0
  6
BYBLOCK
 62
     0
100
AcDbMText
 10
421.5
 20
385.090492
 30
0.0
 40
5.0
 41
0.0
 71
     5
 72
     1
  1
\A1;20
  0
POINT
  5
95D
100
AcDbEntity
  8
DEFPOINTS
  6
BYBLOCK
 62
     0
100
AcDbPoint
 10
411.5
 20
346.5
 30
0.0
  0
POINT
  5
95E
100
AcDbEntity
  8
DEFPOINTS
  6
BYBLOCK
 62
     0
100
AcDbPoint
 10
431.5
 20
346.5
 30
0.0
  0
POINT
  5
95F
100
AcDbEntity
  8
DEFPOINTS
  6
BYBLOCK
 62
     0
100
AcDbPoint
 10
431.5
 20
382.5
 30
0.0
  0
ENDBLK
  5
961
100
AcDbEntity
  8
0
100
AcDbBlockEnd
  0
BLOCK
  5
96C
100
AcDbEntity
  8
0
100
AcDbBlockBegin
  2
*D27
 70
     1
 10
0.0
 20
0.0
 30
0.0
  3
*D27
  1

  0
LINE
  5
963
100
AcDbEntity
  8
0
  6
BYBLOCK
 62
     0
100
AcDbLine
 10
92.0
 20
477.0
 30
0.0
 11
274.215618
 21
477.0
 31
0.0
  0
LINE
  5
964
100
AcDbEntity
  8
0
  6
BYBLOCK
 62
     0
100
AcDbLine
 10
92.0
 20
162.0
 30
0.0
 11
274.215618
 21
162.0
 31
0.0
  0
LINE
  5
965
100
AcDbEntity
  8
0
  6
BYBLOCK
 62
     0
100
AcDbLine
 10
273.715618
 20
474.5
 30
0.0
 11
273.715618
 21
164.5
 31
0.0
  0
SOLID
  5
966
100
AcDbEntity
  8
0
  6
BYBLOCK
 62
     0
100
AcDbTrace
 10
273.298952
 20
474.5
 30
0.0
 11
274.132285
 21
474.5
 31
0.0
 12
273.715618
 22
477.0
 32
0.0
 13
273.715618
 23
477.0
 33
0.0
  0
SOLID
  5
967
100
AcDbEntity
  8
0
  6
BYBLOCK
 62
     0
100
AcDbTrace
 10
273.298952
 20
164.5
 30
0.0
 11
274.132285
 21
164.5
 31
0.0
 12
273.715618
 22
162.0
 32
0.0
 13
273.715618
 23
162.0
 33
0.0
  0
MTEXT
  5
968
100
AcDbEntity
  8
0
  6
BYBLOCK
 62
     0
100
AcDbMText
 10
271.125618
 20
321.257586
 30
0.0
 40
5.0
 41
0.0
 71
     5
 72
     1
  1
\A1;\U+2205315
 11
0.0
 21
1.0
 31
0.0
  0
POINT
  5
969
100
AcDbEntity
  8
DEFPOINTS
  6
BYBLOCK
 62
     0
100
AcDbPoint
 10
91.5
 20
477.0
 30
0.0
  0
POINT
  5
96A
100
AcDbEntity
  8
DEFPOINTS
  6
BYBLOCK
 62
     0
100
AcDbPoint
 10
91.5
 20
162.0
 30
0.0
  0
POINT
  5
96B
100
AcDbEntity
  8
DEFPOINTS
  6
BYBLOCK
 62
     0
100
AcDbPoint
 10
273.715618
 20
162.0
 30
0.0
  0
ENDBLK
  5
96D
100
AcDbEntity
  8
0
100
AcDbBlockEnd
  0
BLOCK
  5
978
100
AcDbEntity
  8
0
100
AcDbBlockBegin
  2
*D28
 70
     1
 10
0.0
 20
0.0
 30
0.0
  3
*D28
  1

  0
LINE
  5
96F
100
AcDbEntity
  8
0
  6
BYBLOCK
 62
     0
100
AcDbLine
 10
374.0
 20
192.0
 30
0.0
 11
332.973008
 21
192.0
 31
0.0
  0
LINE
  5
970
100
AcDbEntity
  8
0
  6
BYBLOCK
 62
     0
100
AcDbLine
 10
374.0
 20
162.0
 30
0.0
 11
332.973008
 21
162.0
 31
0.0
  0
LINE
  5
971
100
AcDbEntity
  8
0
  6
BYBLOCK
 62
     0
100
AcDbLine
 10
333.473008
 20
189.5
 30
0.0
 11
333.473008
 21
164.5
 31
0.0
  0
SOLID
  5
972
100
AcDbEntity
  8
0
  6
BYBLOCK
 62
     0
100
AcDbTrace
 10
333.056341
 20
189.5
 30
0.0
 11
333.889675
 21
189.5
 31
0.0
 12
333.473008
 22
192.0
 32
0.0
 13
333.473008
 23
192.0
 33
0.0
  0
SOLID
  5
973
100
AcDbEntity
  8
0
  6
BYBLOCK
 62
     0
100
AcDbTrace
 10
333.056341
 20
164.5
 30
0.0
 11
333.889675
 21
164.5
 31
0.0
 12
333.473008
 22
162.0
 32
0.0
 13
333.473008
 23
162.0
 33
0.0
  0
MTEXT
  5
974
100
AcDbEntity
  8
0
  6
BYBLOCK
 62
     0
100
AcDbMText
 10
330.882516
 20
177.055302
 30
0.0
 40
5.0
 41
0.0
 71
     5
 72
     1
  1
\A1;29.5
 11
0.0
 21
1.0
 31
0.0
  0
POINT
  5
975
100
AcDbEntity
  8
DEFPOINTS
  6
BYBLOCK
 62
     0
100
AcDbPoint
 10
374.5
 20
192.0
 30
0.0
  0
POINT
  5
976
100
AcDbEntity
  8
DEFPOINTS
  6
BYBLOCK
 62
     0
100
AcDbPoint
 10
374.5
 20
162.0
 30
0.0
  0
POINT
  5
977
100
AcDbEntity
  8
DEFPOINTS
  6
BYBLOCK
 62
     0
100
AcDbPoint
 10
333.473008
 20
162.0
 30
0.0
  0
ENDBLK
  5
979
100
AcDbEntity
  8
0
100
AcDbBlockEnd
  0
BLOCK
  5
9EE
100
AcDbEntity
  8
0
100
AcDbBlockBegin
  2
A$C39FF7109
 70
     0
 10
0.0
 20
0.0
 30
0.0
  3
A$C39FF7109
  1

  0
LINE
  5
97B
100
AcDbEntity
  8
3
100
AcDbLine
 10
383.068632
 20
208.965161
 30
0.0
 11
365.455767
 21
287.216513
 31
0.0
  0
LINE
  5
97C
100
AcDbEntity
  8
3
100
AcDbLine
 10
375.255227
 20
96.716513
 30
0.0
 11
393.140173
 21
129.234596
 31
0.0
  0
LINE
  5
97D
100
AcDbEntity
  8
3
100
AcDbLine
 10
365.755227
 20
124.216513
 30
0.0
 11
381.755227
 21
153.930799
 31
0.0
  0
ARC
  5
97E
100
AcDbEntity
  8
3
100
AcDbCircle
 10
365.005227
 20
102.466513
 30
0.0
 40
11.752659
100
AcDbArc
 50
308.088773
 51
330.708638
  0
LINE
  5
97F
100
AcDbEntity
  8
1
100
AcDbLine
 10
352.385848
 20
303.216513
 30
0.0
 11
385.977637
 21
303.216513
 31
0.0
  0
ARC
  5
980
100
AcDbEntity
  8
3
100
AcDbCircle
 10
369.755227
 20
315.716513
 30
0.0
 40
13.0
100
AcDbArc
 50
0.733009
 51
90.0
  0
ARC
  5
981
100
AcDbEntity
  8
3
100
AcDbCircle
 10
360.255227
 20
26.716513
 30
0.0
 40
21.0
100
AcDbArc
 50
38.436959
 51
47.501958
  0
ARC
  5
982
100
AcDbEntity
  8
3
100
AcDbCircle
 10
393.297786
 20
39.532626
 30
0.0
 40
16.595129
100
AcDbArc
 50
179.176178
 51
230.559222
  0
LINE
  5
983
100
AcDbEntity
  8
1
100
AcDbLine
 10
431.755227
 20
171.216513
 30
0.0
 11
353.255227
 21
171.216513
 31
0.0
  0
ARC
  5
984
100
AcDbEntity
  8
3
100
AcDbCircle
 10
369.755227
 20
26.716513
 30
0.0
 40
13.0
100
AcDbArc
 50
270.0
 51
359.266991
  0
LINE
  5
985
100
AcDbEntity
  8
1
100
AcDbLine
 10
354.755227
 20
26.716513
 30
0.0
 11
385.87029
 21
26.716513
 31
0.0
  0
DIMENSION
  5
986
100
AcDbEntity
  8
0
100
AcDbDimension
  2
*D27
 10
268.970846
 20
13.716513
 30
0.0
 11
268.970846
 21
172.974099
 31
0.0
 12
-4.744773
 22
-148.283487
 32
0.0
 70
   128
  1
%%C315
  3
STANDARD
100
AcDbAlignedDimension
 13
86.755227
 23
328.716513
 33
0.0
 14
86.755227
 24
13.716513
 34
0.0
 50
90.0
100
AcDbRotatedDimension
1001
ACAD
1000
DSTYLE
1002
{
1070
    73
1070
     0
1070
    40
1040
1.0
1002
}
  0
LINE
  5
987
100
AcDbEntity
  8
3
100
AcDbLine
 10
121.633556
 20
174.173511
 30
0.0
 11
205.067566
 21
123.693462
 31
0.0
  0
LINE
  5
988
100
AcDbEntity
  8
3
100
AcDbLine
 10
101.633556
 20
139.532495
 30
0.0
 11
187.067566
 21
92.516547
 31
0.0
  0
LINE
  5
989
100
AcDbEntity
  8
3
100
AcDbLine
 10
71.876899
 20
139.532495
 30
0.0
 11
0.0
 21
99.977282
 31
0.0
  0
ARC
  5
98A
100
AcDbEntity
  8
3
100
AcDbCircle
 10
86.755227
 20
171.216513
 30
0.0
 40
157.5
100
AcDbArc
 50
236.576244
 51
123.423756
  0
ARC
  5
98B
100
AcDbEntity
  8
3
100
AcDbCircle
 10
86.755227
 20
171.216513
 30
0.0
 40
144.5
100
AcDbArc
 50
233.102725
 51
79.206643
  0
LINE
  5
98C
100
AcDbEntity
  8
1
100
AcDbLine
 10
86.755227
 20
171.216513
 30
0.0
 11
234.223232
 21
86.075821
 31
0.0
  0
LINE
  5
98D
100
AcDbEntity
  8
1
100
AcDbLine
 10
86.755227
 20
171.216513
 30
0.0
 11
0.0
 21
121.128359
 31
0.0
  0
ARC
  5
98E
100
AcDbEntity
  8
3
100
AcDbCircle
 10
86.755227
 20
171.216513
 30
0.0
 40
127.5
100
AcDbArc
 50
338.115929
 51
81.884071
  0
LINE
  5
98F
100
AcDbEntity
  8
1
100
AcDbLine
 10
86.755227
 20
341.563164
 30
0.0
 11
86.755227
 21
0.0
 31
0.0
  0
LINE
  5
990
100
AcDbEntity
  8
3
100
AcDbLine
 10
356.755227
 20
26.716513
 30
0.0
 11
356.755227
 21
171.216513
 31
0.0
  0
LINE
  5
991
100
AcDbEntity
  8
1
100
AcDbLine
 10
369.755227
 20
47.790534
 30
0.0
 11
369.755227
 21
171.216513
 31
0.0
  0
ARC
  5
992
100
AcDbEntity
  8
3
100
AcDbCircle
 10
86.755227
 20
171.216513
 30
0.0
 40
127.5
100
AcDbArc
 50
227.1225
 51
321.884071
  0
ARC
  5
993
100
AcDbEntity
  8
3
100
AcDbCircle
 10
150.921509
 20
134.170093
 30
0.0
 40
57.416779
100
AcDbArc
 50
313.362144
 51
346.637856
  0
ARC
  5
994
100
AcDbEntity
  8
3
100
AcDbCircle
 10
188.774859
 20
94.978714
 30
0.0
 40
2.996183
100
AcDbArc
 50
235.262152
 51
301.588152
  0
ARC
  5
995
100
AcDbEntity
  8
3
100
AcDbCircle
 10
203.788914
 20
120.98382
 30
0.0
 40
2.996183
100
AcDbArc
 50
358.411848
 51
64.737848
  0
DIMENSION
  5
996
100
AcDbEntity
  8
0
100
AcDbDimension
  2
*D28
 10
328.728235
 20
13.716513
 30
0.0
 11
328.728235
 21
28.771815
 31
0.0
 12
-4.744773
 22
-148.283487
 32
0.0
 70
   128
  1
29.5
  3
STANDARD
100
AcDbAlignedDimension
 13
369.755227
 23
43.716513
 33
0.0
 14
369.755227
 24
13.716513
 34
0.0
 50
90.0
100
AcDbRotatedDimension
1001
ACAD
1000
DSTYLE
1002
{
1070
    73
1070
     0
1070
    40
1040
1.0
1002
}
  0
LINE
  5
997
100
AcDbEntity
  8
1
100
AcDbLine
 10
369.755227
 20
47.790534
 30
0.0
 11
369.755227
 21
10.431184
 31
0.0
  0
ARC
  5
998
100
AcDbEntity
  8
3
100
AcDbCircle
 10
379.255227
 20
26.716513
 30
0.0
 40
21.0
100
AcDbArc
 50
132.498042
 51
178.743228
  0
ARC
  5
999
100
AcDbEntity
  8
3
100
AcDbCircle
 10
369.755227
 20
26.716513
 30
0.0
 40
13.0
100
AcDbArc
 50
180.733009
 51
270.0
  0
ARC
  5
99A
100
AcDbEntity
  8
3
100
AcDbCircle
 10
358.060327
 20
27.181494
 30
0.0
 40
0.2
100
AcDbArc
 50
281.309932
 51
358.743228
  0
ARC
  5
99B
100
AcDbEntity
  8
3
100
AcDbCircle
 10
356.956275
 20
26.552762
 30
0.0
 40
0.2
100
AcDbArc
 50
101.309932
 51
180.733009
  0
LINE
  5
99C
100
AcDbEntity
  8
3
100
AcDbLine
 10
356.917052
 20
26.748878
 30
0.0
 11
358.09955
 21
26.985378
 31
0.0
  0
ARC
  5
99D
100
AcDbEntity
  8
3
100
AcDbCircle
 10
369.755227
 20
35.716513
 30
0.0
 40
8.0
100
AcDbArc
 50
90.0
 51
125.863638
  0
ARC
  5
99E
100
AcDbEntity
  8
3
100
AcDbCircle
 10
369.755227
 20
35.716513
 30
0.0
 40
8.0
100
AcDbArc
 50
54.136362
 51
90.0
  0
ARC
  5
99F
100
AcDbEntity
  8
3
100
AcDbCircle
 10
410.04768
 20
108.537268
 30
0.0
 40
47.293541
100
AcDbArc
 50
168.190219
 51
194.474221
  0
ARC
  5
9A0
100
AcDbEntity
  8
3
100
AcDbCircle
 10
369.255227
 20
97.966513
 30
0.0
 40
5.153882
100
AcDbArc
 50
194.036243
 51
247.166346
  0
ARC
  5
9A1
100
AcDbEntity
  8
3
100
AcDbCircle
 10
369.755227
 20
97.331034
 30
0.0
 40
4.814487
100
AcDbArc
 50
238.716964
 51
301.283036
  0
ARC
  5
9A2
100
AcDbEntity
  8
3
100
AcDbCircle
 10
394.005227
 20
111.466513
 30
0.0
 40
30.993951
100
AcDbArc
 50
155.709038
 51
166.233828
  0
ARC
  5
9A3
100
AcDbEntity
  8
3
100
AcDbCircle
 10
370.505227
 20
116.966513
 30
0.0
 40
6.864765
100
AcDbArc
 50
164.14637
 51
169.508523
  0
LINE
  5
9A4
100
AcDbEntity
  8
1
100
AcDbLine
 10
249.755227
 20
171.216513
 30
0.0
 11
0.0
 21
171.216513
 31
0.0
  0
ARC
  5
9A5
100
AcDbEntity
  8
3
100
AcDbCircle
 10
101.769282
 20
297.687005
 30
0.0
 40
2.996183
100
AcDbArc
 50
355.262152
 51
61.588152
  0
ARC
  5
9A6
100
AcDbEntity
  8
3
100
AcDbCircle
 10
71.741172
 20
297.687005
 30
0.0
 40
2.996183
100
AcDbArc
 50
118.411848
 51
184.737848
  0
ARC
  5
9A7
100
AcDbEntity
  8
3
100
AcDbCircle
 10
86.755227
 20
303.216513
 30
0.0
 40
16.0
100
AcDbArc
 50
180.0
 51
0.0
  0
ARC
  5
9A8
100
AcDbEntity
  8
3
100
AcDbCircle
 10
86.755227
 20
171.216513
 30
0.0
 40
127.5
100
AcDbArc
 50
98.115929
 51
132.8775
  0
ARC
  5
9A9
100
AcDbEntity
  8
3
100
AcDbCircle
 10
86.755227
 20
171.216513
 30
0.0
 40
144.5
100
AcDbArc
 50
100.793357
 51
126.897275
  0
LINE
  5
9AA
100
AcDbEntity
  8
3
100
AcDbLine
 10
51.876899
 20
174.173511
 30
0.0
 11
0.0
 21
142.78645
 31
0.0
  0
LINE
  5
9AB
100
AcDbEntity
  8
3
100
AcDbLine
 10
66.755227
 20
199.943532
 30
0.0
 11
68.755227
 21
297.43953
 31
0.0
  0
LINE
  5
9AC
100
AcDbEntity
  8
3
100
AcDbLine
 10
106.755227
 20
199.943532
 30
0.0
 11
104.755227
 21
297.43953
 31
0.0
  0
ARC
  5
9AD
100
AcDbEntity
  8
3
100
AcDbCircle
 10
86.755227
 20
171.216513
 30
0.0
 40
32.553229
100
AcDbArc
 50
59.006744
 51
120.993256
  0
CIRCLE
  5
9AE
100
AcDbEntity
  8
3
100
AcDbCircle
 10
86.755227
 20
171.216513
 30
0.0
 40
27.0
  0
ARC
  5
9AF
100
AcDbEntity
  8
3
100
AcDbCircle
 10
86.755227
 20
171.216513
 30
0.0
 40
35.0
100
AcDbArc
 50
244.849387
 51
295.150613
  0
ARC
  5
9B0
100
AcDbEntity
  8
3
100
AcDbCircle
 10
86.755227
 20
171.216513
 30
0.0
 40
32.553229
100
AcDbArc
 50
179.006744
 51
240.993256
  0
ARC
  5
9B1
100
AcDbEntity
  8
3
100
AcDbCircle
 10
100.332465
 20
179.055335
 30
0.0
 40
46.695689
100
AcDbArc
 50
231.037633
 51
233.196161
  0
ARC
  5
9B2
100
AcDbEntity
  8
3
100
AcDbCircle
 10
70.999958
 20
140.851522
 30
0.0
 40
1.583937
100
AcDbArc
 50
303.617514
 51
30.966064
  0
ARC
  5
9B3
100
AcDbEntity
  8
3
100
AcDbCircle
 10
86.755227
 20
171.216513
 30
0.0
 40
35.0
100
AcDbArc
 50
124.849387
 51
175.150613
  0
ARC
  5
9B4
100
AcDbEntity
  8
3
100
AcDbCircle
 10
100.332465
 20
179.055335
 30
0.0
 40
46.695689
100
AcDbArc
 50
186.803839
 51
188.962367
  0
ARC
  5
9B5
100
AcDbEntity
  8
3
100
AcDbCircle
 10
52.580739
 20
172.754545
 30
0.0
 40
1.583937
100
AcDbArc
 50
29.033936
 51
116.382486
  0
ARC
  5
9B6
100
AcDbEntity
  8
3
100
AcDbCircle
 10
86.755227
 20
155.538869
 30
0.0
 40
46.695689
100
AcDbArc
 50
111.037633
 51
113.196161
  0
ARC
  5
9B7
100
AcDbEntity
  8
3
100
AcDbCircle
 10
68.336009
 20
200.043472
 30
0.0
 40
1.583937
100
AcDbArc
 50
183.617514
 51
270.966064
  0
ARC
  5
9B8
100
AcDbEntity
  8
3
100
AcDbCircle
 10
86.755227
 20
171.216513
 30
0.0
 40
32.553229
100
AcDbArc
 50
299.006744
 51
0.993256
  0
ARC
  5
9B9
100
AcDbEntity
  8
3
100
AcDbCircle
 10
73.177989
 20
179.055335
 30
0.0
 40
46.695689
100
AcDbArc
 50
306.803839
 51
308.962367
  0
ARC
  5
9BA
100
AcDbEntity
  8
3
100
AcDbCircle
 10
102.510497
 20
140.851522
 30
0.0
 40
1.583937
100
AcDbArc
 50
149.033936
 51
236.382486
  0
ARC
  5
9BB
100
AcDbEntity
  8
3
100
AcDbCircle
 10
86.755227
 20
171.216513
 30
0.0
 40
35.0
100
AcDbArc
 50
4.849387
 51
55.150613
  0
ARC
  5
9BC
100
AcDbEntity
  8
3
100
AcDbCircle
 10
86.755227
 20
155.538869
 30
0.0
 40
46.695689
100
AcDbArc
 50
66.803839
 51
68.962367
  0
ARC
  5
9BD
100
AcDbEntity
  8
3
100
AcDbCircle
 10
105.174446
 20
200.043472
 30
0.0
 40
1.583937
100
AcDbArc
 50
269.033936
 51
356.382486
  0
ARC
  5
9BE
100
AcDbEntity
  8
3
100
AcDbCircle
 10
73.177989
 20
179.055335
 30
0.0
 40
46.695689
100
AcDbArc
 50
351.037633
 51
353.196161
  0
ARC
  5
9BF
100
AcDbEntity
  8
3
100
AcDbCircle
 10
120.929715
 20
172.754545
 30
0.0
 40
1.583937
100
AcDbArc
 50
63.617514
 51
150.966064
  0
LINE
  5
9C0
100
AcDbEntity
  8
1
100
AcDbLine
 10
119.755227
 20
303.216513
 30
0.0
 11
56.755227
 21
303.216513
 31
0.0
  0
ARC
  5
9C1
100
AcDbEntity
  8
3
100
AcDbCircle
 10
60.755227
 20
303.216513
 30
0.0
 40
10.0
100
AcDbArc
 50
0.0
 51
96.085609
  0
ARC
  5
9C2
100
AcDbEntity
  8
3
100
AcDbCircle
 10
86.755227
 20
245.309353
 30
0.0
 40
57.416779
100
AcDbArc
 50
105.942444
 51
106.637856
  0
ARC
  5
9C3
100
AcDbEntity
  8
3
100
AcDbCircle
 10
112.755227
 20
303.216513
 30
0.0
 40
10.0
100
AcDbArc
 50
83.914391
 51
180.0
  0
ARC
  5
9C4
100
AcDbEntity
  8
3
100
AcDbCircle
 10
86.755227
 20
245.309353
 30
0.0
 40
57.416779
100
AcDbArc
 50
73.362144
 51
74.057556
  0
LINE
  5
9C5
100
AcDbEntity
  8
1
100
AcDbLine
 10
369.755227
 20
294.642492
 30
0.0
 11
369.755227
 21
332.001842
 31
0.0
  0
LINE
  5
9C6
100
AcDbEntity
  8
3
100
AcDbLine
 10
356.755227
 20
315.716513
 30
0.0
 11
356.755227
 21
171.216513
 31
0.0
  0
LINE
  5
9C7
100
AcDbEntity
  8
1
100
AcDbLine
 10
369.755227
 20
294.642492
 30
0.0
 11
369.755227
 21
171.216513
 31
0.0
  0
TEXT
  5
9C8
100
AcDbEntity
  8
0
100
AcDbText
 10
266.152199
 20
183.635245
 30
0.0
 40
4.5
  1
(%%C313)
 50
90.0
 41
0.7
  7
BIGFONT
100
AcDbText
  0
LINE
  5
9C9
100
AcDbEntity
  8
3
100
AcDbLine
 10
356.755227
 20
287.216513
 30
0.0
 11
365.455767
 21
287.216513
 31
0.0
  0
ARC
  5
9CA
100
AcDbEntity
  8
3
100
AcDbCircle
 10
369.755227
 20
315.716513
 30
0.0
 40
13.0
100
AcDbArc
 50
90.0
 51
179.266991
  0
LINE
  5
9CB
100
AcDbEntity
  8
3
100
AcDbLine
 10
376.704372
 20
39.77123
 30
0.0
 11
376.704372
 21
99.351322
 31
0.0
  0
LINE
  5
9CC
100
AcDbEntity
  8
3
100
AcDbLine
 10
382.755227
 20
26.716513
 30
0.0
 11
382.755227
 21
110.352877
 31
0.0
  0
LINE
  5
9CD
100
AcDbEntity
  8
3
100
AcDbLine
 10
382.755227
 20
315.716513
 30
0.0
 11
382.755227
 21
278.196513
 31
0.0
  0
DIMENSION
  5
9CE
100
AcDbEntity
  8
0
100
AcDbDimension
  2
*D26
 10
426.755227
 20
234.216513
 30
0.0
 11
416.755227
 21
234.216513
 31
0.0
 12
-4.744773
 22
-148.283487
 32
0.0
 70
   128
  3
STANDARD
100
AcDbAlignedDimension
 13
406.755227
 23
198.216513
 33
0.0
 14
426.755227
 24
198.216513
 34
0.0
100
AcDbRotatedDimension
1001
ACAD
1000
DSTYLE
1002
{
1070
    73
1070
     0
1070
    40
1040
1.0
1002
}
  0
DIMENSION
  5
9CF
100
AcDbEntity
  8
0
100
AcDbDimension
  2
*D25
 10
426.755227
 20
253.716513
 30
0.0
 11
407.755227
 21
253.716513
 31
0.0
 12
-4.744773
 22
-148.283487
 32
0.0
 70
   128
  3
STANDARD
100
AcDbAlignedDimension
 13
381.755227
 23
200.723405
 33
0.0
 14
426.755227
 24
198.716513
 34
0.0
100
AcDbRotatedDimension
1001
ACAD
1000
DSTYLE
1002
{
1070
    73
1070
     0
1070
    40
1040
1.0
1002
}
  0
LINE
  5
9D0
100
AcDbEntity
  8
3
100
AcDbLine
 10
398.951451
 20
209.161734
 30
0.0
 11
379.469182
 21
288.216513
 31
0.0
  0
LINE
  5
9D1
100
AcDbEntity
  8
3
100
AcDbLine
 10
376.704372
 20
171.216513
 30
0.0
 11
376.704372
 21
237.240626
 31
0.0
  0
LINE
  5
9D2
100
AcDbEntity
  8
3
100
AcDbLine
 10
381.755227
 20
141.709621
 30
0.0
 11
381.755227
 21
200.723405
 31
0.0
  0
LINE
  5
9D3
100
AcDbEntity
  8
3
100
AcDbLine
 10
426.755227
 20
195.216513
 30
0.0
 11
426.755227
 21
147.216513
 31
0.0
  0
LINE
  5
9D4
100
AcDbEntity
  8
3
100
AcDbLine
 10
376.704372
 20
144.55064
 30
0.0
 11
376.704372
 21
171.216513
 31
0.0
  0
ARC
  5
9D5
100
AcDbEntity
  8
2
100
AcDbCircle
 10
393.755227
 20
163.359082
 30
0.0
 40
6.823452
100
AcDbArc
 50
59.140351
 51
120.859649
  0
ARC
  5
9D6
100
AcDbEntity
  8
3
100
AcDbCircle
 10
391.872874
 20
157.672395
 30
0.0
 40
21.456205
100
AcDbArc
 50
269.685838
 51
313.91698
  0
ARC
  5
9D7
100
AcDbEntity
  8
2
100
AcDbCircle
 10
434.005227
 20
152.716513
 30
0.0
 40
48.260362
100
AcDbArc
 50
171.660024
 51
188.339976
  0
ARC
  5
9D8
100
AcDbEntity
  8
2
100
AcDbCircle
 10
353.505227
 20
152.716513
 30
0.0
 40
48.260362
100
AcDbArc
 50
351.660024
 51
8.339976
  0
ARC
  5
9D9
100
AcDbEntity
  8
3
100
AcDbCircle
 10
391.11237
 20
146.895084
 30
0.0
 40
10.697904
100
AcDbArc
 50
208.993978
 51
273.445086
  0
ARC
  5
9DA
100
AcDbEntity
  8
2
100
AcDbCircle
 10
404.697535
 20
148.524205
 30
0.0
 40
18.654808
100
AcDbArc
 50
188.65635
 51
219.268628
  0
LINE
  5
9DB
100
AcDbEntity
  8
2
100
AcDbLine
 10
393.140173
 20
129.234596
 30
0.0
 11
398.141487
 21
137.763178
 31
0.0
  0
ARC
  5
9DC
100
AcDbEntity
  8
2
100
AcDbCircle
 10
382.81292
 20
148.524205
 30
0.0
 40
18.654808
100
AcDbArc
 50
320.731372
 51
351.34365
  0
ARC
  5
9DD
100
AcDbEntity
  8
2
100
AcDbCircle
 10
393.755227
 20
141.341803
 30
0.0
 40
5.800285
100
AcDbArc
 50
232.884868
 51
307.115132
  0
ARC
  5
9DE
100
AcDbEntity
  8
2
100
AcDbCircle
 10
404.037485
 20
157.821352
 30
0.0
 40
17.882962
100
AcDbArc
 50
140.416081
 51
173.91661
  0
LINE
  5
9DF
100
AcDbEntity
  8
2
100
AcDbLine
 10
381.755227
 20
153.930799
 30
0.0
 11
387.544755
 21
164.917116
 31
0.0
  0
ARC
  5
9E0
100
AcDbEntity
  8
2
100
AcDbCircle
 10
383.472969
 20
157.821352
 30
0.0
 40
17.882962
100
AcDbArc
 50
6.08339
 51
39.583919
  0
LINE
  5
9E1
100
AcDbEntity
  8
3
100
AcDbLine
 10
423.755227
 20
144.216513
 30
0.0
 11
406.755227
 21
144.216513
 31
0.0
  0
LINE
  5
9E2
100
AcDbEntity
  8
3
100
AcDbLine
 10
406.755227
 20
144.216513
 30
0.0
 11
406.755227
 21
142.216513
 31
0.0
  0
ARC
  5
9E3
100
AcDbEntity
  8
3
100
AcDbCircle
 10
423.755227
 20
147.216513
 30
0.0
 40
3.0
100
AcDbArc
 50
270.0
 51
0.0
  0
ARC
  5
9E4
100
AcDbEntity
  8
3
100
AcDbCircle
 10
391.872874
 20
184.760631
 30
0.0
 40
21.456205
100
AcDbArc
 50
46.08302
 51
90.314162
  0
ARC
  5
9E5
100
AcDbEntity
  8
3
100
AcDbCircle
 10
391.11237
 20
195.537942
 30
0.0
 40
10.697904
100
AcDbArc
 50
86.554914
 51
151.006022
  0
LINE
  5
9E6
100
AcDbEntity
  8
3
100
AcDbLine
 10
383.755227
 20
203.41282
 30
0.0
 11
383.755227
 21
203.769742
 31
0.0
  0
ARC
  5
9E7
100
AcDbEntity
  8
3
100
AcDbCircle
 10
363.755227
 20
203.769742
 30
0.0
 40
20.0
100
AcDbArc
 50
0.0
 51
15.056471
  0
ARC
  5
9E8
100
AcDbEntity
  8
3
100
AcDbCircle
 10
379.755227
 20
203.548803
 30
0.0
 40
20.0
100
AcDbArc
 50
3.386634
 51
16.298796
  0
LINE
  5
9E9
100
AcDbEntity
  8
3
100
AcDbLine
 10
406.755227
 20
198.216513
 30
0.0
 11
423.755227
 21
198.216513
 31
0.0
  0
LINE
  5
9EA
100
AcDbEntity
  8
3
100
AcDbLine
 10
406.755227
 20
200.216513
 30
0.0
 11
406.755227
 21
198.216513
 31
0.0
  0
ARC
  5
9EB
100
AcDbEntity
  8
3
100
AcDbCircle
 10
423.755227
 20
195.216513
 30
0.0
 40
3.0
100
AcDbArc
 50
0.0
 51
90.0
  0
LINE
  5
9EC
100
AcDbEntity
  8
3
100
AcDbLine
 10
382.755227
 20
278.196513
 30
0.0
 11
382.755227
 21
274.882461
 31
0.0
  0
LINE
  5
9ED
100
AcDbEntity
  8
3
100
AcDbLine
 10
379.469182
 20
288.216513
 30
0.0
 11
382.755227
 21
288.938193
 31
0.0
  0
ENDBLK
  5
9EF
100
AcDbEntity
  8
0
100
AcDbBlockEnd
  0
BLOCK
  5
AF7
100
AcDbEntity
  8
0
100
AcDbBlockBegin
  2
*D30
 70
     1
 10
0.0
 20
0.0
 30
0.0
  3
*D30
  1

  0
LINE
  5
AED
100
AcDbEntity
  8
0
  6
BYBLOCK
 62
     0
100
AcDbLine
 10
151.5
 20
199.0
 30
0.0
 11
129.992584
 21
199.0
 31
0.0
  0
LINE
  5
AEE
100
AcDbEntity
  8
0
  6
BYBLOCK
 62
     0
100
AcDbLine
 10
150.710801
 20
170.5
 30
0.0
 11
129.992584
 21
170.5
 31
0.0
  0
LINE
  5
AEF
100
AcDbEntity
  8
0
  6
BYBLOCK
 62
     0
100
AcDbLine
 10
130.992584
 20
196.5
 30
0.0
 11
130.992584
 21
191.285119
 31
0.0
  0
LINE
  5
AF0
100
AcDbEntity
  8
0
  6
BYBLOCK
 62
     0
100
AcDbLine
 10
130.992584
 20
173.0
 30
0.0
 11
130.992584
 21
178.035119
 31
0.0
  0
SOLID
  5
AF1
100
AcDbEntity
  8
0
  6
BYBLOCK
 62
     0
100
AcDbTrace
 10
130.575918
 20
196.5
 30
0.0
 11
131.409251
 21
196.5
 31
0.0
 12
130.992584
 22
199.0
 32
0.0
 13
130.992584
 23
199.0
 33
0.0
  0
SOLID
  5
AF2
100
AcDbEntity
  8
0
  6
BYBLOCK
 62
     0
100
AcDbTrace
 10
130.575918
 20
173.0
 30
0.0
 11
131.409251
 21
173.0
 31
0.0
 12
130.992584
 22
170.5
 32
0.0
 13
130.992584
 23
170.5
 33
0.0
  0
MTEXT
  5
AF3
100
AcDbEntity
  8
0
  6
BYBLOCK
 62
     0
100
AcDbMText
 10
130.992584
 20
184.660119
 30
0.0
 40
4.0
 41
0.0
 71
     5
 72
     1
  1
\A1;28.5
 11
0.0
 21
1.0
 31
0.0
  0
POINT
  5
AF4
100
AcDbEntity
  8
DEFPOINTS
  6
BYBLOCK
 62
     0
100
AcDbPoint
 10
152.5
 20
199.0
 30
0.0
  0
POINT
  5
AF5
100
AcDbEntity
  8
DEFPOINTS
  6
BYBLOCK
 62
     0
100
AcDbPoint
 10
151.710801
 20
170.5
 30
0.0
  0
POINT
  5
AF6
100
AcDbEntity
  8
DEFPOINTS
  6
BYBLOCK
 62
     0
100
AcDbPoint
 10
130.992584
 20
170.5
 30
0.0
  0
ENDBLK
  5
AF8
100
AcDbEntity
  8
0
100
AcDbBlockEnd
  0
BLOCK
  5
B74
100
AcDbEntity
  8
0
100
AcDbBlockBegin
  2
A$C11050335
 70
     0
 10
0.0
 20
0.0
 30
0.0
  3
A$C11050335
  1

  0
MTEXT
  5
AFA
102
{ACAD_REACTORS
330
AFB
102
}
100
AcDbEntity
  8
0
100
AcDbMText
 10
151.795202
 20
75.78463
 30
9.834485
 40
4.0
 41
0.0
 71
     4
 72
     1
  1
\A1;M5-P0.8
  0
LEADER
  5
AFB
100
AcDbEntity
  8
0
100
AcDbLeader
  3
STANDARD
 73
     0
 40
4.0
 41
23.333333
 76
     3
 10
139.024889
 20
72.383023
 30
9.834485
 10
150.860372
 20
75.846478
 30
9.834485
 10
151.705202
 20
75.78463
 30
9.834485
 77
   256
340
AFA
1001
ACAD
1000
DSTYLE
1002
{
1070
   140
1040
4.0
1070
   272
1070
     1
1070
    77
1070
     0
1070
    40
1040
1.0
1070
   271
1070
     1
1070
   141
1040
0.0
1002
}
  0
ARC
  5
AFC
100
AcDbEntity
  8
3
100
AcDbCircle
 10
143.354318
 20
35.097013
 30
9.834485
 40
20.790156
100
AcDbArc
 50
64.276938
 51
86.927552
  0
ARC
  5
AFD
100
AcDbEntity
  8
3
100
AcDbCircle
 10
143.354318
 20
52.556814
 30
9.834485
 40
20.790156
100
AcDbArc
 50
273.072448
 51
295.723062
  0
ARC
  5
AFE
100
AcDbEntity
  8
2
100
AcDbCircle
 10
144.770932
 20
46.459405
 30
9.834485
 40
13.571433
100
AcDbArc
 50
268.723688
 51
299.182099
  0
ARC
  5
AFF
100
AcDbEntity
  8
2
100
AcDbCircle
 10
144.457051
 20
30.312414
 30
9.834485
 40
14.703285
100
AcDbArc
 50
62.361775
 51
89.954831
  0
LINE
  5
B00
100
AcDbEntity
  8
3
100
AcDbLine
 10
152.377698
 20
53.826914
 30
9.834485
 11
138.972861
 21
68.714493
 31
9.834485
  0
LINE
  5
B01
100
AcDbEntity
  8
1
100
AcDbLine
 10
122.683662
 20
43.826914
 30
9.834485
 11
169.183662
 21
43.826914
 31
9.834485
  0
LINE
  5
B02
100
AcDbEntity
  8
3
100
AcDbLine
 10
126.490092
 20
77.808915
 30
9.834485
 11
126.490092
 21
9.844912
 31
9.834485
  0
LINE
  5
B03
100
AcDbEntity
  8
3
100
AcDbLine
 10
136.762661
 20
27.482959
 30
9.834485
 11
145.952729
 21
31.909766
 31
9.834485
  0
LINE
  5
B04
100
AcDbEntity
  8
3
100
AcDbLine
 10
127.476689
 20
64.076914
 30
9.834485
 11
127.476689
 21
10.609192
 31
9.834485
  0
ARC
  5
B05
100
AcDbEntity
  8
3
100
AcDbCircle
 10
144.240304
 20
31.850074
 30
9.834485
 40
14.339743
100
AcDbArc
 50
170.476761
 51
192.170638
  0
LINE
  5
B06
100
AcDbEntity
  8
1
100
AcDbLine
 10
44.472861
 20
43.826914
 30
9.834485
 11
81.748546
 21
22.305787
 31
9.834485
  0
LINE
  5
B07
100
AcDbEntity
  8
1
100
AcDbLine
 10
44.472861
 20
43.826914
 30
9.834485
 11
6.662679
 21
21.997195
 31
9.834485
  0
LINE
  5
B08
100
AcDbEntity
  8
1
100
AcDbLine
 10
144.468642
 20
28.826914
 30
9.834485
 11
144.468642
 21
59.552334
 31
9.834485
  0
ARC
  5
B09
100
AcDbEntity
  8
3
100
AcDbCircle
 10
58.747731
 20
35.585314
 30
9.834485
 40
10.384921
100
AcDbArc
 50
296.547903
 51
3.452097
  0
LINE
  5
B0A
100
AcDbEntity
  8
3
100
AcDbLine
 10
49.413832
 20
32.891339
 30
9.834485
 11
61.230672
 21
26.646233
 31
9.834485
  0
ARC
  5
B0B
100
AcDbEntity
  8
3
100
AcDbCircle
 10
30.197991
 20
35.585314
 30
9.834485
 40
10.384921
100
AcDbArc
 50
176.547903
 51
243.452097
  0
LINE
  5
B0C
100
AcDbEntity
  8
3
100
AcDbLine
 10
39.531889
 20
32.891339
 30
9.834485
 11
27.71505
 21
26.646233
 31
9.834485
  0
LINE
  5
B0D
100
AcDbEntity
  8
1
100
AcDbLine
 10
133.472861
 20
22.623982
 30
9.834485
 11
133.472861
 21
43.826914
 31
9.834485
  0
ARC
  5
B0E
100
AcDbEntity
  8
3
100
AcDbCircle
 10
44.472861
 20
43.826914
 30
9.834485
 40
33.5
100
AcDbArc
 50
110.990243
 51
69.009757
  0
CIRCLE
  5
B0F
100
AcDbEntity
  8
3
100
AcDbCircle
 10
44.472861
 20
43.826914
 30
9.834485
 40
40.0
  0
LINE
  5
B10
100
AcDbEntity
  8
1
100
AcDbLine
 10
44.472861
 20
1.326914
 30
9.834485
 11
44.472861
 21
85.826914
 31
9.834485
  0
LINE
  5
B11
100
AcDbEntity
  8
1
100
AcDbLine
 10
133.472861
 20
16.547572
 30
9.834485
 11
133.472861
 21
22.623982
 31
9.834485
  0
ARC
  5
B12
100
AcDbEntity
  8
3
100
AcDbCircle
 10
44.472861
 20
43.826914
 30
9.834485
 40
24.0
100
AcDbArc
 50
225.713861
 51
314.286139
  0
ARC
  5
B13
100
AcDbEntity
  8
3
100
AcDbCircle
 10
26.048007
 20
30.086783
 30
9.834485
 40
3.823142
100
AcDbArc
 50
262.61345
 51
295.851488
  0
LINE
  5
B14
100
AcDbEntity
  8
3
100
AcDbLine
 10
139.970932
 20
10.16859
 30
9.834485
 11
139.972013
 21
29.028886
 31
9.834485
  0
ARC
  5
B15
100
AcDbEntity
  8
3
100
AcDbCircle
 10
62.897714
 20
30.086783
 30
9.834485
 40
3.823142
100
AcDbArc
 50
244.148512
 51
277.38655
  0
ARC
  5
B16
100
AcDbEntity
  8
3
100
AcDbCircle
 10
145.089995
 20
16.697646
 30
9.834485
 40
8.17137
100
AcDbArc
 50
174.77187
 51
229.586839
  0
ARC
  5
B17
100
AcDbEntity
  8
3
100
AcDbCircle
 10
139.468391
 20
10.095356
 30
9.834485
 40
0.5
100
AcDbArc
 50
357.78824
 51
49.586839
  0
ARC
  5
B18
100
AcDbEntity
  8
3
100
AcDbCircle
 10
133.796469
 20
32.259594
 30
9.834485
 40
5.622681
100
AcDbArc
 50
266.700571
 51
301.839426
  0
ARC
  5
B19
100
AcDbEntity
  8
3
100
AcDbCircle
 10
133.472861
 20
29.826914
 30
9.834485
 40
3.400368
100
AcDbArc
 50
197.102729
 51
233.972627
  0
ARC
  5
B1A
100
AcDbEntity
  8
3
100
AcDbCircle
 10
133.074392
 20
29.654977
 30
9.834485
 40
3.035015
100
AcDbArc
 50
238.150829
 51
277.544164
  0
LINE
  5
B1B
100
AcDbEntity
  8
3
100
AcDbLine
 10
136.972861
 20
17.63755
 30
9.834485
 11
136.972861
 21
27.603517
 31
9.834485
  0
LINE
  5
B1C
100
AcDbEntity
  8
3
100
AcDbLine
 10
127.327931
 20
10.420903
 30
9.834485
 11
126.934185
 21
10.377622
 31
9.834485
  0
ARC
  5
B1D
100
AcDbEntity
  8
3
100
AcDbCircle
 10
133.222861
 20
10.326914
 30
9.834485
 40
6.75
100
AcDbArc
 50
184.094842
 51
1.363125
  0
LINE
  5
B1E
100
AcDbEntity
  8
1
100
AcDbLine
 10
133.222861
 20
10.326914
 30
9.834485
 11
133.222861
 21
0.0
 31
9.834485
  0
ARC
  5
B1F
100
AcDbEntity
  8
3
100
AcDbCircle
 10
126.988816
 20
9.880616
 30
9.834485
 40
0.5
100
AcDbArc
 50
96.272761
 51
184.094842
  0
ARC
  5
B20
100
AcDbEntity
  8
3
100
AcDbCircle
 10
139.472861
 20
10.306111
 30
9.834485
 40
12.0
100
AcDbArc
 50
134.872625
 51
178.55274
  0
ARC
  5
B21
100
AcDbEntity
  8
3
100
AcDbCircle
 10
127.276753
 20
10.614244
 30
9.834485
 40
0.2
100
AcDbArc
 50
284.82648
 51
358.55274
  0
ARC
  5
B22
100
AcDbEntity
  8
3
100
AcDbCircle
 10
133.472861
 20
16.326914
 30
9.834485
 40
3.5
100
AcDbArc
 50
45.002386
 51
90.0
  0
ARC
  5
B23
100
AcDbEntity
  8
3
100
AcDbCircle
 10
133.472861
 20
16.326914
 30
9.834485
 40
3.5
100
AcDbArc
 50
90.0
 51
134.997614
  0
ARC
  5
B24
100
AcDbEntity
  8
3
100
AcDbCircle
 10
136.4547
 20
17.487794
 30
9.834485
 40
0.5
100
AcDbArc
 50
354.77187
 51
38.64507
  0
ARC
  5
B25
100
AcDbEntity
  8
3
100
AcDbCircle
 10
127.472861
 20
10.306111
 30
9.834485
 40
12.0
100
AcDbArc
 50
38.64507
 51
45.127375
  0
LINE
  5
B26
100
AcDbEntity
  8
1
100
AcDbLine
 10
54.132074
 20
72.326914
 30
9.834485
 11
34.722861
 21
72.326914
 31
9.834485
  0
CIRCLE
  5
B27
100
AcDbEntity
  8
3
100
AcDbCircle
 10
44.472861
 20
43.826914
 30
9.834485
 40
10.393661
  0
ARC
  5
B28
100
AcDbEntity
  8
3
100
AcDbCircle
 10
44.472861
 20
72.326914
 30
9.834485
 40
8.25
100
AcDbArc
 50
180.0
 51
0.0
  0
ARC
  5
B29
100
AcDbEntity
  8
3
100
AcDbCircle
 10
47.117704
 20
45.353915
 30
9.834485
 40
14.024269
100
AcDbArc
 50
182.159972
 51
237.840028
  0
ARC
  5
B2A
100
AcDbEntity
  8
3
100
AcDbCircle
 10
44.472861
 20
40.772911
 30
9.834485
 40
14.024269
100
AcDbArc
 50
62.159972
 51
117.840028
  0
LINE
  5
B2B
100
AcDbEntity
  8
1
100
AcDbLine
 10
89.683662
 20
43.826914
 30
9.834485
 11
-0.527139
 21
43.826914
 31
9.834485
  0
ARC
  5
B2C
100
AcDbEntity
  8
3
100
AcDbCircle
 10
44.472861
 20
43.826914
 30
9.834485
 40
24.0
100
AcDbArc
 50
105.713861
 51
194.286139
  0
ARC
  5
B2D
100
AcDbEntity
  8
3
100
AcDbCircle
 10
44.472861
 20
43.826914
 30
9.834485
 40
12.0
100
AcDbArc
 50
125.685335
 51
174.314665
  0
LINE
  5
B2E
100
AcDbEntity
  8
3
100
AcDbLine
 10
32.531889
 20
45.015694
 30
9.834485
 11
21.21505
 21
37.904564
 31
9.834485
  0
ARC
  5
B2F
100
AcDbEntity
  8
3
100
AcDbCircle
 10
23.361132
 20
34.740587
 30
9.834485
 40
3.823142
100
AcDbArc
 50
124.148512
 51
157.38655
  0
ARC
  5
B30
100
AcDbEntity
  8
3
100
AcDbCircle
 10
32.642266
 20
44.393959
 30
9.834485
 40
0.631456
100
AcDbArc
 50
43.090958
 51
100.066877
  0
LINE
  5
B31
100
AcDbEntity
  8
3
100
AcDbLine
 10
37.472861
 20
53.573708
 30
9.834485
 11
37.972861
 21
66.929944
 31
9.834485
  0
ARC
  5
B32
100
AcDbEntity
  8
3
100
AcDbCircle
 10
38.066487
 20
53.788986
 30
9.834485
 40
0.631456
100
AcDbArc
 50
199.933123
 51
256.909042
  0
ARC
  5
B33
100
AcDbEntity
  8
3
100
AcDbCircle
 10
41.785986
 20
66.65337
 30
9.834485
 40
3.823142
100
AcDbArc
 50
171.663378
 51
175.851488
  0
ARC
  5
B34
100
AcDbEntity
  8
3
100
AcDbCircle
 10
33.142646
 20
72.087905
 30
9.834485
 40
3.089474
100
AcDbArc
 50
4.436955
 51
102.520913
  0
DIMENSION
  5
B35
100
AcDbEntity
  8
0
100
AcDbDimension
  2
*D30
 10
101.965445
 20
43.826914
 30
9.834485
 11
101.965445
 21
57.987033
 31
9.834485
 12
-29.027139
 22
-126.673086
 32
9.834485
 70
   128
  3
STANDARD
100
AcDbAlignedDimension
 13
123.472861
 23
72.326914
 33
9.834485
 14
122.683662
 24
43.826914
 34
9.834485
 50
90.0
100
AcDbRotatedDimension
1001
ACAD
1000
DSTYLE
1002
{
1070
   140
1040
4.0
1070
   272
1070
     1
1070
    77
1070
     0
1070
    40
1040
1.0
1070
   271
1070
     1
1070
   141
1040
0.0
1002
}
  0
LINE
  5
B36
100
AcDbEntity
  8
1
100
AcDbLine
 10
144.468642
 20
54.803088
 30
9.834485
 11
133.472861
 21
67.826914
 31
9.834485
  0
CIRCLE
  5
B37
100
AcDbEntity
  8
0
100
AcDbCircle
 10
44.472861
 20
72.326914
 30
9.834485
 40
3.5
  0
ARC
  5
B38
100
AcDbEntity
  8
3
100
AcDbCircle
 10
44.472861
 20
43.826914
 30
9.834485
 40
24.0
100
AcDbArc
 50
345.713861
 51
74.286139
  0
LINE
  5
B39
100
AcDbEntity
  8
3
100
AcDbLine
 10
56.413832
 20
45.015694
 30
9.834485
 11
67.730672
 21
37.904564
 31
9.834485
  0
ARC
  5
B3A
100
AcDbEntity
  8
3
100
AcDbCircle
 10
44.472861
 20
43.826914
 30
9.834485
 40
12.0
100
AcDbArc
 50
5.685335
 51
54.314665
  0
ARC
  5
B3B
100
AcDbEntity
  8
3
100
AcDbCircle
 10
41.828017
 20
45.353915
 30
9.834485
 40
14.024269
100
AcDbArc
 50
302.159972
 51
357.840028
  0
ARC
  5
B3C
100
AcDbEntity
  8
3
100
AcDbCircle
 10
44.472861
 20
43.826914
 30
9.834485
 40
12.0
100
AcDbArc
 50
245.685335
 51
294.314665
  0
ARC
  5
B3D
100
AcDbEntity
  8
3
100
AcDbCircle
 10
39.04864
 20
33.297795
 30
9.834485
 40
0.631456
100
AcDbArc
 50
319.933123
 51
16.909042
  0
ARC
  5
B3E
100
AcDbEntity
  8
3
100
AcDbCircle
 10
49.897082
 20
33.297795
 30
9.834485
 40
0.631456
100
AcDbArc
 50
163.090958
 51
220.066877
  0
ARC
  5
B3F
100
AcDbEntity
  8
3
100
AcDbCircle
 10
56.303455
 20
44.393959
 30
9.834485
 40
0.631456
100
AcDbArc
 50
79.933123
 51
136.909042
  0
LINE
  5
B40
100
AcDbEntity
  8
3
100
AcDbLine
 10
51.472861
 20
53.573708
 30
9.834485
 11
50.972861
 21
66.929944
 31
9.834485
  0
ARC
  5
B41
100
AcDbEntity
  8
3
100
AcDbCircle
 10
50.879234
 20
53.788986
 30
9.834485
 40
0.631456
100
AcDbArc
 50
283.090958
 51
340.066877
  0
ARC
  5
B42
100
AcDbEntity
  8
3
100
AcDbCircle
 10
47.159736
 20
66.65337
 30
9.834485
 40
3.823142
100
AcDbArc
 50
4.148512
 51
8.336622
  0
ARC
  5
B43
100
AcDbEntity
  8
3
100
AcDbCircle
 10
65.584589
 20
34.740587
 30
9.834485
 40
3.823142
100
AcDbArc
 50
22.61345
 51
55.851488
  0
ARC
  5
B44
100
AcDbEntity
  8
3
100
AcDbCircle
 10
55.803075
 20
72.087905
 30
9.834485
 40
3.089474
100
AcDbArc
 50
77.479087
 51
175.563045
  0
CIRCLE
  5
B45
100
AcDbEntity
  8
3
100
AcDbCircle
 10
44.472861
 20
72.326914
 30
9.834485
 40
2.0
  0
CIRCLE
  5
B46
100
AcDbEntity
  8
0
100
AcDbCircle
 10
44.472861
 20
72.326914
 30
9.834485
 40
2.5
  0
LWPOLYLINE
  5
B47
100
AcDbEntity
  8
0
100
AcDbPolyline
 90
        2
 70
     0
 43
0.0
 38
9.834485
 10
126.490092
 20
68.826914
 10
127.990092
 20
70.326914
  0
LINE
  5
B48
100
AcDbEntity
  8
3
100
AcDbLine
 10
138.972861
 20
76.373926
 30
9.834485
 11
138.972861
 21
68.714493
 31
9.834485
  0
LINE
  5
B49
100
AcDbEntity
  8
3
100
AcDbLine
 10
138.972861
 20
54.330761
 30
9.834485
 11
138.972861
 21
33.323066
 31
9.834485
  0
LINE
  5
B4A
100
AcDbEntity
  8
3
100
AcDbLine
 10
136.972861
 20
40.785347
 30
9.834485
 11
136.972861
 21
58.595791
 31
9.834485
  0
LINE
  5
B4B
100
AcDbEntity
  8
3
100
AcDbLine
 10
131.958526
 20
37.519768
 30
9.834485
 11
138.972861
 21
42.087844
 31
9.834485
  0
ARC
  5
B4C
100
AcDbEntity
  8
3
100
AcDbCircle
 10
135.847861
 20
33.201914
 30
9.834485
 40
5.87633
100
AcDbArc
 50
141.911227
 51
156.16126
  0
ARC
  5
B4D
100
AcDbEntity
  8
3
100
AcDbCircle
 10
135.982607
 20
33.323665
 30
9.834485
 40
5.952683
100
AcDbArc
 50
157.757554
 51
171.314821
  0
ARC
  5
B4E
100
AcDbEntity
  8
3
100
AcDbCircle
 10
133.472861
 20
35.076914
 30
9.834485
 40
2.850439
100
AcDbArc
 50
122.749199
 51
142.125016
  0
ARC
  5
B4F
100
AcDbEntity
  8
2
100
AcDbCircle
 10
147.992923
 20
38.66811
 30
9.834485
 40
8.001087
100
AcDbArc
 50
166.19796
 51
204.682704
  0
ARC
  5
B50
100
AcDbEntity
  8
3
100
AcDbCircle
 10
143.694352
 20
39.665153
 30
9.834485
 40
7.906614
100
AcDbArc
 50
233.333437
 51
275.619951
  0
ARC
  5
B51
100
AcDbEntity
  8
2
100
AcDbCircle
 10
145.197861
 20
37.785247
 30
9.834485
 40
5.105784
100
AcDbArc
 50
208.782115
 51
247.24346
  0
ARC
  5
B52
100
AcDbEntity
  8
2
100
AcDbCircle
 10
144.472861
 20
37.193966
 30
9.834485
 40
4.30263
100
AcDbArc
 50
253.11091
 51
269.943822
  0
LINE
  5
B53
100
AcDbEntity
  8
2
100
AcDbLine
 10
138.972861
 20
42.087844
 30
9.834485
 11
142.722861
 21
44.576914
 31
9.834485
  0
ARC
  5
B54
100
AcDbEntity
  8
2
100
AcDbCircle
 10
146.785361
 20
39.256601
 30
9.834485
 40
6.694
100
AcDbArc
 50
127.364737
 51
168.624497
  0
ARC
  5
B55
100
AcDbEntity
  8
2
100
AcDbCircle
 10
144.472861
 20
41.306539
 30
9.834485
 40
3.709157
100
AcDbArc
 50
90.065167
 51
118.151547
  0
LINE
  5
B56
100
AcDbEntity
  8
3
100
AcDbLine
 10
126.974789
 20
64.076914
 30
9.834485
 11
132.612979
 21
64.076914
 31
9.834485
  0
LINE
  5
B57
100
AcDbEntity
  8
3
100
AcDbLine
 10
126.974789
 20
64.076914
 30
9.834485
 11
126.490092
 21
64.076914
 31
9.834485
  0
ARC
  5
B58
100
AcDbEntity
  8
3
100
AcDbCircle
 10
143.694352
 20
47.988674
 30
9.834485
 40
7.906614
100
AcDbArc
 50
84.380049
 51
126.666563
  0
LINE
  5
B59
100
AcDbEntity
  8
3
100
AcDbLine
 10
139.89475
 20
54.922473
 30
9.834485
 11
132.612979
 21
64.076914
 31
9.834485
  0
MTEXT
  5
B5A
102
{ACAD_REACTORS
330
B5B
102
}
100
AcDbEntity
  8
0
100
AcDbMText
 10
116.959696
 20
83.453708
 30
9.834485
 40
4.0
 41
0.0
 71
     6
 72
     1
  1
\A1;C1
  0
LEADER
  5
B5B
100
AcDbEntity
  8
0
100
AcDbLeader
  3
STANDARD
 73
     0
 40
4.0
 41
5.333333
 76
     3
 10
126.879578
 20
69.290653
 30
9.834485
 10
117.708628
 20
83.453708
 30
9.834485
 10
117.049696
 20
83.453708
 30
9.834485
 77
   256
340
B5A
1001
ACAD
1000
DSTYLE
1002
{
1070
   140
1040
4.0
1070
   272
1070
     1
1070
    77
1070
     0
1070
    40
1040
1.0
1070
   271
1070
     1
1070
   141
1040
0.0
1002
}
  0
LWPOLYLINE
  5
B5C
100
AcDbEntity
  8
0
100
AcDbPolyline
 90
        2
 70
     0
 43
0.0
 38
9.834485
 10
127.990092
 20
74.326914
 10
126.490092
 20
75.826914
  0
LINE
  5
B5D
100
AcDbEntity
  8
0
100
AcDbLine
 10
127.490092
 20
69.826914
 30
9.834485
 11
127.490092
 21
74.826914
 31
9.834485
  0
LINE
  5
B5E
100
AcDbEntity
  8
0
100
AcDbLine
 10
127.990092
 20
70.326914
 30
9.834485
 11
127.990092
 21
74.326914
 31
9.834485
  0
ARC
  5
B5F
100
AcDbEntity
  8
3
100
AcDbCircle
 10
145.089995
 20
70.956181
 30
9.834485
 40
8.17137
100
AcDbArc
 50
128.772319
 51
138.469744
  0
LINE
  5
B60
100
AcDbEntity
  8
3
100
AcDbLine
 10
139.970932
 20
77.485237
 30
9.834485
 11
139.971498
 21
67.605394
 31
9.834485
  0
LINE
  5
B61
100
AcDbEntity
  8
0
100
AcDbLine
 10
138.972861
 20
69.826914
 30
9.834485
 11
127.490092
 21
69.826914
 31
9.834485
  0
LINE
  5
B62
100
AcDbEntity
  8
0
100
AcDbLine
 10
127.490092
 20
74.826914
 30
9.834485
 11
138.972861
 21
74.826914
 31
9.834485
  0
LINE
  5
B63
100
AcDbEntity
  8
3
100
AcDbLine
 10
138.972861
 20
70.326914
 30
9.834485
 11
127.990092
 21
70.326914
 31
9.834485
  0
LINE
  5
B64
100
AcDbEntity
  8
3
100
AcDbLine
 10
127.990092
 20
74.326914
 30
9.834485
 11
138.972861
 21
74.326914
 31
9.834485
  0
ARC
  5
B65
100
AcDbEntity
  8
3
100
AcDbCircle
 10
133.222861
 20
77.326914
 30
9.834485
 40
6.75
100
AcDbArc
 50
358.636875
 51
175.905158
  0
LINE
  5
B66
100
AcDbEntity
  8
1
100
AcDbLine
 10
123.472861
 20
72.326914
 30
9.834485
 11
142.972861
 21
72.326914
 31
9.834485
  0
LINE
  5
B67
100
AcDbEntity
  8
3
100
AcDbLine
 10
162.972861
 20
52.828234
 30
9.834485
 11
162.972861
 21
43.828234
 31
9.834485
  0
LINE
  5
B68
100
AcDbEntity
  8
3
100
AcDbLine
 10
162.972861
 20
34.828234
 30
9.834485
 11
152.972861
 21
34.828234
 31
9.834485
  0
LINE
  5
B69
100
AcDbEntity
  8
2
100
AcDbLine
 10
152.377698
 20
38.826914
 30
9.834485
 11
152.112994
 21
41.938071
 31
9.834485
  0
ARC
  5
B6A
100
AcDbEntity
  8
2
100
AcDbCircle
 10
150.084002
 20
36.066525
 30
9.834485
 40
1.954689
100
AcDbArc
 50
311.851917
 51
348.01604
  0
LINE
  5
B6B
100
AcDbEntity
  8
3
100
AcDbLine
 10
152.972861
 20
34.828234
 30
9.834485
 11
152.972861
 21
33.828234
 31
9.834485
  0
LINE
  5
B6C
100
AcDbEntity
  8
3
100
AcDbLine
 10
152.972861
 20
33.826914
 30
9.834485
 11
152.377698
 21
33.826914
 31
9.834485
  0
LINE
  5
B6D
100
AcDbEntity
  8
2
100
AcDbLine
 10
152.066233
 20
35.917355
 30
9.834485
 11
151.996089
 21
35.660658
 31
9.834485
  0
LINE
  5
B6E
100
AcDbEntity
  8
2
100
AcDbLine
 10
152.066233
 20
35.917355
 30
9.834485
 11
152.377698
 21
38.826914
 31
9.834485
  0
ARC
  5
B6F
100
AcDbEntity
  8
2
100
AcDbCircle
 10
149.821197
 20
41.519766
 30
9.834485
 40
2.32966
100
AcDbArc
 50
10.343914
 51
51.302641
  0
LINE
  5
B70
100
AcDbEntity
  8
3
100
AcDbLine
 10
162.972861
 20
43.828234
 30
9.834485
 11
162.972861
 21
34.828234
 31
9.834485
  0
LINE
  5
B71
100
AcDbEntity
  8
3
100
AcDbLine
 10
152.972861
 20
52.828234
 30
9.834485
 11
162.972861
 21
52.828234
 31
9.834485
  0
LINE
  5
B72
100
AcDbEntity
  8
3
100
AcDbLine
 10
152.972861
 20
53.828234
 30
9.834485
 11
152.972861
 21
52.828234
 31
9.834485
  0
LINE
  5
B73
100
AcDbEntity
  8
3
100
AcDbLine
 10
152.972861
 20
53.826914
 30
9.834485
 11
152.377698
 21
53.826914
 31
9.834485
  0
ENDBLK
  5
B75
100
AcDbEntity
  8
0
100
AcDbBlockEnd
  0
BLOCK
  5
C2B
100
AcDbEntity
  8
0
100
AcDbBlockBegin
  2
*D32
 70
     1
 10
0.0
 20
0.0
 30
0.0
  3
*D32
  1

  0
LINE
  5
C21
100
AcDbEntity
  8
0
  6
BYBLOCK
 62
     0
100
AcDbLine
 10
219.575962
 20
161.552677
 30
0.0
 11
215.254669
 21
177.679962
 31
0.0
  0
LINE
  5
C22
100
AcDbEntity
  8
0
  6
BYBLOCK
 62
     0
100
AcDbLine
 10
216.678185
 20
160.77622
 30
0.0
 11
212.356891
 21
176.903505
 31
0.0
  0
LINE
  5
C23
100
AcDbEntity
  8
0
  6
BYBLOCK
 62
     0
100
AcDbLine
 10
217.44534
 20
177.231675
 30
0.0
 11
219.377191
 21
177.749313
 31
0.0
  0
LINE
  5
C24
100
AcDbEntity
  8
0
  6
BYBLOCK
 62
     0
100
AcDbLine
 10
210.683859
 20
175.419941
 30
0.0
 11
208.752007
 21
174.902303
 31
0.0
  0
SOLID
  5
C25
100
AcDbEntity
  8
0
  6
BYBLOCK
 62
     0
100
AcDbTrace
 10
217.359067
 20
177.55365
 30
0.0
 11
217.531613
 21
176.909699
 31
0.0
 12
215.513488
 22
176.714037
 32
0.0
 13
215.513488
 23
176.714037
 33
0.0
  0
SOLID
  5
C26
100
AcDbEntity
  8
0
  6
BYBLOCK
 62
     0
100
AcDbTrace
 10
210.597586
 20
175.741917
 30
0.0
 11
210.770132
 21
175.097966
 31
0.0
 12
212.615711
 22
175.937579
 32
0.0
 13
212.615711
 23
175.937579
 33
0.0
  0
MTEXT
  5
C27
100
AcDbEntity
  8
0
  6
BYBLOCK
 62
     0
100
AcDbMText
 10
214.064599
 20
176.325808
 30
0.0
 40
4.0
 41
0.0
 71
     5
 72
     1
  1
\A1;3
 11
0.965926
 21
0.258819
 31
0.0
  0
POINT
  5
C28
100
AcDbEntity
  8
DEFPOINTS
  6
BYBLOCK
 62
     0
100
AcDbPoint
 10
219.834781
 20
160.586751
 30
0.0
  0
POINT
  5
C29
100
AcDbEntity
  8
DEFPOINTS
  6
BYBLOCK
 62
     0
100
AcDbPoint
 10
216.937004
 20
159.810294
 30
0.0
  0
POINT
  5
C2A
100
AcDbEntity
  8
DEFPOINTS
  6
BYBLOCK
 62
     0
100
AcDbPoint
 10
212.615711
 20
175.937579
 30
0.0
  0
ENDBLK
  5
C2C
100
AcDbEntity
  8
0
100
AcDbBlockEnd
  0
BLOCK
  5
C39
100
AcDbEntity
  8
0
100
AcDbBlockBegin
  2
*D33
 70
     1
 10
0.0
 20
0.0
 30
0.0
  3
*D33
  1

  0
LINE
  5
C2E
100
AcDbEntity
  8
0
  6
BYBLOCK
 62
     0
100
AcDbLine
 10
186.05
 20
139.0
 30
0.0
 11
191.347741
 21
139.0
 31
0.0
  0
LINE
  5
C2F
100
AcDbEntity
  8
0
  6
BYBLOCK
 62
     0
100
AcDbLine
 10
188.5
 20
138.0
 30
0.0
 11
191.347741
 21
138.0
 31
0.0
  0
LINE
  5
C30
100
AcDbEntity
  8
0
  6
BYBLOCK
 62
     0
100
AcDbLine
 10
190.347741
 20
136.0
 30
0.0
 11
190.347741
 21
134.0
 31
0.0
  0
LINE
  5
C31
100
AcDbEntity
  8
0
  6
BYBLOCK
 62
     0
100
AcDbLine
 10
190.347741
 20
141.0
 30
0.0
 11
190.347741
 21
143.0
 31
0.0
  0
LINE
  5
C32
100
AcDbEntity
  8
0
  6
BYBLOCK
 62
     0
100
AcDbLine
 10
190.347741
 20
143.0
 30
0.0
 11
192.347741
 21
143.0
 31
0.0
  0
SOLID
  5
C33
100
AcDbEntity
  8
0
  6
BYBLOCK
 62
     0
100
AcDbTrace
 10
190.014408
 20
136.0
 30
0.0
 11
190.681075
 21
136.0
 31
0.0
 12
190.347741
 22
138.0
 32
0.0
 13
190.347741
 23
138.0
 33
0.0
  0
SOLID
  5
C34
100
AcDbEntity
  8
0
  6
BYBLOCK
 62
     0
100
AcDbTrace
 10
190.014408
 20
141.0
 30
0.0
 11
190.681075
 21
141.0
 31
0.0
 12
190.347741
 22
139.0
 32
0.0
 13
190.347741
 23
139.0
 33
0.0
  0
MTEXT
  5
C35
100
AcDbEntity
  8
0
  6
BYBLOCK
 62
     0
100
AcDbMText
 10
193.556075
 20
143.0
 30
0.0
 40
3.5
 41
0.0
 71
     5
 72
     1
  1
\A1;1
  0
POINT
  5
C36
100
AcDbEntity
  8
DEFPOINTS
  6
BYBLOCK
 62
     0
100
AcDbPoint
 10
185.05
 20
139.0
 30
0.0
  0
POINT
  5
C37
100
AcDbEntity
  8
DEFPOINTS
  6
BYBLOCK
 62
     0
100
AcDbPoint
 10
187.5
 20
138.0
 30
0.0
  0
POINT
  5
C38
100
AcDbEntity
  8
DEFPOINTS
  6
BYBLOCK
 62
     0
100
AcDbPoint
 10
190.347741
 20
138.0
 30
0.0
  0
ENDBLK
  5
C3A
100
AcDbEntity
  8
0
100
AcDbBlockEnd
  0
BLOCK
  5
C47
100
AcDbEntity
  8
0
100
AcDbBlockBegin
  2
*D34
 70
     1
 10
0.0
 20
0.0
 30
0.0
  3
*D34
  1

  0
LINE
  5
C3C
100
AcDbEntity
  8
0
  6
BYBLOCK
 62
     0
100
AcDbLine
 10
188.5
 20
138.0
 30
0.0
 11
210.161247
 21
138.0
 31
0.0
  0
ARC
  5
C3D
100
AcDbEntity
  8
0
  6
BYBLOCK
 62
     0
100
AcDbCircle
 10
135.539877
 20
138.0
 30
0.0
 40
73.621369
100
AcDbArc
 50
1.556546
 51
1.842309
  0
ARC
  5
C3E
100
AcDbEntity
  8
0
  6
BYBLOCK
 62
     0
100
AcDbCircle
 10
135.539877
 20
138.0
 30
0.0
 40
73.621369
100
AcDbArc
 50
9.175828
 51
13.443454
  0
SOLID
  5
C3F
100
AcDbEntity
  8
0
  6
BYBLOCK
 62
     0
100
AcDbTrace
 10
209.467383
 20
140.004343
 30
0.0
 11
208.800778
 21
139.995288
 31
0.0
 12
209.161247
 22
138.0
 32
0.0
 13
209.161247
 23
138.0
 33
0.0
  0
SOLID
  5
C40
100
AcDbEntity
  8
0
  6
BYBLOCK
 62
     0
100
AcDbTrace
 10
206.820892
 20
155.034016
 30
0.0
 11
207.467127
 21
155.1978
 31
0.0
 12
206.652659
 22
157.054613
 32
0.0
 13
206.652659
 23
157.054613
 33
0.0
  0
MTEXT
  5
C41
100
AcDbEntity
  8
0
  6
BYBLOCK
 62
     0
100
AcDbMText
 10
208.821191
 20
145.067894
 30
0.0
 40
3.5
 41
0.0
 71
     5
 72
     1
  1
\A1;15°
 11
0.096003
 21
-0.995381
 31
0.0
  0
POINT
  5
C42
100
AcDbEntity
  8
DEFPOINTS
  6
BYBLOCK
 62
     0
100
AcDbPoint
 10
208.042773
 20
150.784217
 30
0.0
  0
POINT
  5
C43
100
AcDbEntity
  8
DEFPOINTS
  6
BYBLOCK
 62
     0
100
AcDbPoint
 10
177.501709
 20
149.243639
 30
0.0
  0
POINT
  5
C44
100
AcDbEntity
  8
DEFPOINTS
  6
BYBLOCK
 62
     0
100
AcDbPoint
 10
180.0
 20
138.0
 30
0.0
  0
POINT
  5
C45
100
AcDbEntity
  8
DEFPOINTS
  6
BYBLOCK
 62
     0
100
AcDbPoint
 10
187.5
 20
138.0
 30
0.0
  0
POINT
  5
C46
100
AcDbEntity
  8
DEFPOINTS
  6
BYBLOCK
 62
     0
100
AcDbPoint
 10
222.609915
 20
161.330346
 30
0.0
  0
ENDBLK
  5
C48
100
AcDbEntity
  8
0
100
AcDbBlockEnd
  0
BLOCK
  5
C50
100
AcDbEntity
  8
0
100
AcDbBlockBegin
  2
*D35
 70
     1
 10
0.0
 20
0.0
 30
0.0
  3
*D35
  1

  0
LINE
  5
C4A
100
AcDbEntity
  8
0
  6
BYBLOCK
 62
     0
100
AcDbLine
 10
205.779394
 20
167.782371
 30
0.0
 11
207.779394
 21
167.782371
 31
0.0
  0
LINE
  5
C4B
100
AcDbEntity
  8
0
  6
BYBLOCK
 62
     0
100
AcDbLine
 10
207.779394
 20
167.782371
 30
0.0
 11
217.221541
 21
154.582357
 31
0.0
  0
MTEXT
  5
C4C
100
AcDbEntity
  8
0
  6
BYBLOCK
 62
     0
100
AcDbMText
 10
196.987727
 20
167.782371
 30
0.0
 40
3.5
 41
0.0
 71
     5
 72
     1
  1
\A1;6-R1.2
  0
SOLID
  5
C4D
100
AcDbEntity
  8
0
  6
BYBLOCK
 62
     0
100
AcDbTrace
 10
216.32907
 20
156.402963
 30
0.0
 11
215.786845
 21
156.015102
 31
0.0
 12
217.221541
 22
154.582357
 32
0.0
 13
217.221541
 23
154.582357
 33
0.0
  0
POINT
  5
C4E
100
AcDbEntity
  8
DEFPOINTS
  6
BYBLOCK
 62
     0
100
AcDbPoint
 10
217.221541
 20
154.582357
 30
0.0
  0
POINT
  5
C4F
100
AcDbEntity
  8
DEFPOINTS
  6
BYBLOCK
 62
     0
100
AcDbPoint
 10
216.523391
 20
155.558362
 30
0.0
  0
ENDBLK
  5
C51
100
AcDbEntity
  8
0
100
AcDbBlockEnd
  0
BLOCK
  5
C59
100
AcDbEntity
  8
0
100
AcDbBlockBegin
  2
*D36
 70
     1
 10
0.0
 20
0.0
 30
0.0
  3
*D36
  1

  0
LINE
  5
C53
100
AcDbEntity
  8
0
  6
BYBLOCK
 62
     0
100
AcDbLine
 10
202.561737
 20
163.303242
 30
0.0
 11
204.561737
 21
163.303242
 31
0.0
  0
LINE
  5
C54
100
AcDbEntity
  8
0
  6
BYBLOCK
 62
     0
100
AcDbLine
 10
204.561737
 20
163.303242
 30
0.0
 11
219.688126
 21
157.60697
 31
0.0
  0
MTEXT
  5
C55
100
AcDbEntity
  8
0
  6
BYBLOCK
 62
     0
100
AcDbMText
 10
194.936737
 20
163.303242
 30
0.0
 40
3.5
 41
0.0
 71
     5
 72
     1
  1
\A1;R4.88
  0
SOLID
  5
C56
100
AcDbEntity
  8
0
  6
BYBLOCK
 62
     0
100
AcDbTrace
 10
217.933913
 20
158.623754
 30
0.0
 11
217.698968
 21
157.999859
 31
0.0
 12
219.688126
 22
157.60697
 32
0.0
 13
219.688126
 23
157.60697
 33
0.0
  0
POINT
  5
C57
100
AcDbEntity
  8
DEFPOINTS
  6
BYBLOCK
 62
     0
100
AcDbPoint
 10
219.688126
 20
157.60697
 30
0.0
  0
POINT
  5
C58
100
AcDbEntity
  8
DEFPOINTS
  6
BYBLOCK
 62
     0
100
AcDbPoint
 10
215.125893
 20
159.325009
 30
0.0
  0
ENDBLK
  5
C5A
100
AcDbEntity
  8
0
100
AcDbBlockEnd
  0
BLOCK
  5
C65
100
AcDbEntity
  8
0
100
AcDbBlockBegin
  2
*D37
 70
     1
 10
0.0
 20
0.0
 30
0.0
  3
*D37
  1

  0
LINE
  5
C5C
100
AcDbEntity
  8
0
  6
BYBLOCK
 62
     0
100
AcDbLine
 10
180.0
 20
176.392373
 30
0.0
 11
180.0
 21
175.483644
 31
0.0
  0
LINE
  5
C5D
100
AcDbEntity
  8
0
  6
BYBLOCK
 62
     0
100
AcDbLine
 10
187.504089
 20
188.0
 30
0.0
 11
187.504089
 21
175.483644
 31
0.0
  0
LINE
  5
C5E
100
AcDbEntity
  8
0
  6
BYBLOCK
 62
     0
100
AcDbLine
 10
182.0
 20
176.483644
 30
0.0
 11
185.504089
 21
176.483644
 31
0.0
  0
SOLID
  5
C5F
100
AcDbEntity
  8
0
  6
BYBLOCK
 62
     0
100
AcDbTrace
 10
182.0
 20
176.816977
 30
0.0
 11
182.0
 21
176.15031
 31
0.0
 12
180.0
 22
176.483644
 32
0.0
 13
180.0
 23
176.483644
 33
0.0
  0
SOLID
  5
C60
100
AcDbEntity
  8
0
  6
BYBLOCK
 62
     0
100
AcDbTrace
 10
185.504089
 20
176.816977
 30
0.0
 11
185.504089
 21
176.15031
 31
0.0
 12
187.504089
 22
176.483644
 32
0.0
 13
187.504089
 23
176.483644
 33
0.0
  0
MTEXT
  5
C61
100
AcDbEntity
  8
0
  6
BYBLOCK
 62
     0
100
AcDbMText
 10
183.752044
 20
176.483644
 30
0.0
 40
3.5
 41
0.0
 71
     5
 72
     1
  1
\A1;7.5
  0
POINT
  5
C62
100
AcDbEntity
  8
DEFPOINTS
  6
BYBLOCK
 62
     0
100
AcDbPoint
 10
180.0
 20
177.392373
 30
0.0
  0
POINT
  5
C63
100
AcDbEntity
  8
DEFPOINTS
  6
BYBLOCK
 62
     0
100
AcDbPoint
 10
187.504089
 20
189.0
 30
0.0
  0
POINT
  5
C64
100
AcDbEntity
  8
DEFPOINTS
  6
BYBLOCK
 62
     0
100
AcDbPoint
 10
187.504089
 20
176.483644
 30
0.0
  0
ENDBLK
  5
C66
100
AcDbEntity
  8
0
100
AcDbBlockEnd
  0
BLOCK
  5
C72
100
AcDbEntity
  8
0
100
AcDbBlockBegin
  2
*D38
 70
     1
 10
0.0
 20
0.0
 30
0.0
  3
*D38
  1

  0
LINE
  5
C68
100
AcDbEntity
  8
0
  6
BYBLOCK
 62
     0
100
AcDbLine
 10
194.441119
 20
190.0
 30
0.0
 11
194.441119
 21
198.92186
 31
0.0
  0
LINE
  5
C69
100
AcDbEntity
  8
0
  6
BYBLOCK
 62
     0
100
AcDbLine
 10
192.333718
 20
190.0
 30
0.0
 11
192.333718
 21
198.92186
 31
0.0
  0
LINE
  5
C6A
100
AcDbEntity
  8
0
  6
BYBLOCK
 62
     0
100
AcDbLine
 10
190.333718
 20
197.92186
 30
0.0
 11
188.333718
 21
197.92186
 31
0.0
  0
LINE
  5
C6B
100
AcDbEntity
  8
0
  6
BYBLOCK
 62
     0
100
AcDbLine
 10
196.441119
 20
197.92186
 30
0.0
 11
198.441119
 21
197.92186
 31
0.0
  0
SOLID
  5
C6C
100
AcDbEntity
  8
0
  6
BYBLOCK
 62
     0
100
AcDbTrace
 10
190.333718
 20
198.255193
 30
0.0
 11
190.333718
 21
197.588526
 31
0.0
 12
192.333718
 22
197.92186
 32
0.0
 13
192.333718
 23
197.92186
 33
0.0
  0
SOLID
  5
C6D
100
AcDbEntity
  8
0
  6
BYBLOCK
 62
     0
100
AcDbTrace
 10
196.441119
 20
198.255193
 30
0.0
 11
196.441119
 21
197.588526
 31
0.0
 12
194.441119
 22
197.92186
 32
0.0
 13
194.441119
 23
197.92186
 33
0.0
  0
MTEXT
  5
C6E
100
AcDbEntity
  8
0
  6
BYBLOCK
 62
     0
100
AcDbMText
 10
205.482786
 20
197.92186
 30
0.0
 40
3.5
 41
0.0
 71
     5
 72
     1
  1
\A1;6-2.1
  0
POINT
  5
C6F
100
AcDbEntity
  8
DEFPOINTS
  6
BYBLOCK
 62
     0
100
AcDbPoint
 10
194.441119
 20
189.0
 30
0.0
  0
POINT
  5
C70
100
AcDbEntity
  8
DEFPOINTS
  6
BYBLOCK
 62
     0
100
AcDbPoint
 10
192.333718
 20
189.0
 30
0.0
  0
POINT
  5
C71
100
AcDbEntity
  8
DEFPOINTS
  6
BYBLOCK
 62
     0
100
AcDbPoint
 10
192.333718
 20
197.92186
 30
0.0
  0
ENDBLK
  5
C73
100
AcDbEntity
  8
0
100
AcDbBlockEnd
  0
BLOCK
  5
C7F
100
AcDbEntity
  8
0
100
AcDbBlockBegin
  2
*D39
 70
     1
 10
0.0
 20
0.0
 30
0.0
  3
*D39
  1

  0
LINE
  5
C75
100
AcDbEntity
  8
0
  6
BYBLOCK
 62
     0
100
AcDbLine
 10
180.0
 20
158.41239
 30
0.0
 11
180.0
 21
189.0
 31
0.0
  0
LINE
  5
C76
100
AcDbEntity
  8
0
  6
BYBLOCK
 62
     0
100
AcDbLine
 10
219.976678
 20
160.810294
 30
0.0
 11
219.976678
 21
189.0
 31
0.0
  0
LINE
  5
C77
100
AcDbEntity
  8
0
  6
BYBLOCK
 62
     0
100
AcDbLine
 10
182.0
 20
188.0
 30
0.0
 11
196.25
 21
188.0
 31
0.0
  0
LINE
  5
C78
100
AcDbEntity
  8
0
  6
BYBLOCK
 62
     0
100
AcDbLine
 10
217.976678
 20
188.0
 30
0.0
 11
202.75
 21
188.0
 31
0.0
  0
SOLID
  5
C79
100
AcDbEntity
  8
0
  6
BYBLOCK
 62
     0
100
AcDbTrace
 10
182.0
 20
188.333333
 30
0.0
 11
182.0
 21
187.666667
 31
0.0
 12
180.0
 22
188.0
 32
0.0
 13
180.0
 23
188.0
 33
0.0
  0
SOLID
  5
C7A
100
AcDbEntity
  8
0
  6
BYBLOCK
 62
     0
100
AcDbTrace
 10
217.976678
 20
188.333333
 30
0.0
 11
217.976678
 21
187.666667
 31
0.0
 12
219.976678
 22
188.0
 32
0.0
 13
219.976678
 23
188.0
 33
0.0
  0
MTEXT
  5
C7B
100
AcDbEntity
  8
0
  6
BYBLOCK
 62
     0
100
AcDbMText
 10
199.5
 20
188.0
 30
0.0
 40
3.5
 41
0.0
 71
     5
 72
     1
  1
\A1;40
  0
POINT
  5
C7C
100
AcDbEntity
  8
DEFPOINTS
  6
BYBLOCK
 62
     0
100
AcDbPoint
 10
180.0
 20
157.41239
 30
0.0
  0
POINT
  5
C7D
100
AcDbEntity
  8
DEFPOINTS
  6
BYBLOCK
 62
     0
100
AcDbPoint
 10
219.976678
 20
159.810294
 30
0.0
  0
POINT
  5
C7E
100
AcDbEntity
  8
DEFPOINTS
  6
BYBLOCK
 62
     0
100
AcDbPoint
 10
219.976678
 20
188.0
 30
0.0
  0
ENDBLK
  5
C80
100
AcDbEntity
  8
0
100
AcDbBlockEnd
  0
BLOCK
  5
C88
100
AcDbEntity
  8
0
100
AcDbBlockBegin
  2
*D40
 70
     1
 10
0.0
 20
0.0
 30
0.0
  3
*D40
  1

  0
LINE
  5
C82
100
AcDbEntity
  8
0
  6
BYBLOCK
 62
     0
100
AcDbLine
 10
151.553732
 20
173.75
 30
0.0
 11
153.553732
 21
173.75
 31
0.0
  0
LINE
  5
C83
100
AcDbEntity
  8
0
  6
BYBLOCK
 62
     0
100
AcDbLine
 10
153.553732
 20
173.75
 30
0.0
 11
172.255595
 21
152.416679
 31
0.0
  0
MTEXT
  5
C84
100
AcDbEntity
  8
0
  6
BYBLOCK
 62
     0
100
AcDbMText
 10
144.220399
 20
173.75
 30
0.0
 40
3.5
 41
0.0
 71
     5
 72
     1
  1
\A1;R0.75
  0
SOLID
  5
C85
100
AcDbEntity
  8
0
  6
BYBLOCK
 62
     0
100
AcDbTrace
 10
171.187834
 20
154.140337
 30
0.0
 11
170.686526
 21
153.700866
 31
0.0
 12
172.255595
 22
152.416679
 32
0.0
 13
172.255595
 23
152.416679
 33
0.0
  0
POINT
  5
C86
100
AcDbEntity
  8
DEFPOINTS
  6
BYBLOCK
 62
     0
100
AcDbPoint
 10
172.255595
 20
152.416679
 30
0.0
  0
POINT
  5
C87
100
AcDbEntity
  8
DEFPOINTS
  6
BYBLOCK
 62
     0
100
AcDbPoint
 10
172.75
 20
151.852708
 30
0.0
  0
ENDBLK
  5
C89
100
AcDbEntity
  8
0
100
AcDbBlockEnd
  0
BLOCK
  5
C95
100
AcDbEntity
  8
0
100
AcDbBlockBegin
  2
*D41
 70
     1
 10
0.0
 20
0.0
 30
0.0
  3
*D41
  1

  0
LINE
  5
C8B
100
AcDbEntity
  8
0
  6
BYBLOCK
 62
     0
100
AcDbLine
 10
171.5
 20
138.0
 30
0.0
 11
115.127932
 21
138.0
 31
0.0
  0
LINE
  5
C8C
100
AcDbEntity
  8
0
  6
BYBLOCK
 62
     0
100
AcDbLine
 10
170.62765
 20
152.451453
 30
0.0
 11
115.127932
 21
152.451453
 31
0.0
  0
LINE
  5
C8D
100
AcDbEntity
  8
0
  6
BYBLOCK
 62
     0
100
AcDbLine
 10
116.127932
 20
140.0
 30
0.0
 11
116.127932
 21
140.625
 31
0.0
  0
LINE
  5
C8E
100
AcDbEntity
  8
0
  6
BYBLOCK
 62
     0
100
AcDbLine
 10
116.127932
 20
150.451453
 30
0.0
 11
116.127932
 21
149.826453
 31
0.0
  0
SOLID
  5
C8F
100
AcDbEntity
  8
0
  6
BYBLOCK
 62
     0
100
AcDbTrace
 10
115.794599
 20
140.0
 30
0.0
 11
116.461266
 21
140.0
 31
0.0
 12
116.127932
 22
138.0
 32
0.0
 13
116.127932
 23
138.0
 33
0.0
  0
SOLID
  5
C90
100
AcDbEntity
  8
0
  6
BYBLOCK
 62
     0
100
AcDbTrace
 10
115.794599
 20
150.451453
 30
0.0
 11
116.461266
 21
150.451453
 31
0.0
 12
116.127932
 22
152.451453
 32
0.0
 13
116.127932
 23
152.451453
 33
0.0
  0
MTEXT
  5
C91
100
AcDbEntity
  8
0
  6
BYBLOCK
 62
     0
100
AcDbMText
 10
116.127932
 20
145.876529
 30
0.0
 40
3.5
 41
0.0
 71
     5
 72
     1
  1
\A1;14.5
 11
0.0
 21
1.0
 31
0.0
  0
POINT
  5
C92
100
AcDbEntity
  8
DEFPOINTS
  6
BYBLOCK
 62
     0
100
AcDbPoint
 10
172.5
 20
138.0
 30
0.0
  0
POINT
  5
C93
100
AcDbEntity
  8
DEFPOINTS
  6
BYBLOCK
 62
     0
100
AcDbPoint
 10
171.62765
 20
152.451453
 30
0.0
  0
POINT
  5
C94
100
AcDbEntity
  8
DEFPOINTS
  6
BYBLOCK
 62
     0
100
AcDbPoint
 10
116.127932
 20
152.451453
 30
0.0
  0
ENDBLK
  5
C96
100
AcDbEntity
  8
0
100
AcDbBlockEnd
  0
BLOCK
  5
CA2
100
AcDbEntity
  8
0
100
AcDbBlockBegin
  2
*D42
 70
     1
 10
0.0
 20
0.0
 30
0.0
  3
*D42
  1

  0
LINE
  5
C98
100
AcDbEntity
  8
0
  6
BYBLOCK
 62
     0
100
AcDbLine
 10
171.0
 20
151.685371
 30
0.0
 11
121.056685
 21
151.685371
 31
0.0
  0
LINE
  5
C99
100
AcDbEntity
  8
0
  6
BYBLOCK
 62
     0
100
AcDbLine
 10
171.5
 20
138.0
 30
0.0
 11
121.056685
 21
138.0
 31
0.0
  0
LINE
  5
C9A
100
AcDbEntity
  8
0
  6
BYBLOCK
 62
     0
100
AcDbLine
 10
122.056685
 20
149.685371
 30
0.0
 11
122.056685
 21
149.060371
 31
0.0
  0
LINE
  5
C9B
100
AcDbEntity
  8
0
  6
BYBLOCK
 62
     0
100
AcDbLine
 10
122.056685
 20
140.0
 30
0.0
 11
122.056685
 21
140.625
 31
0.0
  0
SOLID
  5
C9C
100
AcDbEntity
  8
0
  6
BYBLOCK
 62
     0
100
AcDbTrace
 10
121.723352
 20
149.685371
 30
0.0
 11
122.390019
 21
149.685371
 31
0.0
 12
122.056685
 22
151.685371
 32
0.0
 13
122.056685
 23
151.685371
 33
0.0
  0
SOLID
  5
C9D
100
AcDbEntity
  8
0
  6
BYBLOCK
 62
     0
100
AcDbTrace
 10
121.723352
 20
140.0
 30
0.0
 11
122.390019
 21
140.0
 31
0.0
 12
122.056685
 22
138.0
 32
0.0
 13
122.056685
 23
138.0
 33
0.0
  0
MTEXT
  5
C9E
100
AcDbEntity
  8
0
  6
BYBLOCK
 62
     0
100
AcDbMText
 10
122.056685
 20
144.725917
 30
0.0
 40
3.5
 41
0.0
 71
     5
 72
     1
  1
\A1;13.7
 11
0.0
 21
1.0
 31
0.0
  0
POINT
  5
C9F
100
AcDbEntity
  8
DEFPOINTS
  6
BYBLOCK
 62
     0
100
AcDbPoint
 10
172.0
 20
151.685371
 30
0.0
  0
POINT
  5
CA0
100
AcDbEntity
  8
DEFPOINTS
  6
BYBLOCK
 62
     0
100
AcDbPoint
 10
172.5
 20
138.0
 30
0.0
  0
POINT
  5
CA1
100
AcDbEntity
  8
DEFPOINTS
  6
BYBLOCK
 62
     0
100
AcDbPoint
 10
122.056685
 20
138.0
 30
0.0
  0
ENDBLK
  5
CA3
100
AcDbEntity
  8
0
100
AcDbBlockEnd
  0
BLOCK
  5
CAF
100
AcDbEntity
  8
0
100
AcDbBlockBegin
  2
*D43
 70
     1
 10
0.0
 20
0.0
 30
0.0
  3
*D43
  1

  0
LINE
  5
CA5
100
AcDbEntity
  8
0
  6
BYBLOCK
 62
     0
100
AcDbLine
 10
174.5
 20
147.0
 30
0.0
 11
127.644189
 21
147.0
 31
0.0
  0
LINE
  5
CA6
100
AcDbEntity
  8
0
  6
BYBLOCK
 62
     0
100
AcDbLine
 10
171.5
 20
138.0
 30
0.0
 11
127.644189
 21
138.0
 31
0.0
  0
LINE
  5
CA7
100
AcDbEntity
  8
0
  6
BYBLOCK
 62
     0
100
AcDbLine
 10
128.644189
 20
145.0
 30
0.0
 11
128.644189
 21
144.375
 31
0.0
  0
LINE
  5
CA8
100
AcDbEntity
  8
0
  6
BYBLOCK
 62
     0
100
AcDbLine
 10
128.644189
 20
140.0
 30
0.0
 11
128.644189
 21
140.7974
 31
0.0
  0
SOLID
  5
CA9
100
AcDbEntity
  8
0
  6
BYBLOCK
 62
     0
100
AcDbTrace
 10
128.310855
 20
145.0
 30
0.0
 11
128.977522
 21
145.0
 31
0.0
 12
128.644189
 22
147.0
 32
0.0
 13
128.644189
 23
147.0
 33
0.0
  0
SOLID
  5
CAA
100
AcDbEntity
  8
0
  6
BYBLOCK
 62
     0
100
AcDbTrace
 10
128.310855
 20
140.0
 30
0.0
 11
128.977522
 21
140.0
 31
0.0
 12
128.644189
 22
138.0
 32
0.0
 13
128.644189
 23
138.0
 33
0.0
  0
MTEXT
  5
CAB
100
AcDbEntity
  8
0
  6
BYBLOCK
 62
     0
100
AcDbMText
 10
128.644189
 20
142.589067
 30
0.0
 40
3.5
 41
0.0
 71
     5
 72
     1
  1
\A1;9
 11
0.0
 21
1.0
 31
0.0
  0
POINT
  5
CAC
100
AcDbEntity
  8
DEFPOINTS
  6
BYBLOCK
 62
     0
100
AcDbPoint
 10
175.5
 20
147.0
 30
0.0
  0
POINT
  5
CAD
100
AcDbEntity
  8
DEFPOINTS
  6
BYBLOCK
 62
     0
100
AcDbPoint
 10
172.5
 20
138.0
 30
0.0
  0
POINT
  5
CAE
100
AcDbEntity
  8
DEFPOINTS
  6
BYBLOCK
 62
     0
100
AcDbPoint
 10
128.644189
 20
138.0
 30
0.0
  0
ENDBLK
  5
CB0
100
AcDbEntity
  8
0
100
AcDbBlockEnd
  0
BLOCK
  5
CBD
100
AcDbEntity
  8
0
100
AcDbBlockBegin
  2
*D44
 70
     1
 10
0.0
 20
0.0
 30
0.0
  3
*D44
  1

  0
LINE
  5
CB2
100
AcDbEntity
  8
0
  6
BYBLOCK
 62
     0
100
AcDbLine
 10
174.45
 20
147.0
 30
0.0
 11
139.011485
 21
147.0
 31
0.0
  0
LINE
  5
CB3
100
AcDbEntity
  8
0
  6
BYBLOCK
 62
     0
100
AcDbLine
 10
173.95
 20
145.0
 30
0.0
 11
139.011485
 21
145.0
 31
0.0
  0
LINE
  5
CB4
100
AcDbEntity
  8
0
  6
BYBLOCK
 62
     0
100
AcDbLine
 10
140.011485
 20
149.0
 30
0.0
 11
140.011485
 21
151.0
 31
0.0
  0
LINE
  5
CB5
100
AcDbEntity
  8
0
  6
BYBLOCK
 62
     0
100
AcDbLine
 10
140.011485
 20
143.0
 30
0.0
 11
140.011485
 21
141.0
 31
0.0
  0
LINE
  5
CB6
100
AcDbEntity
  8
0
  6
BYBLOCK
 62
     0
100
AcDbLine
 10
140.011485
 20
141.0
 30
0.0
 11
138.011485
 21
141.0
 31
0.0
  0
SOLID
  5
CB7
100
AcDbEntity
  8
0
  6
BYBLOCK
 62
     0
100
AcDbTrace
 10
139.678152
 20
149.0
 30
0.0
 11
140.344818
 21
149.0
 31
0.0
 12
140.011485
 22
147.0
 32
0.0
 13
140.011485
 23
147.0
 33
0.0
  0
SOLID
  5
CB8
100
AcDbEntity
  8
0
  6
BYBLOCK
 62
     0
100
AcDbTrace
 10
139.678152
 20
143.0
 30
0.0
 11
140.344818
 21
143.0
 31
0.0
 12
140.011485
 22
145.0
 32
0.0
 13
140.011485
 23
145.0
 33
0.0
  0
MTEXT
  5
CB9
100
AcDbEntity
  8
0
  6
BYBLOCK
 62
     0
100
AcDbMText
 10
136.219818
 20
141.0
 30
0.0
 40
3.5
 41
0.0
 71
     5
 72
     1
  1
\A1;2
  0
POINT
  5
CBA
100
AcDbEntity
  8
DEFPOINTS
  6
BYBLOCK
 62
     0
100
AcDbPoint
 10
175.45
 20
147.0
 30
0.0
  0
POINT
  5
CBB
100
AcDbEntity
  8
DEFPOINTS
  6
BYBLOCK
 62
     0
100
AcDbPoint
 10
174.95
 20
145.0
 30
0.0
  0
POINT
  5
CBC
100
AcDbEntity
  8
DEFPOINTS
  6
BYBLOCK
 62
     0
100
AcDbPoint
 10
140.011485
 20
145.0
 30
0.0
  0
ENDBLK
  5
CBE
100
AcDbEntity
  8
0
100
AcDbBlockEnd
  0
BLOCK
  5
CCB
100
AcDbEntity
  8
0
100
AcDbBlockBegin
  2
*D45
 70
     1
 10
0.0
 20
0.0
 30
0.0
  3
*D45
  1

  0
LINE
  5
CC0
100
AcDbEntity
  8
0
  6
BYBLOCK
 62
     0
100
AcDbLine
 10
175.5
 20
148.5
 30
0.0
 11
150.148678
 21
148.5
 31
0.0
  0
LINE
  5
CC1
100
AcDbEntity
  8
0
  6
BYBLOCK
 62
     0
100
AcDbLine
 10
174.45
 20
147.0
 30
0.0
 11
150.148678
 21
147.0
 31
0.0
  0
LINE
  5
CC2
100
AcDbEntity
  8
0
  6
BYBLOCK
 62
     0
100
AcDbLine
 10
151.148678
 20
150.5
 30
0.0
 11
151.148678
 21
152.5
 31
0.0
  0
LINE
  5
CC3
100
AcDbEntity
  8
0
  6
BYBLOCK
 62
     0
100
AcDbLine
 10
151.148678
 20
145.0
 30
0.0
 11
151.148678
 21
141.438455
 31
0.0
  0
LINE
  5
CC4
100
AcDbEntity
  8
0
  6
BYBLOCK
 62
     0
100
AcDbLine
 10
151.148678
 20
141.438455
 30
0.0
 11
149.148678
 21
141.438455
 31
0.0
  0
SOLID
  5
CC5
100
AcDbEntity
  8
0
  6
BYBLOCK
 62
     0
100
AcDbTrace
 10
150.815345
 20
150.5
 30
0.0
 11
151.482011
 21
150.5
 31
0.0
 12
151.148678
 22
148.5
 32
0.0
 13
151.148678
 23
148.5
 33
0.0
  0
SOLID
  5
CC6
100
AcDbEntity
  8
0
  6
BYBLOCK
 62
     0
100
AcDbTrace
 10
150.815345
 20
145.0
 30
0.0
 11
151.482011
 21
145.0
 31
0.0
 12
151.148678
 22
147.0
 32
0.0
 13
151.148678
 23
147.0
 33
0.0
  0
MTEXT
  5
CC7
100
AcDbEntity
  8
0
  6
BYBLOCK
 62
     0
100
AcDbMText
 10
145.607011
 20
141.438455
 30
0.0
 40
3.5
 41
0.0
 71
     5
 72
     1
  1
\A1;1.5
  0
POINT
  5
CC8
100
AcDbEntity
  8
DEFPOINTS
  6
BYBLOCK
 62
     0
100
AcDbPoint
 10
176.5
 20
148.5
 30
0.0
  0
POINT
  5
CC9
100
AcDbEntity
  8
DEFPOINTS
  6
BYBLOCK
 62
     0
100
AcDbPoint
 10
175.45
 20
147.0
 30
0.0
  0
POINT
  5
CCA
100
AcDbEntity
  8
DEFPOINTS
  6
BYBLOCK
 62
     0
100
AcDbPoint
 10
151.148678
 20
147.0
 30
0.0
  0
ENDBLK
  5
CCC
100
AcDbEntity
  8
0
100
AcDbBlockEnd
  0
BLOCK
  5
CD8
100
AcDbEntity
  8
0
100
AcDbBlockBegin
  2
*D46
 70
     1
 10
0.0
 20
0.0
 30
0.0
  3
*D46
  1

  0
LINE
  5
CCE
100
AcDbEntity
  8
0
  6
BYBLOCK
 62
     0
100
AcDbLine
 10
179.0
 20
229.5
 30
0.0
 11
136.105308
 21
229.5
 31
0.0
  0
LINE
  5
CCF
100
AcDbEntity
  8
0
  6
BYBLOCK
 62
     0
100
AcDbLine
 10
179.0
 20
213.5
 30
0.0
 11
136.105308
 21
213.5
 31
0.0
  0
LINE
  5
CD0
100
AcDbEntity
  8
0
  6
BYBLOCK
 62
     0
100
AcDbLine
 10
137.105308
 20
227.5
 30
0.0
 11
137.105308
 21
224.461009
 31
0.0
  0
LINE
  5
CD1
100
AcDbEntity
  8
0
  6
BYBLOCK
 62
     0
100
AcDbLine
 10
137.105308
 20
215.5
 30
0.0
 11
137.105308
 21
218.544342
 31
0.0
  0
SOLID
  5
CD2
100
AcDbEntity
  8
0
  6
BYBLOCK
 62
     0
100
AcDbTrace
 10
136.771975
 20
227.5
 30
0.0
 11
137.438642
 21
227.5
 31
0.0
 12
137.105308
 22
229.5
 32
0.0
 13
137.105308
 23
229.5
 33
0.0
  0
SOLID
  5
CD3
100
AcDbEntity
  8
0
  6
BYBLOCK
 62
     0
100
AcDbTrace
 10
136.771975
 20
215.5
 30
0.0
 11
137.438642
 21
215.5
 31
0.0
 12
137.105308
 22
213.5
 32
0.0
 13
137.105308
 23
213.5
 33
0.0
  0
MTEXT
  5
CD4
100
AcDbEntity
  8
0
  6
BYBLOCK
 62
     0
100
AcDbMText
 10
137.105308
 20
221.502675
 30
0.0
 40
3.5
 41
0.0
 71
     5
 72
     1
  1
\A1;16
 11
0.0
 21
1.0
 31
0.0
  0
POINT
  5
CD5
100
AcDbEntity
  8
DEFPOINTS
  6
BYBLOCK
 62
     0
100
AcDbPoint
 10
180.0
 20
229.5
 30
0.0
  0
POINT
  5
CD6
100
AcDbEntity
  8
DEFPOINTS
  6
BYBLOCK
 62
     0
100
AcDbPoint
 10
180.0
 20
213.5
 30
0.0
  0
POINT
  5
CD7
100
AcDbEntity
  8
DEFPOINTS
  6
BYBLOCK
 62
     0
100
AcDbPoint
 10
137.105308
 20
213.5
 30
0.0
  0
ENDBLK
  5
CD9
100
AcDbEntity
  8
0
100
AcDbBlockEnd
  0
BLOCK
  5
CE5
100
AcDbEntity
  8
0
100
AcDbBlockBegin
  2
*D47
 70
     1
 10
0.0
 20
0.0
 30
0.0
  3
*D47
  1

  0
LINE
  5
CDB
100
AcDbEntity
  8
0
  6
BYBLOCK
 62
     0
100
AcDbLine
 10
179.0
 20
229.239975
 30
0.0
 11
143.505519
 21
229.239975
 31
0.0
  0
LINE
  5
CDC
100
AcDbEntity
  8
0
  6
BYBLOCK
 62
     0
100
AcDbLine
 10
179.0
 20
213.760025
 30
0.0
 11
143.505519
 21
213.760025
 31
0.0
  0
LINE
  5
CDD
100
AcDbEntity
  8
0
  6
BYBLOCK
 62
     0
100
AcDbLine
 10
144.505519
 20
227.239975
 30
0.0
 11
144.505519
 21
226.152075
 31
0.0
  0
LINE
  5
CDE
100
AcDbEntity
  8
0
  6
BYBLOCK
 62
     0
100
AcDbLine
 10
144.505519
 20
215.760025
 30
0.0
 11
144.505519
 21
216.385025
 31
0.0
  0
SOLID
  5
CDF
100
AcDbEntity
  8
0
  6
BYBLOCK
 62
     0
100
AcDbTrace
 10
144.172185
 20
227.239975
 30
0.0
 11
144.838852
 21
227.239975
 31
0.0
 12
144.505519
 22
229.239975
 32
0.0
 13
144.505519
 23
229.239975
 33
0.0
  0
SOLID
  5
CE0
100
AcDbEntity
  8
0
  6
BYBLOCK
 62
     0
100
AcDbTrace
 10
144.172185
 20
215.760025
 30
0.0
 11
144.838852
 21
215.760025
 31
0.0
 12
144.505519
 22
213.760025
 32
0.0
 13
144.505519
 23
213.760025
 33
0.0
  0
MTEXT
  5
CE1
100
AcDbEntity
  8
0
  6
BYBLOCK
 62
     0
100
AcDbMText
 10
144.505519
 20
220.860408
 30
0.0
 40
3.5
 41
0.0
 71
     5
 72
     1
  1
\A1;15.5
 11
0.0
 21
1.0
 31
0.0
  0
POINT
  5
CE2
100
AcDbEntity
  8
DEFPOINTS
  6
BYBLOCK
 62
     0
100
AcDbPoint
 10
180.0
 20
229.239975
 30
0.0
  0
POINT
  5
CE3
100
AcDbEntity
  8
DEFPOINTS
  6
BYBLOCK
 62
     0
100
AcDbPoint
 10
180.0
 20
213.760025
 30
0.0
  0
POINT
  5
CE4
100
AcDbEntity
  8
DEFPOINTS
  6
BYBLOCK
 62
     0
100
AcDbPoint
 10
144.505519
 20
213.760025
 30
0.0
  0
ENDBLK
  5
CE6
100
AcDbEntity
  8
0
100
AcDbBlockEnd
  0
BLOCK
  5
CEE
100
AcDbEntity
  8
0
100
AcDbBlockBegin
  2
*D48
 70
     1
 10
0.0
 20
0.0
 30
0.0
  3
*D48
  1

  0
LINE
  5
CE8
100
AcDbEntity
  8
0
  6
BYBLOCK
 62
     0
100
AcDbLine
 10
164.738254
 20
243.179209
 30
0.0
 11
166.738254
 21
243.179209
 31
0.0
  0
LINE
  5
CE9
100
AcDbEntity
  8
0
  6
BYBLOCK
 62
     0
100
AcDbLine
 10
166.738254
 20
243.179209
 30
0.0
 11
176.869007
 21
226.618289
 31
0.0
  0
MTEXT
  5
CEA
100
AcDbEntity
  8
0
  6
BYBLOCK
 62
     0
100
AcDbMText
 10
161.196587
 20
243.179209
 30
0.0
 40
3.5
 41
0.0
 71
     5
 72
     1
  1
\A1;\U+22058
  0
SOLID
  5
CEB
100
AcDbEntity
  8
0
  6
BYBLOCK
 62
     0
100
AcDbTrace
 10
177.153356
 20
226.792233
 30
0.0
 11
176.584658
 21
226.444345
 31
0.0
 12
177.912671
 22
224.912193
 32
0.0
 13
177.912671
 23
224.912193
 33
0.0
  0
POINT
  5
CEC
100
AcDbEntity
  8
DEFPOINTS
  6
BYBLOCK
 62
     0
100
AcDbPoint
 10
177.912671
 20
224.912193
 30
0.0
  0
POINT
  5
CED
100
AcDbEntity
  8
DEFPOINTS
  6
BYBLOCK
 62
     0
100
AcDbPoint
 10
182.087329
 20
218.087807
 30
0.0
  0
ENDBLK
  5
CEF
100
AcDbEntity
  8
0
100
AcDbBlockEnd
  0
BLOCK
  5
CF7
100
AcDbEntity
  8
0
100
AcDbBlockBegin
  2
*D49
 70
     1
 10
0.0
 20
0.0
 30
0.0
  3
*D49
  1

  0
LINE
  5
CF1
100
AcDbEntity
  8
0
  6
BYBLOCK
 62
     0
100
AcDbLine
 10
160.567722
 20
237.719934
 30
0.0
 11
162.567722
 21
237.719934
 31
0.0
  0
LINE
  5
CF2
100
AcDbEntity
  8
0
  6
BYBLOCK
 62
     0
100
AcDbLine
 10
162.567722
 20
237.719934
 30
0.0
 11
176.522497
 21
224.735657
 31
0.0
  0
MTEXT
  5
CF3
100
AcDbEntity
  8
0
  6
BYBLOCK
 62
     0
100
AcDbMText
 10
154.692722
 20
237.719934
 30
0.0
 40
3.5
 41
0.0
 71
     5
 72
     1
  1
\A1;\U+22055.5
  0
SOLID
  5
CF4
100
AcDbEntity
  8
0
  6
BYBLOCK
 62
     0
100
AcDbTrace
 10
176.749561
 20
224.979692
 30
0.0
 11
176.295433
 21
224.491621
 31
0.0
 12
177.986709
 22
223.373275
 32
0.0
 13
177.986709
 23
223.373275
 33
0.0
  0
POINT
  5
CF5
100
AcDbEntity
  8
DEFPOINTS
  6
BYBLOCK
 62
     0
100
AcDbPoint
 10
177.986709
 20
223.373275
 30
0.0
  0
POINT
  5
CF6
100
AcDbEntity
  8
DEFPOINTS
  6
BYBLOCK
 62
     0
100
AcDbPoint
 10
182.013291
 20
219.626725
 30
0.0
  0
ENDBLK
  5
CF8
100
AcDbEntity
  8
0
100
AcDbBlockEnd
  0
BLOCK
  5
D00
100
AcDbEntity
  8
0
100
AcDbBlockBegin
  2
*D50
 70
     1
 10
0.0
 20
0.0
 30
0.0
  3
*D50
  1

  0
LINE
  5
CFA
100
AcDbEntity
  8
0
  6
BYBLOCK
 62
     0
100
AcDbLine
 10
193.940763
 20
241.734107
 30
0.0
 11
191.940763
 21
241.734107
 31
0.0
  0
LINE
  5
CFB
100
AcDbEntity
  8
0
  6
BYBLOCK
 62
     0
100
AcDbLine
 10
191.940763
 20
241.734107
 30
0.0
 11
185.082322
 21
230.112201
 31
0.0
  0
MTEXT
  5
CFC
100
AcDbEntity
  8
0
  6
BYBLOCK
 62
     0
100
AcDbMText
 10
198.649096
 20
241.734107
 30
0.0
 40
3.5
 41
0.0
 71
     5
 72
     1
  1
\A1;\U+220516
  0
SOLID
  5
CFD
100
AcDbEntity
  8
0
  6
BYBLOCK
 62
     0
100
AcDbTrace
 10
184.795249
 20
230.281612
 30
0.0
 11
185.369395
 21
229.94279
 31
0.0
 12
184.065858
 22
228.389761
 32
0.0
 13
184.065858
 23
228.389761
 33
0.0
  0
POINT
  5
CFE
100
AcDbEntity
  8
DEFPOINTS
  6
BYBLOCK
 62
     0
100
AcDbPoint
 10
184.065858
 20
228.389761
 30
0.0
  0
POINT
  5
CFF
100
AcDbEntity
  8
DEFPOINTS
  6
BYBLOCK
 62
     0
100
AcDbPoint
 10
175.934142
 20
214.610239
 30
0.0
  0
ENDBLK
  5
D01
100
AcDbEntity
  8
0
100
AcDbBlockEnd
  0
BLOCK
  5
D9E
100
AcDbEntity
  8
0
100
AcDbBlockBegin
  2
A$C150826DF
 70
     0
 10
0.0
 20
0.0
 30
0.0
  3
A$C150826DF
  1

  0
DIMENSION
  5
D03
100
AcDbEntity
  8
0
100
AcDbDimension
  2
*D50
 10
119.730862
 20
80.610239
 30
8.24381
 11
142.445816
 21
107.734107
 31
8.24381
 12
-56.20328
 22
-134.0
 32
8.24381
 70
   131
  3
STANDARD
100
AcDbDiametricDimension
 15
127.862578
 25
94.38976
 35
8.24381
 40
0.0
1001
ACAD
1000
DSTYLE
1002
{
1070
   140
1040
3.5
1070
    77
1070
     0
1070
    40
1040
1.0
1070
   141
1040
0.0
1070
    41
1040
2.0
1002
}
  0
DIMENSION
  5
D04
100
AcDbEntity
  8
0
100
AcDbDimension
  2
*D39
 10
163.773398
 20
54.0
 30
8.24381
 11
143.29672
 21
54.0
 31
8.24381
 12
-56.20328
 22
-134.0
 32
8.24381
 70
   128
  1
40
  3
STANDARD
100
AcDbAlignedDimension
 13
123.79672
 23
23.41239
 33
8.24381
 14
163.773398
 24
25.810294
 34
8.24381
100
AcDbRotatedDimension
1001
ACAD
1000
DSTYLE
1002
{
1070
   140
1040
3.5
1070
    77
1070
     0
1070
    40
1040
1.0
1070
   141
1040
0.0
1070
    41
1040
2.0
1002
}
  0
DIMENSION
  5
D05
100
AcDbEntity
  8
0
100
AcDbDimension
  2
*D38
 10
136.130438
 20
96.421859
 30
8.24381
 11
149.279506
 21
96.421859
 31
8.24381
 12
-56.20328
 22
-101.5
 32
8.24381
 70
   128
  1
6-2.1
  3
STANDARD
100
AcDbAlignedDimension
 13
138.237839
 23
87.5
 33
8.24381
 14
136.130438
 24
87.5
 34
8.24381
100
AcDbRotatedDimension
1001
ACAD
1000
DSTYLE
1002
{
1070
   140
1040
3.5
1070
    77
1070
     0
1070
    40
1040
1.0
1070
   141
1040
0.0
1070
    41
1040
2.0
1002
}
  0
DIMENSION
  5
D06
100
AcDbEntity
  8
0
100
AcDbDimension
  2
*D36
 10
158.922613
 20
25.325008
 30
8.24381
 11
138.733457
 21
29.303242
 31
8.24381
 12
-56.20328
 22
-134.0
 32
8.24381
 70
   132
  3
STANDARD
100
AcDbRadialDimension
 15
163.484845
 25
23.60697
 35
8.24381
 40
0.0
1001
ACAD
1000
DSTYLE
1002
{
1070
   140
1040
3.5
1070
    77
1070
     0
1070
    40
1040
1.0
1070
   287
1070
     4
1070
   141
1040
0.0
1070
    41
1040
2.0
1002
}
  0
DIMENSION
  5
D07
100
AcDbEntity
  8
0
100
AcDbDimension
  2
*D35
 10
160.320111
 20
21.558362
 30
8.24381
 11
140.784447
 21
33.782371
 31
8.24381
 12
-56.20328
 22
-134.0
 32
8.24381
 70
   132
  1
6-R1.2
  3
STANDARD
100
AcDbRadialDimension
 15
161.018261
 25
20.582357
 35
8.24381
 40
0.0
1001
ACAD
1000
DSTYLE
1002
{
1070
   140
1040
3.5
1070
    77
1070
     0
1070
    40
1040
1.0
1070
   287
1070
     4
1070
   141
1040
0.0
1070
    41
1040
2.0
1002
}
  0
DIMENSION
  5
D08
100
AcDbEntity
  8
0
100
AcDbDimension
  2
*D34
 10
166.406635
 20
27.330346
 30
8.24381
 11
152.617911
 21
11.067894
 31
8.24381
 12
-56.20328
 22
-134.0
 32
8.24381
 70
   130
  3
STANDARD
100
AcDb2LineAngularDimension
 13
123.79672
 23
4.0
 33
8.24381
 14
131.29672
 24
4.0
 34
8.24381
 15
121.298429
 25
15.243639
 35
8.24381
 16
151.839493
 26
16.784216
 36
8.24381
1001
ACAD
1000
DSTYLE
1002
{
1070
   140
1040
3.5
1070
    77
1070
     0
1070
    40
1040
1.0
1070
   141
1040
0.0
1070
    41
1040
2.0
1002
}
  0
LINE
  5
D09
100
AcDbEntity
  8
3
100
AcDbLine
 10
138.237839
 20
24.441283
 30
8.24381
 11
159.569038
 21
30.15696
 31
8.24381
  0
LINE
  5
D0A
100
AcDbEntity
  8
3
100
AcDbLine
 10
154.566191
 20
19.498966
 30
8.24381
 11
131.638527
 21
13.355517
 31
8.24381
  0
LINE
  5
D0B
100
AcDbEntity
  8
3
100
AcDbLine
 10
130.411098
 20
83.0
 30
8.24381
 11
160.733724
 21
83.0
 31
8.24381
  0
LINE
  5
D0C
100
AcDbEntity
  8
3
100
AcDbLine
 10
130.411098
 20
17.685371
 30
8.24381
 11
160.733724
 21
25.810294
 31
8.24381
  0
LINE
  5
D0D
100
AcDbEntity
  8
3
100
AcDbLine
 10
130.411098
 20
92.0
 30
8.24381
 11
160.733724
 21
92.0
 31
8.24381
  0
LINE
  5
D0E
100
AcDbEntity
  8
1
100
AcDbLine
 10
113.171488
 20
87.5
 30
8.24381
 11
166.42557
 21
87.5
 31
8.24381
  0
LINE
  5
D0F
100
AcDbEntity
  8
1
100
AcDbLine
 10
121.298429
 20
15.243639
 30
8.24381
 11
166.406635
 21
27.330346
 31
8.24381
  0
LINE
  5
D10
100
AcDbEntity
  8
1
100
AcDbLine
 10
21.54672
 20
0.042441
 30
8.24381
 11
21.54672
 21
23.41239
 31
8.24381
  0
DIMENSION
  5
D11
100
AcDbEntity
  8
0
100
AcDbDimension
  2
*D33
 10
134.144461
 20
4.0
 30
8.24381
 11
137.352795
 21
9.0
 31
8.24381
 12
-56.20328
 22
-134.0
 32
8.24381
 70
   128
  3
STANDARD
100
AcDbAlignedDimension
 13
128.84672
 23
5.0
 33
8.24381
 14
131.29672
 24
4.0
 34
8.24381
 50
90.0
100
AcDbRotatedDimension
1001
ACAD
1000
DSTYLE
1002
{
1070
   140
1040
3.5
1070
    77
1070
     0
1070
    40
1040
1.0
1070
   141
1040
0.0
1070
    41
1040
2.0
1002
}
  0
LINE
  5
D12
100
AcDbEntity
  8
1
100
AcDbLine
 10
123.79672
 20
0.042441
 30
8.24381
 11
123.79672
 21
23.41239
 31
8.24381
  0
ELLIPSE
  5
D13
100
AcDbEntity
  8
3
100
AcDbEllipse
 10
21.54672
 20
20.207853
 30
8.24381
 11
-7.823404708261364
 21
0.0
 31
0.0
210
0.0
220
0.0
230
1.0
 40
0.284136
 41
0.0
 42
6.283185307179586
  0
ARC
  5
D14
100
AcDbEntity
  8
3
100
AcDbCircle
 10
21.54672
 20
25.654256
 30
8.24381
 40
4.502705
100
AcDbArc
 50
1.985946
 51
178.014054
  0
LINE
  5
D15
100
AcDbEntity
  8
2
100
AcDbLine
 10
21.54672
 20
5.0
 30
8.24381
 11
16.49672
 21
5.0
 31
8.24381
  0
LINE
  5
D16
100
AcDbEntity
  8
3
100
AcDbLine
 10
21.54672
 20
4.0
 30
8.24381
 11
14.04672
 21
4.0
 31
8.24381
  0
LINE
  5
D17
100
AcDbEntity
  8
3
100
AcDbLine
 10
21.54672
 20
17.685371
 30
8.24381
 11
13.54672
 21
17.685371
 31
8.24381
  0
LINE
  5
D18
100
AcDbEntity
  8
2
100
AcDbLine
 10
26.59672
 20
11.0
 30
8.24381
 11
16.49672
 21
11.0
 31
8.24381
  0
LINE
  5
D19
100
AcDbEntity
  8
2
100
AcDbLine
 10
16.99672
 20
13.0
 30
8.24381
 11
26.09672
 21
13.0
 31
8.24381
  0
MTEXT
  5
D1A
102
{ACAD_REACTORS
330
D1B
102
}
100
AcDbEntity
  8
0
100
AcDbMText
 10
-1.066877
 20
24.071531
 30
8.24381
 40
3.5
 41
0.0
 71
     6
 72
     1
  1
\A1;C0.5
  0
LEADER
  5
D1B
100
AcDbEntity
  8
0
100
AcDbLeader
  3
STANDARD
 73
     0
 40
3.5
 41
9.916667
 76
     3
 10
16.629341
 20
12.768686
 30
8.24381
 10
1.07932
 20
24.071531
 30
8.24381
 10
-0.976877
 20
24.071531
 30
8.24381
 77
   256
340
D1A
1001
ACAD
1000
DSTYLE
1002
{
1070
   140
1040
3.5
1070
    77
1070
     0
1070
    40
1040
1.0
1070
   141
1040
0.0
1070
    41
1040
2.0
1002
}
  0
MTEXT
  5
D1C
102
{ACAD_REACTORS
330
D1D
102
}
100
AcDbEntity
  8
0
100
AcDbMText
 10
0.116276
 20
32.000392
 30
8.24381
 40
3.5
 41
0.0
 71
     6
 72
     1
  1
\A1;R0.75
  0
LEADER
  5
D1D
100
AcDbEntity
  8
0
100
AcDbLeader
  3
STANDARD
 73
     0
 40
3.5
 41
13.416667
 76
     3
 10
14.263034
 20
21.034946
 30
8.24381
 10
1.755408
 20
32.000392
 30
8.24381
 10
0.206276
 20
32.000392
 30
8.24381
 77
   256
340
D1C
1001
ACAD
1000
DSTYLE
1002
{
1070
   140
1040
3.5
1070
    77
1070
     0
1070
    40
1040
1.0
1070
   141
1040
0.0
1070
    41
1040
2.0
1002
}
  0
LINE
  5
D1E
100
AcDbEntity
  8
3
100
AcDbLine
 10
17.04672
 20
25.810294
 30
8.24381
 11
17.04672
 21
22.026227
 31
8.24381
  0
LINE
  5
D1F
100
AcDbEntity
  8
3
100
AcDbLine
 10
14.04672
 20
4.0
 30
8.24381
 11
13.54672
 21
17.685371
 31
8.24381
  0
LINE
  5
D20
100
AcDbEntity
  8
2
100
AcDbLine
 10
17.04672
 20
13.0
 30
8.24381
 11
17.04672
 21
11.0
 31
8.24381
  0
LINE
  5
D21
100
AcDbEntity
  8
2
100
AcDbLine
 10
16.49672
 20
5.0
 30
8.24381
 11
16.49672
 21
12.5
 31
8.24381
  0
LINE
  5
D22
100
AcDbEntity
  8
2
100
AcDbLine
 10
16.49672
 20
5.0
 30
8.24381
 11
16.29672
 21
4.0
 31
8.24381
  0
LINE
  5
D23
100
AcDbEntity
  8
2
100
AcDbLine
 10
16.99672
 20
13.0
 30
8.24381
 11
16.49672
 21
12.5
 31
8.24381
  0
LINE
  5
D24
100
AcDbEntity
  8
3
100
AcDbLine
 10
13.54672
 20
17.685371
 30
8.24381
 11
13.79672
 21
20.25
 31
8.24381
  0
DIMENSION
  5
D25
100
AcDbEntity
  8
0
100
AcDbDimension
  2
*D48
 10
125.884049
 20
84.087807
 30
8.24381
 11
104.993307
 21
109.179209
 31
8.24381
 12
-56.20328
 22
-134.0
 32
8.24381
 70
   131
  3
STANDARD
100
AcDbDiametricDimension
 15
121.709391
 25
90.912192
 35
8.24381
 40
0.0
1001
ACAD
1000
DSTYLE
1002
{
1070
   140
1040
3.5
1070
    77
1070
     0
1070
    40
1040
1.0
1070
   141
1040
0.0
1070
    41
1040
2.0
1002
}
  0
DIMENSION
  5
D26
100
AcDbEntity
  8
0
100
AcDbDimension
  2
*D47
 10
88.302239
 20
79.760025
 30
8.24381
 11
88.302239
 21
86.860408
 31
8.24381
 12
-56.20328
 22
-134.0
 32
8.24381
 70
   128
  1
15.5
  3
STANDARD
100
AcDbAlignedDimension
 13
123.79672
 23
95.239975
 33
8.24381
 14
123.79672
 24
79.760025
 34
8.24381
 50
90.0
100
AcDbRotatedDimension
1001
ACAD
1000
DSTYLE
1002
{
1070
   140
1040
3.5
1070
    77
1070
     0
1070
    40
1040
1.0
1070
   141
1040
0.0
1070
    41
1040
2.0
1002
}
  0
DIMENSION
  5
D27
100
AcDbEntity
  8
0
100
AcDbDimension
  2
*D46
 10
80.902028
 20
79.5
 30
8.24381
 11
80.902028
 21
87.502675
 31
8.24381
 12
-56.20328
 22
-134.0
 32
8.24381
 70
   128
  3
STANDARD
100
AcDbAlignedDimension
 13
123.79672
 23
95.5
 33
8.24381
 14
123.79672
 24
79.5
 34
8.24381
 50
90.0
100
AcDbRotatedDimension
1001
ACAD
1000
DSTYLE
1002
{
1070
   140
1040
3.5
1070
    77
1070
     0
1070
    40
1040
1.0
1070
   141
1040
0.0
1070
    41
1040
2.0
1002
}
  0
DIMENSION
  5
D28
100
AcDbEntity
  8
0
100
AcDbDimension
  2
*D37
 10
131.300809
 20
74.983643
 30
8.24381
 11
127.548764
 21
74.983643
 31
8.24381
 12
-56.20328
 22
-101.5
 32
8.24381
 70
   128
  3
STANDARD
100
AcDbAlignedDimension
 13
123.79672
 23
75.892372
 33
8.24381
 14
131.300809
 24
87.5
 34
8.24381
100
AcDbRotatedDimension
1001
ACAD
1000
DSTYLE
1002
{
1070
   140
1040
3.5
1070
    77
1070
     0
1070
    40
1040
1.0
1070
   141
1040
0.0
1070
    41
1040
2.0
1002
}
  0
CIRCLE
  5
D29
100
AcDbEntity
  8
3
100
AcDbCircle
 10
123.79672
 20
87.5
 30
8.24381
 40
2.75
  0
ARC
  5
D2A
100
AcDbEntity
  8
3
100
AcDbCircle
 10
123.526568
 20
86.913768
 30
8.24381
 40
7.293749
100
AcDbArc
 50
341.195413
 51
4.61009
  0
ELLIPSE
  5
D2B
100
AcDbEntity
  8
3
100
AcDbEllipse
 10
123.42172
 20
87.5
 30
8.24381
 11
0.0
 21
-7.75
 31
0.0
210
0.0
220
0.0
230
1.0
 40
0.951613
 41
0.0
 42
6.283185307179586
  0
CIRCLE
  5
D2C
100
AcDbEntity
  8
3
100
AcDbCircle
 10
123.79672
 20
87.5
 30
8.24381
 40
4.0
  0
ARC
  5
D2D
100
AcDbEntity
  8
3
100
AcDbCircle
 10
123.79672
 20
87.5
 30
8.24381
 40
8.0
100
AcDbArc
 50
34.228866
 51
325.771134
  0
LINE
  5
D2E
100
AcDbEntity
  8
1
100
AcDbLine
 10
123.79672
 20
75.892372
 30
8.24381
 11
123.79672
 21
98.122324
 31
8.24381
  0
DIMENSION
  5
D2F
100
AcDbEntity
  8
0
100
AcDbDimension
  2
*D44
 10
83.808205
 20
11.0
 30
8.24381
 11
80.016538
 21
7.0
 31
8.24381
 12
-56.20328
 22
-134.0
 32
8.24381
 70
   128
  3
STANDARD
100
AcDbAlignedDimension
 13
119.24672
 23
13.0
 33
8.24381
 14
118.74672
 24
11.0
 34
8.24381
 50
90.0
100
AcDbRotatedDimension
1001
ACAD
1000
DSTYLE
1002
{
1070
   140
1040
3.5
1070
    77
1070
     0
1070
    40
1040
1.0
1070
   141
1040
0.0
1070
    41
1040
2.0
1002
}
  0
DIMENSION
  5
D30
100
AcDbEntity
  8
0
100
AcDbDimension
  2
*D43
 10
72.440909
 20
4.0
 30
8.24381
 11
72.440909
 21
8.589067
 31
8.24381
 12
-56.20328
 22
-134.0
 32
8.24381
 70
   128
  3
STANDARD
100
AcDbAlignedDimension
 13
119.29672
 23
13.0
 33
8.24381
 14
116.29672
 24
4.0
 34
8.24381
 50
90.0
100
AcDbRotatedDimension
1001
ACAD
1000
DSTYLE
1002
{
1070
   140
1040
3.5
1070
    77
1070
     0
1070
    40
1040
1.0
1070
   141
1040
0.0
1070
    41
1040
2.0
1002
}
  0
DIMENSION
  5
D31
100
AcDbEntity
  8
0
100
AcDbDimension
  2
*D42
 10
65.853405
 20
4.0
 30
8.24381
 11
65.853405
 21
10.725917
 31
8.24381
 12
-56.20328
 22
-134.0
 32
8.24381
 70
   128
  1
13.7
  3
STANDARD
100
AcDbAlignedDimension
 13
115.79672
 23
17.685371
 33
8.24381
 14
116.29672
 24
4.0
 34
8.24381
 50
90.0
100
AcDbRotatedDimension
1001
ACAD
1000
DSTYLE
1002
{
1070
   140
1040
3.5
1070
    77
1070
     0
1070
    40
1040
1.0
1070
   141
1040
0.0
1070
    41
1040
2.0
1002
}
  0
DIMENSION
  5
D32
100
AcDbEntity
  8
0
100
AcDbDimension
  2
*D41
 10
59.924652
 20
18.451452
 30
8.24381
 11
59.924652
 21
11.876529
 31
8.24381
 12
-56.20328
 22
-134.0
 32
8.24381
 70
   128
  1
14.5
  3
STANDARD
100
AcDbAlignedDimension
 13
116.29672
 23
4.0
 33
8.24381
 14
115.42437
 24
18.451452
 34
8.24381
 50
90.0
100
AcDbRotatedDimension
1001
ACAD
1000
DSTYLE
1002
{
1070
   140
1040
3.5
1070
    77
1070
     0
1070
    40
1040
1.0
1070
   141
1040
0.0
1070
    41
1040
2.0
1002
}
  0
LINE
  5
D33
100
AcDbEntity
  8
3
100
AcDbLine
 10
26.04672
 20
25.810294
 30
8.24381
 11
26.04672
 21
22.026227
 31
8.24381
  0
LINE
  5
D34
100
AcDbEntity
  8
3
100
AcDbLine
 10
29.04672
 20
4.0
 30
8.24381
 11
29.54672
 21
17.685371
 31
8.24381
  0
LINE
  5
D35
100
AcDbEntity
  8
2
100
AcDbLine
 10
26.04672
 20
13.0
 30
8.24381
 11
26.04672
 21
11.0
 31
8.24381
  0
LINE
  5
D36
100
AcDbEntity
  8
2
100
AcDbLine
 10
25.04672
 20
13.0
 30
8.24381
 11
25.04672
 21
11.0
 31
8.24381
  0
LINE
  5
D37
100
AcDbEntity
  8
2
100
AcDbLine
 10
24.04672
 20
13.0
 30
8.24381
 11
24.04672
 21
11.0
 31
8.24381
  0
LINE
  5
D38
100
AcDbEntity
  8
2
100
AcDbLine
 10
26.59672
 20
12.5
 30
8.24381
 11
26.59672
 21
5.0
 31
8.24381
  0
LINE
  5
D39
100
AcDbEntity
  8
2
100
AcDbLine
 10
23.04672
 20
13.0
 30
8.24381
 11
23.04672
 21
11.0
 31
8.24381
  0
LINE
  5
D3A
100
AcDbEntity
  8
2
100
AcDbLine
 10
22.04672
 20
13.0
 30
8.24381
 11
22.04672
 21
11.0
 31
8.24381
  0
LINE
  5
D3B
100
AcDbEntity
  8
2
100
AcDbLine
 10
21.04672
 20
13.0
 30
8.24381
 11
21.04672
 21
11.0
 31
8.24381
  0
LINE
  5
D3C
100
AcDbEntity
  8
2
100
AcDbLine
 10
20.04672
 20
13.0
 30
8.24381
 11
20.04672
 21
11.0
 31
8.24381
  0
LINE
  5
D3D
100
AcDbEntity
  8
2
100
AcDbLine
 10
19.04672
 20
13.0
 30
8.24381
 11
19.04672
 21
11.0
 31
8.24381
  0
LINE
  5
D3E
100
AcDbEntity
  8
2
100
AcDbLine
 10
18.04672
 20
13.0
 30
8.24381
 11
18.04672
 21
11.0
 31
8.24381
  0
LINE
  5
D3F
100
AcDbEntity
  8
3
100
AcDbLine
 10
21.54672
 20
4.0
 30
8.24381
 11
29.04672
 21
4.0
 31
8.24381
  0
LINE
  5
D40
100
AcDbEntity
  8
2
100
AcDbLine
 10
21.54672
 20
5.0
 30
8.24381
 11
26.59672
 21
5.0
 31
8.24381
  0
LINE
  5
D41
100
AcDbEntity
  8
2
100
AcDbLine
 10
26.59672
 20
5.0
 30
8.24381
 11
26.79672
 21
4.0
 31
8.24381
  0
LINE
  5
D42
100
AcDbEntity
  8
3
100
AcDbLine
 10
21.54672
 20
17.685371
 30
8.24381
 11
29.54672
 21
17.685371
 31
8.24381
  0
LINE
  5
D43
100
AcDbEntity
  8
2
100
AcDbLine
 10
18.04672
 20
14.5
 30
8.24381
 11
18.04672
 21
20.504809
 31
8.24381
  0
LINE
  5
D44
100
AcDbEntity
  8
2
100
AcDbLine
 10
25.04672
 20
14.5
 30
8.24381
 11
25.04672
 21
20.504809
 31
8.24381
  0
LINE
  5
D45
100
AcDbEntity
  8
2
100
AcDbLine
 10
21.54672
 20
14.5
 30
8.24381
 11
25.04672
 21
14.5
 31
8.24381
  0
LINE
  5
D46
100
AcDbEntity
  8
2
100
AcDbLine
 10
19.04672
 20
14.5
 30
8.24381
 11
19.04672
 21
13.0
 31
8.24381
  0
LINE
  5
D47
100
AcDbEntity
  8
2
100
AcDbLine
 10
21.54672
 20
14.5
 30
8.24381
 11
18.04672
 21
14.5
 31
8.24381
  0
LINE
  5
D48
100
AcDbEntity
  8
2
100
AcDbLine
 10
24.04672
 20
14.5
 30
8.24381
 11
24.04672
 21
13.0
 31
8.24381
  0
ELLIPSE
  5
D49
100
AcDbEntity
  8
3
100
AcDbEllipse
 10
21.54672
 20
20.504809
 30
8.24381
 11
-3.5
 21
0.0
 31
0.0
210
0.0
220
0.0
230
1.0
 40
0.287088
 41
0.0
 42
6.283185307179586
  0
LINE
  5
D4A
100
AcDbEntity
  8
2
100
AcDbLine
 10
26.09672
 20
13.0
 30
8.24381
 11
26.59672
 21
12.5
 31
8.24381
  0
LINE
  5
D4B
100
AcDbEntity
  8
3
100
AcDbLine
 10
29.54672
 20
17.685371
 30
8.24381
 11
29.29672
 21
20.25
 31
8.24381
  0
LINE
  5
D4C
100
AcDbEntity
  8
1
100
AcDbLine
 10
21.54672
 20
23.41239
 30
8.24381
 11
21.54672
 21
31.933297
 31
8.24381
  0
ARC
  5
D4D
100
AcDbEntity
  8
3
100
AcDbCircle
 10
21.548933
 20
23.893067
 30
8.24381
 40
1.106935
100
AcDbArc
 50
19.043492
 51
161.718975
  0
ARC
  5
D4E
100
AcDbEntity
  8
3
100
AcDbCircle
 10
21.544507
 20
23.143067
 30
8.24381
 40
1.106935
100
AcDbArc
 50
19.043492
 51
161.718975
  0
ARC
  5
D4F
100
AcDbEntity
  8
3
100
AcDbCircle
 10
21.548933
 20
22.393067
 30
8.24381
 40
1.106935
100
AcDbArc
 50
19.043492
 51
161.718975
  0
ARC
  5
D50
100
AcDbEntity
  8
3
100
AcDbCircle
 10
21.524915
 20
26.002685
 30
8.24381
 40
3.420244
100
AcDbArc
 50
252.525249
 51
288.237218
  0
ARC
  5
D51
100
AcDbEntity
  8
3
100
AcDbCircle
 10
21.524915
 20
27.502685
 30
8.24381
 40
3.420244
100
AcDbArc
 50
252.525249
 51
261.561795
  0
ARC
  5
D52
100
AcDbEntity
  8
3
100
AcDbCircle
 10
21.520489
 20
26.752685
 30
8.24381
 40
3.420244
100
AcDbArc
 50
252.525249
 51
261.679359
  0
ARC
  5
D53
100
AcDbEntity
  8
3
100
AcDbCircle
 10
21.524915
 20
27.502685
 30
8.24381
 40
3.420244
100
AcDbArc
 50
278.953154
 51
288.237218
  0
ARC
  5
D54
100
AcDbEntity
  8
3
100
AcDbCircle
 10
21.520489
 20
26.752685
 30
8.24381
 40
3.420244
100
AcDbArc
 50
279.068291
 51
288.237218
  0
DIMENSION
  5
D55
100
AcDbEntity
  8
0
100
AcDbDimension
  2
*D45
 10
94.945398
 20
13.0
 30
8.24381
 11
89.403731
 21
7.438455
 31
8.24381
 12
-56.20328
 22
-134.0
 32
8.24381
 70
   128
  3
STANDARD
100
AcDbAlignedDimension
 13
120.29672
 23
14.5
 33
8.24381
 14
119.24672
 24
13.0
 34
8.24381
 50
90.0
100
AcDbRotatedDimension
1001
ACAD
1000
DSTYLE
1002
{
1070
   140
1040
3.5
1070
    77
1070
     0
1070
    40
1040
1.0
1070
   141
1040
0.0
1070
    41
1040
2.0
1002
}
  0
DIMENSION
  5
D56
100
AcDbEntity
  8
0
100
AcDbDimension
  2
*D40
 10
116.54672
 20
17.852708
 30
8.24381
 11
88.017119
 21
39.75
 31
8.24381
 12
-56.20328
 22
-134.0
 32
8.24381
 70
   132
  3
STANDARD
100
AcDbRadialDimension
 15
116.052315
 25
18.416679
 35
8.24381
 40
0.0
1001
ACAD
1000
DSTYLE
1002
{
1070
   140
1040
3.5
1070
    77
1070
     0
1070
    40
1040
1.0
1070
   141
1040
0.0
1070
    41
1040
2.0
1002
}
  0
ARC
  5
D57
100
AcDbEntity
  8
3
100
AcDbCircle
 10
143.841843
 20
19.153821
 30
8.24381
 40
13.510783
100
AcDbArc
 50
165.963333
 51
205.414342
  0
LINE
  5
D58
100
AcDbEntity
  8
3
100
AcDbLine
 10
116.352606
 20
18.577152
 30
8.24381
 11
131.300809
 21
22.582511
 31
8.24381
  0
LINE
  5
D59
100
AcDbEntity
  8
2
100
AcDbLine
 10
128.84672
 20
11.0
 30
8.24381
 11
118.74672
 21
11.0
 31
8.24381
  0
LINE
  5
D5A
100
AcDbEntity
  8
2
100
AcDbLine
 10
123.79672
 20
5.0
 30
8.24381
 11
128.84672
 21
5.0
 31
8.24381
  0
LINE
  5
D5B
100
AcDbEntity
  8
3
100
AcDbLine
 10
130.411098
 20
17.685371
 30
8.24381
 11
115.79672
 21
17.685371
 31
8.24381
  0
LINE
  5
D5C
100
AcDbEntity
  8
2
100
AcDbLine
 10
123.79672
 20
14.5
 30
8.24381
 11
127.29672
 21
14.5
 31
8.24381
  0
LINE
  5
D5D
100
AcDbEntity
  8
2
100
AcDbLine
 10
119.24672
 20
13.0
 30
8.24381
 11
128.34672
 21
13.0
 31
8.24381
  0
LINE
  5
D5E
100
AcDbEntity
  8
3
100
AcDbLine
 10
123.79672
 20
4.0
 30
8.24381
 11
131.29672
 21
4.0
 31
8.24381
  0
LINE
  5
D5F
100
AcDbEntity
  8
2
100
AcDbLine
 10
125.29672
 20
13.0
 30
8.24381
 11
125.29672
 21
11.0
 31
8.24381
  0
LINE
  5
D60
100
AcDbEntity
  8
2
100
AcDbLine
 10
124.29672
 20
13.0
 30
8.24381
 11
124.29672
 21
11.0
 31
8.24381
  0
LINE
  5
D61
100
AcDbEntity
  8
2
100
AcDbLine
 10
123.29672
 20
13.0
 30
8.24381
 11
123.29672
 21
11.0
 31
8.24381
  0
LINE
  5
D62
100
AcDbEntity
  8
2
100
AcDbLine
 10
122.29672
 20
13.0
 30
8.24381
 11
122.29672
 21
11.0
 31
8.24381
  0
LINE
  5
D63
100
AcDbEntity
  8
2
100
AcDbLine
 10
121.29672
 20
13.0
 30
8.24381
 11
121.29672
 21
11.0
 31
8.24381
  0
LINE
  5
D64
100
AcDbEntity
  8
2
100
AcDbLine
 10
120.29672
 20
13.0
 30
8.24381
 11
120.29672
 21
11.0
 31
8.24381
  0
LINE
  5
D65
100
AcDbEntity
  8
2
100
AcDbLine
 10
119.29672
 20
13.0
 30
8.24381
 11
119.29672
 21
11.0
 31
8.24381
  0
LINE
  5
D66
100
AcDbEntity
  8
3
100
AcDbLine
 10
116.29672
 20
4.0
 30
8.24381
 11
115.79672
 21
17.685371
 31
8.24381
  0
LINE
  5
D67
100
AcDbEntity
  8
2
100
AcDbLine
 10
118.74672
 20
5.0
 30
8.24381
 11
118.74672
 21
12.5
 31
8.24381
  0
LINE
  5
D68
100
AcDbEntity
  8
3
100
AcDbLine
 10
123.79672
 20
4.0
 30
8.24381
 11
116.29672
 21
4.0
 31
8.24381
  0
LINE
  5
D69
100
AcDbEntity
  8
2
100
AcDbLine
 10
123.79672
 20
5.0
 30
8.24381
 11
118.74672
 21
5.0
 31
8.24381
  0
LINE
  5
D6A
100
AcDbEntity
  8
2
100
AcDbLine
 10
118.74672
 20
5.0
 30
8.24381
 11
118.54672
 21
4.0
 31
8.24381
  0
ARC
  5
D6B
100
AcDbEntity
  8
3
100
AcDbCircle
 10
116.54672
 20
17.852708
 30
8.24381
 40
0.75
100
AcDbArc
 50
105.0
 51
180.0
  0
LINE
  5
D6C
100
AcDbEntity
  8
3
100
AcDbLine
 10
115.79672
 20
17.685371
 30
8.24381
 11
115.79672
 21
17.852708
 31
8.24381
  0
LINE
  5
D6D
100
AcDbEntity
  8
2
100
AcDbLine
 10
120.29672
 20
14.5
 30
8.24381
 11
120.29672
 21
19.5
 31
8.24381
  0
LINE
  5
D6E
100
AcDbEntity
  8
2
100
AcDbLine
 10
123.79672
 20
14.5
 30
8.24381
 11
120.29672
 21
14.5
 31
8.24381
  0
LINE
  5
D6F
100
AcDbEntity
  8
2
100
AcDbLine
 10
119.24672
 20
13.0
 30
8.24381
 11
118.74672
 21
12.5
 31
8.24381
  0
LINE
  5
D70
100
AcDbEntity
  8
2
100
AcDbLine
 10
121.29672
 20
14.5
 30
8.24381
 11
121.29672
 21
13.0
 31
8.24381
  0
LINE
  5
D71
100
AcDbEntity
  8
2
100
AcDbLine
 10
128.29672
 20
13.0
 30
8.24381
 11
128.29672
 21
11.0
 31
8.24381
  0
LINE
  5
D72
100
AcDbEntity
  8
2
100
AcDbLine
 10
127.29672
 20
13.0
 30
8.24381
 11
127.29672
 21
11.0
 31
8.24381
  0
LINE
  5
D73
100
AcDbEntity
  8
2
100
AcDbLine
 10
126.29672
 20
13.0
 30
8.24381
 11
126.29672
 21
11.0
 31
8.24381
  0
LINE
  5
D74
100
AcDbEntity
  8
3
100
AcDbLine
 10
131.29672
 20
4.0
 30
8.24381
 11
131.638527
 21
13.355517
 31
8.24381
  0
LINE
  5
D75
100
AcDbEntity
  8
2
100
AcDbLine
 10
128.84672
 20
12.5
 30
8.24381
 11
128.84672
 21
5.0
 31
8.24381
  0
LINE
  5
D76
100
AcDbEntity
  8
2
100
AcDbLine
 10
128.84672
 20
5.0
 30
8.24381
 11
129.04672
 21
4.0
 31
8.24381
  0
LINE
  5
D77
100
AcDbEntity
  8
2
100
AcDbLine
 10
127.29672
 20
14.5
 30
8.24381
 11
127.29672
 21
21.509619
 31
8.24381
  0
LINE
  5
D78
100
AcDbEntity
  8
2
100
AcDbLine
 10
128.34672
 20
13.0
 30
8.24381
 11
128.84672
 21
12.5
 31
8.24381
  0
LINE
  5
D79
100
AcDbEntity
  8
2
100
AcDbLine
 10
126.29672
 20
14.5
 30
8.24381
 11
126.29672
 21
13.0
 31
8.24381
  0
LINE
  5
D7A
100
AcDbEntity
  8
3
100
AcDbLine
 10
133.40821
 20
23.147188
 30
8.24381
 11
133.715623
 21
23.229559
 31
8.24381
  0
ARC
  5
D7B
100
AcDbEntity
  8
3
100
AcDbCircle
 10
134.898734
 20
23.028934
 30
8.24381
 40
1.2
100
AcDbArc
 50
39.624318
 51
170.375682
  0
LINE
  5
D7C
100
AcDbEntity
  8
3
100
AcDbLine
 10
133.40821
 20
23.147188
 30
8.24381
 11
133.715623
 21
23.229559
 31
8.24381
  0
ARC
  5
D7D
100
AcDbEntity
  8
3
100
AcDbCircle
 10
132.483919
 20
22.381886
 30
8.24381
 40
1.2
100
AcDbArc
 50
39.624318
 51
170.375682
  0
ARC
  5
D7E
100
AcDbEntity
  8
3
100
AcDbCircle
 10
131.896729
 20
24.57331
 30
8.24381
 40
2.078076
100
AcDbArc
 50
253.335603
 51
316.664397
  0
ARC
  5
D7F
100
AcDbEntity
  8
3
100
AcDbCircle
 10
136.726358
 20
25.867405
 30
8.24381
 40
2.078076
100
AcDbArc
 50
253.335603
 51
316.664397
  0
ARC
  5
D80
100
AcDbEntity
  8
3
100
AcDbCircle
 10
137.313548
 20
23.675982
 30
8.24381
 40
1.2
100
AcDbArc
 50
39.624318
 51
170.375682
  0
LINE
  5
D81
100
AcDbEntity
  8
3
100
AcDbLine
 10
135.823025
 20
23.794235
 30
8.24381
 11
136.130438
 21
23.876606
 31
8.24381
  0
ARC
  5
D82
100
AcDbEntity
  8
3
100
AcDbCircle
 10
134.311544
 20
25.220357
 30
8.24381
 40
2.078076
100
AcDbArc
 50
253.335603
 51
316.664397
  0
LINE
  5
D83
100
AcDbEntity
  8
3
100
AcDbLine
 10
135.823025
 20
23.794235
 30
8.24381
 11
136.130438
 21
23.876606
 31
8.24381
  0
ARC
  5
D84
100
AcDbEntity
  8
3
100
AcDbCircle
 10
133.181422
 20
83.746187
 30
8.24381
 40
2.869057
100
AcDbArc
 50
163.465681
 51
195.074862
  0
DIMENSION
  5
D85
100
AcDbEntity
  8
0
100
AcDbDimension
  2
*D49
 10
125.810011
 20
85.626725
 30
8.24381
 11
98.489441
 21
103.719934
 31
8.24381
 12
-56.20328
 22
-134.0
 32
8.24381
 70
   131
  3
STANDARD
100
AcDbDiametricDimension
 15
121.783429
 25
89.373275
 35
8.24381
 40
0.0
1001
ACAD
1000
DSTYLE
1002
{
1070
   140
1040
3.5
1070
    77
1070
     0
1070
    40
1040
1.0
1070
   141
1040
0.0
1070
    41
1040
2.0
1002
}
  0
ARC
  5
D86
100
AcDbEntity
  8
3
100
AcDbCircle
 10
133.181422
 20
91.253813
 30
8.24381
 40
2.869057
100
AcDbArc
 50
164.925138
 51
196.534319
  0
ELLIPSE
  5
D87
100
AcDbEntity
  8
3
100
AcDbEllipse
 10
132.35451
 20
87.5
 30
8.24381
 11
-1.053700676307869
 21
0.0
 31
0.0
210
0.0
220
0.0
230
1.0
 40
0.988217
 41
0.0
 42
6.283185307179586
  0
ARC
  5
D88
100
AcDbEntity
  8
3
100
AcDbCircle
 10
123.526568
 20
88.086231
 30
8.24381
 40
7.293749
100
AcDbArc
 50
355.38991
 51
18.804587
  0
ELLIPSE
  5
D89
100
AcDbEntity
  8
3
100
AcDbEllipse
 10
137.184139
 20
87.5
 30
8.24381
 11
-1.053700676307869
 21
0.0
 31
0.0
210
0.0
220
0.0
230
1.0
 40
0.988217
 41
0.0
 42
6.283185307179586
  0
ELLIPSE
  5
D8A
100
AcDbEntity
  8
3
100
AcDbEllipse
 10
134.769324
 20
87.5
 30
8.24381
 11
-1.053700676307869
 21
0.0
 31
0.0
210
0.0
220
0.0
230
1.0
 40
0.988217
 41
0.0
 42
6.283185307179586
  0
ARC
  5
D8B
100
AcDbEntity
  8
3
100
AcDbCircle
 10
158.959635
 20
87.5
 30
8.24381
 40
4.837085
100
AcDbArc
 50
291.516435
 51
68.483565
  0
ARC
  5
D8C
100
AcDbEntity
  8
3
100
AcDbCircle
 10
173.213963
 20
87.5
 30
8.24381
 40
13.644925
100
AcDbArc
 50
163.870034
 51
196.129966
  0
DIMENSION
  5
D8D
100
AcDbEntity
  8
0
100
AcDbDimension
  2
*D32
 10
156.41243
 20
41.937579
 30
8.24381
 11
157.861319
 21
42.325808
 31
8.24381
 12
-56.20328
 22
-134.0
 32
8.24381
 70
   129
  3
STANDARD
100
AcDbAlignedDimension
 13
163.631501
 23
26.586751
 33
8.24381
 14
160.733724
 24
25.810294
 34
8.24381
1001
ACAD
1000
DSTYLE
1002
{
1070
   140
1040
4.0
1070
    77
1070
     0
1070
    40
1040
1.0
1070
   141
1040
0.0
1070
    41
1040
2.0
1002
}
  0
LINE
  5
D8E
100
AcDbEntity
  8
0
100
AcDbLine
 10
159.600884
 20
24.459192
 30
8.24381
 11
160.922776
 21
19.525824
 31
8.24381
  0
LINE
  5
D8F
100
AcDbEntity
  8
0
100
AcDbLine
 10
157.220464
 20
23.865224
 30
8.24381
 11
158.542356
 21
18.931856
 31
8.24381
  0
LINE
  5
D90
100
AcDbEntity
  8
0
100
AcDbLine
 10
154.85743
 20
22.921815
 30
8.24381
 11
156.101763
 21
18.277901
 31
8.24381
  0
ARC
  5
D91
100
AcDbEntity
  8
3
100
AcDbCircle
 10
158.922613
 20
25.325008
 30
8.24381
 40
4.875
100
AcDbArc
 50
307.619865
 51
82.380135
  0
LINE
  5
D92
100
AcDbEntity
  8
3
100
AcDbLine
 10
159.569038
 20
30.15696
 30
8.24381
 11
161.898409
 21
21.463628
 31
8.24381
  0
LINE
  5
D93
100
AcDbEntity
  8
3
100
AcDbLine
 10
156.981005
 20
20.146013
 30
8.24381
 11
156.673592
 21
20.063642
 31
8.24381
  0
ARC
  5
D94
100
AcDbEntity
  8
3
100
AcDbCircle
 10
155.490482
 20
20.264267
 30
8.24381
 40
1.2
100
AcDbArc
 50
219.624318
 51
350.375682
  0
ARC
  5
D95
100
AcDbEntity
  8
3
100
AcDbCircle
 10
156.077672
 20
18.072843
 30
8.24381
 40
2.078076
100
AcDbArc
 50
73.335603
 51
136.664397
  0
ARC
  5
D96
100
AcDbEntity
  8
3
100
AcDbCircle
 10
160.907301
 20
19.366939
 30
8.24381
 40
2.078076
100
AcDbArc
 50
73.335603
 51
136.664397
  0
ARC
  5
D97
100
AcDbEntity
  8
3
100
AcDbCircle
 10
160.320111
 20
21.558362
 30
8.24381
 40
1.2
100
AcDbArc
 50
219.624318
 51
350.375682
  0
LINE
  5
D98
100
AcDbEntity
  8
3
100
AcDbLine
 10
159.39582
 20
20.793061
 30
8.24381
 11
159.088407
 21
20.71069
 31
8.24381
  0
ARC
  5
D99
100
AcDbEntity
  8
3
100
AcDbCircle
 10
158.492487
 20
18.719891
 30
8.24381
 40
2.078076
100
AcDbArc
 50
73.335603
 51
136.664397
  0
ARC
  5
D9A
100
AcDbEntity
  8
3
100
AcDbCircle
 10
157.905296
 20
20.911314
 30
8.24381
 40
1.2
100
AcDbArc
 50
219.624318
 51
350.375682
  0
LINE
  5
D9B
100
AcDbEntity
  8
3
100
AcDbLine
 10
161.898409
 20
21.463628
 30
8.24381
 11
161.503221
 21
21.357737
 31
8.24381
  0
ARC
  5
D9C
100
AcDbEntity
  8
3
100
AcDbCircle
 10
161.226794
 20
84.068534
 30
8.24381
 40
1.176811
100
AcDbArc
 50
197.778622
 51
245.229221
  0
ARC
  5
D9D
100
AcDbEntity
  8
3
100
AcDbCircle
 10
161.226794
 20
90.931466
 30
8.24381
 40
1.176811
100
AcDbArc
 50
114.770779
 51
162.221378
  0
ENDBLK
  5
D9F
100
AcDbEntity
  8
0
100
AcDbBlockEnd
  0
ENDSEC
  0
SECTION
  2
ENTITIES
  0
LINE
  5
DA7
100
AcDbEntity
  8
3
100
AcDbLine
 10
288.477434
 20
150.940887
 30
8.24381
 11
309.808632
 21
156.656564
 31
8.24381
  0
LINE
  5
DA8
100
AcDbEntity
  8
3
100
AcDbLine
 10
304.805785
 20
145.99857
 30
8.24381
 11
281.878122
 21
139.855121
 31
8.24381
  0
LINE
  5
DA9
100
AcDbEntity
  8
3
100
AcDbLine
 10
280.650693
 20
209.499604
 30
8.24381
 11
310.973318
 21
209.499604
 31
8.24381
  0
LINE
  5
DAB
100
AcDbEntity
  8
3
100
AcDbLine
 10
280.650693
 20
218.499604
 30
8.24381
 11
310.973318
 21
218.499604
 31
8.24381
  0
LINE
  5
DAC
100
AcDbEntity
  8
1
100
AcDbLine
 10
263.411083
 20
213.999604
 30
8.24381
 11
316.665165
 21
213.999604
 31
8.24381
  0
LINE
  5
DAE
100
AcDbEntity
  8
1
100
AcDbLine
 10
171.786314
 20
126.542045
 30
8.24381
 11
171.786314
 21
149.911994
 31
8.24381
  0
LINE
  5
DB0
100
AcDbEntity
  8
1
100
AcDbLine
 10
274.036314
 20
126.542045
 30
8.24381
 11
274.036314
 21
149.911994
 31
8.24381
  0
ELLIPSE
  5
DB1
100
AcDbEntity
  8
3
100
AcDbEllipse
 10
171.786314
 20
146.707457
 30
8.24381
 11
-7.823404708261364
 21
0.0
 31
0.0
210
0.0
220
0.0
230
1.0
 40
0.284136
 41
0.0
 42
6.283185307179586
  0
ARC
  5
DB2
100
AcDbEntity
  8
3
100
AcDbCircle
 10
171.786314
 20
152.15386
 30
8.24381
 40
4.502705
100
AcDbArc
 50
1.985946
 51
178.014054
  0
LINE
  5
DB4
100
AcDbEntity
  8
3
100
AcDbLine
 10
171.786314
 20
130.499604
 30
8.24381
 11
164.286314
 21
130.499604
 31
8.24381
  0
LINE
  5
DBC
100
AcDbEntity
  8
3
100
AcDbLine
 10
167.286314
 20
152.309898
 30
8.24381
 11
167.286314
 21
148.525832
 31
8.24381
  0
LINE
  5
DBD
100
AcDbEntity
  8
3
100
AcDbLine
 10
164.286314
 20
130.499604
 30
8.24381
 11
163.786314
 21
144.184975
 31
8.24381
  0
LINE
  5
DC2
100
AcDbEntity
  8
3
100
AcDbLine
 10
163.786314
 20
144.184975
 30
8.24381
 11
164.036314
 21
146.749604
 31
8.24381
  0
ARC
  5
DC8
100
AcDbEntity
  8
3
100
AcDbCircle
 10
273.766162
 20
213.413373
 30
8.24381
 40
7.293749
100
AcDbArc
 50
341.195413
 51
4.61009
  0
ELLIPSE
  5
DC9
100
AcDbEntity
  8
3
100
AcDbEllipse
 10
273.661314
 20
213.999604
 30
8.24381
 11
0.0
 21
-7.75
 31
0.0
210
0.0
220
0.0
230
1.0
 40
0.951613
 41
0.0
 42
6.283185307179586
  0
CIRCLE
  5
DCA
100
AcDbEntity
  8
3
100
AcDbCircle
 10
274.036314
 20
213.999604
 30
8.24381
 40
4.0
  0
ARC
  5
DCB
100
AcDbEntity
  8
3
100
AcDbCircle
 10
274.036314
 20
213.999604
 30
8.24381
 40
8.0
100
AcDbArc
 50
34.228866
 51
325.771134
  0
LINE
  5
DCC
100
AcDbEntity
  8
1
100
AcDbLine
 10
274.036314
 20
202.391977
 30
8.24381
 11
274.036314
 21
224.621928
 31
8.24381
  0
LINE
  5
DD1
100
AcDbEntity
  8
3
100
AcDbLine
 10
176.286314
 20
152.309898
 30
8.24381
 11
176.286314
 21
148.525832
 31
8.24381
  0
LINE
  5
DD2
100
AcDbEntity
  8
3
100
AcDbLine
 10
179.286314
 20
130.499604
 30
8.24381
 11
179.786314
 21
144.184975
 31
8.24381
  0
LINE
  5
DDD
100
AcDbEntity
  8
3
100
AcDbLine
 10
171.786314
 20
130.499604
 30
8.24381
 11
179.286314
 21
130.499604
 31
8.24381
  0
ELLIPSE
  5
DE7
100
AcDbEntity
  8
3
100
AcDbEllipse
 10
171.786314
 20
147.004413
 30
8.24381
 11
-3.5
 21
0.0
 31
0.0
210
0.0
220
0.0
230
1.0
 40
0.287088
 41
0.0194712688178345
 42
3.122121384771958
  0
LINE
  5
DE9
100
AcDbEntity
  8
3
100
AcDbLine
 10
179.786314
 20
144.184975
 30
8.24381
 11
179.536314
 21
146.749604
 31
8.24381
  0
LINE
  5
DEA
100
AcDbEntity
  8
1
100
AcDbLine
 10
171.786314
 20
149.911994
 30
8.24381
 11
171.786314
 21
158.432901
 31
8.24381
  0
ARC
  5
DEB
100
AcDbEntity
  8
3
100
AcDbCircle
 10
171.788528
 20
150.392671
 30
8.24381
 40
1.106935
100
AcDbArc
 50
19.043492
 51
161.718975
  0
ARC
  5
DEC
100
AcDbEntity
  8
3
100
AcDbCircle
 10
171.784101
 20
149.642671
 30
8.24381
 40
1.106935
100
AcDbArc
 50
19.043492
 51
161.718975
  0
ARC
  5
DED
100
AcDbEntity
  8
3
100
AcDbCircle
 10
171.788528
 20
148.892671
 30
8.24381
 40
1.106935
100
AcDbArc
 50
19.043492
 51
161.718975
  0
ARC
  5
DEE
100
AcDbEntity
  8
3
100
AcDbCircle
 10
171.76451
 20
152.50229
 30
8.24381
 40
3.420244
100
AcDbArc
 50
252.525249
 51
288.237218
  0
ARC
  5
DEF
100
AcDbEntity
  8
3
100
AcDbCircle
 10
171.76451
 20
154.00229
 30
8.24381
 40
3.420244
100
AcDbArc
 50
252.525249
 51
261.561795
  0
ARC
  5
DF0
100
AcDbEntity
  8
3
100
AcDbCircle
 10
171.760083
 20
153.25229
 30
8.24381
 40
3.420244
100
AcDbArc
 50
252.525249
 51
261.679359
  0
ARC
  5
DF1
100
AcDbEntity
  8
3
100
AcDbCircle
 10
171.76451
 20
154.00229
 30
8.24381
 40
3.420244
100
AcDbArc
 50
278.953154
 51
288.237218
  0
ARC
  5
DF2
100
AcDbEntity
  8
3
100
AcDbCircle
 10
171.760083
 20
153.25229
 30
8.24381
 40
3.420244
100
AcDbArc
 50
279.068291
 51
288.237218
  0
ARC
  5
DF5
100
AcDbEntity
  8
3
100
AcDbCircle
 10
294.081438
 20
145.653425
 30
8.24381
 40
13.510783
100
AcDbArc
 50
165.963333
 51
205.414342
  0
LINE
  5
DF6
100
AcDbEntity
  8
3
100
AcDbLine
 10
266.5922
 20
145.076756
 30
8.24381
 11
281.540403
 21
149.082115
 31
8.24381
  0
LINE
  5
DFC
100
AcDbEntity
  8
3
100
AcDbLine
 10
274.036314
 20
130.499604
 30
8.24381
 11
281.536314
 21
130.499604
 31
8.24381
  0
LINE
  5
E04
100
AcDbEntity
  8
3
100
AcDbLine
 10
266.536314
 20
130.499604
 30
8.24381
 11
266.036314
 21
144.184975
 31
8.24381
  0
LINE
  5
E06
100
AcDbEntity
  8
3
100
AcDbLine
 10
274.036314
 20
130.499604
 30
8.24381
 11
266.536314
 21
130.499604
 31
8.24381
  0
ARC
  5
E09
100
AcDbEntity
  8
3
100
AcDbCircle
 10
266.786314
 20
144.352312
 30
8.24381
 40
0.75
100
AcDbArc
 50
105.0
 51
180.0
  0
LINE
  5
E0A
100
AcDbEntity
  8
3
100
AcDbLine
 10
266.036314
 20
144.184975
 30
8.24381
 11
266.036314
 21
144.352312
 31
8.24381
  0
LINE
  5
E12
100
AcDbEntity
  8
3
100
AcDbLine
 10
281.536314
 20
130.499604
 30
8.24381
 11
281.878122
 21
139.855121
 31
8.24381
  0
LINE
  5
E18
100
AcDbEntity
  8
3
100
AcDbLine
 10
283.647805
 20
149.646792
 30
8.24381
 11
283.955218
 21
149.729163
 31
8.24381
  0
ARC
  5
E19
100
AcDbEntity
  8
3
100
AcDbCircle
 10
285.138328
 20
149.528538
 30
8.24381
 40
1.2
100
AcDbArc
 50
39.624318
 51
170.375682
  0
LINE
  5
E1A
100
AcDbEntity
  8
3
100
AcDbLine
 10
283.647805
 20
149.646792
 30
8.24381
 11
283.955218
 21
149.729163
 31
8.24381
  0
ARC
  5
E1B
100
AcDbEntity
  8
3
100
AcDbCircle
 10
282.723514
 20
148.881491
 30
8.24381
 40
1.2
100
AcDbArc
 50
39.624318
 51
170.375682
  0
ARC
  5
E1C
100
AcDbEntity
  8
3
100
AcDbCircle
 10
282.136323
 20
151.072914
 30
8.24381
 40
2.078076
100
AcDbArc
 50
253.335603
 51
316.664397
  0
ARC
  5
E1D
100
AcDbEntity
  8
3
100
AcDbCircle
 10
286.965953
 20
152.367009
 30
8.24381
 40
2.078076
100
AcDbArc
 50
253.335603
 51
316.664397
  0
ARC
  5
E1E
100
AcDbEntity
  8
3
100
AcDbCircle
 10
287.553143
 20
150.175586
 30
8.24381
 40
1.2
100
AcDbArc
 50
39.624318
 51
170.375682
  0
LINE
  5
E1F
100
AcDbEntity
  8
3
100
AcDbLine
 10
286.062619
 20
150.293839
 30
8.24381
 11
286.370033
 21
150.37621
 31
8.24381
  0
ARC
  5
E20
100
AcDbEntity
  8
3
100
AcDbCircle
 10
284.551138
 20
151.719962
 30
8.24381
 40
2.078076
100
AcDbArc
 50
253.335603
 51
316.664397
  0
LINE
  5
E21
100
AcDbEntity
  8
3
100
AcDbLine
 10
286.062619
 20
150.293839
 30
8.24381
 11
286.370033
 21
150.37621
 31
8.24381
  0
ARC
  5
E22
100
AcDbEntity
  8
3
100
AcDbCircle
 10
283.421017
 20
210.245791
 30
8.24381
 40
2.869057
100
AcDbArc
 50
163.465681
 51
195.074862
  0
ARC
  5
E24
100
AcDbEntity
  8
3
100
AcDbCircle
 10
283.421017
 20
217.753417
 30
8.24381
 40
2.869057
100
AcDbArc
 50
164.925138
 51
196.534319
  0
ELLIPSE
  5
E25
100
AcDbEntity
  8
3
100
AcDbEllipse
 10
282.594104
 20
213.999604
 30
8.24381
 11
-1.053700676307869
 21
0.0
 31
0.0
210
0.0
220
0.0
230
1.0
 40
0.988217
 41
0.0
 42
6.283185307179586
  0
ARC
  5
E26
100
AcDbEntity
  8
3
100
AcDbCircle
 10
273.766162
 20
214.585835
 30
8.24381
 40
7.293749
100
AcDbArc
 50
355.38991
 51
18.804587
  0
ELLIPSE
  5
E27
100
AcDbEntity
  8
3
100
AcDbEllipse
 10
287.423733
 20
213.999604
 30
8.24381
 11
-1.053700676307869
 21
0.0
 31
0.0
210
0.0
220
0.0
230
1.0
 40
0.988217
 41
0.0
 42
6.283185307179586
  0
ELLIPSE
  5
E28
100
AcDbEntity
  8
3
100
AcDbEllipse
 10
285.008919
 20
213.999604
 30
8.24381
 11
-1.053700676307869
 21
0.0
 31
0.0
210
0.0
220
0.0
230
1.0
 40
0.988217
 41
0.0
 42
6.283185307179586
  0
ARC
  5
E29
100
AcDbEntity
  8
3
100
AcDbCircle
 10
309.19923
 20
213.999604
 30
8.24381
 40
4.837085
100
AcDbArc
 50
291.516435
 51
68.483565
  0
ARC
  5
E2A
100
AcDbEntity
  8
3
100
AcDbCircle
 10
323.453558
 20
213.999604
 30
8.24381
 40
13.644925
100
AcDbArc
 50
163.870034
 51
196.129966
  0
ARC
  5
E2F
100
AcDbEntity
  8
3
100
AcDbCircle
 10
309.162207
 20
151.824612
 30
8.24381
 40
4.875
100
AcDbArc
 50
307.619865
 51
82.380135
  0
LINE
  5
E30
100
AcDbEntity
  8
3
100
AcDbLine
 10
309.808632
 20
156.656564
 30
8.24381
 11
312.138004
 21
147.963232
 31
8.24381
  0
LINE
  5
E31
100
AcDbEntity
  8
3
100
AcDbLine
 10
307.2206
 20
146.645618
 30
8.24381
 11
306.913187
 21
146.563246
 31
8.24381
  0
ARC
  5
E32
100
AcDbEntity
  8
3
100
AcDbCircle
 10
305.730076
 20
146.763871
 30
8.24381
 40
1.2
100
AcDbArc
 50
219.624318
 51
350.375682
  0
ARC
  5
E33
100
AcDbEntity
  8
3
100
AcDbCircle
 10
306.317266
 20
144.572448
 30
8.24381
 40
2.078076
100
AcDbArc
 50
73.335603
 51
136.664397
  0
ARC
  5
E34
100
AcDbEntity
  8
3
100
AcDbCircle
 10
311.146896
 20
145.866543
 30
8.24381
 40
2.078076
100
AcDbArc
 50
73.335603
 51
136.664397
  0
ARC
  5
E35
100
AcDbEntity
  8
3
100
AcDbCircle
 10
310.559705
 20
148.057966
 30
8.24381
 40
1.2
100
AcDbArc
 50
219.624318
 51
350.375682
  0
LINE
  5
E36
100
AcDbEntity
  8
3
100
AcDbLine
 10
309.635414
 20
147.292665
 30
8.24381
 11
309.328001
 21
147.210294
 31
8.24381
  0
ARC
  5
E37
100
AcDbEntity
  8
3
100
AcDbCircle
 10
308.732081
 20
145.219495
 30
8.24381
 40
2.078076
100
AcDbArc
 50
73.335603
 51
136.664397
  0
ARC
  5
E38
100
AcDbEntity
  8
3
100
AcDbCircle
 10
308.144891
 20
147.410919
 30
8.24381
 40
1.2
100
AcDbArc
 50
219.624318
 51
350.375682
  0
LINE
  5
E39
100
AcDbEntity
  8
3
100
AcDbLine
 10
312.138004
 20
147.963232
 30
8.24381
 11
311.742816
 21
147.857342
 31
8.24381
  0
ARC
  5
E3A
100
AcDbEntity
  8
3
100
AcDbCircle
 10
311.466389
 20
210.568138
 30
8.24381
 40
1.176811
100
AcDbArc
 50
197.778622
 51
245.229221
  0
ARC
  5
E3B
100
AcDbEntity
  8
3
100
AcDbCircle
 10
311.466389
 20
217.43107
 30
8.24381
 40
1.176811
100
AcDbArc
 50
114.770779
 51
162.221378
  0
CIRCLE
  5
FED
100
AcDbEntity
  8
3
100
AcDbCircle
 10
274.036314
 20
213.999604
 30
8.24381
 40
3.5
  0
LINE
  5
FEF
100
AcDbEntity
  8
3
100
AcDbLine
 10
274.536314
 20
217.463706
 30
8.24381
 11
274.536314
 21
210.535502
 31
8.24381
  0
LINE
  5
FF1
100
AcDbEntity
  8
3
100
AcDbLine
 10
273.536314
 20
210.535502
 30
8.24381
 11
273.536314
 21
217.463706
 31
8.24381
  0
LINE
  5
FF2
100
AcDbEntity
  8
1
100
AcDbLine
 10
274.036314
 20
126.542045
 30
8.24381
 11
274.036314
 21
101.375223
 31
8.24381
  0
LINE
  5
FF4
100
AcDbEntity
  8
3
100
AcDbLine
 10
279.036314
 20
130.499604
 30
8.24381
 11
279.036314
 21
124.499604
 31
8.24381
  0
LINE
  5
FF5
100
AcDbEntity
  8
3
100
AcDbLine
 10
278.536314
 20
123.999604
 30
8.24381
 11
269.536314
 21
123.999604
 31
8.24381
  0
LINE
  5
FF6
100
AcDbEntity
  8
3
100
AcDbLine
 10
269.036314
 20
124.499604
 30
8.24381
 11
269.036314
 21
130.499604
 31
8.24381
  0
LINE
  5
FF7
100
AcDbEntity
  8
3
100
AcDbLine
 10
274.036314
 20
123.999604
 30
8.24381
 11
276.536314
 21
123.999604
 31
8.24381
  0
LINE
  5
FF8
100
AcDbEntity
  8
3
100
AcDbLine
 10
276.536314
 20
123.999604
 30
8.24381
 11
276.536314
 21
109.499604
 31
8.24381
  0
LINE
  5
FF9
100
AcDbEntity
  8
3
100
AcDbLine
 10
276.036314
 20
108.999604
 30
8.24381
 11
272.036314
 21
108.999604
 31
8.24381
  0
LINE
  5
FFA
100
AcDbEntity
  8
3
100
AcDbLine
 10
271.536314
 20
109.499604
 30
8.24381
 11
271.536314
 21
123.999604
 31
8.24381
  0
LINE
  5
FFD
100
AcDbEntity
  8
3
100
AcDbLine
 10
274.536314
 20
147.999604
 30
8.24381
 11
277.571214
 21
147.999604
 31
8.24381
  0
LINE
  5
FFE
100
AcDbEntity
  8
3
100
AcDbLine
 10
273.536314
 20
147.999604
 30
8.24381
 11
271.036314
 21
147.999604
 31
8.24381
  0
LINE
  5
FFF
100
AcDbEntity
  8
3
100
AcDbLine
 10
270.536314
 20
147.499604
 30
8.24381
 11
270.536314
 21
146.133579
 31
8.24381
  0
LINE
  5
1000
100
AcDbEntity
  8
3
100
AcDbLine
 10
271.036314
 20
147.999604
 30
8.24381
 11
270.536314
 21
147.499604
 31
8.24381
  0
LINE
  5
1002
100
AcDbEntity
  8
3
100
AcDbLine
 10
273.536314
 20
147.999604
 30
8.24381
 11
273.536314
 21
147.299604
 31
8.24381
  0
LINE
  5
1003
100
AcDbEntity
  8
3
100
AcDbLine
 10
273.536314
 20
147.299604
 30
8.24381
 11
274.536314
 21
147.299604
 31
8.24381
  0
LINE
  5
1004
100
AcDbEntity
  8
3
100
AcDbLine
 10
274.536314
 20
147.299604
 30
8.24381
 11
274.536314
 21
147.999604
 31
8.24381
  0
LINE
  5
1005
100
AcDbEntity
  8
3
100
AcDbLine
 10
269.036314
 20
124.499604
 30
8.24381
 11
269.536314
 21
123.999604
 31
8.24381
  0
LINE
  5
1006
100
AcDbEntity
  8
3
100
AcDbLine
 10
279.036314
 20
124.499604
 30
8.24381
 11
278.536314
 21
123.999604
 31
8.24381
  0
LINE
  5
1007
100
AcDbEntity
  8
3
100
AcDbLine
 10
271.536314
 20
109.499604
 30
8.24381
 11
272.036314
 21
108.999604
 31
8.24381
  0
LINE
  5
1008
100
AcDbEntity
  8
3
100
AcDbLine
 10
276.536314
 20
109.499604
 30
8.24381
 11
276.036314
 21
108.999604
 31
8.24381
  0
LINE
  5
1009
100
AcDbEntity
  8
0
100
AcDbLine
 10
276.536314
 20
109.499604
 30
8.24381
 11
271.536314
 21
109.499604
 31
8.24381
  0
LINE
  5
100A
100
AcDbEntity
  8
0
100
AcDbLine
 10
276.536314
 20
123.203674
 30
0.0
 11
271.536314
 21
123.203674
 31
0.0
  0
LINE
  5
100B
100
AcDbEntity
  8
0
100
AcDbLine
 10
276.036314
 20
108.999604
 30
8.24381
 11
276.036314
 21
123.203674
 31
8.24381
  0
LINE
  5
100C
100
AcDbEntity
  8
0
100
AcDbLine
 10
272.036314
 20
108.999604
 30
8.24381
 11
272.036314
 21
123.203674
 31
8.24381
  0
LINE
  5
100D
100
AcDbEntity
  8
1
100
AcDbLine
 10
171.786314
 20
126.542045
 30
8.24381
 11
171.786314
 21
149.911994
 31
8.24381
  0
LINE
  5
100E
100
AcDbEntity
  8
0
100
AcDbLine
 10
174.286314
 20
123.203674
 30
0.0
 11
169.286314
 21
123.203674
 31
0.0
  0
LINE
  5
100F
100
AcDbEntity
  8
0
100
AcDbLine
 10
174.286314
 20
109.499604
 30
8.24381
 11
169.286314
 21
109.499604
 31
8.24381
  0
LINE
  5
1010
100
AcDbEntity
  8
3
100
AcDbLine
 10
173.786314
 20
108.999604
 30
8.24381
 11
169.786314
 21
108.999604
 31
8.24381
  0
LINE
  5
1011
100
AcDbEntity
  8
3
100
AcDbLine
 10
176.286314
 20
123.999604
 30
8.24381
 11
167.286314
 21
123.999604
 31
8.24381
  0
LINE
  5
1012
100
AcDbEntity
  8
3
100
AcDbLine
 10
171.786314
 20
123.999604
 30
8.24381
 11
174.286314
 21
123.999604
 31
8.24381
  0
LINE
  5
1013
100
AcDbEntity
  8
3
100
AcDbLine
 10
166.786314
 20
124.499604
 30
8.24381
 11
166.786314
 21
130.499604
 31
8.24381
  0
LINE
  5
1014
100
AcDbEntity
  8
1
100
AcDbLine
 10
171.786314
 20
126.542045
 30
8.24381
 11
171.786314
 21
101.375223
 31
8.24381
  0
LINE
  5
1015
100
AcDbEntity
  8
0
100
AcDbLine
 10
169.786314
 20
108.999604
 30
8.24381
 11
169.786314
 21
123.203674
 31
8.24381
  0
LINE
  5
1016
100
AcDbEntity
  8
3
100
AcDbLine
 10
169.286314
 20
109.499604
 30
8.24381
 11
169.286314
 21
123.999604
 31
8.24381
  0
LINE
  5
1017
100
AcDbEntity
  8
3
100
AcDbLine
 10
169.286314
 20
109.499604
 30
8.24381
 11
169.786314
 21
108.999604
 31
8.24381
  0
LINE
  5
1018
100
AcDbEntity
  8
3
100
AcDbLine
 10
166.786314
 20
124.499604
 30
8.24381
 11
167.286314
 21
123.999604
 31
8.24381
  0
LINE
  5
1019
100
AcDbEntity
  8
3
100
AcDbLine
 10
176.786314
 20
130.499604
 30
8.24381
 11
176.786314
 21
124.499604
 31
8.24381
  0
LINE
  5
101A
100
AcDbEntity
  8
0
100
AcDbLine
 10
173.786314
 20
108.999604
 30
8.24381
 11
173.786314
 21
123.203674
 31
8.24381
  0
LINE
  5
101B
100
AcDbEntity
  8
3
100
AcDbLine
 10
174.286314
 20
123.999604
 30
8.24381
 11
174.286314
 21
109.499604
 31
8.24381
  0
LINE
  5
101C
100
AcDbEntity
  8
3
100
AcDbLine
 10
174.286314
 20
109.499604
 30
8.24381
 11
173.786314
 21
108.999604
 31
8.24381
  0
LINE
  5
101D
100
AcDbEntity
  8
3
100
AcDbLine
 10
176.786314
 20
124.499604
 30
8.24381
 11
176.286314
 21
123.999604
 31
8.24381
  0
LINE
  5
101F
100
AcDbEntity
  8
3
100
AcDbLine
 10
171.786314
 20
148.009223
 30
8.24381
 11
174.786314
 21
148.009223
 31
8.24381
  0
LINE
  5
1020
100
AcDbEntity
  8
3
100
AcDbLine
 10
175.286314
 20
147.509223
 30
8.24381
 11
175.286314
 21
147.009965
 31
8.24381
  0
LINE
  5
1021
100
AcDbEntity
  8
3
100
AcDbLine
 10
171.786314
 20
147.999604
 30
8.24381
 11
168.786314
 21
147.999604
 31
8.24381
  0
LINE
  5
1022
100
AcDbEntity
  8
3
100
AcDbLine
 10
168.286314
 20
147.499604
 30
8.24381
 11
168.286314
 21
146.956493
 31
8.24381
  0
LINE
  5
1023
100
AcDbEntity
  8
3
100
AcDbLine
 10
168.786314
 20
147.999604
 30
8.24381
 11
168.286314
 21
147.499604
 31
8.24381
  0
LINE
  5
1024
100
AcDbEntity
  8
3
100
AcDbLine
 10
174.786314
 20
148.009223
 30
8.24381
 11
175.286314
 21
147.509223
 31
8.24381
  0
ENDSEC
  0
SECTION
  2
OBJECTS
  0
DICTIONARY
  5
C
100
AcDbDictionary
  3
ACAD_GROUP
350
D
  3
ACAD_MLINESTYLE
350
1B
  0
DICTIONARY
  5
5A
100
AcDbDictionary
280
     1
  3
ACAD_XREC_ROUNDTRIP
360
5B
  0
DICTIONARY
  5
D
102
{ACAD_REACTORS
330
C
102
}
100
AcDbDictionary
  0
DICTIONARY
  5
1B
102
{ACAD_REACTORS
330
C
102
}
100
AcDbDictionary
  3
STANDARD
350
1C
  0
XRECORD
  5
5B
102
{ACAD_REACTORS
330
5A
102
}
100
AcDbXrecord
102
PLOTBIT
280
     0
  0
MLINESTYLE
  5
1C
102
{ACAD_REACTORS
330
1B
102
}
100
AcDbMlineStyle
  2
STANDARD
 70
     0
  3

 62
   256
 51
90.0
 52
90.0
 71
     2
 49
0.5
 62
   256
  6
BYLAYER
 49
-0.5
 62
   256
  6
BYLAYER
  0
ENDSEC
  0
EOF
