  0
SECTION
  2
HEADER
  9
$ACADVER
  1
AC1014
  9
$ACADMAINTVER
 70
     0
  9
$DWGCODEPAGE
  3
ANSI_932
  9
$INSBASE
 10
0.0
 20
0.0
 30
0.0
  9
$EXTMIN
 10
25.776531
 20
14.510552
 30
0.0
  9
$EXTMAX
 10
191.230508
 20
128.911299
 30
7.460285
  9
$LIMMIN
 10
0.0
 20
0.0
  9
$LIMMAX
 10
250.0
 20
160.0
  9
$ORTHOMODE
 70
     1
  9
$REGENMODE
 70
     1
  9
$FILLMODE
 70
     1
  9
$QTEXTMODE
 70
     0
  9
$MIRRTEXT
 70
     1
  9
$DRAGMODE
 70
     1
  9
$LTSCALE
 40
30.0
  9
$OSMODE
 70
    33
  9
$ATTMODE
 70
     1
  9
$TEXTSIZE
 40
15.0
  9
$TRACEWID
 40
0.05
  9
$TEXTSTYLE
  7
BIGFONT
  9
$CLAYER
  8
1
  9
$CELTYPE
  6
BYLAYER
  9
$CECOLOR
 62
   256
  9
$CELTSCALE
 40
1.0
  9
$DELOBJ
 70
     1
  9
$DISPSILH
 70
     0
  9
$DIMSCALE
 40
3.0
  9
$DIMASZ
 40
3.0
  9
$DIMEXO
 40
2.0
  9
$DIMDLI
 40
0.38
  9
$DIMRND
 40
0.0
  9
$DIMDLE
 40
0.0
  9
$DIMEXE
 40
2.0
  9
$DIMTP
 40
0.0
  9
$DIMTM
 40
0.0
  9
$DIMTXT
 40
3.2
  9
$DIMCEN
 40
0.09
  9
$DIMTSZ
 40
0.0
  9
$DIMTOL
 70
     0
  9
$DIMLIM
 70
     0
  9
$DIMTIH
 70
     0
  9
$DIMTOH
 70
     0
  9
$DIMSE1
 70
     0
  9
$DIMSE2
 70
     0
  9
$DIMTAD
 70
     1
  9
$DIMZIN
 70
     0
  9
$DIMBLK
  1

  9
$DIMASO
 70
     0
  9
$DIMSHO
 70
     0
  9
$DIMPOST
  1

  9
$DIMAPOST
  1

  9
$DIMALT
 70
     0
  9
$DIMALTD
 70
     2
  9
$DIMALTF
 40
25.4
  9
$DIMLFAC
 40
1.0
  9
$DIMTOFL
 70
     0
  9
$DIMTVP
 40
1.6
  9
$DIMTIX
 70
     1
  9
$DIMSOXD
 70
     0
  9
$DIMSAH
 70
     0
  9
$DIMBLK1
  1

  9
$DIMBLK2
  1

  9
$DIMSTYLE
  2
STANDARD
  9
$DIMCLRD
 70
     0
  9
$DIMCLRE
 70
     0
  9
$DIMCLRT
 70
     0
  9
$DIMTFAC
 40
1.0
  9
$DIMGAP
 40
0.09
  9
$DIMJUST
 70
     0
  9
$DIMSD1
 70
     0
  9
$DIMSD2
 70
     0
  9
$DIMTOLJ
 70
     1
  9
$DIMTZIN
 70
     0
  9
$DIMALTZ
 70
     0
  9
$DIMALTTZ
 70
     0
  9
$DIMFIT
 70
     5
  9
$DIMUPT
 70
     0
  9
$DIMUNIT
 70
     2
  9
$DIMDEC
 70
     4
  9
$DIMTDEC
 70
     4
  9
$DIMALTU
 70
     2
  9
$DIMALTTD
 70
     2
  9
$DIMTXSTY
  7
BIGFONT
  9
$DIMAUNIT
 70
     0
  9
$LUNITS
 70
     2
  9
$LUPREC
 70
     4
  9
$SKETCHINC
 40
0.1
  9
$FILLETRAD
 40
0.0
  9
$AUNITS
 70
     0
  9
$AUPREC
 70
     0
  9
$MENU
  1
ACAD
  9
$ELEVATION
 40
0.0
  9
$PELEVATION
 40
0.0
  9
$THICKNESS
 40
0.0
  9
$LIMCHECK
 70
     0
  9
$BLIPMODE
 70
     0
  9
$CHAMFERA
 40
0.0
  9
$CHAMFERB
 40
0.0
  9
$CHAMFERC
 40
0.0
  9
$CHAMFERD
 40
0.0
  9
$SKPOLY
 70
     0
  9
$TDCREATE
 40
2450868.949313078
  9
$TDUPDATE
 40
2453594.593673495
  9
$TDINDWG
 40
0.0322077546
  9
$TDUSRTIMER
 40
0.0322077546
  9
$USRTIMER
 70
     1
  9
$ANGBASE
 50
0.0
  9
$ANGDIR
 70
     0
  9
$PDMODE
 70
     0
  9
$PDSIZE
 40
0.0
  9
$PLINEWID
 40
0.0
  9
$COORDS
 70
     2
  9
$SPLFRAME
 70
     0
  9
$SPLINETYPE
 70
     6
  9
$SPLINESEGS
 70
     8
  9
$ATTDIA
 70
     0
  9
$ATTREQ
 70
     1
  9
$HANDLING
 70
     1
  9
$HANDSEED
  5
A5D
  9
$SURFTAB1
 70
     6
  9
$SURFTAB2
 70
     6
  9
$SURFTYPE
 70
     6
  9
$SURFU
 70
     6
  9
$SURFV
 70
     6
  9
$UCSNAME
  2

  9
$UCSORG
 10
0.0
 20
0.0
 30
0.0
  9
$UCSXDIR
 10
1.0
 20
0.0
 30
0.0
  9
$UCSYDIR
 10
0.0
 20
1.0
 30
0.0
  9
$PUCSNAME
  2

  9
$PUCSORG
 10
0.0
 20
0.0
 30
0.0
  9
$PUCSXDIR
 10
1.0
 20
0.0
 30
0.0
  9
$PUCSYDIR
 10
0.0
 20
1.0
 30
0.0
  9
$USERI1
 70
     0
  9
$USERI2
 70
     0
  9
$USERI3
 70
     0
  9
$USERI4
 70
     0
  9
$USERI5
 70
     0
  9
$USERR1
 40
0.0
  9
$USERR2
 40
0.0
  9
$USERR3
 40
0.0
  9
$USERR4
 40
0.0
  9
$USERR5
 40
0.0
  9
$WORLDVIEW
 70
     1
  9
$SHADEDGE
 70
     3
  9
$SHADEDIF
 70
    70
  9
$TILEMODE
 70
     1
  9
$MAXACTVP
 70
    16
  9
$PINSBASE
 10
0.0
 20
0.0
 30
0.0
  9
$PLIMCHECK
 70
     0
  9
$PEXTMIN
 10
1.000000E+20
 20
1.000000E+20
 30
1.000000E+20
  9
$PEXTMAX
 10
-1.000000E+20
 20
-1.000000E+20
 30
-1.000000E+20
  9
$PLIMMIN
 10
0.0
 20
0.0
  9
$PLIMMAX
 10
12.0
 20
9.0
  9
$UNITMODE
 70
     0
  9
$VISRETAIN
 70
     0
  9
$PLINEGEN
 70
     1
  9
$PSLTSCALE
 70
     0
  9
$TREEDEPTH
 70
  3020
  9
$PICKSTYLE
 70
     1
  9
$CMLSTYLE
  2
STANDARD
  9
$CMLJUST
 70
     0
  9
$CMLSCALE
 40
1.0
  9
$PROXYGRAPHICS
 70
     1
  9
$MEASUREMENT
 70
     0
  0
ENDSEC
  0
SECTION
  2
CLASSES
  0
CLASS
  1
DICTIONARYVAR
  2
AcDbDictionaryVar
  3
"AutoCAD"
 90
        0
280
     0
281
     0
  0
ENDSEC
  0
SECTION
  2
TABLES
  0
TABLE
  2
VPORT
  5
1B4
100
AcDbSymbolTable
 70
    13
  0
VPORT
  5
A5C
100
AcDbSymbolTableRecord
100
AcDbViewportTableRecord
  2
*ACTIVE
 70
     0
 10
0.0
 20
0.0
 11
1.0
 21
1.0
 12
125.0
 22
87.111399
 13
0.0
 23
0.0
 14
5.0
 24
5.0
 15
10.0
 25
10.0
 16
0.0
 26
0.0
 36
1.0
 17
0.0
 27
0.0
 37
0.0
 40
174.222798
 41
1.434944
 42
50.0
 43
0.0
 44
0.0
 50
0.0
 51
0.0
 71
     0
 72
   500
 73
     1
 74
     1
 75
     0
 76
     0
 77
     0
 78
     2
  0
ENDTAB
  0
TABLE
  2
LTYPE
  5
1B1
100
AcDbSymbolTable
 70
     6
  0
LTYPE
  5
1BD
100
AcDbSymbolTableRecord
100
AcDbLinetypeTableRecord
  2
BYBLOCK
 70
     0
  3

 72
    65
 73
     0
 40
0.0
  0
LTYPE
  5
1BE
100
AcDbSymbolTableRecord
100
AcDbLinetypeTableRecord
  2
BYLAYER
 70
     0
  3

 72
    65
 73
     0
 40
0.0
  0
LTYPE
  5
1BF
100
AcDbSymbolTableRecord
100
AcDbLinetypeTableRecord
  2
CONTINUOUS
 70
     0
  3
実線
 72
    65
 73
     0
 40
0.0
  0
LTYPE
  5
1CE
100
AcDbSymbolTableRecord
100
AcDbLinetypeTableRecord
  2
CENTER
 70
     0
  3
____ _ ____ _ ____ _ ____ _ ____ _ ____ _ ____
 72
    65
 73
     4
 40
2.0
 49
1.25
 74
     0
 49
-0.25
 74
     0
 49
0.25
 74
     0
 49
-0.25
 74
     0
  0
LTYPE
  5
1CF
100
AcDbSymbolTableRecord
100
AcDbLinetypeTableRecord
  2
HIDDEN
 70
     0
  3
_ _ _ _ _ _ _ _ _ _ _ _ _ _ _ _ _ _ _ _ _ _ _
 72
    65
 73
     2
 40
0.375
 49
0.25
 74
     0
 49
-0.125
 74
     0
  0
LTYPE
  5
202
100
AcDbSymbolTableRecord
100
AcDbLinetypeTableRecord
  2
TENSEN
 70
     0
  3

 72
    65
 73
     2
 40
3.0
 49
2.0
 74
     0
 49
-1.0
 74
     0
  0
LTYPE
  5
203
100
AcDbSymbolTableRecord
100
AcDbLinetypeTableRecord
  2
ITTEN
 70
     0
  3

 72
    65
 73
     4
 40
5.5
 49
2.5
 74
     0
 49
-1.0
 74
     0
 49
1.0
 74
     0
 49
-1.0
 74
     0
  0
LTYPE
  5
549
100
AcDbSymbolTableRecord
100
AcDbLinetypeTableRecord
  2
ITTEN1
 70
     0
  3

 72
    65
 73
     4
 40
8.2
 49
5.0
 74
     0
 49
-1.0
 74
     0
 49
1.2
 74
     0
 49
-1.0
 74
     0
  0
ENDTAB
  0
TABLE
  2
LAYER
  5
1AE
100
AcDbSymbolTable
 70
     8
  0
LAYER
  5
1BA
100
AcDbSymbolTableRecord
100
AcDbLayerTableRecord
  2
0
 70
     0
 62
     7
  6
CONTINUOUS
  0
LAYER
  5
1D4
100
AcDbSymbolTableRecord
100
AcDbLayerTableRecord
  2
1
 70
     0
 62
     1
  6
CENTER
  0
LAYER
  5
1D5
100
AcDbSymbolTableRecord
100
AcDbLayerTableRecord
  2
3
 70
     0
 62
     3
  6
CONTINUOUS
  0
LAYER
  5
1D6
100
AcDbSymbolTableRecord
100
AcDbLayerTableRecord
  2
4
 70
     0
 62
     4
  6
CONTINUOUS
  0
LAYER
  5
1D7
100
AcDbSymbolTableRecord
100
AcDbLayerTableRecord
  2
10
 70
     0
 62
     7
  6
CONTINUOUS
  0
LAYER
  5
1D8
100
AcDbSymbolTableRecord
100
AcDbLayerTableRecord
  2
11
 70
     0
 62
     3
  6
CONTINUOUS
  0
LAYER
  5
1D9
100
AcDbSymbolTableRecord
100
AcDbLayerTableRecord
  2
2
 70
     0
 62
     2
  6
HIDDEN
  0
LAYER
  5
204
100
AcDbSymbolTableRecord
100
AcDbLayerTableRecord
  2
DEFPOINTS
 70
     0
 62
     7
  6
CONTINUOUS
  0
ENDTAB
  0
TABLE
  2
STYLE
  5
1AF
100
AcDbSymbolTable
 70
     5
  0
STYLE
  5
1BB
100
AcDbSymbolTableRecord
100
AcDbTextStyleTableRecord
  2
STANDARD
 70
     0
 40
0.0
 41
1.0
 50
0.0
 71
     0
 42
0.2
  3
TXT
  4
BIGFONT
  0
STYLE
  5
1CB
100
AcDbSymbolTableRecord
100
AcDbTextStyleTableRecord
  2
K80
 70
     0
 40
0.0
 41
0.8
 50
0.0
 71
     0
 42
0.2
  3
TXT
  4
BIGFONT
  0
STYLE
  5
1CC
100
AcDbSymbolTableRecord
100
AcDbTextStyleTableRecord
  2
07500
 70
     0
 40
0.0
 41
0.75
 50
0.0
 71
     0
 42
0.2
  3
TXT
  4
BIGFONT
  0
STYLE
  5
1CD
100
AcDbSymbolTableRecord
100
AcDbTextStyleTableRecord
  2
BIGFONT
 70
     0
 40
15.0
 41
0.8
 50
0.0
 71
     0
 42
15.0
  3
txt.shx
  4
bigfont
  0
STYLE
  5
91A
100
AcDbSymbolTableRecord
100
AcDbTextStyleTableRecord
  2
EXTFONT
 70
     0
 40
3.5
 41
0.5
 50
0.0
 71
     0
 42
3.5
  3
txt.shx
  4
bigfont.shx
  0
ENDTAB
  0
TABLE
  2
VIEW
  5
1B2
100
AcDbSymbolTable
 70
     1
  0
VIEW
  5
1D0
100
AcDbSymbolTableRecord
100
AcDbViewTableRecord
  2
ALL
 70
     0
 40
810.0
 10
662.97479
 20
405.0
 41
0.0
 11
0.0
 21
0.0
 31
1.0
 12
0.0
 22
0.0
 32
0.0
 42
0.0
 43
0.0
 44
0.0
 50
0.0
 71
     0
  0
ENDTAB
  0
TABLE
  2
UCS
  5
1B3
100
AcDbSymbolTable
 70
     0
  0
ENDTAB
  0
TABLE
  2
APPID
  5
1B5
100
AcDbSymbolTable
 70
     1
  0
APPID
  5
1BC
100
AcDbSymbolTableRecord
100
AcDbRegAppTableRecord
  2
ACAD
 70
     0
  0
ENDTAB
  0
TABLE
  2
DIMSTYLE
  5
1B6
100
AcDbSymbolTable
 70
     1
  0
DIMSTYLE
105
1D3
100
AcDbSymbolTableRecord
100
AcDbDimStyleTableRecord
  2
STANDARD
 70
     0
  3

  4

  5

  6

  7

 40
1.0
 41
0.18
 42
0.0625
 43
0.38
 44
0.18
 45
0.0
 46
0.0
 47
0.0
 48
0.0
140
0.18
141
0.09
142
0.0
143
25.4
144
1.0
145
0.0
146
1.0
147
0.09
 71
     0
 72
     0
 73
     1
 74
     1
 75
     0
 76
     0
 77
     0
 78
     0
170
     0
171
     2
172
     0
173
     0
174
     0
175
     0
176
     0
177
     0
178
     0
270
     2
271
     4
272
     4
273
     2
274
     2
340
1CD
275
     0
280
     0
281
     0
282
     0
283
     1
284
     0
285
     0
286
     0
287
     5
288
     0
  0
ENDTAB
  0
TABLE
  2
BLOCK_RECORD
  5
1AD
100
AcDbSymbolTable
 70
    67
  0
BLOCK_RECORD
  5
1C3
100
AcDbSymbolTableRecord
100
AcDbBlockTableRecord
  2
*MODEL_SPACE
  0
BLOCK_RECORD
  5
1C0
100
AcDbSymbolTableRecord
100
AcDbBlockTableRecord
  2
*PAPER_SPACE
  0
BLOCK_RECORD
  5
1C8
100
AcDbSymbolTableRecord
100
AcDbBlockTableRecord
  2
WAKU
  0
BLOCK_RECORD
  5
1C9
100
AcDbSymbolTableRecord
100
AcDbBlockTableRecord
  2
Z
  0
BLOCK_RECORD
  5
1CA
100
AcDbSymbolTableRecord
100
AcDbBlockTableRecord
  2
QQ
  0
BLOCK_RECORD
  5
1E8
100
AcDbSymbolTableRecord
100
AcDbBlockTableRecord
  2
*D3
  0
BLOCK_RECORD
  5
1F5
100
AcDbSymbolTableRecord
100
AcDbBlockTableRecord
  2
*D4
  0
BLOCK_RECORD
  5
205
100
AcDbSymbolTableRecord
100
AcDbBlockTableRecord
  2
A$C6E216FFA
  0
BLOCK_RECORD
  5
408
100
AcDbSymbolTableRecord
100
AcDbBlockTableRecord
  2
*D8
  0
BLOCK_RECORD
  5
415
100
AcDbSymbolTableRecord
100
AcDbBlockTableRecord
  2
*D9
  0
BLOCK_RECORD
  5
423
100
AcDbSymbolTableRecord
100
AcDbBlockTableRecord
  2
*D10
  0
BLOCK_RECORD
  5
431
100
AcDbSymbolTableRecord
100
AcDbBlockTableRecord
  2
*D11
  0
BLOCK_RECORD
  5
43A
100
AcDbSymbolTableRecord
100
AcDbBlockTableRecord
  2
*D12
  0
BLOCK_RECORD
  5
443
100
AcDbSymbolTableRecord
100
AcDbBlockTableRecord
  2
*D13
  0
BLOCK_RECORD
  5
450
100
AcDbSymbolTableRecord
100
AcDbBlockTableRecord
  2
*D14
  0
BLOCK_RECORD
  5
45D
100
AcDbSymbolTableRecord
100
AcDbBlockTableRecord
  2
*D15
  0
BLOCK_RECORD
  5
46A
100
AcDbSymbolTableRecord
100
AcDbBlockTableRecord
  2
*D16
  0
BLOCK_RECORD
  5
477
100
AcDbSymbolTableRecord
100
AcDbBlockTableRecord
  2
*D17
  0
BLOCK_RECORD
  5
484
100
AcDbSymbolTableRecord
100
AcDbBlockTableRecord
  2
*D18
  0
BLOCK_RECORD
  5
48D
100
AcDbSymbolTableRecord
100
AcDbBlockTableRecord
  2
*D19
  0
BLOCK_RECORD
  5
496
100
AcDbSymbolTableRecord
100
AcDbBlockTableRecord
  2
*D20
  0
BLOCK_RECORD
  5
4A5
100
AcDbSymbolTableRecord
100
AcDbBlockTableRecord
  2
*D21
  0
BLOCK_RECORD
  5
4AE
100
AcDbSymbolTableRecord
100
AcDbBlockTableRecord
  2
*D22
  0
BLOCK_RECORD
  5
4BC
100
AcDbSymbolTableRecord
100
AcDbBlockTableRecord
  2
*D23
  0
BLOCK_RECORD
  5
4CA
100
AcDbSymbolTableRecord
100
AcDbBlockTableRecord
  2
*D24
  0
BLOCK_RECORD
  5
4D6
100
AcDbSymbolTableRecord
100
AcDbBlockTableRecord
  2
*D25
  0
BLOCK_RECORD
  5
4DF
100
AcDbSymbolTableRecord
100
AcDbBlockTableRecord
  2
*D26
  0
BLOCK_RECORD
  5
4EE
100
AcDbSymbolTableRecord
100
AcDbBlockTableRecord
  2
*D27
  0
BLOCK_RECORD
  5
4FB
100
AcDbSymbolTableRecord
100
AcDbBlockTableRecord
  2
*D28
  0
BLOCK_RECORD
  5
508
100
AcDbSymbolTableRecord
100
AcDbBlockTableRecord
  2
*D29
  0
BLOCK_RECORD
  5
515
100
AcDbSymbolTableRecord
100
AcDbBlockTableRecord
  2
*D30
  0
BLOCK_RECORD
  5
521
100
AcDbSymbolTableRecord
100
AcDbBlockTableRecord
  2
*D31
  0
BLOCK_RECORD
  5
52E
100
AcDbSymbolTableRecord
100
AcDbBlockTableRecord
  2
*D32
  0
BLOCK_RECORD
  5
53B
100
AcDbSymbolTableRecord
100
AcDbBlockTableRecord
  2
*D33
  0
BLOCK_RECORD
  5
54A
100
AcDbSymbolTableRecord
100
AcDbBlockTableRecord
  2
A$C58EF1902
  0
BLOCK_RECORD
  5
900
100
AcDbSymbolTableRecord
100
AcDbBlockTableRecord
  2
*D61
  0
BLOCK_RECORD
  5
90D
100
AcDbSymbolTableRecord
100
AcDbBlockTableRecord
  2
*D62
  0
BLOCK_RECORD
  5
91B
100
AcDbSymbolTableRecord
100
AcDbBlockTableRecord
  2
A$C549F2839
  0
BLOCK_RECORD
  5
9D2
100
AcDbSymbolTableRecord
100
AcDbBlockTableRecord
  2
A$C696B72E0
  0
ENDTAB
  0
ENDSEC
  0
SECTION
  2
BLOCKS
  0
BLOCK
  5
1DC
100
AcDbEntity
  8
0
100
AcDbBlockBegin
  2
*MODEL_SPACE
 70
     0
 10
0.0
 20
0.0
 30
0.0
  3
*MODEL_SPACE
  1

  0
ENDBLK
  5
1DD
100
AcDbEntity
  8
0
100
AcDbBlockEnd
  0
BLOCK
  5
1DA
100
AcDbEntity
 67
     1
  8
0
100
AcDbBlockBegin
  2
*PAPER_SPACE
 70
     0
 10
0.0
 20
0.0
 30
0.0
  3
*PAPER_SPACE
  1

  0
ENDBLK
  5
1DB
100
AcDbEntity
 67
     1
  8
0
100
AcDbBlockEnd
  0
BLOCK
  5
31
100
AcDbEntity
  8
0
100
AcDbBlockBegin
  2
WAKU
 70
     0
 10
549.0
 20
0.0
 30
0.0
  3
WAKU
  1

  0
LINE
  5
32
100
AcDbEntity
  8
11
100
AcDbLine
 10
452.0
 20
12.0
 30
0.0
 11
549.0
 21
12.0
 31
0.0
  0
LINE
  5
33
100
AcDbEntity
  8
11
100
AcDbLine
 10
477.0
 20
0.0
 30
0.0
 11
477.0
 21
12.0
 31
0.0
  0
LINE
  5
34
100
AcDbEntity
  8
11
100
AcDbLine
 10
452.0
 20
12.0
 30
0.0
 11
452.0
 21
0.0
 31
0.0
  0
TEXT
  5
35
100
AcDbEntity
  8
11
100
AcDbText
 10
454.0
 20
8.5
 30
0.0
 40
2.5
  1
尺度
100
AcDbText
  0
TEXT
  5
36
100
AcDbEntity
  8
11
100
AcDbText
 10
479.0
 20
8.5
 30
0.0
 40
2.5
  1
図番
100
AcDbText
  0
ENDBLK
  5
37
100
AcDbEntity
  8
0
100
AcDbBlockEnd
  0
BLOCK
  5
38
100
AcDbEntity
  8
0
100
AcDbBlockBegin
  2
Z
 70
     0
 10
481.110778
 20
136.78702
 30
0.0
  3
Z
  1

  0
TEXT
  5
39
100
AcDbEntity
  8
0
100
AcDbText
 10
478.150683
 20
140.067934
 30
0.0
 40
5.5
  1
１
 50
360.0
 41
0.8
  7
K80
 72
     1
 11
480.05735
 21
140.067934
 31
0.0
100
AcDbText
  0
TEXT
  5
3A
100
AcDbEntity
  8
0
100
AcDbText
 10
470.108991
 20
139.534665
 30
0.0
 40
6.0
  1
Ｖ
 50
360.0
 41
0.8
  7
K80
 72
     1
 11
472.348991
 21
139.534665
 31
0.0
100
AcDbText
  0
TEXT
  5
3B
100
AcDbEntity
  8
0
100
AcDbText
 10
482.885325
 20
140.047863
 30
0.0
 40
5.5
  1
６
 50
360.0
 41
0.8
  7
K80
 72
     1
 11
484.938658
 21
140.047863
 31
0.0
100
AcDbText
  0
LINE
  5
3C
100
AcDbEntity
  8
0
100
AcDbLine
 10
474.860778
 20
142.78702
 30
0.0
 11
477.360778
 21
142.78702
 31
0.0
  0
TEXT
  5
3D
100
AcDbEntity
  8
0
100
AcDbText
 10
488.000475
 20
140.013502
 30
0.0
 40
5.5
  1
０
 50
360.0
 41
0.8
  7
K80
 72
     1
 11
489.907142
 21
140.013502
 31
0.0
100
AcDbText
  0
ENDBLK
  5
3E
100
AcDbEntity
  8
0
100
AcDbBlockEnd
  0
BLOCK
  5
3F
100
AcDbEntity
  8
0
100
AcDbBlockBegin
  2
QQ
 70
     0
 10
270.0
 20
0.0
 30
0.0
  3
QQ
  1

  0
LINE
  5
40
100
AcDbEntity
  8
11
100
AcDbLine
 10
173.0
 20
36.0
 30
0.0
 11
270.0
 21
36.0
 31
0.0
  0
TEXT
  5
41
100
AcDbEntity
  8
11
100
AcDbText
 10
175.0
 20
32.5
 30
0.0
 40
2.5
  1
部品名称
100
AcDbText
  0
LINE
  5
42
100
AcDbEntity
  8
11
100
AcDbLine
 10
173.0
 20
36.0
 30
0.0
 11
173.0
 21
0.0
 31
0.0
  0
LINE
  5
43
100
AcDbEntity
  8
11
100
AcDbLine
 10
173.0
 20
24.0
 30
0.0
 11
270.0
 21
24.0
 31
0.0
  0
TEXT
  5
44
100
AcDbEntity
  8
11
100
AcDbText
 10
175.0
 20
20.5
 30
0.0
 40
2.5
  1
品番
100
AcDbText
  0
LINE
  5
45
100
AcDbEntity
  8
11
100
AcDbLine
 10
173.0
 20
12.0
 30
0.0
 11
270.0
 21
12.0
 31
0.0
  0
TEXT
  5
46
100
AcDbEntity
  8
11
100
AcDbText
 10
175.0
 20
8.5
 30
0.0
 40
2.5
  1
尺度
100
AcDbText
  0
TEXT
  5
47
100
AcDbEntity
  8
11
100
AcDbText
 10
200.0
 20
8.5
 30
0.0
 40
2.5
  1
図番
100
AcDbText
  0
LINE
  5
48
100
AcDbEntity
  8
11
100
AcDbLine
 10
198.0
 20
0.0
 30
0.0
 11
198.0
 21
12.0
 31
0.0
  0
ENDBLK
  5
49
100
AcDbEntity
  8
0
100
AcDbBlockEnd
  0
BLOCK
  5
1F3
100
AcDbEntity
  8
0
100
AcDbBlockBegin
  2
*D3
 70
     1
 10
0.0
 20
0.0
 30
0.0
  3
*D3
  1

  0
LINE
  5
1E9
100
AcDbEntity
  8
0
  6
BYBLOCK
 62
     0
100
AcDbLine
 10
123.9
 20
124.5
 30
0.0
 11
94.3
 21
124.5
 31
0.0
  0
LINE
  5
1EA
100
AcDbEntity
  8
0
  6
BYBLOCK
 62
     0
100
AcDbLine
 10
123.9
 20
101.5
 30
0.0
 11
94.3
 21
101.5
 31
0.0
  0
LINE
  5
1EB
100
AcDbEntity
  8
0
  6
BYBLOCK
 62
     0
100
AcDbLine
 10
94.5
 20
122.5
 30
0.0
 11
94.5
 21
114.8
 31
0.0
  0
LINE
  5
1EC
100
AcDbEntity
  8
0
  6
BYBLOCK
 62
     0
100
AcDbLine
 10
94.5
 20
103.5
 30
0.0
 11
94.5
 21
111.2
 31
0.0
  0
SOLID
  5
1ED
100
AcDbEntity
  8
0
  6
BYBLOCK
 62
     0
100
AcDbTrace
 10
94.166667
 20
122.5
 30
0.0
 11
94.833333
 21
122.5
 31
0.0
 12
94.5
 22
124.5
 32
0.0
 13
94.5
 23
124.5
 33
0.0
  0
SOLID
  5
1EE
100
AcDbEntity
  8
0
  6
BYBLOCK
 62
     0
100
AcDbTrace
 10
94.166667
 20
103.5
 30
0.0
 11
94.833333
 21
103.5
 31
0.0
 12
94.5
 22
101.5
 32
0.0
 13
94.5
 23
101.5
 33
0.0
  0
MTEXT
  5
1EF
100
AcDbEntity
  8
0
  6
BYBLOCK
 62
     0
100
AcDbMText
 10
94.5
 20
113.0
 30
0.0
 40
3.5
 41
0.0
 71
     5
 72
     1
  1
\A1;23
 11
0.0
 21
1.0
 31
0.0
  0
POINT
  5
1F0
100
AcDbEntity
  8
DEFPOINTS
  6
BYBLOCK
 62
     0
100
AcDbPoint
 10
124.0
 20
124.5
 30
0.0
  0
POINT
  5
1F1
100
AcDbEntity
  8
DEFPOINTS
  6
BYBLOCK
 62
     0
100
AcDbPoint
 10
124.0
 20
101.5
 30
0.0
  0
POINT
  5
1F2
100
AcDbEntity
  8
DEFPOINTS
  6
BYBLOCK
 62
     0
100
AcDbPoint
 10
94.5
 20
101.5
 30
0.0
  0
ENDBLK
  5
1F4
100
AcDbEntity
  8
0
100
AcDbBlockEnd
  0
BLOCK
  5
200
100
AcDbEntity
  8
0
100
AcDbBlockBegin
  2
*D4
 70
     1
 10
0.0
 20
0.0
 30
0.0
  3
*D4
  1

  0
LINE
  5
1F6
100
AcDbEntity
  8
0
  6
BYBLOCK
 62
     0
100
AcDbLine
 10
127.9
 20
121.0
 30
0.0
 11
99.3
 21
121.0
 31
0.0
  0
LINE
  5
1F7
100
AcDbEntity
  8
0
  6
BYBLOCK
 62
     0
100
AcDbLine
 10
123.9
 20
101.5
 30
0.0
 11
99.3
 21
101.5
 31
0.0
  0
LINE
  5
1F8
100
AcDbEntity
  8
0
  6
BYBLOCK
 62
     0
100
AcDbLine
 10
99.5
 20
119.0
 30
0.0
 11
99.5
 21
113.65
 31
0.0
  0
LINE
  5
1F9
100
AcDbEntity
  8
0
  6
BYBLOCK
 62
     0
100
AcDbLine
 10
99.5
 20
103.5
 30
0.0
 11
99.5
 21
107.35
 31
0.0
  0
SOLID
  5
1FA
100
AcDbEntity
  8
0
  6
BYBLOCK
 62
     0
100
AcDbTrace
 10
99.166667
 20
119.0
 30
0.0
 11
99.833333
 21
119.0
 31
0.0
 12
99.5
 22
121.0
 32
0.0
 13
99.5
 23
121.0
 33
0.0
  0
SOLID
  5
1FB
100
AcDbEntity
  8
0
  6
BYBLOCK
 62
     0
100
AcDbTrace
 10
99.166667
 20
103.5
 30
0.0
 11
99.833333
 21
103.5
 31
0.0
 12
99.5
 22
101.5
 32
0.0
 13
99.5
 23
101.5
 33
0.0
  0
MTEXT
  5
1FC
100
AcDbEntity
  8
0
  6
BYBLOCK
 62
     0
100
AcDbMText
 10
99.5
 20
110.5
 30
0.0
 40
3.5
 41
0.0
 71
     5
 72
     1
  1
\A1;19.5
 11
0.0
 21
1.0
 31
0.0
  0
POINT
  5
1FD
100
AcDbEntity
  8
DEFPOINTS
  6
BYBLOCK
 62
     0
100
AcDbPoint
 10
128.0
 20
121.0
 30
0.0
  0
POINT
  5
1FE
100
AcDbEntity
  8
DEFPOINTS
  6
BYBLOCK
 62
     0
100
AcDbPoint
 10
124.0
 20
101.5
 30
0.0
  0
POINT
  5
1FF
100
AcDbEntity
  8
DEFPOINTS
  6
BYBLOCK
 62
     0
100
AcDbPoint
 10
99.5
 20
101.5
 30
0.0
  0
ENDBLK
  5
201
100
AcDbEntity
  8
0
100
AcDbBlockEnd
  0
BLOCK
  5
27C
100
AcDbEntity
  8
0
100
AcDbBlockBegin
  2
A$C6E216FFA
 70
     0
 10
0.0
 20
0.0
 30
0.0
  3
A$C6E216FFA
  1

  0
LINE
  5
206
100
AcDbEntity
  8
3
100
AcDbLine
 10
88.5
 20
8.0
 30
0.0
 11
115.0
 21
8.0
 31
0.0
  0
LINE
  5
207
100
AcDbEntity
  8
2
100
AcDbLine
 10
114.5
 20
18.5
 30
0.0
 11
104.5
 21
18.5
 31
0.0
  0
ARC
  5
208
100
AcDbEntity
  8
3
100
AcDbCircle
 10
105.0
 20
27.76
 30
0.0
 40
6.76
100
AcDbArc
 50
224.76027
 51
315.23973
  0
LINE
  5
209
100
AcDbEntity
  8
2
100
AcDbLine
 10
105.0
 20
9.5
 30
0.0
 11
109.8
 21
12.0
 31
0.0
  0
LINE
  5
20A
100
AcDbEntity
  8
2
100
AcDbLine
 10
109.8
 20
12.0
 30
0.0
 11
100.2
 21
12.0
 31
0.0
  0
LINE
  5
20B
100
AcDbEntity
  8
3
100
AcDbLine
 10
88.5
 20
7.0
 30
0.0
 11
115.0
 21
7.0
 31
0.0
  0
LINE
  5
20C
100
AcDbEntity
  8
3
100
AcDbLine
 10
88.5
 20
23.0
 30
0.0
 11
115.0
 21
23.0
 31
0.0
  0
LINE
  5
20D
100
AcDbEntity
  8
1
100
AcDbLine
 10
65.0
 20
15.0
 30
0.0
 11
214.5
 21
15.0
 31
0.0
  0
ARC
  5
20E
100
AcDbEntity
  8
0
100
AcDbCircle
 10
105.0
 20
15.0
 30
0.0
 40
4.5
100
AcDbArc
 50
32.230953
 51
109.471221
  0
ARC
  5
20F
100
AcDbEntity
  8
0
100
AcDbCircle
 10
105.0
 20
15.0
 30
0.0
 40
4.5
100
AcDbArc
 50
250.528779
 51
327.769047
  0
LINE
  5
210
100
AcDbEntity
  8
3
100
AcDbLine
 10
91.5
 20
26.5
 30
0.0
 11
114.5
 21
26.5
 31
0.0
  0
LINE
  5
211
100
AcDbEntity
  8
3
100
AcDbLine
 10
114.5
 20
3.5
 30
0.0
 11
91.5
 21
3.5
 31
0.0
  0
LINE
  5
212
100
AcDbEntity
  8
2
100
AcDbLine
 10
18.0
 20
15.5
 30
0.0
 11
18.0
 21
7.583801
 31
0.0
  0
LINE
  5
213
100
AcDbEntity
  8
2
100
AcDbLine
 10
24.0
 20
7.583801
 30
0.0
 11
24.0
 21
15.5
 31
0.0
  0
DIMENSION
  5
214
100
AcDbEntity
  8
0
100
AcDbDimension
  2
*D4
 10
57.5
 20
3.5
 30
0.0
 11
57.5
 21
12.5
 31
0.0
 12
-42.0
 22
-98.0
 32
0.0
 70
   128
  3
STANDARD
100
AcDbAlignedDimension
 13
86.0
 23
23.0
 33
0.0
 14
82.0
 24
3.5
 34
0.0
 50
90.0
100
AcDbRotatedDimension
1001
ACAD
1000
DSTYLE
1002
{
1070
    78
1070
     8
1070
   288
1070
     1
1070
   284
1070
     8
1070
   140
1040
2.0
1070
    73
1070
     0
1070
   272
1070
     2
1070
   147
1040
0.1
1070
    42
1040
0.1
1070
    44
1040
0.2
1070
    43
1040
0.4
1070
   271
1070
     2
1070
   141
1040
0.1
1070
    41
1040
2.0
1002
}
  0
DIMENSION
  5
215
100
AcDbEntity
  8
0
100
AcDbDimension
  2
*D3
 10
52.5
 20
3.5
 30
0.0
 11
52.5
 21
15.0
 31
0.0
 12
-42.0
 22
-98.0
 32
0.0
 70
   128
  3
STANDARD
100
AcDbAlignedDimension
 13
82.0
 23
26.5
 33
0.0
 14
82.0
 24
3.5
 34
0.0
 50
90.0
100
AcDbRotatedDimension
1001
ACAD
1000
DSTYLE
1002
{
1070
    78
1070
     8
1070
   288
1070
     1
1070
   284
1070
     8
1070
   140
1040
2.0
1070
    73
1070
     0
1070
   272
1070
     2
1070
   147
1040
0.1
1070
    42
1040
0.1
1070
    44
1040
0.2
1070
    43
1040
0.4
1070
   271
1070
     2
1070
   141
1040
0.1
1070
    41
1040
2.0
1002
}
  0
LINE
  5
216
100
AcDbEntity
  8
2
100
AcDbLine
 10
101.5
 20
15.5
 30
0.0
 11
101.5
 21
7.0
 31
0.0
  0
LINE
  5
217
100
AcDbEntity
  8
2
100
AcDbLine
 10
100.2
 20
12.0
 30
0.0
 11
105.0
 21
9.5
 31
0.0
  0
CIRCLE
  5
218
100
AcDbEntity
  8
3
100
AcDbCircle
 10
21.0
 20
15.0
 30
0.0
 40
14.0
  0
CIRCLE
  5
219
100
AcDbEntity
  8
0
100
AcDbCircle
 10
21.0
 20
15.0
 30
0.0
 40
5.0
  0
CIRCLE
  5
21A
100
AcDbEntity
  8
3
100
AcDbCircle
 10
21.0
 20
15.0
 30
0.0
 40
6.0
  0
CIRCLE
  5
21B
100
AcDbEntity
  8
3
100
AcDbCircle
 10
21.0
 20
15.0
 30
0.0
 40
8.0
  0
CIRCLE
  5
21C
100
AcDbEntity
  8
3
100
AcDbCircle
 10
21.0
 20
15.0
 30
0.0
 40
11.5
  0
LINE
  5
21D
100
AcDbEntity
  8
1
100
AcDbLine
 10
21.0
 20
30.5
 30
0.0
 11
21.0
 21
0.0
 31
0.0
  0
LINE
  5
21E
100
AcDbEntity
  8
2
100
AcDbLine
 10
84.5
 20
26.5
 30
0.0
 11
84.5
 21
3.5
 31
0.0
  0
LINE
  5
21F
100
AcDbEntity
  8
3
100
AcDbLine
 10
88.5
 20
9.0
 30
0.0
 11
88.5
 21
15.0
 31
0.0
  0
LINE
  5
220
100
AcDbEntity
  8
0
100
AcDbLine
 10
87.5
 20
9.0
 30
0.0
 11
87.5
 21
15.0
 31
0.0
  0
LINE
  5
221
100
AcDbEntity
  8
3
100
AcDbLine
 10
88.5
 20
15.0
 30
0.0
 11
88.5
 21
7.0
 31
0.0
  0
LINE
  5
222
100
AcDbEntity
  8
0
100
AcDbLine
 10
69.5
 20
9.0
 30
0.0
 11
69.5
 21
15.0
 31
0.0
  0
LINE
  5
223
100
AcDbEntity
  8
3
100
AcDbLine
 10
69.5
 20
9.0
 30
0.0
 11
67.5
 21
11.0
 31
0.0
  0
LINE
  5
224
100
AcDbEntity
  8
1
100
AcDbLine
 10
105.0
 20
29.0
 30
0.0
 11
105.0
 21
0.0
 31
0.0
  0
LINE
  5
225
100
AcDbEntity
  8
3
100
AcDbLine
 10
91.5
 20
3.5
 30
0.0
 11
91.5
 21
26.5
 31
0.0
  0
LINE
  5
226
100
AcDbEntity
  8
3
100
AcDbLine
 10
69.5
 20
9.0
 30
0.0
 11
88.5
 21
9.0
 31
0.0
  0
LINE
  5
227
100
AcDbEntity
  8
2
100
AcDbLine
 10
84.5
 20
3.5
 30
0.0
 11
91.5
 21
3.5
 31
0.0
  0
LINE
  5
228
100
AcDbEntity
  8
1
100
AcDbLine
 10
0.0
 20
15.0
 30
0.0
 11
41.0
 21
15.0
 31
0.0
  0
ARC
  5
229
100
AcDbEntity
  8
2
100
AcDbCircle
 10
21.0
 20
15.5
 30
0.0
 40
3.0
100
AcDbArc
 50
0.0
 51
180.0
  0
LINE
  5
22A
100
AcDbEntity
  8
0
100
AcDbLine
 10
87.5
 20
10.5
 30
0.0
 11
68.0
 21
10.5
 31
0.0
  0
LINE
  5
22B
100
AcDbEntity
  8
0
100
AcDbLine
 10
87.5
 20
19.5
 30
0.0
 11
68.0
 21
19.5
 31
0.0
  0
LINE
  5
22C
100
AcDbEntity
  8
3
100
AcDbLine
 10
69.5
 20
21.0
 30
0.0
 11
88.5
 21
21.0
 31
0.0
  0
LINE
  5
22D
100
AcDbEntity
  8
0
100
AcDbLine
 10
69.5
 20
21.0
 30
0.0
 11
69.5
 21
15.0
 31
0.0
  0
LINE
  5
22E
100
AcDbEntity
  8
3
100
AcDbLine
 10
67.5
 20
15.0
 30
0.0
 11
67.5
 21
19.0
 31
0.0
  0
LINE
  5
22F
100
AcDbEntity
  8
3
100
AcDbLine
 10
67.5
 20
15.0
 30
0.0
 11
67.5
 21
11.0
 31
0.0
  0
LINE
  5
230
100
AcDbEntity
  8
3
100
AcDbLine
 10
69.5
 20
21.0
 30
0.0
 11
67.5
 21
19.0
 31
0.0
  0
LINE
  5
231
100
AcDbEntity
  8
0
100
AcDbLine
 10
87.5
 20
21.0
 30
0.0
 11
87.5
 21
15.0
 31
0.0
  0
LINE
  5
232
100
AcDbEntity
  8
3
100
AcDbLine
 10
88.5
 20
15.0
 30
0.0
 11
88.5
 21
23.0
 31
0.0
  0
LINE
  5
233
100
AcDbEntity
  8
3
100
AcDbLine
 10
88.5
 20
21.0
 30
0.0
 11
88.5
 21
15.0
 31
0.0
  0
LINE
  5
234
100
AcDbEntity
  8
2
100
AcDbLine
 10
91.5
 20
26.5
 30
0.0
 11
84.5
 21
26.5
 31
0.0
  0
ARC
  5
235
100
AcDbEntity
  8
2
100
AcDbCircle
 10
104.5
 20
15.5
 30
0.0
 40
3.0
100
AcDbArc
 50
90.0
 51
180.0
  0
LINE
  5
236
100
AcDbEntity
  8
2
100
AcDbLine
 10
100.2
 20
12.0
 30
0.0
 11
100.2
 21
23.0
 31
0.0
  0
LINE
  5
237
100
AcDbEntity
  8
0
100
AcDbLine
 10
103.5
 20
19.242641
 30
0.0
 11
103.5
 21
10.757359
 31
0.0
  0
LINE
  5
238
100
AcDbEntity
  8
0
100
AcDbLine
 10
199.5
 20
5.02
 30
0.0
 11
199.5
 21
15.0
 31
0.0
  0
LINE
  5
239
100
AcDbEntity
  8
0
100
AcDbLine
 10
189.5
 20
5.0
 30
0.0
 11
189.5
 21
15.0
 31
0.0
  0
LINE
  5
23A
100
AcDbEntity
  8
3
100
AcDbLine
 10
120.0
 20
9.0
 30
0.0
 11
120.0
 21
15.0
 31
0.0
  0
LINE
  5
23B
100
AcDbEntity
  8
3
100
AcDbLine
 10
120.0
 20
9.0
 30
0.0
 11
118.5
 21
12.0
 31
0.0
  0
LINE
  5
23C
100
AcDbEntity
  8
3
100
AcDbLine
 10
115.0
 20
7.0
 30
0.0
 11
115.0
 21
15.0
 31
0.0
  0
LINE
  5
23D
100
AcDbEntity
  8
3
100
AcDbLine
 10
115.0
 20
7.0
 30
0.0
 11
116.875
 21
12.0
 31
0.0
  0
LINE
  5
23E
100
AcDbEntity
  8
3
100
AcDbLine
 10
115.0
 20
8.0
 30
0.0
 11
115.0
 21
15.0
 31
0.0
  0
LINE
  5
23F
100
AcDbEntity
  8
3
100
AcDbLine
 10
144.3
 20
15.0
 30
0.0
 11
144.3
 21
5.02
 31
0.0
  0
LINE
  5
240
100
AcDbEntity
  8
3
100
AcDbLine
 10
151.3
 20
15.0
 30
0.0
 11
151.3
 21
6.0
 31
0.0
  0
LINE
  5
241
100
AcDbEntity
  8
3
100
AcDbLine
 10
147.8
 20
5.2
 30
0.0
 11
147.8
 21
15.0
 31
0.0
  0
LINE
  5
242
100
AcDbEntity
  8
3
100
AcDbLine
 10
147.3
 20
15.0
 30
0.0
 11
147.3
 21
5.2
 31
0.0
  0
LINE
  5
243
100
AcDbEntity
  8
3
100
AcDbLine
 10
114.5
 20
15.0
 30
0.0
 11
114.5
 21
3.5
 31
0.0
  0
LINE
  5
244
100
AcDbEntity
  8
3
100
AcDbLine
 10
115.0
 20
15.0
 30
0.0
 11
115.0
 21
2.75
 31
0.0
  0
ARC
  5
245
100
AcDbEntity
  8
3
100
AcDbCircle
 10
183.972222
 20
15.0
 30
0.0
 40
24.027778
100
AcDbArc
 50
328.560547
 51
31.439453
  0
LINE
  5
246
100
AcDbEntity
  8
0
100
AcDbLine
 10
144.3
 20
5.02
 30
0.0
 11
199.5
 21
5.02
 31
0.0
  0
LINE
  5
247
100
AcDbEntity
  8
3
100
AcDbLine
 10
201.85364
 20
1.032555
 30
0.0
 11
115.0
 21
2.75
 31
0.0
  0
LINE
  5
248
100
AcDbEntity
  8
3
100
AcDbLine
 10
151.3
 20
9.0
 30
0.0
 11
120.0
 21
9.0
 31
0.0
  0
LINE
  5
249
100
AcDbEntity
  8
3
100
AcDbLine
 10
151.3
 20
6.0
 30
0.0
 11
147.8
 21
5.2
 31
0.0
  0
LINE
  5
24A
100
AcDbEntity
  8
3
100
AcDbLine
 10
144.3
 20
5.02
 30
0.0
 11
114.5
 21
5.02
 31
0.0
  0
LINE
  5
24B
100
AcDbEntity
  8
3
100
AcDbLine
 10
114.0
 20
7.0
 30
0.0
 11
115.0
 21
7.0
 31
0.0
  0
LINE
  5
24C
100
AcDbEntity
  8
0
100
AcDbLine
 10
147.0
 20
5.75
 30
0.0
 11
145.5
 21
5.75
 31
0.0
  0
LINE
  5
24D
100
AcDbEntity
  8
3
100
AcDbLine
 10
144.3
 20
6.0
 30
0.0
 11
147.3
 21
6.0
 31
0.0
  0
LINE
  5
24E
100
AcDbEntity
  8
0
100
AcDbLine
 10
144.5
 20
5.0
 30
0.0
 11
145.5
 21
5.75
 31
0.0
  0
LINE
  5
24F
100
AcDbEntity
  8
0
100
AcDbLine
 10
147.0
 20
5.0
 30
0.0
 11
147.0
 21
5.75
 31
0.0
  0
LINE
  5
250
100
AcDbEntity
  8
3
100
AcDbLine
 10
147.3
 20
5.2
 30
0.0
 11
147.8
 21
5.2
 31
0.0
  0
ARC
  5
251
100
AcDbEntity
  8
3
100
AcDbCircle
 10
201.912951
 20
4.031969
 30
0.0
 40
3.0
100
AcDbArc
 50
268.86718
 51
328.560547
  0
LINE
  5
252
100
AcDbEntity
  8
0
100
AcDbLine
 10
144.3
 20
24.98
 30
0.0
 11
199.5
 21
24.98
 31
0.0
  0
LINE
  5
253
100
AcDbEntity
  8
3
100
AcDbLine
 10
201.85364
 20
28.967445
 30
0.0
 11
115.0
 21
27.25
 31
0.0
  0
LINE
  5
254
100
AcDbEntity
  8
0
100
AcDbLine
 10
108.806573
 20
12.6
 30
0.0
 11
171.806573
 21
12.6
 31
0.0
  0
LINE
  5
255
100
AcDbEntity
  8
0
100
AcDbLine
 10
108.806573
 20
17.4
 30
0.0
 11
171.806573
 21
17.4
 31
0.0
  0
LINE
  5
256
100
AcDbEntity
  8
3
100
AcDbLine
 10
151.3
 20
21.0
 30
0.0
 11
120.0
 21
21.0
 31
0.0
  0
LINE
  5
257
100
AcDbEntity
  8
3
100
AcDbLine
 10
151.3
 20
24.0
 30
0.0
 11
147.8
 21
24.8
 31
0.0
  0
LINE
  5
258
100
AcDbEntity
  8
3
100
AcDbLine
 10
144.3
 20
24.98
 30
0.0
 11
114.5
 21
24.98
 31
0.0
  0
LINE
  5
259
100
AcDbEntity
  8
3
100
AcDbLine
 10
115.0
 20
23.0
 30
0.0
 11
116.875
 21
18.0
 31
0.0
  0
LINE
  5
25A
100
AcDbEntity
  8
2
100
AcDbLine
 10
109.8
 20
23.0
 30
0.0
 11
109.8
 21
12.0
 31
0.0
  0
LINE
  5
25B
100
AcDbEntity
  8
3
100
AcDbLine
 10
115.0
 20
23.0
 30
0.0
 11
115.0
 21
15.0
 31
0.0
  0
LINE
  5
25C
100
AcDbEntity
  8
3
100
AcDbLine
 10
114.5
 20
26.5
 30
0.0
 11
114.5
 21
15.0
 31
0.0
  0
LINE
  5
25D
100
AcDbEntity
  8
3
100
AcDbLine
 10
115.0
 20
22.0
 30
0.0
 11
115.0
 21
15.0
 31
0.0
  0
LINE
  5
25E
100
AcDbEntity
  8
3
100
AcDbLine
 10
115.0
 20
15.0
 30
0.0
 11
115.0
 21
27.25
 31
0.0
  0
LINE
  5
25F
100
AcDbEntity
  8
0
100
AcDbLine
 10
108.806573
 20
17.4
 30
0.0
 11
108.806573
 21
12.6
 31
0.0
  0
LINE
  5
260
100
AcDbEntity
  8
3
100
AcDbLine
 10
114.0
 20
23.0
 30
0.0
 11
115.0
 21
22.0
 31
0.0
  0
LINE
  5
261
100
AcDbEntity
  8
3
100
AcDbLine
 10
120.0
 20
21.0
 30
0.0
 11
118.5
 21
18.0
 31
0.0
  0
LINE
  5
262
100
AcDbEntity
  8
3
100
AcDbLine
 10
120.0
 20
21.0
 30
0.0
 11
120.0
 21
15.0
 31
0.0
  0
LINE
  5
263
100
AcDbEntity
  8
3
100
AcDbLine
 10
118.5
 20
12.0
 30
0.0
 11
118.5
 21
15.0
 31
0.0
  0
LINE
  5
264
100
AcDbEntity
  8
3
100
AcDbLine
 10
116.875
 20
12.0
 30
0.0
 11
116.875
 21
15.0
 31
0.0
  0
LINE
  5
265
100
AcDbEntity
  8
3
100
AcDbLine
 10
116.875
 20
12.0
 30
0.0
 11
118.5
 21
12.0
 31
0.0
  0
LINE
  5
266
100
AcDbEntity
  8
3
100
AcDbLine
 10
116.875
 20
18.0
 30
0.0
 11
116.875
 21
15.0
 31
0.0
  0
LINE
  5
267
100
AcDbEntity
  8
3
100
AcDbLine
 10
118.5
 20
18.0
 30
0.0
 11
118.5
 21
15.0
 31
0.0
  0
LINE
  5
268
100
AcDbEntity
  8
3
100
AcDbLine
 10
116.875
 20
18.0
 30
0.0
 11
118.5
 21
18.0
 31
0.0
  0
LINE
  5
269
100
AcDbEntity
  8
3
100
AcDbLine
 10
144.3
 20
15.0
 30
0.0
 11
144.3
 21
24.98
 31
0.0
  0
LINE
  5
26A
100
AcDbEntity
  8
3
100
AcDbLine
 10
147.8
 20
24.8
 30
0.0
 11
147.8
 21
15.0
 31
0.0
  0
LINE
  5
26B
100
AcDbEntity
  8
3
100
AcDbLine
 10
147.3
 20
15.0
 30
0.0
 11
147.3
 21
24.8
 31
0.0
  0
LINE
  5
26C
100
AcDbEntity
  8
0
100
AcDbLine
 10
147.0
 20
24.25
 30
0.0
 11
145.5
 21
24.25
 31
0.0
  0
LINE
  5
26D
100
AcDbEntity
  8
3
100
AcDbLine
 10
144.3
 20
24.0
 30
0.0
 11
147.3
 21
24.0
 31
0.0
  0
LINE
  5
26E
100
AcDbEntity
  8
0
100
AcDbLine
 10
144.5
 20
25.0
 30
0.0
 11
145.5
 21
24.25
 31
0.0
  0
LINE
  5
26F
100
AcDbEntity
  8
0
100
AcDbLine
 10
147.0
 20
25.0
 30
0.0
 11
147.0
 21
24.25
 31
0.0
  0
LINE
  5
270
100
AcDbEntity
  8
3
100
AcDbLine
 10
147.3
 20
24.8
 30
0.0
 11
147.8
 21
24.8
 31
0.0
  0
LINE
  5
271
100
AcDbEntity
  8
3
100
AcDbLine
 10
151.3
 20
15.0
 30
0.0
 11
151.3
 21
24.0
 31
0.0
  0
LINE
  5
272
100
AcDbEntity
  8
0
100
AcDbLine
 10
171.806573
 20
17.4
 30
0.0
 11
171.806573
 21
12.6
 31
0.0
  0
LINE
  5
273
100
AcDbEntity
  8
0
100
AcDbLine
 10
173.306573
 20
17.4
 30
0.0
 11
173.306573
 21
12.6
 31
0.0
  0
LINE
  5
274
100
AcDbEntity
  8
0
100
AcDbLine
 10
174.806573
 20
16.935453
 30
0.0
 11
174.806573
 21
13.064547
 31
0.0
  0
LINE
  5
275
100
AcDbEntity
  8
0
100
AcDbLine
 10
173.306573
 20
12.6
 30
0.0
 11
174.806573
 21
13.064547
 31
0.0
  0
LINE
  5
276
100
AcDbEntity
  8
0
100
AcDbLine
 10
171.806573
 20
12.6
 30
0.0
 11
173.306573
 21
13.0
 31
0.0
  0
LINE
  5
277
100
AcDbEntity
  8
0
100
AcDbLine
 10
173.306573
 20
17.4
 30
0.0
 11
174.806573
 21
16.935453
 31
0.0
  0
LINE
  5
278
100
AcDbEntity
  8
0
100
AcDbLine
 10
171.806573
 20
17.4
 30
0.0
 11
173.306573
 21
17.0
 31
0.0
  0
LINE
  5
279
100
AcDbEntity
  8
0
100
AcDbLine
 10
189.5
 20
25.0
 30
0.0
 11
189.5
 21
15.0
 31
0.0
  0
LINE
  5
27A
100
AcDbEntity
  8
0
100
AcDbLine
 10
199.5
 20
24.98
 30
0.0
 11
199.5
 21
15.0
 31
0.0
  0
ARC
  5
27B
100
AcDbEntity
  8
3
100
AcDbCircle
 10
201.912951
 20
25.968031
 30
0.0
 40
3.0
100
AcDbArc
 50
31.439453
 51
91.13282
  0
ENDBLK
  5
27D
100
AcDbEntity
  8
0
100
AcDbBlockEnd
  0
BLOCK
  5
413
100
AcDbEntity
  8
0
100
AcDbBlockBegin
  2
*D8
 70
     1
 10
0.0
 20
0.0
 30
0.0
  3
*D8
  1

  0
LINE
  5
409
100
AcDbEntity
  8
0
  6
BYBLOCK
 62
     0
100
AcDbLine
 10
219.575962
 20
161.552677
 30
0.0
 11
215.254669
 21
177.679962
 31
0.0
  0
LINE
  5
40A
100
AcDbEntity
  8
0
  6
BYBLOCK
 62
     0
100
AcDbLine
 10
216.678185
 20
160.77622
 30
0.0
 11
212.356891
 21
176.903505
 31
0.0
  0
LINE
  5
40B
100
AcDbEntity
  8
0
  6
BYBLOCK
 62
     0
100
AcDbLine
 10
217.44534
 20
177.231675
 30
0.0
 11
219.377191
 21
177.749313
 31
0.0
  0
LINE
  5
40C
100
AcDbEntity
  8
0
  6
BYBLOCK
 62
     0
100
AcDbLine
 10
210.683859
 20
175.419941
 30
0.0
 11
208.752007
 21
174.902303
 31
0.0
  0
SOLID
  5
40D
100
AcDbEntity
  8
0
  6
BYBLOCK
 62
     0
100
AcDbTrace
 10
217.359067
 20
177.55365
 30
0.0
 11
217.531613
 21
176.909699
 31
0.0
 12
215.513488
 22
176.714037
 32
0.0
 13
215.513488
 23
176.714037
 33
0.0
  0
SOLID
  5
40E
100
AcDbEntity
  8
0
  6
BYBLOCK
 62
     0
100
AcDbTrace
 10
210.597586
 20
175.741917
 30
0.0
 11
210.770132
 21
175.097966
 31
0.0
 12
212.615711
 22
175.937579
 32
0.0
 13
212.615711
 23
175.937579
 33
0.0
  0
MTEXT
  5
40F
100
AcDbEntity
  8
0
  6
BYBLOCK
 62
     0
100
AcDbMText
 10
214.064599
 20
176.325808
 30
0.0
 40
4.0
 41
0.0
 71
     5
 72
     1
  1
\A1;3
 11
0.965926
 21
0.258819
 31
0.0
  0
POINT
  5
410
100
AcDbEntity
  8
DEFPOINTS
  6
BYBLOCK
 62
     0
100
AcDbPoint
 10
219.834781
 20
160.586751
 30
0.0
  0
POINT
  5
411
100
AcDbEntity
  8
DEFPOINTS
  6
BYBLOCK
 62
     0
100
AcDbPoint
 10
216.937004
 20
159.810294
 30
0.0
  0
POINT
  5
412
100
AcDbEntity
  8
DEFPOINTS
  6
BYBLOCK
 62
     0
100
AcDbPoint
 10
212.615711
 20
175.937579
 30
0.0
  0
ENDBLK
  5
414
100
AcDbEntity
  8
0
100
AcDbBlockEnd
  0
BLOCK
  5
421
100
AcDbEntity
  8
0
100
AcDbBlockBegin
  2
*D9
 70
     1
 10
0.0
 20
0.0
 30
0.0
  3
*D9
  1

  0
LINE
  5
416
100
AcDbEntity
  8
0
  6
BYBLOCK
 62
     0
100
AcDbLine
 10
219.076388
 20
155.687149
 30
0.0
 11
224.413685
 21
156.911114
 31
0.0
  0
LINE
  5
417
100
AcDbEntity
  8
0
  6
BYBLOCK
 62
     0
100
AcDbLine
 10
219.263603
 20
154.870771
 30
0.0
 11
224.6009
 21
156.094736
 31
0.0
  0
LINE
  5
418
100
AcDbEntity
  8
0
  6
BYBLOCK
 62
     0
100
AcDbLine
 10
222.991944
 20
158.636991
 30
0.0
 11
222.544902
 21
160.58639
 31
0.0
  0
LINE
  5
419
100
AcDbEntity
  8
0
  6
BYBLOCK
 62
     0
100
AcDbLine
 10
224.073243
 20
153.921817
 30
0.0
 11
224.520284
 21
151.972418
 31
0.0
  0
LINE
  5
41A
100
AcDbEntity
  8
0
  6
BYBLOCK
 62
     0
100
AcDbLine
 10
224.520284
 20
151.972418
 30
0.0
 11
226.520284
 21
151.972418
 31
0.0
  0
SOLID
  5
41B
100
AcDbEntity
  8
0
  6
BYBLOCK
 62
     0
100
AcDbTrace
 10
223.316844
 20
158.711498
 30
0.0
 11
222.667045
 21
158.562484
 31
0.0
 12
223.438986
 22
156.687593
 32
0.0
 13
223.438986
 23
156.687593
 33
0.0
  0
SOLID
  5
41C
100
AcDbEntity
  8
0
  6
BYBLOCK
 62
     0
100
AcDbTrace
 10
224.398142
 20
153.996324
 30
0.0
 11
223.748343
 21
153.84731
 31
0.0
 12
223.626201
 22
155.871215
 32
0.0
 13
223.626201
 23
155.871215
 33
0.0
  0
MTEXT
  5
41D
100
AcDbEntity
  8
0
  6
BYBLOCK
 62
     0
100
AcDbMText
 10
230.353618
 20
151.972418
 30
0.0
 40
3.5
 41
0.0
 71
     5
 72
     1
  1
\A1;0.7
  0
POINT
  5
41E
100
AcDbEntity
  8
DEFPOINTS
  6
BYBLOCK
 62
     0
100
AcDbPoint
 10
218.101689
 20
155.463628
 30
0.0
  0
POINT
  5
41F
100
AcDbEntity
  8
DEFPOINTS
  6
BYBLOCK
 62
     0
100
AcDbPoint
 10
218.288904
 20
154.64725
 30
0.0
  0
POINT
  5
420
100
AcDbEntity
  8
DEFPOINTS
  6
BYBLOCK
 62
     0
100
AcDbPoint
 10
223.626201
 20
155.871215
 30
0.0
  0
ENDBLK
  5
422
100
AcDbEntity
  8
0
100
AcDbBlockEnd
  0
BLOCK
  5
42F
100
AcDbEntity
  8
0
100
AcDbBlockBegin
  2
*D10
 70
     1
 10
0.0
 20
0.0
 30
0.0
  3
*D10
  1

  0
LINE
  5
424
100
AcDbEntity
  8
0
  6
BYBLOCK
 62
     0
100
AcDbLine
 10
186.05
 20
139.0
 30
0.0
 11
191.347741
 21
139.0
 31
0.0
  0
LINE
  5
425
100
AcDbEntity
  8
0
  6
BYBLOCK
 62
     0
100
AcDbLine
 10
188.5
 20
138.0
 30
0.0
 11
191.347741
 21
138.0
 31
0.0
  0
LINE
  5
426
100
AcDbEntity
  8
0
  6
BYBLOCK
 62
     0
100
AcDbLine
 10
190.347741
 20
136.0
 30
0.0
 11
190.347741
 21
134.0
 31
0.0
  0
LINE
  5
427
100
AcDbEntity
  8
0
  6
BYBLOCK
 62
     0
100
AcDbLine
 10
190.347741
 20
141.0
 30
0.0
 11
190.347741
 21
143.0
 31
0.0
  0
LINE
  5
428
100
AcDbEntity
  8
0
  6
BYBLOCK
 62
     0
100
AcDbLine
 10
190.347741
 20
143.0
 30
0.0
 11
192.347741
 21
143.0
 31
0.0
  0
SOLID
  5
429
100
AcDbEntity
  8
0
  6
BYBLOCK
 62
     0
100
AcDbTrace
 10
190.014408
 20
136.0
 30
0.0
 11
190.681075
 21
136.0
 31
0.0
 12
190.347741
 22
138.0
 32
0.0
 13
190.347741
 23
138.0
 33
0.0
  0
SOLID
  5
42A
100
AcDbEntity
  8
0
  6
BYBLOCK
 62
     0
100
AcDbTrace
 10
190.014408
 20
141.0
 30
0.0
 11
190.681075
 21
141.0
 31
0.0
 12
190.347741
 22
139.0
 32
0.0
 13
190.347741
 23
139.0
 33
0.0
  0
MTEXT
  5
42B
100
AcDbEntity
  8
0
  6
BYBLOCK
 62
     0
100
AcDbMText
 10
193.556075
 20
143.0
 30
0.0
 40
3.5
 41
0.0
 71
     5
 72
     1
  1
\A1;1
  0
POINT
  5
42C
100
AcDbEntity
  8
DEFPOINTS
  6
BYBLOCK
 62
     0
100
AcDbPoint
 10
185.05
 20
139.0
 30
0.0
  0
POINT
  5
42D
100
AcDbEntity
  8
DEFPOINTS
  6
BYBLOCK
 62
     0
100
AcDbPoint
 10
187.5
 20
138.0
 30
0.0
  0
POINT
  5
42E
100
AcDbEntity
  8
DEFPOINTS
  6
BYBLOCK
 62
     0
100
AcDbPoint
 10
190.347741
 20
138.0
 30
0.0
  0
ENDBLK
  5
430
100
AcDbEntity
  8
0
100
AcDbBlockEnd
  0
BLOCK
  5
438
100
AcDbEntity
  8
0
100
AcDbBlockBegin
  2
*D11
 70
     1
 10
0.0
 20
0.0
 30
0.0
  3
*D11
  1

  0
LINE
  5
432
100
AcDbEntity
  8
0
  6
BYBLOCK
 62
     0
100
AcDbLine
 10
205.779394
 20
167.782371
 30
0.0
 11
207.779394
 21
167.782371
 31
0.0
  0
LINE
  5
433
100
AcDbEntity
  8
0
  6
BYBLOCK
 62
     0
100
AcDbLine
 10
207.779394
 20
167.782371
 30
0.0
 11
217.221541
 21
154.582357
 31
0.0
  0
MTEXT
  5
434
100
AcDbEntity
  8
0
  6
BYBLOCK
 62
     0
100
AcDbMText
 10
196.987727
 20
167.782371
 30
0.0
 40
3.5
 41
0.0
 71
     5
 72
     1
  1
\A1;6-R1.2
  0
SOLID
  5
435
100
AcDbEntity
  8
0
  6
BYBLOCK
 62
     0
100
AcDbTrace
 10
216.32907
 20
156.402963
 30
0.0
 11
215.786845
 21
156.015102
 31
0.0
 12
217.221541
 22
154.582357
 32
0.0
 13
217.221541
 23
154.582357
 33
0.0
  0
POINT
  5
436
100
AcDbEntity
  8
DEFPOINTS
  6
BYBLOCK
 62
     0
100
AcDbPoint
 10
217.221541
 20
154.582357
 30
0.0
  0
POINT
  5
437
100
AcDbEntity
  8
DEFPOINTS
  6
BYBLOCK
 62
     0
100
AcDbPoint
 10
216.523391
 20
155.558362
 30
0.0
  0
ENDBLK
  5
439
100
AcDbEntity
  8
0
100
AcDbBlockEnd
  0
BLOCK
  5
441
100
AcDbEntity
  8
0
100
AcDbBlockBegin
  2
*D12
 70
     1
 10
0.0
 20
0.0
 30
0.0
  3
*D12
  1

  0
LINE
  5
43B
100
AcDbEntity
  8
0
  6
BYBLOCK
 62
     0
100
AcDbLine
 10
202.561737
 20
163.303242
 30
0.0
 11
204.561737
 21
163.303242
 31
0.0
  0
LINE
  5
43C
100
AcDbEntity
  8
0
  6
BYBLOCK
 62
     0
100
AcDbLine
 10
204.561737
 20
163.303242
 30
0.0
 11
219.688126
 21
157.60697
 31
0.0
  0
MTEXT
  5
43D
100
AcDbEntity
  8
0
  6
BYBLOCK
 62
     0
100
AcDbMText
 10
194.936737
 20
163.303242
 30
0.0
 40
3.5
 41
0.0
 71
     5
 72
     1
  1
\A1;R4.88
  0
SOLID
  5
43E
100
AcDbEntity
  8
0
  6
BYBLOCK
 62
     0
100
AcDbTrace
 10
217.933913
 20
158.623754
 30
0.0
 11
217.698968
 21
157.999859
 31
0.0
 12
219.688126
 22
157.60697
 32
0.0
 13
219.688126
 23
157.60697
 33
0.0
  0
POINT
  5
43F
100
AcDbEntity
  8
DEFPOINTS
  6
BYBLOCK
 62
     0
100
AcDbPoint
 10
219.688126
 20
157.60697
 30
0.0
  0
POINT
  5
440
100
AcDbEntity
  8
DEFPOINTS
  6
BYBLOCK
 62
     0
100
AcDbPoint
 10
215.125893
 20
159.325009
 30
0.0
  0
ENDBLK
  5
442
100
AcDbEntity
  8
0
100
AcDbBlockEnd
  0
BLOCK
  5
44E
100
AcDbEntity
  8
0
100
AcDbBlockBegin
  2
*D13
 70
     1
 10
0.0
 20
0.0
 30
0.0
  3
*D13
  1

  0
LINE
  5
444
100
AcDbEntity
  8
0
  6
BYBLOCK
 62
     0
100
AcDbLine
 10
194.441119
 20
190.0
 30
0.0
 11
194.441119
 21
198.92186
 31
0.0
  0
LINE
  5
445
100
AcDbEntity
  8
0
  6
BYBLOCK
 62
     0
100
AcDbLine
 10
192.333718
 20
190.0
 30
0.0
 11
192.333718
 21
198.92186
 31
0.0
  0
LINE
  5
446
100
AcDbEntity
  8
0
  6
BYBLOCK
 62
     0
100
AcDbLine
 10
190.333718
 20
197.92186
 30
0.0
 11
188.333718
 21
197.92186
 31
0.0
  0
LINE
  5
447
100
AcDbEntity
  8
0
  6
BYBLOCK
 62
     0
100
AcDbLine
 10
196.441119
 20
197.92186
 30
0.0
 11
198.441119
 21
197.92186
 31
0.0
  0
SOLID
  5
448
100
AcDbEntity
  8
0
  6
BYBLOCK
 62
     0
100
AcDbTrace
 10
190.333718
 20
198.255193
 30
0.0
 11
190.333718
 21
197.588526
 31
0.0
 12
192.333718
 22
197.92186
 32
0.0
 13
192.333718
 23
197.92186
 33
0.0
  0
SOLID
  5
449
100
AcDbEntity
  8
0
  6
BYBLOCK
 62
     0
100
AcDbTrace
 10
196.441119
 20
198.255193
 30
0.0
 11
196.441119
 21
197.588526
 31
0.0
 12
194.441119
 22
197.92186
 32
0.0
 13
194.441119
 23
197.92186
 33
0.0
  0
MTEXT
  5
44A
100
AcDbEntity
  8
0
  6
BYBLOCK
 62
     0
100
AcDbMText
 10
205.482786
 20
197.92186
 30
0.0
 40
3.5
 41
0.0
 71
     5
 72
     1
  1
\A1;6-2.1
  0
POINT
  5
44B
100
AcDbEntity
  8
DEFPOINTS
  6
BYBLOCK
 62
     0
100
AcDbPoint
 10
194.441119
 20
189.0
 30
0.0
  0
POINT
  5
44C
100
AcDbEntity
  8
DEFPOINTS
  6
BYBLOCK
 62
     0
100
AcDbPoint
 10
192.333718
 20
189.0
 30
0.0
  0
POINT
  5
44D
100
AcDbEntity
  8
DEFPOINTS
  6
BYBLOCK
 62
     0
100
AcDbPoint
 10
192.333718
 20
197.92186
 30
0.0
  0
ENDBLK
  5
44F
100
AcDbEntity
  8
0
100
AcDbBlockEnd
  0
BLOCK
  5
45B
100
AcDbEntity
  8
0
100
AcDbBlockBegin
  2
*D14
 70
     1
 10
0.0
 20
0.0
 30
0.0
  3
*D14
  1

  0
LINE
  5
451
100
AcDbEntity
  8
0
  6
BYBLOCK
 62
     0
100
AcDbLine
 10
180.0
 20
158.41239
 30
0.0
 11
180.0
 21
189.0
 31
0.0
  0
LINE
  5
452
100
AcDbEntity
  8
0
  6
BYBLOCK
 62
     0
100
AcDbLine
 10
219.976678
 20
160.810294
 30
0.0
 11
219.976678
 21
189.0
 31
0.0
  0
LINE
  5
453
100
AcDbEntity
  8
0
  6
BYBLOCK
 62
     0
100
AcDbLine
 10
182.0
 20
188.0
 30
0.0
 11
196.25
 21
188.0
 31
0.0
  0
LINE
  5
454
100
AcDbEntity
  8
0
  6
BYBLOCK
 62
     0
100
AcDbLine
 10
217.976678
 20
188.0
 30
0.0
 11
202.75
 21
188.0
 31
0.0
  0
SOLID
  5
455
100
AcDbEntity
  8
0
  6
BYBLOCK
 62
     0
100
AcDbTrace
 10
182.0
 20
188.333333
 30
0.0
 11
182.0
 21
187.666667
 31
0.0
 12
180.0
 22
188.0
 32
0.0
 13
180.0
 23
188.0
 33
0.0
  0
SOLID
  5
456
100
AcDbEntity
  8
0
  6
BYBLOCK
 62
     0
100
AcDbTrace
 10
217.976678
 20
188.333333
 30
0.0
 11
217.976678
 21
187.666667
 31
0.0
 12
219.976678
 22
188.0
 32
0.0
 13
219.976678
 23
188.0
 33
0.0
  0
MTEXT
  5
457
100
AcDbEntity
  8
0
  6
BYBLOCK
 62
     0
100
AcDbMText
 10
199.5
 20
188.0
 30
0.0
 40
3.5
 41
0.0
 71
     5
 72
     1
  1
\A1;40
  0
POINT
  5
458
100
AcDbEntity
  8
DEFPOINTS
  6
BYBLOCK
 62
     0
100
AcDbPoint
 10
180.0
 20
157.41239
 30
0.0
  0
POINT
  5
459
100
AcDbEntity
  8
DEFPOINTS
  6
BYBLOCK
 62
     0
100
AcDbPoint
 10
219.976678
 20
159.810294
 30
0.0
  0
POINT
  5
45A
100
AcDbEntity
  8
DEFPOINTS
  6
BYBLOCK
 62
     0
100
AcDbPoint
 10
219.976678
 20
188.0
 30
0.0
  0
ENDBLK
  5
45C
100
AcDbEntity
  8
0
100
AcDbBlockEnd
  0
BLOCK
  5
468
100
AcDbEntity
  8
0
100
AcDbBlockBegin
  2
*D15
 70
     1
 10
0.0
 20
0.0
 30
0.0
  3
*D15
  1

  0
LINE
  5
45E
100
AcDbEntity
  8
0
  6
BYBLOCK
 62
     0
100
AcDbLine
 10
174.95
 20
138.0
 30
0.0
 11
174.95
 21
121.206804
 31
0.0
  0
LINE
  5
45F
100
AcDbEntity
  8
0
  6
BYBLOCK
 62
     0
100
AcDbLine
 10
185.05
 20
138.0
 30
0.0
 11
185.05
 21
121.206804
 31
0.0
  0
LINE
  5
460
100
AcDbEntity
  8
0
  6
BYBLOCK
 62
     0
100
AcDbLine
 10
176.95
 20
122.206804
 30
0.0
 11
183.05
 21
122.206804
 31
0.0
  0
LINE
  5
461
100
AcDbEntity
  8
0
  6
BYBLOCK
 62
     0
100
AcDbLine
 10
185.05
 20
122.206804
 30
0.0
 11
192.140374
 21
122.206804
 31
0.0
  0
SOLID
  5
462
100
AcDbEntity
  8
0
  6
BYBLOCK
 62
     0
100
AcDbTrace
 10
176.95
 20
122.540137
 30
0.0
 11
176.95
 21
121.87347
 31
0.0
 12
174.95
 22
122.206804
 32
0.0
 13
174.95
 23
122.206804
 33
0.0
  0
SOLID
  5
463
100
AcDbEntity
  8
0
  6
BYBLOCK
 62
     0
100
AcDbTrace
 10
183.05
 20
122.540137
 30
0.0
 11
183.05
 21
121.87347
 31
0.0
 12
185.05
 22
122.206804
 32
0.0
 13
185.05
 23
122.206804
 33
0.0
  0
MTEXT
  5
464
100
AcDbEntity
  8
0
  6
BYBLOCK
 62
     0
100
AcDbMText
 10
198.307041
 20
122.206804
 30
0.0
 40
3.5
 41
0.0
 71
     5
 72
     1
  1
\A1;\U+220510.1
  0
POINT
  5
465
100
AcDbEntity
  8
DEFPOINTS
  6
BYBLOCK
 62
     0
100
AcDbPoint
 10
174.95
 20
139.0
 30
0.0
  0
POINT
  5
466
100
AcDbEntity
  8
DEFPOINTS
  6
BYBLOCK
 62
     0
100
AcDbPoint
 10
185.05
 20
139.0
 30
0.0
  0
POINT
  5
467
100
AcDbEntity
  8
DEFPOINTS
  6
BYBLOCK
 62
     0
100
AcDbPoint
 10
185.05
 20
122.206804
 30
0.0
  0
ENDBLK
  5
469
100
AcDbEntity
  8
0
100
AcDbBlockEnd
  0
BLOCK
  5
475
100
AcDbEntity
  8
0
100
AcDbBlockBegin
  2
*D16
 70
     1
 10
0.0
 20
0.0
 30
0.0
  3
*D16
  1

  0
LINE
  5
46B
100
AcDbEntity
  8
0
  6
BYBLOCK
 62
     0
100
AcDbLine
 10
185.25
 20
137.0
 30
0.0
 11
185.25
 21
115.125
 31
0.0
  0
LINE
  5
46C
100
AcDbEntity
  8
0
  6
BYBLOCK
 62
     0
100
AcDbLine
 10
174.75
 20
137.0
 30
0.0
 11
174.75
 21
115.125
 31
0.0
  0
LINE
  5
46D
100
AcDbEntity
  8
0
  6
BYBLOCK
 62
     0
100
AcDbLine
 10
183.25
 20
116.125
 30
0.0
 11
182.625
 21
116.125
 31
0.0
  0
LINE
  5
46E
100
AcDbEntity
  8
0
  6
BYBLOCK
 62
     0
100
AcDbLine
 10
176.75
 20
116.125
 30
0.0
 11
177.375
 21
116.125
 31
0.0
  0
SOLID
  5
46F
100
AcDbEntity
  8
0
  6
BYBLOCK
 62
     0
100
AcDbTrace
 10
183.25
 20
116.458333
 30
0.0
 11
183.25
 21
115.791667
 31
0.0
 12
185.25
 22
116.125
 32
0.0
 13
185.25
 23
116.125
 33
0.0
  0
SOLID
  5
470
100
AcDbEntity
  8
0
  6
BYBLOCK
 62
     0
100
AcDbTrace
 10
176.75
 20
116.458333
 30
0.0
 11
176.75
 21
115.791667
 31
0.0
 12
174.75
 22
116.125
 32
0.0
 13
174.75
 23
116.125
 33
0.0
  0
MTEXT
  5
471
100
AcDbEntity
  8
0
  6
BYBLOCK
 62
     0
100
AcDbMText
 10
180.0
 20
116.125
 30
0.0
 40
3.5
 41
0.0
 71
     5
 72
     1
  1
\A1;10.5
  0
POINT
  5
472
100
AcDbEntity
  8
DEFPOINTS
  6
BYBLOCK
 62
     0
100
AcDbPoint
 10
185.25
 20
138.0
 30
0.0
  0
POINT
  5
473
100
AcDbEntity
  8
DEFPOINTS
  6
BYBLOCK
 62
     0
100
AcDbPoint
 10
174.75
 20
138.0
 30
0.0
  0
POINT
  5
474
100
AcDbEntity
  8
DEFPOINTS
  6
BYBLOCK
 62
     0
100
AcDbPoint
 10
174.75
 20
116.125
 30
0.0
  0
ENDBLK
  5
476
100
AcDbEntity
  8
0
100
AcDbBlockEnd
  0
BLOCK
  5
482
100
AcDbEntity
  8
0
100
AcDbBlockBegin
  2
*D17
 70
     1
 10
0.0
 20
0.0
 30
0.0
  3
*D17
  1

  0
LINE
  5
478
100
AcDbEntity
  8
0
  6
BYBLOCK
 62
     0
100
AcDbLine
 10
217.937004
 20
226.0
 30
0.0
 11
245.247481
 21
226.0
 31
0.0
  0
LINE
  5
479
100
AcDbEntity
  8
0
  6
BYBLOCK
 62
     0
100
AcDbLine
 10
217.937004
 20
217.0
 30
0.0
 11
245.247481
 21
217.0
 31
0.0
  0
LINE
  5
47A
100
AcDbEntity
  8
0
  6
BYBLOCK
 62
     0
100
AcDbLine
 10
244.247481
 20
224.0
 30
0.0
 11
244.247481
 21
223.375
 31
0.0
  0
LINE
  5
47B
100
AcDbEntity
  8
0
  6
BYBLOCK
 62
     0
100
AcDbLine
 10
244.247481
 20
219.0
 30
0.0
 11
244.247481
 21
219.625
 31
0.0
  0
SOLID
  5
47C
100
AcDbEntity
  8
0
  6
BYBLOCK
 62
     0
100
AcDbTrace
 10
243.914147
 20
224.0
 30
0.0
 11
244.580814
 21
224.0
 31
0.0
 12
244.247481
 22
226.0
 32
0.0
 13
244.247481
 23
226.0
 33
0.0
  0
SOLID
  5
47D
100
AcDbEntity
  8
0
  6
BYBLOCK
 62
     0
100
AcDbTrace
 10
243.914147
 20
219.0
 30
0.0
 11
244.580814
 21
219.0
 31
0.0
 12
244.247481
 22
217.0
 32
0.0
 13
244.247481
 23
217.0
 33
0.0
  0
MTEXT
  5
47E
100
AcDbEntity
  8
0
  6
BYBLOCK
 62
     0
100
AcDbMText
 10
244.247481
 20
221.181542
 30
0.0
 40
3.5
 41
0.0
 71
     5
 72
     1
  1
\A1;\U+22059
 11
0.0
 21
1.0
 31
0.0
  0
POINT
  5
47F
100
AcDbEntity
  8
DEFPOINTS
  6
BYBLOCK
 62
     0
100
AcDbPoint
 10
216.937004
 20
226.0
 30
0.0
  0
POINT
  5
480
100
AcDbEntity
  8
DEFPOINTS
  6
BYBLOCK
 62
     0
100
AcDbPoint
 10
216.937004
 20
217.0
 30
0.0
  0
POINT
  5
481
100
AcDbEntity
  8
DEFPOINTS
  6
BYBLOCK
 62
     0
100
AcDbPoint
 10
244.247481
 20
217.0
 30
0.0
  0
ENDBLK
  5
483
100
AcDbEntity
  8
0
100
AcDbBlockEnd
  0
BLOCK
  5
48B
100
AcDbEntity
  8
0
100
AcDbBlockBegin
  2
*D18
 70
     1
 10
0.0
 20
0.0
 30
0.0
  3
*D18
  1

  0
LINE
  5
485
100
AcDbEntity
  8
0
  6
BYBLOCK
 62
     0
100
AcDbLine
 10
164.738254
 20
243.179209
 30
0.0
 11
166.738254
 21
243.179209
 31
0.0
  0
LINE
  5
486
100
AcDbEntity
  8
0
  6
BYBLOCK
 62
     0
100
AcDbLine
 10
166.738254
 20
243.179209
 30
0.0
 11
176.869007
 21
226.618289
 31
0.0
  0
MTEXT
  5
487
100
AcDbEntity
  8
0
  6
BYBLOCK
 62
     0
100
AcDbMText
 10
161.196587
 20
243.179209
 30
0.0
 40
3.5
 41
0.0
 71
     5
 72
     1
  1
\A1;\U+22058
  0
SOLID
  5
488
100
AcDbEntity
  8
0
  6
BYBLOCK
 62
     0
100
AcDbTrace
 10
177.153356
 20
226.792233
 30
0.0
 11
176.584658
 21
226.444345
 31
0.0
 12
177.912671
 22
224.912193
 32
0.0
 13
177.912671
 23
224.912193
 33
0.0
  0
POINT
  5
489
100
AcDbEntity
  8
DEFPOINTS
  6
BYBLOCK
 62
     0
100
AcDbPoint
 10
177.912671
 20
224.912193
 30
0.0
  0
POINT
  5
48A
100
AcDbEntity
  8
DEFPOINTS
  6
BYBLOCK
 62
     0
100
AcDbPoint
 10
182.087329
 20
218.087807
 30
0.0
  0
ENDBLK
  5
48C
100
AcDbEntity
  8
0
100
AcDbBlockEnd
  0
BLOCK
  5
494
100
AcDbEntity
  8
0
100
AcDbBlockBegin
  2
*D19
 70
     1
 10
0.0
 20
0.0
 30
0.0
  3
*D19
  1

  0
LINE
  5
48E
100
AcDbEntity
  8
0
  6
BYBLOCK
 62
     0
100
AcDbLine
 10
160.567722
 20
237.719934
 30
0.0
 11
162.567722
 21
237.719934
 31
0.0
  0
LINE
  5
48F
100
AcDbEntity
  8
0
  6
BYBLOCK
 62
     0
100
AcDbLine
 10
162.567722
 20
237.719934
 30
0.0
 11
176.522497
 21
224.735657
 31
0.0
  0
MTEXT
  5
490
100
AcDbEntity
  8
0
  6
BYBLOCK
 62
     0
100
AcDbMText
 10
154.692722
 20
237.719934
 30
0.0
 40
3.5
 41
0.0
 71
     5
 72
     1
  1
\A1;\U+22055.5
  0
SOLID
  5
491
100
AcDbEntity
  8
0
  6
BYBLOCK
 62
     0
100
AcDbTrace
 10
176.749561
 20
224.979692
 30
0.0
 11
176.295433
 21
224.491621
 31
0.0
 12
177.986709
 22
223.373275
 32
0.0
 13
177.986709
 23
223.373275
 33
0.0
  0
POINT
  5
492
100
AcDbEntity
  8
DEFPOINTS
  6
BYBLOCK
 62
     0
100
AcDbPoint
 10
177.986709
 20
223.373275
 30
0.0
  0
POINT
  5
493
100
AcDbEntity
  8
DEFPOINTS
  6
BYBLOCK
 62
     0
100
AcDbPoint
 10
182.013291
 20
219.626725
 30
0.0
  0
ENDBLK
  5
495
100
AcDbEntity
  8
0
100
AcDbBlockEnd
  0
BLOCK
  5
4A3
100
AcDbEntity
  8
0
100
AcDbBlockBegin
  2
*D20
 70
     1
 10
0.0
 20
0.0
 30
0.0
  3
*D20
  1

  0
LINE
  5
497
100
AcDbEntity
  8
0
  6
BYBLOCK
 62
     0
100
AcDbLine
 10
84.470149
 20
134.200446
 30
0.0
 11
84.07459
 21
120.95531
 31
0.0
  0
LINE
  5
498
100
AcDbEntity
  8
0
  6
BYBLOCK
 62
     0
100
AcDbLine
 10
71.029851
 20
134.200446
 30
0.0
 11
71.42541
 21
120.95531
 31
0.0
  0
ARC
  5
499
100
AcDbEntity
  8
0
  6
BYBLOCK
 62
     0
100
AcDbCircle
 10
77.75
 20
-90.821372
 30
0.0
 40
212.871102
100
AcDbArc
 50
87.21277
 51
87.751086
  0
ARC
  5
49A
100
AcDbEntity
  8
0
  6
BYBLOCK
 62
     0
100
AcDbCircle
 10
77.75
 20
-90.821372
 30
0.0
 40
212.871102
100
AcDbArc
 50
92.248914
 51
92.78723
  0
SOLID
  5
49B
100
AcDbEntity
  8
0
  6
BYBLOCK
 62
     0
100
AcDbTrace
 10
86.091732
 20
121.552638
 30
0.0
 11
86.114763
 21
122.218906
 31
0.0
 12
84.104442
 22
121.954865
 32
0.0
 13
84.104442
 23
121.954865
 33
0.0
  0
SOLID
  5
49C
100
AcDbEntity
  8
0
  6
BYBLOCK
 62
     0
100
AcDbTrace
 10
69.385237
 20
122.218906
 30
0.0
 11
69.408268
 21
121.552638
 31
0.0
 12
71.395558
 22
121.954865
 32
0.0
 13
71.395558
 23
121.954865
 33
0.0
  0
MTEXT
  5
49D
100
AcDbEntity
  8
0
  6
BYBLOCK
 62
     0
100
AcDbMText
 10
79.020578
 20
122.045937
 30
0.0
 40
3.5
 41
0.0
 71
     5
 72
     1
  1
\A1;3.42°
  0
POINT
  5
49E
100
AcDbEntity
  8
DEFPOINTS
  6
BYBLOCK
 62
     0
100
AcDbPoint
 10
75.631573
 20
122.039188
 30
0.0
  0
POINT
  5
49F
100
AcDbEntity
  8
DEFPOINTS
  6
BYBLOCK
 62
     0
100
AcDbPoint
 10
71.0
 20
135.2
 30
0.0
  0
POINT
  5
4A0
100
AcDbEntity
  8
DEFPOINTS
  6
BYBLOCK
 62
     0
100
AcDbPoint
 10
84.5
 20
135.2
 30
0.0
  0
POINT
  5
4A1
100
AcDbEntity
  8
DEFPOINTS
  6
BYBLOCK
 62
     0
100
AcDbPoint
 10
84.984884
 20
151.436187
 30
0.0
  0
POINT
  5
4A2
100
AcDbEntity
  8
DEFPOINTS
  6
BYBLOCK
 62
     0
100
AcDbPoint
 10
70.515116
 20
151.436187
 30
0.0
  0
ENDBLK
  5
4A4
100
AcDbEntity
  8
0
100
AcDbBlockEnd
  0
BLOCK
  5
4AC
100
AcDbEntity
  8
0
100
AcDbBlockBegin
  2
*D21
 70
     1
 10
0.0
 20
0.0
 30
0.0
  3
*D21
  1

  0
LINE
  5
4A6
100
AcDbEntity
  8
0
  6
BYBLOCK
 62
     0
100
AcDbLine
 10
152.085197
 20
168.20786
 30
0.0
 11
154.085197
 21
168.20786
 31
0.0
  0
LINE
  5
4A7
100
AcDbEntity
  8
0
  6
BYBLOCK
 62
     0
100
AcDbLine
 10
154.085197
 20
168.20786
 30
0.0
 11
173.132135
 21
152.455872
 31
0.0
  0
MTEXT
  5
4A8
100
AcDbEntity
  8
0
  6
BYBLOCK
 62
     0
100
AcDbMText
 10
146.79353
 20
168.20786
 30
0.0
 40
3.5
 41
0.0
 71
     5
 72
     1
  1
\A1;R1.6
  0
SOLID
  5
4A9
100
AcDbEntity
  8
0
  6
BYBLOCK
 62
     0
100
AcDbTrace
 10
171.803344
 20
153.987351
 30
0.0
 11
171.378475
 21
153.473609
 31
0.0
 12
173.132135
 22
152.455872
 32
0.0
 13
173.132135
 23
152.455872
 33
0.0
  0
POINT
  5
4AA
100
AcDbEntity
  8
DEFPOINTS
  6
BYBLOCK
 62
     0
100
AcDbPoint
 10
173.132135
 20
152.455872
 30
0.0
  0
POINT
  5
4AB
100
AcDbEntity
  8
DEFPOINTS
  6
BYBLOCK
 62
     0
100
AcDbPoint
 10
174.365116
 20
151.436187
 30
0.0
  0
ENDBLK
  5
4AD
100
AcDbEntity
  8
0
100
AcDbBlockEnd
  0
BLOCK
  5
4BA
100
AcDbEntity
  8
0
100
AcDbBlockBegin
  2
*D22
 70
     1
 10
0.0
 20
0.0
 30
0.0
  3
*D22
  1

  0
LINE
  5
4AF
100
AcDbEntity
  8
0
  6
BYBLOCK
 62
     0
100
AcDbLine
 10
175.5
 20
148.5
 30
0.0
 11
165.256475
 21
148.5
 31
0.0
  0
LINE
  5
4B0
100
AcDbEntity
  8
0
  6
BYBLOCK
 62
     0
100
AcDbLine
 10
173.95
 20
147.015025
 30
0.0
 11
165.256475
 21
147.015025
 31
0.0
  0
LINE
  5
4B1
100
AcDbEntity
  8
0
  6
BYBLOCK
 62
     0
100
AcDbLine
 10
166.256475
 20
150.5
 30
0.0
 11
166.256475
 21
152.5
 31
0.0
  0
LINE
  5
4B2
100
AcDbEntity
  8
0
  6
BYBLOCK
 62
     0
100
AcDbLine
 10
166.256475
 20
145.015025
 30
0.0
 11
166.256475
 21
141.689499
 31
0.0
  0
LINE
  5
4B3
100
AcDbEntity
  8
0
  6
BYBLOCK
 62
     0
100
AcDbLine
 10
166.256475
 20
141.689499
 30
0.0
 11
164.256475
 21
141.689499
 31
0.0
  0
SOLID
  5
4B4
100
AcDbEntity
  8
0
  6
BYBLOCK
 62
     0
100
AcDbTrace
 10
165.923142
 20
150.5
 30
0.0
 11
166.589808
 21
150.5
 31
0.0
 12
166.256475
 22
148.5
 32
0.0
 13
166.256475
 23
148.5
 33
0.0
  0
SOLID
  5
4B5
100
AcDbEntity
  8
0
  6
BYBLOCK
 62
     0
100
AcDbTrace
 10
165.923142
 20
145.015025
 30
0.0
 11
166.589808
 21
145.015025
 31
0.0
 12
166.256475
 22
147.015025
 32
0.0
 13
166.256475
 23
147.015025
 33
0.0
  0
MTEXT
  5
4B6
100
AcDbEntity
  8
0
  6
BYBLOCK
 62
     0
100
AcDbMText
 10
160.714808
 20
141.689499
 30
0.0
 40
3.5
 41
0.0
 71
     5
 72
     1
  1
\A1;1.5
  0
POINT
  5
4B7
100
AcDbEntity
  8
DEFPOINTS
  6
BYBLOCK
 62
     0
100
AcDbPoint
 10
176.5
 20
148.5
 30
0.0
  0
POINT
  5
4B8
100
AcDbEntity
  8
DEFPOINTS
  6
BYBLOCK
 62
     0
100
AcDbPoint
 10
174.95
 20
147.015025
 30
0.0
  0
POINT
  5
4B9
100
AcDbEntity
  8
DEFPOINTS
  6
BYBLOCK
 62
     0
100
AcDbPoint
 10
166.256475
 20
147.015025
 30
0.0
  0
ENDBLK
  5
4BB
100
AcDbEntity
  8
0
100
AcDbBlockEnd
  0
BLOCK
  5
4C8
100
AcDbEntity
  8
0
100
AcDbBlockBegin
  2
*D23
 70
     1
 10
0.0
 20
0.0
 30
0.0
  3
*D23
  1

  0
LINE
  5
4BD
100
AcDbEntity
  8
0
  6
BYBLOCK
 62
     0
100
AcDbLine
 10
173.95
 20
147.015025
 30
0.0
 11
153.145755
 21
147.015025
 31
0.0
  0
LINE
  5
4BE
100
AcDbEntity
  8
0
  6
BYBLOCK
 62
     0
100
AcDbLine
 10
173.95
 20
145.0
 30
0.0
 11
153.145755
 21
145.0
 31
0.0
  0
LINE
  5
4BF
100
AcDbEntity
  8
0
  6
BYBLOCK
 62
     0
100
AcDbLine
 10
154.145755
 20
149.015025
 30
0.0
 11
154.145755
 21
151.015025
 31
0.0
  0
LINE
  5
4C0
100
AcDbEntity
  8
0
  6
BYBLOCK
 62
     0
100
AcDbLine
 10
154.145755
 20
143.0
 30
0.0
 11
154.145755
 21
141.0
 31
0.0
  0
LINE
  5
4C1
100
AcDbEntity
  8
0
  6
BYBLOCK
 62
     0
100
AcDbLine
 10
154.145755
 20
141.0
 30
0.0
 11
152.145755
 21
141.0
 31
0.0
  0
SOLID
  5
4C2
100
AcDbEntity
  8
0
  6
BYBLOCK
 62
     0
100
AcDbTrace
 10
153.812422
 20
149.015025
 30
0.0
 11
154.479088
 21
149.015025
 31
0.0
 12
154.145755
 22
147.015025
 32
0.0
 13
154.145755
 23
147.015025
 33
0.0
  0
SOLID
  5
4C3
100
AcDbEntity
  8
0
  6
BYBLOCK
 62
     0
100
AcDbTrace
 10
153.812422
 20
143.0
 30
0.0
 11
154.479088
 21
143.0
 31
0.0
 12
154.145755
 22
145.0
 32
0.0
 13
154.145755
 23
145.0
 33
0.0
  0
MTEXT
  5
4C4
100
AcDbEntity
  8
0
  6
BYBLOCK
 62
     0
100
AcDbMText
 10
150.354088
 20
141.0
 30
0.0
 40
3.5
 41
0.0
 71
     5
 72
     1
  1
\A1;2
  0
POINT
  5
4C5
100
AcDbEntity
  8
DEFPOINTS
  6
BYBLOCK
 62
     0
100
AcDbPoint
 10
174.95
 20
147.015025
 30
0.0
  0
POINT
  5
4C6
100
AcDbEntity
  8
DEFPOINTS
  6
BYBLOCK
 62
     0
100
AcDbPoint
 10
174.95
 20
145.0
 30
0.0
  0
POINT
  5
4C7
100
AcDbEntity
  8
DEFPOINTS
  6
BYBLOCK
 62
     0
100
AcDbPoint
 10
154.145755
 20
145.0
 30
0.0
  0
ENDBLK
  5
4C9
100
AcDbEntity
  8
0
100
AcDbBlockEnd
  0
BLOCK
  5
4D4
100
AcDbEntity
  8
0
100
AcDbBlockBegin
  2
*D24
 70
     1
 10
0.0
 20
0.0
 30
0.0
  3
*D24
  1

  0
LINE
  5
4CB
100
AcDbEntity
  8
0
  6
BYBLOCK
 62
     0
100
AcDbLine
 10
173.25
 20
134.2
 30
0.0
 11
173.25
 21
105.998812
 31
0.0
  0
LINE
  5
4CC
100
AcDbEntity
  8
0
  6
BYBLOCK
 62
     0
100
AcDbLine
 10
186.75
 20
134.2
 30
0.0
 11
186.75
 21
105.998812
 31
0.0
  0
LINE
  5
4CD
100
AcDbEntity
  8
0
  6
BYBLOCK
 62
     0
100
AcDbLine
 10
175.25
 20
106.998812
 30
0.0
 11
184.75
 21
106.998812
 31
0.0
  0
SOLID
  5
4CE
100
AcDbEntity
  8
0
  6
BYBLOCK
 62
     0
100
AcDbTrace
 10
175.25
 20
107.332146
 30
0.0
 11
175.25
 21
106.665479
 31
0.0
 12
173.25
 22
106.998812
 32
0.0
 13
173.25
 23
106.998812
 33
0.0
  0
SOLID
  5
4CF
100
AcDbEntity
  8
0
  6
BYBLOCK
 62
     0
100
AcDbTrace
 10
184.75
 20
107.332146
 30
0.0
 11
184.75
 21
106.665479
 31
0.0
 12
186.75
 22
106.998812
 32
0.0
 13
186.75
 23
106.998812
 33
0.0
  0
MTEXT
  5
4D0
100
AcDbEntity
  8
0
  6
BYBLOCK
 62
     0
100
AcDbMText
 10
180.0
 20
106.998812
 30
0.0
 40
3.5
 41
0.0
 71
     5
 72
     1
  1
\A1;\U+220513.5
  0
POINT
  5
4D1
100
AcDbEntity
  8
DEFPOINTS
  6
BYBLOCK
 62
     0
100
AcDbPoint
 10
173.25
 20
135.2
 30
0.0
  0
POINT
  5
4D2
100
AcDbEntity
  8
DEFPOINTS
  6
BYBLOCK
 62
     0
100
AcDbPoint
 10
186.75
 20
135.2
 30
0.0
  0
POINT
  5
4D3
100
AcDbEntity
  8
DEFPOINTS
  6
BYBLOCK
 62
     0
100
AcDbPoint
 10
186.75
 20
106.998812
 30
0.0
  0
ENDBLK
  5
4D5
100
AcDbEntity
  8
0
100
AcDbBlockEnd
  0
BLOCK
  5
4DD
100
AcDbEntity
  8
0
100
AcDbBlockBegin
  2
*D25
 70
     1
 10
0.0
 20
0.0
 30
0.0
  3
*D25
  1

  0
LINE
  5
4D7
100
AcDbEntity
  8
0
  6
BYBLOCK
 62
     0
100
AcDbLine
 10
156.570706
 20
213.038389
 30
0.0
 11
158.570706
 21
213.038389
 31
0.0
  0
LINE
  5
4D8
100
AcDbEntity
  8
0
  6
BYBLOCK
 62
     0
100
AcDbLine
 10
158.570706
 20
213.038389
 30
0.0
 11
171.484555
 21
207.560054
 31
0.0
  0
MTEXT
  5
4D9
100
AcDbEntity
  8
0
  6
BYBLOCK
 62
     0
100
AcDbMText
 10
149.529039
 20
213.038389
 30
0.0
 40
3.5
 41
0.0
 71
     5
 72
     1
  1
\A1;\U+220514.5
  0
SOLID
  5
4DA
100
AcDbEntity
  8
0
  6
BYBLOCK
 62
     0
100
AcDbTrace
 10
171.614733
 20
207.866917
 30
0.0
 11
171.354377
 21
207.253191
 31
0.0
 12
173.325732
 22
206.778986
 32
0.0
 13
173.325732
 23
206.778986
 33
0.0
  0
POINT
  5
4DB
100
AcDbEntity
  8
DEFPOINTS
  6
BYBLOCK
 62
     0
100
AcDbPoint
 10
173.325732
 20
206.778986
 30
0.0
  0
POINT
  5
4DC
100
AcDbEntity
  8
DEFPOINTS
  6
BYBLOCK
 62
     0
100
AcDbPoint
 10
186.674268
 20
201.116248
 30
0.0
  0
ENDBLK
  5
4DE
100
AcDbEntity
  8
0
100
AcDbBlockEnd
  0
BLOCK
  5
4EC
100
AcDbEntity
  8
0
100
AcDbBlockBegin
  2
*D26
 70
     1
 10
0.0
 20
0.0
 30
0.0
  3
*D26
  1

  0
LINE
  5
4E0
100
AcDbEntity
  8
0
  6
BYBLOCK
 62
     0
100
AcDbLine
 10
91.393749
 20
164.229025
 30
0.0
 11
89.050067
 21
123.841629
 31
0.0
  0
LINE
  5
4E1
100
AcDbEntity
  8
0
  6
BYBLOCK
 62
     0
100
AcDbLine
 10
105.979383
 20
164.229025
 30
0.0
 11
108.323065
 21
123.841629
 31
0.0
  0
ARC
  5
4E2
100
AcDbEntity
  8
0
  6
BYBLOCK
 62
     0
100
AcDbCircle
 10
98.686566
 20
289.902177
 30
0.0
 40
165.339916
100
AcDbArc
 50
265.292707
 51
265.985778
  0
ARC
  5
4E3
100
AcDbEntity
  8
0
  6
BYBLOCK
 62
     0
100
AcDbCircle
 10
98.686566
 20
289.902177
 30
0.0
 40
165.339916
100
AcDbArc
 50
274.014222
 51
274.707293
  0
SOLID
  5
4E4
100
AcDbEntity
  8
0
  6
BYBLOCK
 62
     0
100
AcDbTrace
 10
87.133419
 20
125.300539
 30
0.0
 11
87.090773
 21
124.635238
 31
0.0
 12
89.108
 22
124.839949
 32
0.0
 13
89.108
 23
124.839949
 33
0.0
  0
SOLID
  5
4E5
100
AcDbEntity
  8
0
  6
BYBLOCK
 62
     0
100
AcDbTrace
 10
110.282359
 20
124.635238
 30
0.0
 11
110.239713
 21
125.300539
 31
0.0
 12
108.265132
 22
124.839949
 32
0.0
 13
108.265132
 23
124.839949
 33
0.0
  0
MTEXT
  5
4E6
100
AcDbEntity
  8
0
  6
BYBLOCK
 62
     0
100
AcDbMText
 10
101.10514
 20
124.579951
 30
0.0
 40
3.5
 41
0.0
 71
     5
 72
     1
  1
\A1;6.64°
 11
0.999893
 21
0.014628
 31
0.0
  0
POINT
  5
4E7
100
AcDbEntity
  8
DEFPOINTS
  6
BYBLOCK
 62
     0
100
AcDbPoint
 10
95.492121
 20
124.593122
 30
0.0
  0
POINT
  5
4E8
100
AcDbEntity
  8
DEFPOINTS
  6
BYBLOCK
 62
     0
100
AcDbPoint
 10
91.451681
 20
165.227345
 30
0.0
  0
POINT
  5
4E9
100
AcDbEntity
  8
DEFPOINTS
  6
BYBLOCK
 62
     0
100
AcDbPoint
 10
105.92145
 20
165.227345
 30
0.0
  0
POINT
  5
4EA
100
AcDbEntity
  8
DEFPOINTS
  6
BYBLOCK
 62
     0
100
AcDbPoint
 10
105.791993
 20
167.458212
 30
0.0
  0
POINT
  5
4EB
100
AcDbEntity
  8
DEFPOINTS
  6
BYBLOCK
 62
     0
100
AcDbPoint
 10
91.581139
 20
167.458212
 30
0.0
  0
ENDBLK
  5
4ED
100
AcDbEntity
  8
0
100
AcDbBlockEnd
  0
BLOCK
  5
4F9
100
AcDbEntity
  8
0
100
AcDbBlockBegin
  2
*D27
 70
     1
 10
0.0
 20
0.0
 30
0.0
  3
*D27
  1

  0
LINE
  5
4EF
100
AcDbEntity
  8
0
  6
BYBLOCK
 62
     0
100
AcDbLine
 10
194.886566
 20
158.291158
 30
0.0
 11
163.75
 21
158.291158
 31
0.0
  0
LINE
  5
4F0
100
AcDbEntity
  8
0
  6
BYBLOCK
 62
     0
100
AcDbLine
 10
193.186566
 20
148.791158
 30
0.0
 11
163.75
 21
148.791158
 31
0.0
  0
LINE
  5
4F1
100
AcDbEntity
  8
0
  6
BYBLOCK
 62
     0
100
AcDbLine
 10
164.75
 20
156.291158
 30
0.0
 11
164.75
 21
155.666158
 31
0.0
  0
LINE
  5
4F2
100
AcDbEntity
  8
0
  6
BYBLOCK
 62
     0
100
AcDbLine
 10
164.75
 20
150.791158
 30
0.0
 11
164.75
 21
151.416158
 31
0.0
  0
SOLID
  5
4F3
100
AcDbEntity
  8
0
  6
BYBLOCK
 62
     0
100
AcDbTrace
 10
164.416667
 20
156.291158
 30
0.0
 11
165.083333
 21
156.291158
 31
0.0
 12
164.75
 22
158.291158
 32
0.0
 13
164.75
 23
158.291158
 33
0.0
  0
SOLID
  5
4F4
100
AcDbEntity
  8
0
  6
BYBLOCK
 62
     0
100
AcDbTrace
 10
164.416667
 20
150.791158
 30
0.0
 11
165.083333
 21
150.791158
 31
0.0
 12
164.75
 22
148.791158
 32
0.0
 13
164.75
 23
148.791158
 33
0.0
  0
MTEXT
  5
4F5
100
AcDbEntity
  8
0
  6
BYBLOCK
 62
     0
100
AcDbMText
 10
164.75
 20
154.0
 30
0.0
 40
3.5
 41
0.0
 71
     5
 72
     1
  1
\A1;9.5
 11
0.0
 21
1.0
 31
0.0
  0
POINT
  5
4F6
100
AcDbEntity
  8
DEFPOINTS
  6
BYBLOCK
 62
     0
100
AcDbPoint
 10
195.886566
 20
158.291158
 30
0.0
  0
POINT
  5
4F7
100
AcDbEntity
  8
DEFPOINTS
  6
BYBLOCK
 62
     0
100
AcDbPoint
 10
194.186566
 20
148.791158
 30
0.0
  0
POINT
  5
4F8
100
AcDbEntity
  8
DEFPOINTS
  6
BYBLOCK
 62
     0
100
AcDbPoint
 10
164.75
 20
148.791158
 30
0.0
  0
ENDBLK
  5
4FA
100
AcDbEntity
  8
0
100
AcDbBlockEnd
  0
BLOCK
  5
506
100
AcDbEntity
  8
0
100
AcDbBlockBegin
  2
*D28
 70
     1
 10
0.0
 20
0.0
 30
0.0
  3
*D28
  1

  0
LINE
  5
4FC
100
AcDbEntity
  8
0
  6
BYBLOCK
 62
     0
100
AcDbLine
 10
192.701681
 20
165.227345
 30
0.0
 11
156.5
 21
165.227345
 31
0.0
  0
LINE
  5
4FD
100
AcDbEntity
  8
0
  6
BYBLOCK
 62
     0
100
AcDbLine
 10
193.186566
 20
148.791158
 30
0.0
 11
156.5
 21
148.791158
 31
0.0
  0
LINE
  5
4FE
100
AcDbEntity
  8
0
  6
BYBLOCK
 62
     0
100
AcDbLine
 10
157.5
 20
163.227345
 30
0.0
 11
157.5
 21
162.602345
 31
0.0
  0
LINE
  5
4FF
100
AcDbEntity
  8
0
  6
BYBLOCK
 62
     0
100
AcDbLine
 10
157.5
 20
150.791158
 30
0.0
 11
157.5
 21
151.416158
 31
0.0
  0
SOLID
  5
500
100
AcDbEntity
  8
0
  6
BYBLOCK
 62
     0
100
AcDbTrace
 10
157.166667
 20
163.227345
 30
0.0
 11
157.833333
 21
163.227345
 31
0.0
 12
157.5
 22
165.227345
 32
0.0
 13
157.5
 23
165.227345
 33
0.0
  0
SOLID
  5
501
100
AcDbEntity
  8
0
  6
BYBLOCK
 62
     0
100
AcDbTrace
 10
157.166667
 20
150.791158
 30
0.0
 11
157.833333
 21
150.791158
 31
0.0
 12
157.5
 22
148.791158
 32
0.0
 13
157.5
 23
148.791158
 33
0.0
  0
MTEXT
  5
502
100
AcDbEntity
  8
0
  6
BYBLOCK
 62
     0
100
AcDbMText
 10
157.5
 20
157.009252
 30
0.0
 40
3.5
 41
0.0
 71
     5
 72
     1
  1
\A1;16.44
 11
0.0
 21
1.0
 31
0.0
  0
POINT
  5
503
100
AcDbEntity
  8
DEFPOINTS
  6
BYBLOCK
 62
     0
100
AcDbPoint
 10
193.701681
 20
165.227345
 30
0.0
  0
POINT
  5
504
100
AcDbEntity
  8
DEFPOINTS
  6
BYBLOCK
 62
     0
100
AcDbPoint
 10
194.186566
 20
148.791158
 30
0.0
  0
POINT
  5
505
100
AcDbEntity
  8
DEFPOINTS
  6
BYBLOCK
 62
     0
100
AcDbPoint
 10
157.5
 20
148.791158
 30
0.0
  0
ENDBLK
  5
507
100
AcDbEntity
  8
0
100
AcDbBlockEnd
  0
BLOCK
  5
513
100
AcDbEntity
  8
0
100
AcDbBlockBegin
  2
*D29
 70
     1
 10
0.0
 20
0.0
 30
0.0
  3
*D29
  1

  0
LINE
  5
509
100
AcDbEntity
  8
0
  6
BYBLOCK
 62
     0
100
AcDbLine
 10
192.25
 20
166.25
 30
0.0
 11
149.75
 21
166.25
 31
0.0
  0
LINE
  5
50A
100
AcDbEntity
  8
0
  6
BYBLOCK
 62
     0
100
AcDbLine
 10
193.186566
 20
148.791158
 30
0.0
 11
149.75
 21
148.791158
 31
0.0
  0
LINE
  5
50B
100
AcDbEntity
  8
0
  6
BYBLOCK
 62
     0
100
AcDbLine
 10
150.75
 20
164.25
 30
0.0
 11
150.75
 21
163.625
 31
0.0
  0
LINE
  5
50C
100
AcDbEntity
  8
0
  6
BYBLOCK
 62
     0
100
AcDbLine
 10
150.75
 20
150.791158
 30
0.0
 11
150.75
 21
151.416158
 31
0.0
  0
SOLID
  5
50D
100
AcDbEntity
  8
0
  6
BYBLOCK
 62
     0
100
AcDbTrace
 10
150.416667
 20
164.25
 30
0.0
 11
151.083333
 21
164.25
 31
0.0
 12
150.75
 22
166.25
 32
0.0
 13
150.75
 23
166.25
 33
0.0
  0
SOLID
  5
50E
100
AcDbEntity
  8
0
  6
BYBLOCK
 62
     0
100
AcDbTrace
 10
150.416667
 20
150.791158
 30
0.0
 11
151.083333
 21
150.791158
 31
0.0
 12
150.75
 22
148.791158
 32
0.0
 13
150.75
 23
148.791158
 33
0.0
  0
MTEXT
  5
50F
100
AcDbEntity
  8
0
  6
BYBLOCK
 62
     0
100
AcDbMText
 10
150.75
 20
157.25
 30
0.0
 40
3.5
 41
0.0
 71
     5
 72
     1
  1
\A1;17.46
 11
0.0
 21
1.0
 31
0.0
  0
POINT
  5
510
100
AcDbEntity
  8
DEFPOINTS
  6
BYBLOCK
 62
     0
100
AcDbPoint
 10
193.25
 20
166.25
 30
0.0
  0
POINT
  5
511
100
AcDbEntity
  8
DEFPOINTS
  6
BYBLOCK
 62
     0
100
AcDbPoint
 10
194.186566
 20
148.791158
 30
0.0
  0
POINT
  5
512
100
AcDbEntity
  8
DEFPOINTS
  6
BYBLOCK
 62
     0
100
AcDbPoint
 10
150.75
 20
148.791158
 30
0.0
  0
ENDBLK
  5
514
100
AcDbEntity
  8
0
100
AcDbBlockEnd
  0
BLOCK
  5
51F
100
AcDbEntity
  8
0
100
AcDbBlockBegin
  2
*D30
 70
     1
 10
0.0
 20
0.0
 30
0.0
  3
*D30
  1

  0
LINE
  5
516
100
AcDbEntity
  8
0
  6
BYBLOCK
 62
     0
100
AcDbLine
 10
209.043705
 20
160.949822
 30
0.0
 11
222.75
 21
160.949822
 31
0.0
  0
LINE
  5
517
100
AcDbEntity
  8
0
  6
BYBLOCK
 62
     0
100
AcDbLine
 10
208.686566
 20
148.791158
 30
0.0
 11
222.75
 21
148.791158
 31
0.0
  0
LINE
  5
518
100
AcDbEntity
  8
0
  6
BYBLOCK
 62
     0
100
AcDbLine
 10
221.75
 20
158.949822
 30
0.0
 11
221.75
 21
150.791158
 31
0.0
  0
SOLID
  5
519
100
AcDbEntity
  8
0
  6
BYBLOCK
 62
     0
100
AcDbTrace
 10
221.416667
 20
158.949822
 30
0.0
 11
222.083333
 21
158.949822
 31
0.0
 12
221.75
 22
160.949822
 32
0.0
 13
221.75
 23
160.949822
 33
0.0
  0
SOLID
  5
51A
100
AcDbEntity
  8
0
  6
BYBLOCK
 62
     0
100
AcDbTrace
 10
221.416667
 20
150.791158
 30
0.0
 11
222.083333
 21
150.791158
 31
0.0
 12
221.75
 22
148.791158
 32
0.0
 13
221.75
 23
148.791158
 33
0.0
  0
MTEXT
  5
51B
100
AcDbEntity
  8
0
  6
BYBLOCK
 62
     0
100
AcDbMText
 10
221.75
 20
154.87049
 30
0.0
 40
3.5
 41
0.0
 71
     5
 72
     1
  1
\A1;12.16
 11
0.0
 21
1.0
 31
0.0
  0
POINT
  5
51C
100
AcDbEntity
  8
DEFPOINTS
  6
BYBLOCK
 62
     0
100
AcDbPoint
 10
208.043705
 20
160.949822
 30
0.0
  0
POINT
  5
51D
100
AcDbEntity
  8
DEFPOINTS
  6
BYBLOCK
 62
     0
100
AcDbPoint
 10
207.686566
 20
148.791158
 30
0.0
  0
POINT
  5
51E
100
AcDbEntity
  8
DEFPOINTS
  6
BYBLOCK
 62
     0
100
AcDbPoint
 10
221.75
 20
148.791158
 30
0.0
  0
ENDBLK
  5
520
100
AcDbEntity
  8
0
100
AcDbBlockEnd
  0
BLOCK
  5
52C
100
AcDbEntity
  8
0
100
AcDbBlockBegin
  2
*D31
 70
     1
 10
0.0
 20
0.0
 30
0.0
  3
*D31
  1

  0
LINE
  5
522
100
AcDbEntity
  8
0
  6
BYBLOCK
 62
     0
100
AcDbLine
 10
237.708884
 20
177.948119
 30
0.0
 11
268.0
 21
177.948119
 31
0.0
  0
LINE
  5
523
100
AcDbEntity
  8
0
  6
BYBLOCK
 62
     0
100
AcDbLine
 10
208.686566
 20
148.791158
 30
0.0
 11
268.0
 21
148.791158
 31
0.0
  0
LINE
  5
524
100
AcDbEntity
  8
0
  6
BYBLOCK
 62
     0
100
AcDbLine
 10
267.0
 20
175.948119
 30
0.0
 11
267.0
 21
170.291667
 31
0.0
  0
LINE
  5
525
100
AcDbEntity
  8
0
  6
BYBLOCK
 62
     0
100
AcDbLine
 10
267.0
 20
150.791158
 30
0.0
 11
267.0
 21
156.208333
 31
0.0
  0
SOLID
  5
526
100
AcDbEntity
  8
0
  6
BYBLOCK
 62
     0
100
AcDbTrace
 10
266.666667
 20
175.948119
 30
0.0
 11
267.333333
 21
175.948119
 31
0.0
 12
267.0
 22
177.948119
 32
0.0
 13
267.0
 23
177.948119
 33
0.0
  0
SOLID
  5
527
100
AcDbEntity
  8
0
  6
BYBLOCK
 62
     0
100
AcDbTrace
 10
266.666667
 20
150.791158
 30
0.0
 11
267.333333
 21
150.791158
 31
0.0
 12
267.0
 22
148.791158
 32
0.0
 13
267.0
 23
148.791158
 33
0.0
  0
MTEXT
  5
528
100
AcDbEntity
  8
0
  6
BYBLOCK
 62
     0
100
AcDbMText
 10
267.0
 20
163.25
 30
0.0
 40
3.5
 41
0.0
 71
     5
 72
     1
  1
\A1;29.16
 11
0.0
 21
1.0
 31
0.0
  0
POINT
  5
529
100
AcDbEntity
  8
DEFPOINTS
  6
BYBLOCK
 62
     0
100
AcDbPoint
 10
236.708884
 20
177.948119
 30
0.0
  0
POINT
  5
52A
100
AcDbEntity
  8
DEFPOINTS
  6
BYBLOCK
 62
     0
100
AcDbPoint
 10
207.686566
 20
148.791158
 30
0.0
  0
POINT
  5
52B
100
AcDbEntity
  8
DEFPOINTS
  6
BYBLOCK
 62
     0
100
AcDbPoint
 10
267.0
 20
148.791158
 30
0.0
  0
ENDBLK
  5
52D
100
AcDbEntity
  8
0
100
AcDbBlockEnd
  0
BLOCK
  5
539
100
AcDbEntity
  8
0
100
AcDbBlockBegin
  2
*D32
 70
     1
 10
0.0
 20
0.0
 30
0.0
  3
*D32
  1

  0
LINE
  5
52F
100
AcDbEntity
  8
0
  6
BYBLOCK
 62
     0
100
AcDbLine
 10
208.686566
 20
148.791158
 30
0.0
 11
262.75
 21
148.791158
 31
0.0
  0
LINE
  5
530
100
AcDbEntity
  8
0
  6
BYBLOCK
 62
     0
100
AcDbLine
 10
251.661718
 20
173.601453
 30
0.0
 11
262.75
 21
173.601453
 31
0.0
  0
LINE
  5
531
100
AcDbEntity
  8
0
  6
BYBLOCK
 62
     0
100
AcDbLine
 10
261.75
 20
150.791158
 30
0.0
 11
261.75
 21
154.708333
 31
0.0
  0
LINE
  5
532
100
AcDbEntity
  8
0
  6
BYBLOCK
 62
     0
100
AcDbLine
 10
261.75
 20
171.601453
 30
0.0
 11
261.75
 21
168.791667
 31
0.0
  0
SOLID
  5
533
100
AcDbEntity
  8
0
  6
BYBLOCK
 62
     0
100
AcDbTrace
 10
261.416667
 20
150.791158
 30
0.0
 11
262.083333
 21
150.791158
 31
0.0
 12
261.75
 22
148.791158
 32
0.0
 13
261.75
 23
148.791158
 33
0.0
  0
SOLID
  5
534
100
AcDbEntity
  8
0
  6
BYBLOCK
 62
     0
100
AcDbTrace
 10
261.416667
 20
171.601453
 30
0.0
 11
262.083333
 21
171.601453
 31
0.0
 12
261.75
 22
173.601453
 32
0.0
 13
261.75
 23
173.601453
 33
0.0
  0
MTEXT
  5
535
100
AcDbEntity
  8
0
  6
BYBLOCK
 62
     0
100
AcDbMText
 10
261.75
 20
161.75
 30
0.0
 40
3.5
 41
0.0
 71
     5
 72
     1
  1
\A1;24.81
 11
0.0
 21
1.0
 31
0.0
  0
POINT
  5
536
100
AcDbEntity
  8
DEFPOINTS
  6
BYBLOCK
 62
     0
100
AcDbPoint
 10
207.686566
 20
148.791158
 30
0.0
  0
POINT
  5
537
100
AcDbEntity
  8
DEFPOINTS
  6
BYBLOCK
 62
     0
100
AcDbPoint
 10
250.661718
 20
173.601453
 30
0.0
  0
POINT
  5
538
100
AcDbEntity
  8
DEFPOINTS
  6
BYBLOCK
 62
     0
100
AcDbPoint
 10
261.75
 20
173.601453
 30
0.0
  0
ENDBLK
  5
53A
100
AcDbEntity
  8
0
100
AcDbBlockEnd
  0
BLOCK
  5
547
100
AcDbEntity
  8
0
100
AcDbBlockBegin
  2
*D33
 70
     1
 10
0.0
 20
0.0
 30
0.0
  3
*D33
  1

  0
LINE
  5
53C
100
AcDbEntity
  8
0
  6
BYBLOCK
 62
     0
100
AcDbLine
 10
208.686566
 20
148.791158
 30
0.0
 11
229.457176
 21
148.791158
 31
0.0
  0
ARC
  5
53D
100
AcDbEntity
  8
0
  6
BYBLOCK
 62
     0
100
AcDbCircle
 10
145.280291
 20
148.791158
 30
0.0
 40
83.176885
100
AcDbArc
 50
1.377718
 51
2.765001
  0
ARC
  5
53E
100
AcDbEntity
  8
0
  6
BYBLOCK
 62
     0
100
AcDbCircle
 10
145.280291
 20
148.791158
 30
0.0
 40
83.176885
100
AcDbArc
 50
9.255071
 51
13.622282
  0
SOLID
  5
53F
100
AcDbEntity
  8
0
  6
BYBLOCK
 62
     0
100
AcDbTrace
 10
228.76644
 20
150.795021
 30
0.0
 11
228.099821
 21
150.787006
 31
0.0
 12
228.457176
 22
148.791158
 32
0.0
 13
228.457176
 23
148.791158
 33
0.0
  0
SOLID
  5
540
100
AcDbEntity
  8
0
  6
BYBLOCK
 62
     0
100
AcDbTrace
 10
225.794378
 20
168.298589
 30
0.0
 11
226.440356
 21
168.463381
 31
0.0
 12
225.622992
 22
170.31892
 32
0.0
 13
225.622992
 23
170.31892
 33
0.0
  0
MTEXT
  5
541
100
AcDbEntity
  8
0
  6
BYBLOCK
 62
     0
100
AcDbMText
 10
228.0
 20
157.5
 30
0.0
 40
3.5
 41
0.0
 71
     5
 72
     1
  1
\A1;15°
 11
0.104703
 21
-0.994504
 31
0.0
  0
POINT
  5
542
100
AcDbEntity
  8
DEFPOINTS
  6
BYBLOCK
 62
     0
100
AcDbPoint
 10
227.193532
 20
163.234673
 30
0.0
  0
POINT
  5
543
100
AcDbEntity
  8
DEFPOINTS
  6
BYBLOCK
 62
     0
100
AcDbPoint
 10
206.620974
 20
165.227345
 30
0.0
  0
POINT
  5
544
100
AcDbEntity
  8
DEFPOINTS
  6
BYBLOCK
 62
     0
100
AcDbPoint
 10
200.936566
 20
148.791158
 30
0.0
  0
POINT
  5
545
100
AcDbEntity
  8
DEFPOINTS
  6
BYBLOCK
 62
     0
100
AcDbPoint
 10
207.686566
 20
148.791158
 30
0.0
  0
POINT
  5
546
100
AcDbEntity
  8
DEFPOINTS
  6
BYBLOCK
 62
     0
100
AcDbPoint
 10
237.87357
 20
173.601453
 30
0.0
  0
ENDBLK
  5
548
100
AcDbEntity
  8
0
100
AcDbBlockEnd
  0
BLOCK
  5
5F0
100
AcDbEntity
  8
0
100
AcDbBlockBegin
  2
A$C58EF1902
 70
     0
 10
0.0
 20
0.0
 30
0.0
  3
A$C58EF1902
  1

  0
DIMENSION
  5
54B
100
AcDbEntity
  8
0
100
AcDbDimension
  2
*D25
 10
136.789856
 20
95.142795
 30
7.460285
 11
99.644628
 21
107.064937
 31
7.460285
 12
-49.884411
 22
-105.973452
 32
7.460285
 70
   131
  3
STANDARD
100
AcDbDiametricDimension
 15
123.441321
 25
100.805534
 35
7.460285
 40
0.0
1001
ACAD
1000
DSTYLE
1002
{
1070
   140
1040
3.5
1070
    77
1070
     0
1070
    40
1040
1.0
1070
   141
1040
0.0
1070
    41
1040
2.0
1002
}
  0
DIMENSION
  5
54C
100
AcDbEntity
  8
0
100
AcDbDimension
  2
*D24
 10
136.865589
 20
1.75
 30
7.460285
 11
130.115589
 21
1.75
 31
7.460285
 12
-49.884411
 22
-105.248812
 32
7.460285
 70
   128
  1
%%C13.5
  3
STANDARD
100
AcDbAlignedDimension
 13
123.365589
 23
29.951188
 33
7.460285
 14
136.865589
 24
29.951188
 34
7.460285
100
AcDbRotatedDimension
1001
ACAD
1000
DSTYLE
1002
{
1070
   140
1040
3.5
1070
    77
1070
     0
1070
    40
1040
1.0
1070
   141
1040
0.0
1070
    41
1040
2.0
1002
}
  0
LINE
  5
54D
100
AcDbEntity
  8
3
100
AcDbLine
 10
130.115589
 20
29.026548
 30
7.460285
 11
123.365589
 21
29.026548
 31
7.460285
  0
LINE
  5
54E
100
AcDbEntity
  8
3
100
AcDbLine
 10
135.799997
 20
45.462734
 30
7.460285
 11
122.880704
 21
45.462734
 31
7.460285
  0
ELLIPSE
  5
54F
100
AcDbEntity
  8
3
100
AcDbEllipse
 10
129.913084
 20
97.961891
 30
7.460285
 11
0.0
 21
-6.98932342377572
 31
0.0
210
0.0
220
0.0
230
1.0
 40
0.962593
 41
1.644155871794095
 42
7.784143275053856
  0
ARC
  5
550
100
AcDbEntity
  8
3
100
AcDbCircle
 10
130.115589
 20
97.974165
 30
7.460285
 40
7.25
100
AcDbArc
 50
38.366514
 51
321.633486
  0
DIMENSION
  5
551
100
AcDbEntity
  8
0
100
AcDbDimension
  2
*D19
 10
132.12888
 20
96.10089
 30
7.460285
 11
104.80831
 21
114.194098
 31
7.460285
 12
-49.884411
 22
-123.525835
 32
7.460285
 70
   131
  3
STANDARD
100
AcDbDiametricDimension
 15
128.102298
 25
99.84744
 35
7.460285
 40
0.0
1001
ACAD
1000
DSTYLE
1002
{
1070
   140
1040
3.5
1070
    77
1070
     0
1070
    40
1040
1.0
1070
   141
1040
0.0
1070
    41
1040
2.0
1002
}
  0
DIMENSION
  5
552
100
AcDbEntity
  8
0
100
AcDbDimension
  2
*D18
 10
132.202917
 20
94.561972
 30
7.460285
 11
111.312176
 21
119.653374
 31
7.460285
 12
-49.884411
 22
-123.525835
 32
7.460285
 70
   131
  3
STANDARD
100
AcDbDiametricDimension
 15
128.02826
 25
101.386357
 35
7.460285
 40
0.0
1001
ACAD
1000
DSTYLE
1002
{
1070
   140
1040
3.5
1070
    77
1070
     0
1070
    40
1040
1.0
1070
   141
1040
0.0
1070
    41
1040
2.0
1002
}
  0
DIMENSION
  5
553
100
AcDbEntity
  8
0
100
AcDbDimension
  2
*D16
 10
124.865589
 20
7.874109
 30
7.460285
 11
130.115589
 21
7.874109
 31
7.460285
 12
-49.884411
 22
-108.250891
 32
7.460285
 70
   128
  3
STANDARD
100
AcDbAlignedDimension
 13
135.365589
 23
29.749109
 33
7.460285
 14
124.865589
 24
29.749109
 34
7.460285
100
AcDbRotatedDimension
1001
ACAD
1000
DSTYLE
1002
{
1070
   140
1040
3.5
1070
    77
1070
     0
1070
    40
1040
1.0
1070
   141
1040
0.0
1070
    41
1040
2.0
1002
}
  0
DIMENSION
  5
554
100
AcDbEntity
  8
0
100
AcDbDimension
  2
*D15
 10
135.165589
 20
13.334793
 30
7.460285
 11
148.42263
 21
13.334793
 31
7.460285
 12
-49.884411
 22
-108.872011
 32
7.460285
 70
   128
  1
%%C10.1
  3
STANDARD
100
AcDbAlignedDimension
 13
125.065589
 23
30.127989
 33
7.460285
 14
135.165589
 24
30.127989
 34
7.460285
100
AcDbRotatedDimension
1001
ACAD
1000
DSTYLE
1002
{
1070
   140
1040
3.5
1070
    77
1070
     0
1070
    40
1040
1.0
1070
   141
1040
0.0
1070
    41
1040
2.0
1002
}
  0
LINE
  5
555
100
AcDbEntity
  8
2
100
AcDbLine
 10
135.165589
 20
38.526548
 30
7.460285
 11
125.065589
 21
38.526548
 31
7.460285
  0
LINE
  5
556
100
AcDbEntity
  8
2
100
AcDbLine
 10
130.115589
 20
30.026548
 30
7.460285
 11
125.065589
 21
30.026548
 31
7.460285
  0
LINE
  5
557
100
AcDbEntity
  8
2
100
AcDbLine
 10
130.115589
 20
42.026548
 30
7.460285
 11
126.615589
 21
42.026548
 31
7.460285
  0
LINE
  5
558
100
AcDbEntity
  8
2
100
AcDbLine
 10
125.565589
 20
40.526548
 30
7.460285
 11
134.665589
 21
40.526548
 31
7.460285
  0
CIRCLE
  5
559
100
AcDbEntity
  8
3
100
AcDbCircle
 10
130.115589
 20
97.974165
 30
7.460285
 40
4.0
  0
LINE
  5
55A
100
AcDbEntity
  8
1
100
AcDbLine
 10
119.490357
 20
97.974165
 30
7.460285
 11
172.744439
 21
97.974165
 31
7.460285
  0
LINE
  5
55B
100
AcDbEntity
  8
3
100
AcDbLine
 10
123.778126
 20
46.900226
 30
7.460285
 11
136.640946
 21
50.346809
 31
7.460285
  0
DIMENSION
  5
55C
100
AcDbEntity
  8
0
100
AcDbDimension
  2
*D26
 10
20.760161
 20
48.943602
 30
7.460285
 11
30.284163
 21
6.06534
 31
7.460285
 12
-70.820977
 22
-118.514611
 32
7.460285
 70
   130
  3
STANDARD
100
AcDb2LineAngularDimension
 13
35.100473
 23
46.712734
 33
7.460285
 14
34.971016
 24
48.943602
 34
7.460285
 15
20.630704
 25
46.712734
 35
7.460285
 16
24.671143
 26
6.078512
 36
7.460285
1001
ACAD
1000
DSTYLE
1002
{
1070
   140
1040
3.5
1070
    77
1070
     0
1070
    40
1040
1.0
1070
   141
1040
0.0
1070
    41
1040
2.0
1002
}
  0
DIMENSION
  5
55D
100
AcDbEntity
  8
0
100
AcDbDimension
  2
*D20
 10
20.630704
 20
45.462734
 30
7.460285
 11
29.136167
 21
16.072485
 31
7.460285
 12
-49.884411
 22
-105.973452
 32
7.460285
 70
   130
  3
STANDARD
100
AcDb2LineAngularDimension
 13
34.615589
 23
29.226548
 33
7.460285
 14
35.100473
 24
45.462734
 34
7.460285
 15
21.115589
 25
29.226548
 35
7.460285
 16
25.747162
 26
16.065736
 36
7.460285
1001
ACAD
1000
DSTYLE
1002
{
1070
   140
1040
3.5
1070
    77
1070
     0
1070
    40
1040
1.0
1070
   141
1040
0.0
1070
    41
1040
2.0
1002
}
  0
MTEXT
  5
55E
102
{ACAD_REACTORS
330
57E
102
}
100
AcDbEntity
  8
0
100
AcDbMText
 10
9.516787
 20
19.112628
 30
7.460285
 40
3.5
 41
0.0
 71
     6
 72
     1
  1
\A1;C0.5
  0
DIMENSION
  5
55F
100
AcDbEntity
  8
0
100
AcDbDimension
  2
*D28
 10
86.679023
 20
29.026548
 30
7.460285
 11
86.679023
 21
37.244641
 31
7.460285
 12
-70.820977
 22
-119.764611
 32
7.460285
 70
   128
  3
STANDARD
100
AcDbAlignedDimension
 13
122.880704
 23
45.462734
 33
7.460285
 14
123.365589
 24
29.026548
 34
7.460285
 50
90.0
100
AcDbRotatedDimension
1001
ACAD
1000
DSTYLE
1002
{
1070
   140
1040
3.5
1070
    77
1070
     0
1070
    40
1040
1.0
1070
   141
1040
0.0
1070
    41
1040
2.0
1002
}
  0
LINE
  5
560
100
AcDbEntity
  8
3
100
AcDbLine
 10
20.630704
 20
45.462734
 30
7.460285
 11
20.760161
 21
47.693602
 31
7.460285
  0
LINE
  5
561
100
AcDbEntity
  8
3
100
AcDbLine
 10
35.100473
 20
45.462734
 30
7.460285
 11
34.971016
 21
47.693602
 31
7.460285
  0
DIMENSION
  5
562
100
AcDbEntity
  8
0
100
AcDbDimension
  2
*D21
 10
124.480704
 20
45.462734
 30
7.460285
 11
96.909119
 21
62.234408
 31
7.460285
 12
-49.884411
 22
-105.973452
 32
7.460285
 70
   132
  3
STANDARD
100
AcDbRadialDimension
 15
123.247724
 25
46.48242
 35
7.460285
 40
0.0
1001
ACAD
1000
DSTYLE
1002
{
1070
   140
1040
3.5
1070
    77
1070
     0
1070
    40
1040
1.0
1070
   141
1040
0.0
1070
    41
1040
2.0
1002
}
  0
LINE
  5
563
100
AcDbEntity
  8
3
100
AcDbLine
 10
34.615589
 20
29.026548
 30
7.460285
 11
35.100473
 21
45.462734
 31
7.460285
  0
LINE
  5
564
100
AcDbEntity
  8
3
100
AcDbLine
 10
21.115589
 20
29.026548
 30
7.460285
 11
20.630704
 21
45.462734
 31
7.460285
  0
LINE
  5
565
100
AcDbEntity
  8
3
100
AcDbLine
 10
123.365589
 20
29.026548
 30
7.460285
 11
122.880704
 21
45.462734
 31
7.460285
  0
LINE
  5
566
100
AcDbEntity
  8
3
100
AcDbLine
 10
27.865589
 20
45.462734
 30
7.460285
 11
35.100473
 21
45.462734
 31
7.460285
  0
LINE
  5
567
100
AcDbEntity
  8
3
100
AcDbLine
 10
27.865589
 20
45.462734
 30
7.460285
 11
20.630704
 21
45.462734
 31
7.460285
  0
ARC
  5
568
100
AcDbEntity
  8
3
100
AcDbCircle
 10
124.480704
 20
45.462734
 30
7.460285
 40
1.6
100
AcDbArc
 50
116.047212
 51
180.0
  0
ARC
  5
569
100
AcDbEntity
  8
3
100
AcDbCircle
 10
27.865589
 20
53.680804
 30
7.460285
 40
4.502705
100
AcDbArc
 50
1.985946
 51
178.014054
  0
LINE
  5
56A
100
AcDbEntity
  8
1
100
AcDbLine
 10
27.865589
 20
51.438938
 30
7.460285
 11
27.865589
 21
59.959845
 31
7.460285
  0
ELLIPSE
  5
56B
100
AcDbEntity
  8
3
100
AcDbEllipse
 10
27.865589
 20
48.526824
 30
7.460285
 11
-6.726268523018859
 21
0.0
 31
0.0
210
0.0
220
0.0
230
1.0
 40
0.270579
 41
0.0
 42
6.283185307179586
  0
LINE
  5
56C
100
AcDbEntity
  8
3
100
AcDbLine
 10
27.865589
 20
29.026548
 30
7.460285
 11
34.615589
 21
29.026548
 31
7.460285
  0
LINE
  5
56D
100
AcDbEntity
  8
1
100
AcDbLine
 10
27.865589
 20
28.068989
 30
7.460285
 11
27.865589
 21
51.438938
 31
7.460285
  0
LINE
  5
56E
100
AcDbEntity
  8
3
100
AcDbLine
 10
27.865589
 20
29.026548
 30
7.460285
 11
21.115589
 21
29.026548
 31
7.460285
  0
ELLIPSE
  5
56F
100
AcDbEntity
  8
3
100
AcDbEllipse
 10
27.865589
 20
48.531357
 30
7.460285
 11
-3.5
 21
0.0
 31
0.0
210
0.0
220
0.0
230
1.0
 40
0.287088
 41
0.0
 42
6.283185307179586
  0
LINE
  5
570
100
AcDbEntity
  8
3
100
AcDbLine
 10
23.365589
 20
53.836842
 30
7.460285
 11
23.365589
 21
50.052775
 31
7.460285
  0
LINE
  5
571
100
AcDbEntity
  8
3
100
AcDbLine
 10
23.365589
 20
50.052775
 30
7.460285
 11
23.365589
 21
49.879519
 31
7.460285
  0
ARC
  5
572
100
AcDbEntity
  8
3
100
AcDbCircle
 10
27.867802
 20
51.657364
 30
7.460285
 40
1.106935
100
AcDbArc
 50
19.043492
 51
161.718975
  0
LINE
  5
573
100
AcDbEntity
  8
3
100
AcDbLine
 10
32.365589
 20
53.836842
 30
7.460285
 11
32.365589
 21
50.052775
 31
7.460285
  0
ARC
  5
574
100
AcDbEntity
  8
3
100
AcDbCircle
 10
27.843784
 20
55.266983
 30
7.460285
 40
3.420244
100
AcDbArc
 50
278.953154
 51
288.237218
  0
ARC
  5
575
100
AcDbEntity
  8
3
100
AcDbCircle
 10
27.839357
 20
54.516983
 30
7.460285
 40
3.420244
100
AcDbArc
 50
279.068291
 51
288.237218
  0
ARC
  5
576
100
AcDbEntity
  8
3
100
AcDbCircle
 10
27.843784
 20
55.266983
 30
7.460285
 40
3.420244
100
AcDbArc
 50
252.525249
 51
261.561795
  0
ARC
  5
577
100
AcDbEntity
  8
3
100
AcDbCircle
 10
27.839357
 20
54.516983
 30
7.460285
 40
3.420244
100
AcDbArc
 50
252.525249
 51
261.679359
  0
ARC
  5
578
100
AcDbEntity
  8
3
100
AcDbCircle
 10
27.863375
 20
50.907364
 30
7.460285
 40
1.106935
100
AcDbArc
 50
19.043492
 51
161.718975
  0
ARC
  5
579
100
AcDbEntity
  8
3
100
AcDbCircle
 10
27.867802
 20
50.157364
 30
7.460285
 40
1.106935
100
AcDbArc
 50
19.043492
 51
161.718975
  0
ARC
  5
57A
100
AcDbEntity
  8
3
100
AcDbCircle
 10
27.843784
 20
53.766983
 30
7.460285
 40
3.420244
100
AcDbArc
 50
252.525249
 51
288.237218
  0
LINE
  5
57B
100
AcDbEntity
  8
3
100
AcDbLine
 10
32.365589
 20
50.052775
 30
7.460285
 11
32.365589
 21
49.879519
 31
7.460285
  0
LINE
  5
57C
100
AcDbEntity
  8
2
100
AcDbLine
 10
32.915589
 20
40.026548
 30
7.460285
 11
32.915589
 21
30.026548
 31
7.460285
  0
LINE
  5
57D
100
AcDbEntity
  8
2
100
AcDbLine
 10
22.815589
 20
30.026548
 30
7.460285
 11
22.815589
 21
40.026548
 31
7.460285
  0
LEADER
  5
57E
100
AcDbEntity
  8
0
100
AcDbLeader
  3
STANDARD
 73
     0
 40
3.5
 41
9.916667
 76
     3
 10
20.681792
 20
28.81064
 30
7.460285
 10
10.965225
 20
19.112628
 30
7.460285
 10
9.606787
 20
19.112628
 30
7.460285
 77
   256
340
55E
1001
ACAD
1000
DSTYLE
1002
{
1070
   140
1040
3.5
1070
    77
1070
     0
1070
    40
1040
1.0
1070
   141
1040
0.0
1070
    41
1040
2.0
1002
}
  0
LINE
  5
57F
100
AcDbEntity
  8
2
100
AcDbLine
 10
27.865589
 20
30.026548
 30
7.460285
 11
22.815589
 21
30.026548
 31
7.460285
  0
LINE
  5
580
100
AcDbEntity
  8
2
100
AcDbLine
 10
22.815589
 20
30.026548
 30
7.460285
 11
22.615589
 21
29.026548
 31
7.460285
  0
LINE
  5
581
100
AcDbEntity
  8
2
100
AcDbLine
 10
27.865589
 20
30.026548
 30
7.460285
 11
32.915589
 21
30.026548
 31
7.460285
  0
LINE
  5
582
100
AcDbEntity
  8
2
100
AcDbLine
 10
32.915589
 20
30.026548
 30
7.460285
 11
33.115589
 21
29.026548
 31
7.460285
  0
LINE
  5
583
100
AcDbEntity
  8
2
100
AcDbLine
 10
24.365589
 20
42.026548
 30
7.460285
 11
24.365589
 21
48.531357
 31
7.460285
  0
LINE
  5
584
100
AcDbEntity
  8
2
100
AcDbLine
 10
31.365589
 20
42.026548
 30
7.460285
 11
31.365589
 21
48.531357
 31
7.460285
  0
LINE
  5
585
100
AcDbEntity
  8
2
100
AcDbLine
 10
27.865589
 20
42.026548
 30
7.460285
 11
24.365589
 21
42.026548
 31
7.460285
  0
LINE
  5
586
100
AcDbEntity
  8
2
100
AcDbLine
 10
32.915589
 20
38.526548
 30
7.460285
 11
22.815589
 21
38.526548
 31
7.460285
  0
LINE
  5
587
100
AcDbEntity
  8
2
100
AcDbLine
 10
23.315589
 20
40.526548
 30
7.460285
 11
32.415589
 21
40.526548
 31
7.460285
  0
LINE
  5
588
100
AcDbEntity
  8
2
100
AcDbLine
 10
25.365589
 20
42.026548
 30
7.460285
 11
25.365589
 21
40.526548
 31
7.460285
  0
LINE
  5
589
100
AcDbEntity
  8
2
100
AcDbLine
 10
22.815589
 20
40.524477
 30
7.460285
 11
23.440151
 21
40.524477
 31
7.460285
  0
LINE
  5
58A
100
AcDbEntity
  8
2
100
AcDbLine
 10
22.815589
 20
40.026548
 30
7.460285
 11
22.815589
 21
40.524477
 31
7.460285
  0
LINE
  5
58B
100
AcDbEntity
  8
2
100
AcDbLine
 10
26.365589
 20
40.526548
 30
7.460285
 11
26.365589
 21
38.526548
 31
7.460285
  0
LINE
  5
58C
100
AcDbEntity
  8
2
100
AcDbLine
 10
25.365589
 20
40.526548
 30
7.460285
 11
25.365589
 21
38.526548
 31
7.460285
  0
LINE
  5
58D
100
AcDbEntity
  8
2
100
AcDbLine
 10
24.365589
 20
40.526548
 30
7.460285
 11
24.365589
 21
38.526548
 31
7.460285
  0
LINE
  5
58E
100
AcDbEntity
  8
2
100
AcDbLine
 10
23.365589
 20
40.526548
 30
7.460285
 11
23.365589
 21
38.526548
 31
7.460285
  0
LINE
  5
58F
100
AcDbEntity
  8
2
100
AcDbLine
 10
30.365589
 20
42.026548
 30
7.460285
 11
30.365589
 21
40.526548
 31
7.460285
  0
LINE
  5
590
100
AcDbEntity
  8
2
100
AcDbLine
 10
32.915589
 20
40.524477
 30
7.460285
 11
32.286802
 21
40.524477
 31
7.460285
  0
LINE
  5
591
100
AcDbEntity
  8
2
100
AcDbLine
 10
32.915589
 20
40.026548
 30
7.460285
 11
32.915589
 21
40.524477
 31
7.460285
  0
LINE
  5
592
100
AcDbEntity
  8
2
100
AcDbLine
 10
29.365589
 20
40.526548
 30
7.460285
 11
29.365589
 21
38.526548
 31
7.460285
  0
LINE
  5
593
100
AcDbEntity
  8
2
100
AcDbLine
 10
28.365589
 20
40.526548
 30
7.460285
 11
28.365589
 21
38.526548
 31
7.460285
  0
LINE
  5
594
100
AcDbEntity
  8
2
100
AcDbLine
 10
27.365589
 20
40.526548
 30
7.460285
 11
27.365589
 21
38.526548
 31
7.460285
  0
LINE
  5
595
100
AcDbEntity
  8
2
100
AcDbLine
 10
32.365589
 20
40.526548
 30
7.460285
 11
32.365589
 21
38.526548
 31
7.460285
  0
LINE
  5
596
100
AcDbEntity
  8
2
100
AcDbLine
 10
31.365589
 20
40.526548
 30
7.460285
 11
31.365589
 21
38.526548
 31
7.460285
  0
LINE
  5
597
100
AcDbEntity
  8
2
100
AcDbLine
 10
30.365589
 20
40.526548
 30
7.460285
 11
30.365589
 21
38.526548
 31
7.460285
  0
LINE
  5
598
100
AcDbEntity
  8
2
100
AcDbLine
 10
27.865589
 20
42.026548
 30
7.460285
 11
31.365589
 21
42.026548
 31
7.460285
  0
ARC
  5
599
100
AcDbEntity
  8
3
100
AcDbCircle
 10
22.459143
 20
47.666691
 30
7.460285
 40
1.699195
100
AcDbArc
 50
135.325613
 51
179.092537
  0
ARC
  5
59A
100
AcDbEntity
  8
3
100
AcDbCircle
 10
33.272034
 20
47.666691
 30
7.460285
 40
1.699195
100
AcDbArc
 50
0.907463
 51
44.674387
  0
DIMENSION
  5
59B
100
AcDbEntity
  8
0
100
AcDbDimension
  2
*D29
 10
79.929023
 20
29.026548
 30
7.460285
 11
79.929023
 21
37.485389
 31
7.460285
 12
-70.820977
 22
-119.764611
 32
7.460285
 70
   128
  3
STANDARD
100
AcDbAlignedDimension
 13
122.429023
 23
46.485389
 33
7.460285
 14
123.365589
 24
29.026548
 34
7.460285
 50
90.0
100
AcDbRotatedDimension
1001
ACAD
1000
DSTYLE
1002
{
1070
   140
1040
3.5
1070
    77
1070
     0
1070
    40
1040
1.0
1070
   141
1040
0.0
1070
    41
1040
2.0
1002
}
  0
DIMENSION
  5
59C
100
AcDbEntity
  8
0
100
AcDbDimension
  2
*D27
 10
93.929023
 20
29.026548
 30
7.460285
 11
93.929023
 21
34.235389
 31
7.460285
 12
-70.820977
 22
-119.764611
 32
7.460285
 70
   128
  3
STANDARD
100
AcDbAlignedDimension
 13
125.065589
 23
38.526548
 33
7.460285
 14
123.365589
 24
29.026548
 34
7.460285
 50
90.0
100
AcDbRotatedDimension
1001
ACAD
1000
DSTYLE
1002
{
1070
   140
1040
3.5
1070
    77
1070
     0
1070
    40
1040
1.0
1070
   141
1040
0.0
1070
    41
1040
2.0
1002
}
  0
DIMENSION
  5
59D
100
AcDbEntity
  8
0
100
AcDbDimension
  2
*D23
 10
104.261344
 20
38.526548
 30
7.460285
 11
100.469677
 21
34.526548
 31
7.460285
 12
-49.884411
 22
-106.473452
 32
7.460285
 70
   128
  1
2
  3
STANDARD
100
AcDbAlignedDimension
 13
125.065589
 23
40.541573
 33
7.460285
 14
125.065589
 24
38.526548
 34
7.460285
 50
90.0
100
AcDbRotatedDimension
1001
ACAD
1000
DSTYLE
1002
{
1070
   140
1040
3.5
1070
    77
1070
     0
1070
    40
1040
1.0
1070
   141
1040
0.0
1070
    41
1040
2.0
1002
}
  0
DIMENSION
  5
59E
100
AcDbEntity
  8
0
100
AcDbDimension
  2
*D22
 10
116.372064
 20
40.541573
 30
7.460285
 11
110.830397
 21
35.216046
 31
7.460285
 12
-49.884411
 22
-106.473452
 32
7.460285
 70
   128
  1
1.5
  3
STANDARD
100
AcDbAlignedDimension
 13
126.615589
 23
42.026548
 33
7.460285
 14
125.065589
 24
40.541573
 34
7.460285
 50
90.0
100
AcDbRotatedDimension
1001
ACAD
1000
DSTYLE
1002
{
1070
   140
1040
3.5
1070
    77
1070
     0
1070
    40
1040
1.0
1070
   141
1040
0.0
1070
    41
1040
2.0
1002
}
  0
LINE
  5
59F
100
AcDbEntity
  8
2
100
AcDbLine
 10
125.065589
 20
30.026548
 30
7.460285
 11
125.065589
 21
40.026548
 31
7.460285
  0
MTEXT
  5
5A0
102
{ACAD_REACTORS
330
5A1
102
}
100
AcDbEntity
  8
0
100
AcDbMText
 10
112.105959
 20
19.640159
 30
7.460285
 40
3.5
 41
0.0
 71
     6
 72
     1
  1
\A1;C0.5
  0
LEADER
  5
5A1
100
AcDbEntity
  8
0
100
AcDbLeader
  3
STANDARD
 73
     0
 40
3.5
 41
9.916667
 76
     3
 10
123.270965
 20
29.338172
 30
7.460285
 10
113.554397
 20
19.640159
 30
7.460285
 10
112.195959
 20
19.640159
 30
7.460285
 77
   256
340
5A0
1001
ACAD
1000
DSTYLE
1002
{
1070
   140
1040
3.5
1070
    77
1070
     0
1070
    40
1040
1.0
1070
   141
1040
0.0
1070
    41
1040
2.0
1002
}
  0
LINE
  5
5A2
100
AcDbEntity
  8
2
100
AcDbLine
 10
125.065589
 20
30.026548
 30
7.460285
 11
124.865589
 21
29.026548
 31
7.460285
  0
LINE
  5
5A3
100
AcDbEntity
  8
2
100
AcDbLine
 10
126.615589
 20
42.026548
 30
7.460285
 11
126.615589
 21
47.526548
 31
7.460285
  0
LINE
  5
5A4
100
AcDbEntity
  8
2
100
AcDbLine
 10
125.065589
 20
40.541573
 30
7.460285
 11
125.811711
 21
40.541573
 31
7.460285
  0
LINE
  5
5A5
100
AcDbEntity
  8
2
100
AcDbLine
 10
125.065589
 20
40.026548
 30
7.460285
 11
125.065589
 21
40.541573
 31
7.460285
  0
LINE
  5
5A6
100
AcDbEntity
  8
2
100
AcDbLine
 10
126.615589
 20
40.526548
 30
7.460285
 11
126.615589
 21
38.526548
 31
7.460285
  0
LINE
  5
5A7
100
AcDbEntity
  8
2
100
AcDbLine
 10
125.615589
 20
40.526548
 30
7.460285
 11
125.615589
 21
38.526548
 31
7.460285
  0
ELLIPSE
  5
5A8
100
AcDbEntity
  8
3
100
AcDbEllipse
 10
137.694647
 20
97.974165
 30
7.460285
 11
-1.053700676307869
 21
0.0
 31
0.0
210
0.0
220
0.0
230
1.0
 40
0.988217
 41
0.0
 42
6.283185307179586
  0
ELLIPSE
  5
5A9
100
AcDbEntity
  8
3
100
AcDbEllipse
 10
139.840551
 20
97.974165
 30
7.460285
 11
-1.053700676307869
 21
0.0
 31
0.0
210
0.0
220
0.0
230
1.0
 40
0.988217
 41
0.0
 42
6.283185307179586
  0
ARC
  5
5AA
100
AcDbEntity
  8
3
100
AcDbCircle
 10
126.927769
 20
97.974165
 30
7.460285
 40
9.713177
100
AcDbArc
 50
2.950688
 51
23.111086
  0
DIMENSION
  5
5AB
100
AcDbEntity
  8
0
100
AcDbDimension
  2
*D17
 10
194.363069
 20
93.474165
 30
7.460285
 11
194.363069
 21
97.655706
 31
7.460285
 12
-49.884411
 22
-123.525835
 32
7.460285
 70
   128
  1
%%C9
  3
STANDARD
100
AcDbAlignedDimension
 13
167.052592
 23
102.474165
 33
7.460285
 14
167.052592
 24
93.474165
 34
7.460285
 50
90.0
100
AcDbRotatedDimension
1001
ACAD
1000
DSTYLE
1002
{
1070
   140
1040
3.5
1070
    77
1070
     0
1070
    40
1040
1.0
1070
   141
1040
0.0
1070
    41
1040
2.0
1002
}
  0
DIMENSION
  5
5AC
100
AcDbEntity
  8
0
100
AcDbDimension
  2
*D13
 10
140.971171
 20
106.896024
 30
7.460285
 11
154.120239
 21
106.896024
 31
7.460285
 12
-51.362547
 22
-91.025835
 32
7.460285
 70
   128
  1
6-2.1
  3
STANDARD
100
AcDbAlignedDimension
 13
143.078572
 23
97.974165
 33
7.460285
 14
140.971171
 24
97.974165
 34
7.460285
100
AcDbRotatedDimension
1001
ACAD
1000
DSTYLE
1002
{
1070
   140
1040
3.5
1070
    77
1070
     0
1070
    40
1040
1.0
1070
   141
1040
0.0
1070
    41
1040
2.0
1002
}
  0
CIRCLE
  5
5AD
100
AcDbEntity
  8
3
100
AcDbCircle
 10
130.115589
 20
97.974165
 30
7.460285
 40
2.75
  0
ARC
  5
5AE
100
AcDbEntity
  8
3
100
AcDbCircle
 10
165.278504
 20
97.974165
 30
7.460285
 40
4.837085
100
AcDbArc
 50
291.516435
 51
68.483565
  0
ARC
  5
5AF
100
AcDbEntity
  8
3
100
AcDbCircle
 10
179.532832
 20
97.974165
 30
7.460285
 40
13.644925
100
AcDbArc
 50
163.870034
 51
196.129966
  0
LINE
  5
5B0
100
AcDbEntity
  8
1
100
AcDbLine
 10
130.115589
 20
86.366537
 30
7.460285
 11
130.115589
 21
108.596489
 31
7.460285
  0
DIMENSION
  5
5B1
100
AcDbEntity
  8
0
100
AcDbDimension
  2
*D33
 10
167.052592
 20
53.836842
 30
7.460285
 11
157.179023
 21
37.735389
 31
7.460285
 12
-70.820977
 22
-119.764611
 32
7.460285
 70
   130
  3
STANDARD
100
AcDb2LineAngularDimension
 13
130.115589
 23
29.026548
 33
7.460285
 14
136.865589
 24
29.026548
 34
7.460285
 15
135.799997
 25
45.462734
 35
7.460285
 16
156.372555
 26
43.470062
 36
7.460285
1001
ACAD
1000
DSTYLE
1002
{
1070
   140
1040
3.5
1070
    77
1070
     0
1070
    40
1040
1.0
1070
   141
1040
0.0
1070
    41
1040
2.0
1002
}
  0
DIMENSION
  5
5B2
100
AcDbEntity
  8
0
100
AcDbDimension
  2
*D30
 10
150.929023
 20
29.026548
 30
7.460285
 11
150.929023
 21
35.105879
 31
7.460285
 12
-70.820977
 22
-119.764611
 32
7.460285
 70
   128
  3
STANDARD
100
AcDbAlignedDimension
 13
137.222727
 23
41.185211
 33
7.460285
 14
136.865589
 24
29.026548
 34
7.460285
 50
90.0
100
AcDbRotatedDimension
1001
ACAD
1000
DSTYLE
1002
{
1070
   140
1040
3.5
1070
    77
1070
     0
1070
    40
1040
1.0
1070
   141
1040
0.0
1070
    41
1040
2.0
1002
}
  0
LINE
  5
5B3
100
AcDbEntity
  8
3
100
AcDbLine
 10
136.865589
 20
29.026548
 30
7.460285
 11
137.222727
 21
41.185211
 31
7.460285
  0
LINE
  5
5B4
100
AcDbEntity
  8
3
100
AcDbLine
 10
142.96315
 20
52.040838
 30
7.460285
 11
165.887907
 21
58.183508
 31
7.460285
  0
LINE
  5
5B5
100
AcDbEntity
  8
3
100
AcDbLine
 10
161.895074
 20
47.796146
 30
7.460285
 11
137.222727
 21
41.185211
 31
7.460285
  0
LINE
  5
5B6
100
AcDbEntity
  8
3
100
AcDbLine
 10
135.799997
 20
45.462734
 30
7.460285
 11
167.052592
 21
53.836842
 31
7.460285
  0
LINE
  5
5B7
100
AcDbEntity
  8
1
100
AcDbLine
 10
127.617298
 20
43.270187
 30
7.460285
 11
172.725504
 21
55.356894
 31
7.460285
  0
ARC
  5
5B8
100
AcDbEntity
  8
3
100
AcDbCircle
 10
141.451669
 20
53.46696
 30
7.460285
 40
2.078076
100
AcDbArc
 50
253.335603
 51
316.664397
  0
ARC
  5
5B9
100
AcDbEntity
  8
3
100
AcDbCircle
 10
142.038859
 20
51.275537
 30
7.460285
 40
1.2
100
AcDbArc
 50
39.624318
 51
170.375682
  0
ARC
  5
5BA
100
AcDbEntity
  8
3
100
AcDbCircle
 10
145.48684
 20
46.309271
 30
7.460285
 40
9.723762
100
AcDbArc
 50
155.466588
 51
211.800465
  0
ARC
  5
5BB
100
AcDbEntity
  8
3
100
AcDbCircle
 10
139.931458
 20
50.710861
 30
7.460285
 40
1.2
100
AcDbArc
 50
39.624318
 51
170.375682
  0
ARC
  5
5BC
100
AcDbEntity
  8
3
100
AcDbCircle
 10
137.824056
 20
50.146184
 30
7.460285
 40
1.2
100
AcDbArc
 50
39.624318
 51
170.375682
  0
ARC
  5
5BD
100
AcDbEntity
  8
3
100
AcDbCircle
 10
137.236866
 20
52.337607
 30
7.460285
 40
2.078076
100
AcDbArc
 50
253.335603
 51
316.664397
  0
ARC
  5
5BE
100
AcDbEntity
  8
3
100
AcDbCircle
 10
139.344268
 20
52.902284
 30
7.460285
 40
2.078076
100
AcDbArc
 50
253.335603
 51
316.664397
  0
ARC
  5
5BF
100
AcDbEntity
  8
3
100
AcDbCircle
 10
126.927769
 20
97.974165
 30
7.460285
 40
9.713177
100
AcDbArc
 50
336.888914
 51
357.049312
  0
ARC
  5
5C0
100
AcDbEntity
  8
3
100
AcDbCircle
 10
136.305158
 20
93.775487
 30
7.460285
 40
0.588203
100
AcDbArc
 50
138.972514
 51
210.815605
  0
ELLIPSE
  5
5C1
100
AcDbEntity
  8
3
100
AcDbEllipse
 10
142.024872
 20
97.974165
 30
7.460285
 11
-1.053700676307869
 21
0.0
 31
0.0
210
0.0
220
0.0
230
1.0
 40
0.988217
 41
0.0
 42
6.283185307179586
  0
DIMENSION
  5
5C2
100
AcDbEntity
  8
0
100
AcDbDimension
  2
*D32
 10
190.929023
 20
53.836842
 30
7.460285
 11
190.929023
 21
41.985389
 31
7.460285
 12
-70.820977
 22
-119.764611
 32
7.460285
 70
   128
  3
STANDARD
100
AcDbAlignedDimension
 13
136.865589
 23
29.026548
 33
7.460285
 14
179.840741
 24
53.836842
 34
7.460285
 50
90.0
100
AcDbRotatedDimension
1001
ACAD
1000
DSTYLE
1002
{
1070
   140
1040
3.5
1070
    77
1070
     0
1070
    40
1040
1.0
1070
   141
1040
0.0
1070
    41
1040
2.0
1002
}
  0
DIMENSION
  5
5C3
100
AcDbEntity
  8
0
100
AcDbDimension
  2
*D31
 10
196.179023
 20
29.026548
 30
7.460285
 11
196.179023
 21
43.485389
 31
7.460285
 12
-70.820977
 22
-119.764611
 32
7.460285
 70
   128
  3
STANDARD
100
AcDbAlignedDimension
 13
165.887907
 23
58.183508
 33
7.460285
 14
136.865589
 24
29.026548
 34
7.460285
 50
90.0
100
AcDbRotatedDimension
1001
ACAD
1000
DSTYLE
1002
{
1070
   140
1040
3.5
1070
    77
1070
     0
1070
    40
1040
1.0
1070
   141
1040
0.0
1070
    41
1040
2.0
1002
}
  0
DIMENSION
  5
5C4
100
AcDbEntity
  8
0
100
AcDbDimension
  2
*D14
 10
170.092267
 20
82.026548
 30
7.460285
 11
149.615589
 21
82.026548
 31
7.460285
 12
-49.884411
 22
-105.973452
 32
7.460285
 70
   128
  1
40
  3
STANDARD
100
AcDbAlignedDimension
 13
130.115589
 23
51.438938
 33
7.460285
 14
170.092267
 24
53.836842
 34
7.460285
100
AcDbRotatedDimension
1001
ACAD
1000
DSTYLE
1002
{
1070
   140
1040
3.5
1070
    77
1070
     0
1070
    40
1040
1.0
1070
   141
1040
0.0
1070
    41
1040
2.0
1002
}
  0
DIMENSION
  5
5C5
100
AcDbEntity
  8
0
100
AcDbDimension
  2
*D12
 10
165.241481
 20
53.351556
 30
7.460285
 11
145.052326
 21
57.32979
 31
7.460285
 12
-49.884411
 22
-105.973452
 32
7.460285
 70
   132
  3
STANDARD
100
AcDbRadialDimension
 15
169.803714
 25
51.633518
 35
7.460285
 40
0.0
1001
ACAD
1000
DSTYLE
1002
{
1070
   140
1040
3.5
1070
    77
1070
     0
1070
    40
1040
1.0
1070
   287
1070
     4
1070
   141
1040
0.0
1070
    41
1040
2.0
1002
}
  0
DIMENSION
  5
5C6
100
AcDbEntity
  8
0
100
AcDbDimension
  2
*D11
 10
167.041141
 20
49.678565
 30
7.460285
 11
147.505477
 21
61.902573
 31
7.460285
 12
-49.48225
 22
-105.879798
 32
7.460285
 70
   132
  1
6-R1.2
  3
STANDARD
100
AcDbRadialDimension
 15
167.739291
 25
48.702559
 35
7.460285
 40
0.0
1001
ACAD
1000
DSTYLE
1002
{
1070
   140
1040
3.5
1070
    77
1070
     0
1070
    40
1040
1.0
1070
   287
1070
     4
1070
   141
1040
0.0
1070
    41
1040
2.0
1002
}
  0
DIMENSION
  5
5C7
100
AcDbEntity
  8
0
100
AcDbDimension
  2
*D8
 10
162.731299
 20
69.964127
 30
7.460285
 11
164.180188
 21
70.352356
 31
7.460285
 12
-49.884411
 22
-105.973452
 32
7.460285
 70
   129
  3
STANDARD
100
AcDbAlignedDimension
 13
169.95037
 23
54.613299
 33
7.460285
 14
167.052592
 24
53.836842
 34
7.460285
1001
ACAD
1000
DSTYLE
1002
{
1070
   140
1040
4.0
1070
    77
1070
     0
1070
    40
1040
1.0
1070
   141
1040
0.0
1070
    41
1040
2.0
1002
}
  0
ARC
  5
5C8
100
AcDbEntity
  8
3
100
AcDbCircle
 10
165.241481
 20
53.351556
 30
7.460285
 40
4.875
100
AcDbArc
 50
307.619865
 51
82.380135
  0
LINE
  5
5C9
100
AcDbEntity
  8
3
100
AcDbLine
 10
165.887907
 20
58.183508
 30
7.460285
 11
168.217278
 21
49.490176
 31
7.460285
  0
LINE
  5
5CA
100
AcDbEntity
  8
1
100
AcDbLine
 10
130.115589
 20
28.068989
 30
7.460285
 11
130.115589
 21
51.438938
 31
7.460285
  0
LINE
  5
5CB
100
AcDbEntity
  8
3
100
AcDbLine
 10
130.115589
 20
29.026548
 30
7.460285
 11
136.865589
 21
29.026548
 31
7.460285
  0
LINE
  5
5CC
100
AcDbEntity
  8
2
100
AcDbLine
 10
135.165589
 20
30.026548
 30
7.460285
 11
135.165589
 21
40.026548
 31
7.460285
  0
DIMENSION
  5
5CD
100
AcDbEntity
  8
0
100
AcDbDimension
  2
*D10
 10
140.46333
 20
29.026548
 30
7.460285
 11
143.671663
 21
34.026548
 31
7.460285
 12
-49.884411
 22
-108.973452
 32
7.460285
 70
   128
  3
STANDARD
100
AcDbAlignedDimension
 13
135.165589
 23
30.026548
 33
7.460285
 14
137.615589
 24
29.026548
 34
7.460285
 50
90.0
100
AcDbRotatedDimension
1001
ACAD
1000
DSTYLE
1002
{
1070
   140
1040
3.5
1070
    77
1070
     0
1070
    40
1040
1.0
1070
   141
1040
0.0
1070
    41
1040
2.0
1002
}
  0
LINE
  5
5CE
100
AcDbEntity
  8
2
100
AcDbLine
 10
130.115589
 20
30.026548
 30
7.460285
 11
135.165589
 21
30.026548
 31
7.460285
  0
LINE
  5
5CF
100
AcDbEntity
  8
2
100
AcDbLine
 10
135.165589
 20
30.026548
 30
7.460285
 11
135.365589
 21
29.026548
 31
7.460285
  0
LINE
  5
5D0
100
AcDbEntity
  8
2
100
AcDbLine
 10
133.615589
 20
42.026548
 30
7.460285
 11
133.615589
 21
49.536167
 31
7.460285
  0
LINE
  5
5D1
100
AcDbEntity
  8
2
100
AcDbLine
 10
127.615589
 20
42.026548
 30
7.460285
 11
127.615589
 21
40.526548
 31
7.460285
  0
LINE
  5
5D2
100
AcDbEntity
  8
2
100
AcDbLine
 10
132.615589
 20
42.026548
 30
7.460285
 11
132.615589
 21
40.526548
 31
7.460285
  0
LINE
  5
5D3
100
AcDbEntity
  8
2
100
AcDbLine
 10
129.615589
 20
40.526548
 30
7.460285
 11
129.615589
 21
38.526548
 31
7.460285
  0
LINE
  5
5D4
100
AcDbEntity
  8
2
100
AcDbLine
 10
128.615589
 20
40.526548
 30
7.460285
 11
128.615589
 21
38.526548
 31
7.460285
  0
LINE
  5
5D5
100
AcDbEntity
  8
2
100
AcDbLine
 10
127.615589
 20
40.526548
 30
7.460285
 11
127.615589
 21
38.526548
 31
7.460285
  0
LINE
  5
5D6
100
AcDbEntity
  8
2
100
AcDbLine
 10
133.615589
 20
40.526548
 30
7.460285
 11
133.615589
 21
38.526548
 31
7.460285
  0
LINE
  5
5D7
100
AcDbEntity
  8
2
100
AcDbLine
 10
132.615589
 20
40.526548
 30
7.460285
 11
132.615589
 21
38.526548
 31
7.460285
  0
LINE
  5
5D8
100
AcDbEntity
  8
2
100
AcDbLine
 10
131.615589
 20
40.526548
 30
7.460285
 11
131.615589
 21
38.526548
 31
7.460285
  0
LINE
  5
5D9
100
AcDbEntity
  8
2
100
AcDbLine
 10
130.615589
 20
40.526548
 30
7.460285
 11
130.615589
 21
38.526548
 31
7.460285
  0
LINE
  5
5DA
100
AcDbEntity
  8
2
100
AcDbLine
 10
130.115589
 20
42.026548
 30
7.460285
 11
133.615589
 21
42.026548
 31
7.460285
  0
LINE
  5
5DB
100
AcDbEntity
  8
2
100
AcDbLine
 10
135.165589
 20
40.541573
 30
7.460285
 11
134.567003
 21
40.541573
 31
7.460285
  0
LINE
  5
5DC
100
AcDbEntity
  8
2
100
AcDbLine
 10
135.165589
 20
40.026548
 30
7.460285
 11
135.165589
 21
40.541573
 31
7.460285
  0
LINE
  5
5DD
100
AcDbEntity
  8
2
100
AcDbLine
 10
134.615589
 20
40.526548
 30
7.460285
 11
134.615589
 21
38.526548
 31
7.460285
  0
LINE
  5
5DE
100
AcDbEntity
  8
0
100
AcDbLine
 10
170.092267
 20
53.836842
 30
7.460285
 11
179.840741
 21
53.836842
 31
7.460285
  0
DIMENSION
  5
5DF
100
AcDbEntity
  8
0
100
AcDbDimension
  2
*D9
 10
173.741789
 20
49.897763
 30
7.460285
 11
180.469206
 21
45.998966
 31
7.460285
 12
-49.884411
 22
-105.973452
 32
7.460285
 70
   129
  1
0.7
  3
STANDARD
100
AcDbAlignedDimension
 13
168.217278
 23
49.490176
 33
7.460285
 14
168.404492
 24
48.673797
 34
7.460285
1001
ACAD
1000
DSTYLE
1002
{
1070
   140
1040
3.5
1070
    77
1070
     0
1070
    40
1040
1.0
1070
   141
1040
0.0
1070
    41
1040
2.0
1002
}
  0
LINE
  5
5E0
100
AcDbEntity
  8
0
100
AcDbLine
 10
161.963019
 20
51.518106
 30
7.460285
 11
163.284911
 21
46.584738
 31
7.460285
  0
LINE
  5
5E1
100
AcDbEntity
  8
0
100
AcDbLine
 10
164.174907
 20
52.053275
 30
7.460285
 11
165.496799
 21
47.119907
 31
7.460285
  0
ARC
  5
5E2
100
AcDbEntity
  8
3
100
AcDbCircle
 10
165.513957
 20
46.934701
 30
7.460285
 40
2.078076
100
AcDbArc
 50
73.335603
 51
136.664397
  0
ARC
  5
5E3
100
AcDbEntity
  8
3
100
AcDbCircle
 10
164.926766
 20
49.126124
 30
7.460285
 40
1.2
100
AcDbArc
 50
219.624318
 51
350.375682
  0
ARC
  5
5E4
100
AcDbEntity
  8
3
100
AcDbCircle
 10
163.406555
 20
46.370024
 30
7.460285
 40
2.078076
100
AcDbArc
 50
73.335603
 51
136.664397
  0
ARC
  5
5E5
100
AcDbEntity
  8
3
100
AcDbCircle
 10
162.819365
 20
48.561447
 30
7.460285
 40
1.2
100
AcDbArc
 50
219.624318
 51
350.375682
  0
LINE
  5
5E6
100
AcDbEntity
  8
0
100
AcDbLine
 10
166.321914
 20
52.552636
 30
7.460285
 11
167.643806
 21
47.619268
 31
7.460285
  0
ARC
  5
5E7
100
AcDbEntity
  8
3
100
AcDbCircle
 10
167.621358
 20
47.499377
 30
7.460285
 40
2.078076
100
AcDbArc
 50
73.335603
 51
136.664397
  0
ARC
  5
5E8
100
AcDbEntity
  8
3
100
AcDbCircle
 10
167.034168
 20
49.6908
 30
7.460285
 40
1.2
100
AcDbArc
 50
219.624318
 51
350.375682
  0
LINE
  5
5E9
100
AcDbEntity
  8
3
100
AcDbLine
 10
167.052592
 20
53.836842
 30
7.460285
 11
170.092267
 21
53.836842
 31
7.460285
  0
TEXT
  5
5EA
100
AcDbEntity
  8
0
100
AcDbText
 10
176.960454
 20
48.421952
 30
7.460285
 40
5.0
  1
ﾐｷﾘ
 41
0.7
  7
BIGFONT
100
AcDbText
  0
LINE
  5
5EB
100
AcDbEntity
  8
3
100
AcDbLine
 10
167.052592
 20
93.474165
 30
7.460285
 11
135.799997
 21
93.474165
 31
7.460285
  0
ARC
  5
5EC
100
AcDbEntity
  8
3
100
AcDbCircle
 10
167.545663
 20
94.542699
 30
7.460285
 40
1.176811
100
AcDbArc
 50
197.778622
 51
245.229221
  0
ARC
  5
5ED
100
AcDbEntity
  8
3
100
AcDbCircle
 10
136.305158
 20
102.172842
 30
7.460285
 40
0.588203
100
AcDbArc
 50
149.184395
 51
221.027486
  0
LINE
  5
5EE
100
AcDbEntity
  8
3
100
AcDbLine
 10
167.052592
 20
102.474165
 30
7.460285
 11
135.799997
 21
102.474165
 31
7.460285
  0
ARC
  5
5EF
100
AcDbEntity
  8
3
100
AcDbCircle
 10
167.545663
 20
101.405631
 30
7.460285
 40
1.176811
100
AcDbArc
 50
114.770779
 51
162.221378
  0
ENDBLK
  5
5F1
100
AcDbEntity
  8
0
100
AcDbBlockEnd
  0
BLOCK
  5
90B
100
AcDbEntity
  8
0
100
AcDbBlockBegin
  2
*D61
 70
     1
 10
0.0
 20
0.0
 30
0.0
  3
*D61
  1

  0
LINE
  5
901
100
AcDbEntity
  8
0
  6
BYBLOCK
 62
     0
100
AcDbLine
 10
100.5625
 20
184.0
 30
0.0
 11
114.68
 21
184.0
 31
0.0
  0
LINE
  5
902
100
AcDbEntity
  8
0
  6
BYBLOCK
 62
     0
100
AcDbLine
 10
100.5625
 20
174.0
 30
0.0
 11
114.68
 21
174.0
 31
0.0
  0
LINE
  5
903
100
AcDbEntity
  8
0
  6
BYBLOCK
 62
     0
100
AcDbLine
 10
114.5
 20
182.0
 30
0.0
 11
114.5
 21
180.381667
 31
0.0
  0
LINE
  5
904
100
AcDbEntity
  8
0
  6
BYBLOCK
 62
     0
100
AcDbLine
 10
114.5
 20
176.0
 30
0.0
 11
114.5
 21
177.618333
 31
0.0
  0
SOLID
  5
905
100
AcDbEntity
  8
0
  6
BYBLOCK
 62
     0
100
AcDbTrace
 10
114.166667
 20
182.0
 30
0.0
 11
114.833333
 21
182.0
 31
0.0
 12
114.5
 22
184.0
 32
0.0
 13
114.5
 23
184.0
 33
0.0
  0
SOLID
  5
906
100
AcDbEntity
  8
0
  6
BYBLOCK
 62
     0
100
AcDbTrace
 10
114.166667
 20
176.0
 30
0.0
 11
114.833333
 21
176.0
 31
0.0
 12
114.5
 22
174.0
 32
0.0
 13
114.5
 23
174.0
 33
0.0
  0
TEXT
  5
907
100
AcDbEntity
  8
0
  6
BYBLOCK
 62
     0
100
AcDbText
 10
116.25
 20
177.979167
 30
0.0
 40
3.5
  1
10
 50
90.0
 41
0.5
  7
EXTFONT
 72
     1
 11
114.5
 21
179.0
 31
0.0
100
AcDbText
 73
     2
  0
POINT
  5
908
100
AcDbEntity
  8
DEFPOINTS
  6
BYBLOCK
 62
     0
100
AcDbPoint
 10
100.5
 20
184.0
 30
0.0
  0
POINT
  5
909
100
AcDbEntity
  8
DEFPOINTS
  6
BYBLOCK
 62
     0
100
AcDbPoint
 10
100.5
 20
174.0
 30
0.0
  0
POINT
  5
90A
100
AcDbEntity
  8
DEFPOINTS
  6
BYBLOCK
 62
     0
100
AcDbPoint
 10
114.5
 20
174.0
 30
0.0
  0
ENDBLK
  5
90C
100
AcDbEntity
  8
0
100
AcDbBlockEnd
  0
BLOCK
  5
918
100
AcDbEntity
  8
0
100
AcDbBlockBegin
  2
*D62
 70
     1
 10
0.0
 20
0.0
 30
0.0
  3
*D62
  1

  0
LINE
  5
90E
100
AcDbEntity
  8
0
  6
BYBLOCK
 62
     0
100
AcDbLine
 10
130.19933
 20
135.964257
 30
0.0
 11
141.072782
 21
135.964257
 31
0.0
  0
LINE
  5
90F
100
AcDbEntity
  8
0
  6
BYBLOCK
 62
     0
100
AcDbLine
 10
130.19933
 20
126.564257
 30
0.0
 11
141.072782
 21
126.564257
 31
0.0
  0
LINE
  5
910
100
AcDbEntity
  8
0
  6
BYBLOCK
 62
     0
100
AcDbLine
 10
140.572782
 20
134.964257
 30
0.0
 11
140.572782
 21
134.874257
 31
0.0
  0
LINE
  5
911
100
AcDbEntity
  8
0
  6
BYBLOCK
 62
     0
100
AcDbLine
 10
140.572782
 20
127.564257
 30
0.0
 11
140.572782
 21
127.77324
 31
0.0
  0
SOLID
  5
912
100
AcDbEntity
  8
0
  6
BYBLOCK
 62
     0
100
AcDbTrace
 10
140.406116
 20
134.964257
 30
0.0
 11
140.739449
 21
134.964257
 31
0.0
 12
140.572782
 22
135.964257
 32
0.0
 13
140.572782
 23
135.964257
 33
0.0
  0
SOLID
  5
913
100
AcDbEntity
  8
0
  6
BYBLOCK
 62
     0
100
AcDbTrace
 10
140.406116
 20
127.564257
 30
0.0
 11
140.739449
 21
127.564257
 31
0.0
 12
140.572782
 22
126.564257
 32
0.0
 13
140.572782
 23
126.564257
 33
0.0
  0
MTEXT
  5
914
100
AcDbEntity
  8
0
  6
BYBLOCK
 62
     0
100
AcDbMText
 10
140.572782
 20
131.36324
 30
0.0
 40
3.5
 41
0.0
 71
     5
 72
     1
  1
\A1;9.4
 11
0.0
 21
1.0
 31
0.0
  0
POINT
  5
915
100
AcDbEntity
  8
DEFPOINTS
  6
BYBLOCK
 62
     0
100
AcDbPoint
 10
129.69933
 20
135.964257
 30
0.0
  0
POINT
  5
916
100
AcDbEntity
  8
DEFPOINTS
  6
BYBLOCK
 62
     0
100
AcDbPoint
 10
129.69933
 20
126.564257
 30
0.0
  0
POINT
  5
917
100
AcDbEntity
  8
DEFPOINTS
  6
BYBLOCK
 62
     0
100
AcDbPoint
 10
140.572782
 20
126.564257
 30
0.0
  0
ENDBLK
  5
919
100
AcDbEntity
  8
0
100
AcDbBlockEnd
  0
BLOCK
  5
94F
100
AcDbEntity
  8
0
100
AcDbBlockBegin
  2
A$C549F2839
 70
     0
 10
0.0
 20
0.0
 30
0.0
  3
A$C549F2839
  1

  0
CIRCLE
  5
91C
100
AcDbEntity
  8
2
100
AcDbCircle
 10
62.0
 20
8.0
 30
0.0
 40
1.5
  0
CIRCLE
  5
91D
100
AcDbEntity
  8
3
100
AcDbCircle
 10
62.0
 20
8.0
 30
0.0
 40
5.0
  0
LINE
  5
91E
100
AcDbEntity
  8
1
100
AcDbLine
 10
54.0
 20
8.0
 30
0.0
 11
70.5
 21
8.0
 31
0.0
  0
LINE
  5
91F
100
AcDbEntity
  8
3
100
AcDbLine
 10
14.0
 20
13.0
 30
0.0
 11
24.117741
 21
13.0
 31
0.0
  0
LINE
  5
920
100
AcDbEntity
  8
3
100
AcDbLine
 10
14.0
 20
3.0
 30
0.0
 11
24.117741
 21
3.0
 31
0.0
  0
LINE
  5
921
100
AcDbEntity
  8
1
100
AcDbLine
 10
0.0
 20
8.0
 30
0.0
 11
32.5
 21
8.0
 31
0.0
  0
LINE
  5
922
100
AcDbEntity
  8
3
100
AcDbLine
 10
13.0
 20
5.5
 30
0.0
 11
4.0
 21
5.5
 31
0.0
  0
LINE
  5
923
100
AcDbEntity
  8
0
100
AcDbLine
 10
3.0
 20
6.0
 30
0.0
 11
12.0
 21
6.0
 31
0.0
  0
LINE
  5
924
100
AcDbEntity
  8
0
100
AcDbLine
 10
3.0
 20
10.0
 30
0.0
 11
12.0
 21
10.0
 31
0.0
  0
LINE
  5
925
100
AcDbEntity
  8
3
100
AcDbLine
 10
13.0
 20
10.5
 30
0.0
 11
4.0
 21
10.5
 31
0.0
  0
LINE
  5
926
100
AcDbEntity
  8
3
100
AcDbLine
 10
3.0
 20
6.0
 30
0.0
 11
3.0
 21
8.0
 31
0.0
  0
LINE
  5
927
100
AcDbEntity
  8
0
100
AcDbLine
 10
4.0
 20
5.5
 30
0.0
 11
4.0
 21
8.0
 31
0.0
  0
LINE
  5
928
100
AcDbEntity
  8
3
100
AcDbLine
 10
4.0
 20
5.5
 30
0.0
 11
3.0
 21
6.0
 31
0.0
  0
LINE
  5
929
100
AcDbEntity
  8
0
100
AcDbLine
 10
3.0
 20
14.0
 30
0.0
 11
3.0
 21
11.5
 31
0.0
  0
LINE
  5
92A
100
AcDbEntity
  8
0
100
AcDbLine
 10
4.0
 20
10.5
 30
0.0
 11
4.0
 21
8.0
 31
0.0
  0
LINE
  5
92B
100
AcDbEntity
  8
3
100
AcDbLine
 10
3.0
 20
10.0
 30
0.0
 11
3.0
 21
8.0
 31
0.0
  0
LINE
  5
92C
100
AcDbEntity
  8
3
100
AcDbLine
 10
4.0
 20
10.5
 30
0.0
 11
3.0
 21
10.0
 31
0.0
  0
LINE
  5
92D
100
AcDbEntity
  8
0
100
AcDbLine
 10
12.0
 20
8.0
 30
0.0
 11
12.0
 21
5.5
 31
0.0
  0
LINE
  5
92E
100
AcDbEntity
  8
3
100
AcDbLine
 10
13.0
 20
8.0
 30
0.0
 11
13.0
 21
4.0
 31
0.0
  0
ARC
  5
92F
100
AcDbEntity
  8
3
100
AcDbCircle
 10
14.0
 20
4.0
 30
0.0
 40
1.0
100
AcDbArc
 50
180.0
 51
270.0
  0
SOLID
  5
930
100
AcDbEntity
  8
0
100
AcDbTrace
 10
6.750933
 20
12.118065
 30
0.0
 11
6.30045
 21
11.626628
 31
0.0
 12
8.0
 22
10.520897
 32
0.0
 13
8.0
 23
10.520897
 33
0.0
  0
ARC
  5
931
100
AcDbEntity
  8
3
100
AcDbCircle
 10
14.0
 20
12.0
 30
0.0
 40
1.0
100
AcDbArc
 50
90.0
 51
180.0
  0
LINE
  5
932
100
AcDbEntity
  8
0
100
AcDbLine
 10
12.0
 20
8.0
 30
0.0
 11
12.0
 21
10.5
 31
0.0
  0
LINE
  5
933
100
AcDbEntity
  8
3
100
AcDbLine
 10
13.0
 20
8.0
 30
0.0
 11
13.0
 21
12.0
 31
0.0
  0
DIMENSION
  5
934
100
AcDbEntity
  8
0
100
AcDbDimension
  2
*D61
 10
43.5
 20
3.0
 30
0.0
 11
43.5
 21
8.0
 31
0.0
 12
-71.0
 22
-171.0
 32
0.0
  1
10
100
AcDbAlignedDimension
 13
29.5
 23
13.0
 33
0.0
 14
29.5
 24
3.0
 34
0.0
 50
90.0
100
AcDbRotatedDimension
  0
DIMENSION
  5
935
100
AcDbEntity
  8
0
100
AcDbDimension
  2
*D62
 10
38.373452
 20
3.3
 30
0.0
 11
38.373452
 21
8.098982
 31
0.0
 12
-102.19933
 22
-123.264258
 32
0.0
 70
   128
  3
STANDARD
100
AcDbAlignedDimension
 13
27.5
 23
12.7
 33
0.0
 14
27.5
 24
3.3
 34
0.0
 50
90.0
100
AcDbRotatedDimension
1001
ACAD
1000
DSTYLE
1002
{
1070
    78
1070
     8
1070
   288
1070
     1
1070
   284
1070
     8
1070
   140
1040
3.5
1070
    73
1070
     0
1070
   272
1070
     2
1070
    42
1040
0.5
1070
    44
1040
0.5
1070
   271
1070
     2
1070
    41
1040
1.0
1002
}
  0
LINE
  5
936
100
AcDbEntity
  8
3
100
AcDbLine
 10
28.5
 20
8.0
 30
0.0
 11
28.5
 21
4.3
 31
0.0
  0
LINE
  5
937
100
AcDbEntity
  8
2
100
AcDbLine
 10
28.0
 20
7.0
 30
0.0
 11
28.0
 21
8.0
 31
0.0
  0
LINE
  5
938
100
AcDbEntity
  8
2
100
AcDbLine
 10
24.5
 20
6.5
 30
0.0
 11
24.5
 21
8.0
 31
0.0
  0
LINE
  5
939
100
AcDbEntity
  8
2
100
AcDbLine
 10
24.0
 20
7.0
 30
0.0
 11
23.0
 21
8.0
 31
0.0
  0
SOLID
  5
93A
100
AcDbEntity
  8
0
100
AcDbTrace
 10
27.639783
 20
1.30743
 30
0.0
 11
27.937925
 21
1.903715
 31
0.0
 12
26.0
 22
2.5
 32
0.0
 13
26.0
 23
2.5
 33
0.0
  0
LINE
  5
93B
100
AcDbEntity
  8
3
100
AcDbLine
 10
27.5
 20
3.3
 30
0.0
 11
24.473857
 21
3.3
 31
0.0
  0
LINE
  5
93C
100
AcDbEntity
  8
2
100
AcDbLine
 10
28.0
 20
7.0
 30
0.0
 11
24.0
 21
7.0
 31
0.0
  0
LINE
  5
93D
100
AcDbEntity
  8
2
100
AcDbLine
 10
28.0
 20
6.5
 30
0.0
 11
24.5
 21
6.5
 31
0.0
  0
LINE
  5
93E
100
AcDbEntity
  8
3
100
AcDbLine
 10
24.473857
 20
3.3
 30
0.0
 11
24.117741
 21
3.0
 31
0.0
  0
LINE
  5
93F
100
AcDbEntity
  8
3
100
AcDbLine
 10
28.5
 20
4.3
 30
0.0
 11
27.5
 21
3.3
 31
0.0
  0
LINE
  5
940
100
AcDbEntity
  8
2
100
AcDbLine
 10
28.5
 20
6.0
 30
0.0
 11
28.0
 21
7.0
 31
0.0
  0
LINE
  5
941
100
AcDbEntity
  8
2
100
AcDbLine
 10
24.0
 20
9.0
 30
0.0
 11
23.0
 21
8.0
 31
0.0
  0
LINE
  5
942
100
AcDbEntity
  8
3
100
AcDbLine
 10
27.5
 20
12.7
 30
0.0
 11
24.473857
 21
12.7
 31
0.0
  0
LINE
  5
943
100
AcDbEntity
  8
2
100
AcDbLine
 10
28.0
 20
9.5
 30
0.0
 11
24.5
 21
9.5
 31
0.0
  0
LINE
  5
944
100
AcDbEntity
  8
2
100
AcDbLine
 10
28.0
 20
9.0
 30
0.0
 11
24.0
 21
9.0
 31
0.0
  0
LINE
  5
945
100
AcDbEntity
  8
3
100
AcDbLine
 10
24.473857
 20
12.7
 30
0.0
 11
24.117741
 21
13.0
 31
0.0
  0
LINE
  5
946
100
AcDbEntity
  8
2
100
AcDbLine
 10
24.5
 20
9.5
 30
0.0
 11
24.5
 21
8.0
 31
0.0
  0
LINE
  5
947
100
AcDbEntity
  8
3
100
AcDbLine
 10
28.5
 20
11.7
 30
0.0
 11
27.5
 21
12.7
 31
0.0
  0
LINE
  5
948
100
AcDbEntity
  8
3
100
AcDbLine
 10
28.5
 20
8.0
 30
0.0
 11
28.5
 21
11.7
 31
0.0
  0
LINE
  5
949
100
AcDbEntity
  8
2
100
AcDbLine
 10
28.0
 20
9.0
 30
0.0
 11
28.0
 21
8.0
 31
0.0
  0
LINE
  5
94A
100
AcDbEntity
  8
2
100
AcDbLine
 10
28.5
 20
10.0
 30
0.0
 11
28.0
 21
9.0
 31
0.0
  0
SOLID
  5
94B
100
AcDbEntity
  8
0
100
AcDbTrace
 10
30.551504
 20
9.805352
 30
0.0
 11
30.044282
 21
10.237983
 31
0.0
 12
29.0
 22
8.5
 32
0.0
 13
29.0
 23
8.5
 33
0.0
  0
CIRCLE
  5
94C
100
AcDbEntity
  8
2
100
AcDbCircle
 10
62.0
 20
8.0
 30
0.0
 40
1.0
  0
LINE
  5
94D
100
AcDbEntity
  8
1
100
AcDbLine
 10
62.0
 20
16.0
 30
0.0
 11
62.0
 21
0.0
 31
0.0
  0
SOLID
  5
94E
100
AcDbEntity
  8
0
100
AcDbTrace
 10
58.375296
 20
1.312945
 30
0.0
 11
58.983244
 21
1.039369
 31
0.0
 12
59.5
 22
3.0
 32
0.0
 13
59.5
 23
3.0
 33
0.0
  0
ENDBLK
  5
950
100
AcDbEntity
  8
0
100
AcDbBlockEnd
  0
BLOCK
  5
9FE
100
AcDbEntity
  8
0
100
AcDbBlockBegin
  2
A$C696B72E0
 70
     0
 10
0.0
 20
0.0
 30
0.0
  3
A$C696B72E0
  1

  0
LINE
  5
9D3
100
AcDbEntity
  8
3
100
AcDbLine
 10
14.0
 20
11.69257
 30
0.0
 11
24.117741
 21
11.69257
 31
0.0
  0
LINE
  5
9D4
100
AcDbEntity
  8
3
100
AcDbLine
 10
14.0
 20
1.69257
 30
0.0
 11
24.117741
 21
1.69257
 31
0.0
  0
LINE
  5
9D5
100
AcDbEntity
  8
1
100
AcDbLine
 10
0.0
 20
6.69257
 30
0.0
 11
32.5
 21
6.69257
 31
0.0
  0
LINE
  5
9D6
100
AcDbEntity
  8
3
100
AcDbLine
 10
13.0
 20
4.19257
 30
0.0
 11
4.0
 21
4.19257
 31
0.0
  0
LINE
  5
9D7
100
AcDbEntity
  8
0
100
AcDbLine
 10
3.0
 20
4.69257
 30
0.0
 11
12.0
 21
4.69257
 31
0.0
  0
LINE
  5
9D8
100
AcDbEntity
  8
0
100
AcDbLine
 10
3.0
 20
8.69257
 30
0.0
 11
12.0
 21
8.69257
 31
0.0
  0
LINE
  5
9D9
100
AcDbEntity
  8
3
100
AcDbLine
 10
13.0
 20
9.19257
 30
0.0
 11
4.0
 21
9.19257
 31
0.0
  0
LINE
  5
9DA
100
AcDbEntity
  8
3
100
AcDbLine
 10
3.0
 20
4.69257
 30
0.0
 11
3.0
 21
6.69257
 31
0.0
  0
LINE
  5
9DB
100
AcDbEntity
  8
0
100
AcDbLine
 10
4.0
 20
4.19257
 30
0.0
 11
4.0
 21
6.69257
 31
0.0
  0
LINE
  5
9DC
100
AcDbEntity
  8
3
100
AcDbLine
 10
4.0
 20
4.19257
 30
0.0
 11
3.0
 21
4.69257
 31
0.0
  0
LINE
  5
9DD
100
AcDbEntity
  8
0
100
AcDbLine
 10
3.0
 20
12.69257
 30
0.0
 11
3.0
 21
10.19257
 31
0.0
  0
LINE
  5
9DE
100
AcDbEntity
  8
0
100
AcDbLine
 10
4.0
 20
9.19257
 30
0.0
 11
4.0
 21
6.69257
 31
0.0
  0
LINE
  5
9DF
100
AcDbEntity
  8
3
100
AcDbLine
 10
3.0
 20
8.69257
 30
0.0
 11
3.0
 21
6.69257
 31
0.0
  0
LINE
  5
9E0
100
AcDbEntity
  8
3
100
AcDbLine
 10
4.0
 20
9.19257
 30
0.0
 11
3.0
 21
8.69257
 31
0.0
  0
LINE
  5
9E1
100
AcDbEntity
  8
0
100
AcDbLine
 10
12.0
 20
6.69257
 30
0.0
 11
12.0
 21
4.19257
 31
0.0
  0
LINE
  5
9E2
100
AcDbEntity
  8
3
100
AcDbLine
 10
13.0
 20
6.69257
 30
0.0
 11
13.0
 21
2.69257
 31
0.0
  0
ARC
  5
9E3
100
AcDbEntity
  8
3
100
AcDbCircle
 10
14.0
 20
2.69257
 30
0.0
 40
1.0
100
AcDbArc
 50
180.0
 51
270.0
  0
SOLID
  5
9E4
100
AcDbEntity
  8
0
100
AcDbTrace
 10
6.750933
 20
10.810634
 30
0.0
 11
6.30045
 21
10.319198
 31
0.0
 12
8.0
 22
9.213467
 32
0.0
 13
8.0
 23
9.213467
 33
0.0
  0
ARC
  5
9E5
100
AcDbEntity
  8
3
100
AcDbCircle
 10
14.0
 20
10.69257
 30
0.0
 40
1.0
100
AcDbArc
 50
90.0
 51
180.0
  0
LINE
  5
9E6
100
AcDbEntity
  8
0
100
AcDbLine
 10
12.0
 20
6.69257
 30
0.0
 11
12.0
 21
9.19257
 31
0.0
  0
LINE
  5
9E7
100
AcDbEntity
  8
3
100
AcDbLine
 10
13.0
 20
6.69257
 30
0.0
 11
13.0
 21
10.69257
 31
0.0
  0
LINE
  5
9E8
100
AcDbEntity
  8
3
100
AcDbLine
 10
28.5
 20
6.69257
 30
0.0
 11
28.5
 21
2.99257
 31
0.0
  0
LINE
  5
9E9
100
AcDbEntity
  8
2
100
AcDbLine
 10
28.0
 20
5.69257
 30
0.0
 11
28.0
 21
6.69257
 31
0.0
  0
LINE
  5
9EA
100
AcDbEntity
  8
2
100
AcDbLine
 10
24.5
 20
5.19257
 30
0.0
 11
24.5
 21
6.69257
 31
0.0
  0
LINE
  5
9EB
100
AcDbEntity
  8
2
100
AcDbLine
 10
24.0
 20
5.69257
 30
0.0
 11
23.0
 21
6.69257
 31
0.0
  0
SOLID
  5
9EC
100
AcDbEntity
  8
0
100
AcDbTrace
 10
27.639783
 20
0.0
 30
0.0
 11
27.937925
 21
0.596285
 31
0.0
 12
26.0
 22
1.19257
 32
0.0
 13
26.0
 23
1.19257
 33
0.0
  0
LINE
  5
9ED
100
AcDbEntity
  8
3
100
AcDbLine
 10
27.5
 20
1.99257
 30
0.0
 11
24.473857
 21
1.99257
 31
0.0
  0
LINE
  5
9EE
100
AcDbEntity
  8
2
100
AcDbLine
 10
28.0
 20
5.69257
 30
0.0
 11
24.0
 21
5.69257
 31
0.0
  0
LINE
  5
9EF
100
AcDbEntity
  8
2
100
AcDbLine
 10
28.0
 20
5.19257
 30
0.0
 11
24.5
 21
5.19257
 31
0.0
  0
LINE
  5
9F0
100
AcDbEntity
  8
3
100
AcDbLine
 10
24.473857
 20
1.99257
 30
0.0
 11
24.117741
 21
1.69257
 31
0.0
  0
LINE
  5
9F1
100
AcDbEntity
  8
3
100
AcDbLine
 10
28.5
 20
2.99257
 30
0.0
 11
27.5
 21
1.99257
 31
0.0
  0
LINE
  5
9F2
100
AcDbEntity
  8
2
100
AcDbLine
 10
28.5
 20
4.69257
 30
0.0
 11
28.0
 21
5.69257
 31
0.0
  0
LINE
  5
9F3
100
AcDbEntity
  8
2
100
AcDbLine
 10
24.0
 20
7.69257
 30
0.0
 11
23.0
 21
6.69257
 31
0.0
  0
LINE
  5
9F4
100
AcDbEntity
  8
3
100
AcDbLine
 10
27.5
 20
11.39257
 30
0.0
 11
24.473857
 21
11.39257
 31
0.0
  0
LINE
  5
9F5
100
AcDbEntity
  8
2
100
AcDbLine
 10
28.0
 20
8.19257
 30
0.0
 11
24.5
 21
8.19257
 31
0.0
  0
LINE
  5
9F6
100
AcDbEntity
  8
2
100
AcDbLine
 10
28.0
 20
7.69257
 30
0.0
 11
24.0
 21
7.69257
 31
0.0
  0
LINE
  5
9F7
100
AcDbEntity
  8
3
100
AcDbLine
 10
24.473857
 20
11.39257
 30
0.0
 11
24.117741
 21
11.69257
 31
0.0
  0
LINE
  5
9F8
100
AcDbEntity
  8
2
100
AcDbLine
 10
24.5
 20
8.19257
 30
0.0
 11
24.5
 21
6.69257
 31
0.0
  0
LINE
  5
9F9
100
AcDbEntity
  8
3
100
AcDbLine
 10
28.5
 20
10.39257
 30
0.0
 11
27.5
 21
11.39257
 31
0.0
  0
LINE
  5
9FA
100
AcDbEntity
  8
3
100
AcDbLine
 10
28.5
 20
6.69257
 30
0.0
 11
28.5
 21
10.39257
 31
0.0
  0
LINE
  5
9FB
100
AcDbEntity
  8
2
100
AcDbLine
 10
28.0
 20
7.69257
 30
0.0
 11
28.0
 21
6.69257
 31
0.0
  0
LINE
  5
9FC
100
AcDbEntity
  8
2
100
AcDbLine
 10
28.5
 20
8.69257
 30
0.0
 11
28.0
 21
7.69257
 31
0.0
  0
SOLID
  5
9FD
100
AcDbEntity
  8
0
100
AcDbTrace
 10
30.551504
 20
8.497922
 30
0.0
 11
30.044282
 21
8.930553
 31
0.0
 12
29.0
 22
7.19257
 32
0.0
 13
29.0
 23
7.19257
 33
0.0
  0
ENDBLK
  5
9FF
100
AcDbEntity
  8
0
100
AcDbBlockEnd
  0
ENDSEC
  0
SECTION
  2
ENTITIES
  0
LINE
  5
5F5
100
AcDbEntity
  8
3
100
AcDbLine
 10
148.601658
 20
49.341358
 30
7.460285
 11
141.851658
 21
49.341358
 31
7.460285
  0
LINE
  5
5F6
100
AcDbEntity
  8
3
100
AcDbLine
 10
154.286066
 20
65.777545
 30
7.460285
 11
141.366773
 21
65.777545
 31
7.460285
  0
ELLIPSE
  5
5F7
100
AcDbEntity
  8
3
100
AcDbEllipse
 10
148.399153
 20
118.276701
 30
7.460285
 11
0.0
 21
-6.98932342377572
 31
0.0
210
0.0
220
0.0
230
1.0
 40
0.962593
 41
1.644155871794095
 42
7.784143275053856
  0
ARC
  5
5F8
100
AcDbEntity
  8
3
100
AcDbCircle
 10
148.601658
 20
118.288975
 30
7.460285
 40
7.25
100
AcDbArc
 50
38.366514
 51
321.633486
  0
CIRCLE
  5
601
100
AcDbEntity
  8
3
100
AcDbCircle
 10
148.601658
 20
118.288975
 30
7.460285
 40
4.0
  0
LINE
  5
602
100
AcDbEntity
  8
1
100
AcDbLine
 10
137.976426
 20
118.288975
 30
7.460285
 11
191.230508
 21
118.288975
 31
7.460285
  0
LINE
  5
603
100
AcDbEntity
  8
3
100
AcDbLine
 10
142.264195
 20
67.215037
 30
7.460285
 11
155.127015
 21
70.661619
 31
7.460285
  0
LINE
  5
608
100
AcDbEntity
  8
3
100
AcDbLine
 10
71.436788
 20
65.777545
 30
7.460285
 11
71.566245
 21
68.008412
 31
7.460285
  0
LINE
  5
609
100
AcDbEntity
  8
3
100
AcDbLine
 10
85.906557
 20
65.777545
 30
7.460285
 11
85.7771
 21
68.008412
 31
7.460285
  0
LINE
  5
60B
100
AcDbEntity
  8
3
100
AcDbLine
 10
85.421673
 20
49.341358
 30
7.460285
 11
85.906557
 21
65.777545
 31
7.460285
  0
LINE
  5
60C
100
AcDbEntity
  8
3
100
AcDbLine
 10
71.921673
 20
49.341358
 30
7.460285
 11
71.436788
 21
65.777545
 31
7.460285
  0
LINE
  5
60D
100
AcDbEntity
  8
3
100
AcDbLine
 10
141.851658
 20
49.341358
 30
7.460285
 11
141.366773
 21
65.777545
 31
7.460285
  0
LINE
  5
60E
100
AcDbEntity
  8
3
100
AcDbLine
 10
78.671673
 20
65.777545
 30
7.460285
 11
85.906557
 21
65.777545
 31
7.460285
  0
LINE
  5
60F
100
AcDbEntity
  8
3
100
AcDbLine
 10
78.671673
 20
65.777545
 30
7.460285
 11
71.436788
 21
65.777545
 31
7.460285
  0
ARC
  5
610
100
AcDbEntity
  8
3
100
AcDbCircle
 10
142.966773
 20
65.777545
 30
7.460285
 40
1.6
100
AcDbArc
 50
116.047212
 51
180.0
  0
ARC
  5
611
100
AcDbEntity
  8
3
100
AcDbCircle
 10
78.671673
 20
73.995614
 30
7.460285
 40
4.502705
100
AcDbArc
 50
1.985946
 51
178.014054
  0
LINE
  5
612
100
AcDbEntity
  8
1
100
AcDbLine
 10
78.671673
 20
71.753749
 30
7.460285
 11
78.671673
 21
80.274655
 31
7.460285
  0
ELLIPSE
  5
613
100
AcDbEntity
  8
3
100
AcDbEllipse
 10
78.671673
 20
68.841634
 30
7.460285
 11
-6.726268523018859
 21
0.0
 31
0.0
210
0.0
220
0.0
230
1.0
 40
0.270579
 41
0.0
 42
6.283185307179586
  0
LINE
  5
614
100
AcDbEntity
  8
3
100
AcDbLine
 10
78.671673
 20
49.341358
 30
7.460285
 11
85.421673
 21
49.341358
 31
7.460285
  0
LINE
  5
615
100
AcDbEntity
  8
1
100
AcDbLine
 10
78.671673
 20
48.3838
 30
7.460285
 11
78.671673
 21
71.753749
 31
7.460285
  0
LINE
  5
616
100
AcDbEntity
  8
3
100
AcDbLine
 10
78.671673
 20
49.341358
 30
7.460285
 11
71.921673
 21
49.341358
 31
7.460285
  0
ELLIPSE
  5
617
100
AcDbEntity
  8
3
100
AcDbEllipse
 10
78.671673
 20
68.846168
 30
7.460285
 11
-3.5
 21
0.0
 31
0.0
210
0.0
220
0.0
230
1.0
 40
0.287088
 41
0.0
 42
6.283185307179586
  0
LINE
  5
618
100
AcDbEntity
  8
3
100
AcDbLine
 10
74.171673
 20
74.151652
 30
7.460285
 11
74.171673
 21
70.367586
 31
7.460285
  0
LINE
  5
619
100
AcDbEntity
  8
3
100
AcDbLine
 10
74.171673
 20
70.367586
 30
7.460285
 11
74.171673
 21
70.19433
 31
7.460285
  0
ARC
  5
61A
100
AcDbEntity
  8
3
100
AcDbCircle
 10
78.673886
 20
71.972175
 30
7.460285
 40
1.106935
100
AcDbArc
 50
19.043492
 51
161.718975
  0
LINE
  5
61B
100
AcDbEntity
  8
3
100
AcDbLine
 10
83.171673
 20
74.151652
 30
7.460285
 11
83.171673
 21
70.367586
 31
7.460285
  0
ARC
  5
61C
100
AcDbEntity
  8
3
100
AcDbCircle
 10
78.649868
 20
75.581793
 30
7.460285
 40
3.420244
100
AcDbArc
 50
278.953154
 51
288.237218
  0
ARC
  5
61D
100
AcDbEntity
  8
3
100
AcDbCircle
 10
78.645441
 20
74.831793
 30
7.460285
 40
3.420244
100
AcDbArc
 50
279.068291
 51
288.237218
  0
ARC
  5
61E
100
AcDbEntity
  8
3
100
AcDbCircle
 10
78.649868
 20
75.581793
 30
7.460285
 40
3.420244
100
AcDbArc
 50
252.525249
 51
261.561795
  0
ARC
  5
61F
100
AcDbEntity
  8
3
100
AcDbCircle
 10
78.645441
 20
74.831793
 30
7.460285
 40
3.420244
100
AcDbArc
 50
252.525249
 51
261.679359
  0
ARC
  5
620
100
AcDbEntity
  8
3
100
AcDbCircle
 10
78.669459
 20
71.222175
 30
7.460285
 40
1.106935
100
AcDbArc
 50
19.043492
 51
161.718975
  0
ARC
  5
621
100
AcDbEntity
  8
3
100
AcDbCircle
 10
78.673886
 20
70.472175
 30
7.460285
 40
1.106935
100
AcDbArc
 50
19.043492
 51
161.718975
  0
ARC
  5
622
100
AcDbEntity
  8
3
100
AcDbCircle
 10
78.649868
 20
74.081793
 30
7.460285
 40
3.420244
100
AcDbArc
 50
252.525249
 51
288.237218
  0
LINE
  5
623
100
AcDbEntity
  8
3
100
AcDbLine
 10
83.171673
 20
70.367586
 30
7.460285
 11
83.171673
 21
70.19433
 31
7.460285
  0
ARC
  5
641
100
AcDbEntity
  8
3
100
AcDbCircle
 10
73.265227
 20
67.981501
 30
7.460285
 40
1.699195
100
AcDbArc
 50
135.325613
 51
179.092537
  0
ARC
  5
642
100
AcDbEntity
  8
3
100
AcDbCircle
 10
84.078118
 20
67.981501
 30
7.460285
 40
1.699195
100
AcDbArc
 50
0.907463
 51
44.674387
  0
ELLIPSE
  5
650
100
AcDbEntity
  8
3
100
AcDbEllipse
 10
156.180716
 20
118.288975
 30
7.460285
 11
-1.053700676307869
 21
0.0
 31
0.0
210
0.0
220
0.0
230
1.0
 40
0.988217
 41
0.0
 42
6.283185307179586
  0
ELLIPSE
  5
651
100
AcDbEntity
  8
3
100
AcDbEllipse
 10
158.32662
 20
118.288975
 30
7.460285
 11
-1.053700676307869
 21
0.0
 31
0.0
210
0.0
220
0.0
230
1.0
 40
0.988217
 41
0.0
 42
6.283185307179586
  0
ARC
  5
652
100
AcDbEntity
  8
3
100
AcDbCircle
 10
145.413838
 20
118.288975
 30
7.460285
 40
9.713177
100
AcDbArc
 50
2.950688
 51
23.111086
  0
CIRCLE
  5
655
100
AcDbEntity
  8
3
100
AcDbCircle
 10
148.601658
 20
118.288975
 30
7.460285
 40
2.75
  0
ARC
  5
656
100
AcDbEntity
  8
3
100
AcDbCircle
 10
183.764573
 20
118.288975
 30
7.460285
 40
4.837085
100
AcDbArc
 50
291.516435
 51
68.483565
  0
ARC
  5
657
100
AcDbEntity
  8
3
100
AcDbCircle
 10
198.018901
 20
118.288975
 30
7.460285
 40
13.644925
100
AcDbArc
 50
163.870034
 51
196.129966
  0
LINE
  5
658
100
AcDbEntity
  8
1
100
AcDbLine
 10
148.601658
 20
106.681348
 30
7.460285
 11
148.601658
 21
128.911299
 31
7.460285
  0
LINE
  5
65B
100
AcDbEntity
  8
3
100
AcDbLine
 10
155.351658
 20
49.341358
 30
7.460285
 11
155.708797
 21
61.500021
 31
7.460285
  0
LINE
  5
65C
100
AcDbEntity
  8
3
100
AcDbLine
 10
161.449219
 20
72.355649
 30
7.460285
 11
184.373976
 21
78.498319
 31
7.460285
  0
LINE
  5
65D
100
AcDbEntity
  8
3
100
AcDbLine
 10
180.381143
 20
68.110957
 30
7.460285
 11
155.708797
 21
61.500021
 31
7.460285
  0
LINE
  5
65E
100
AcDbEntity
  8
3
100
AcDbLine
 10
154.286066
 20
65.777545
 30
7.460285
 11
185.538661
 21
74.151652
 31
7.460285
  0
LINE
  5
65F
100
AcDbEntity
  8
1
100
AcDbLine
 10
146.103367
 20
63.584997
 30
7.460285
 11
191.211573
 21
75.671704
 31
7.460285
  0
ARC
  5
660
100
AcDbEntity
  8
3
100
AcDbCircle
 10
159.937738
 20
73.781771
 30
7.460285
 40
2.078076
100
AcDbArc
 50
253.335603
 51
316.664397
  0
ARC
  5
661
100
AcDbEntity
  8
3
100
AcDbCircle
 10
160.524928
 20
71.590347
 30
7.460285
 40
1.2
100
AcDbArc
 50
39.624318
 51
170.375682
  0
ARC
  5
662
100
AcDbEntity
  8
3
100
AcDbCircle
 10
163.972909
 20
66.624081
 30
7.460285
 40
9.723762
100
AcDbArc
 50
155.466588
 51
211.800465
  0
ARC
  5
663
100
AcDbEntity
  8
3
100
AcDbCircle
 10
158.417527
 20
71.025671
 30
7.460285
 40
1.2
100
AcDbArc
 50
39.624318
 51
170.375682
  0
ARC
  5
664
100
AcDbEntity
  8
3
100
AcDbCircle
 10
156.310126
 20
70.460994
 30
7.460285
 40
1.2
100
AcDbArc
 50
39.624318
 51
170.375682
  0
ARC
  5
665
100
AcDbEntity
  8
3
100
AcDbCircle
 10
155.722935
 20
72.652418
 30
7.460285
 40
2.078076
100
AcDbArc
 50
253.335603
 51
316.664397
  0
ARC
  5
666
100
AcDbEntity
  8
3
100
AcDbCircle
 10
157.830337
 20
73.217094
 30
7.460285
 40
2.078076
100
AcDbArc
 50
253.335603
 51
316.664397
  0
ARC
  5
667
100
AcDbEntity
  8
3
100
AcDbCircle
 10
145.413838
 20
118.288975
 30
7.460285
 40
9.713177
100
AcDbArc
 50
336.888914
 51
357.049312
  0
ARC
  5
668
100
AcDbEntity
  8
3
100
AcDbCircle
 10
154.791227
 20
114.090298
 30
7.460285
 40
0.588203
100
AcDbArc
 50
138.972514
 51
210.815605
  0
ELLIPSE
  5
669
100
AcDbEntity
  8
3
100
AcDbEllipse
 10
160.510941
 20
118.288975
 30
7.460285
 11
-1.053700676307869
 21
0.0
 31
0.0
210
0.0
220
0.0
230
1.0
 40
0.988217
 41
0.0
 42
6.283185307179586
  0
ARC
  5
670
100
AcDbEntity
  8
3
100
AcDbCircle
 10
183.727551
 20
73.666367
 30
7.460285
 40
4.875
100
AcDbArc
 50
307.619865
 51
82.380135
  0
LINE
  5
671
100
AcDbEntity
  8
3
100
AcDbLine
 10
184.373976
 20
78.498319
 30
7.460285
 11
186.703347
 21
69.804986
 31
7.460285
  0
LINE
  5
672
100
AcDbEntity
  8
1
100
AcDbLine
 10
148.601658
 20
48.3838
 30
7.460285
 11
148.601658
 21
71.753749
 31
7.460285
  0
LINE
  5
673
100
AcDbEntity
  8
3
100
AcDbLine
 10
148.601658
 20
49.341358
 30
7.460285
 11
155.351658
 21
49.341358
 31
7.460285
  0
ARC
  5
68A
100
AcDbEntity
  8
3
100
AcDbCircle
 10
184.000026
 20
67.249511
 30
7.460285
 40
2.078076
100
AcDbArc
 50
73.335603
 51
136.664397
  0
ARC
  5
68B
100
AcDbEntity
  8
3
100
AcDbCircle
 10
183.412836
 20
69.440934
 30
7.460285
 40
1.2
100
AcDbArc
 50
219.624318
 51
350.375682
  0
ARC
  5
68C
100
AcDbEntity
  8
3
100
AcDbCircle
 10
181.892624
 20
66.684834
 30
7.460285
 40
2.078076
100
AcDbArc
 50
73.335603
 51
136.664397
  0
ARC
  5
68D
100
AcDbEntity
  8
3
100
AcDbCircle
 10
181.305434
 20
68.876258
 30
7.460285
 40
1.2
100
AcDbArc
 50
219.624318
 51
350.375682
  0
ARC
  5
68F
100
AcDbEntity
  8
3
100
AcDbCircle
 10
186.107427
 20
67.814187
 30
7.460285
 40
2.078076
100
AcDbArc
 50
73.335603
 51
136.664397
  0
ARC
  5
690
100
AcDbEntity
  8
3
100
AcDbCircle
 10
185.520237
 20
70.005611
 30
7.460285
 40
1.2
100
AcDbArc
 50
219.624318
 51
350.375682
  0
LINE
  5
691
100
AcDbEntity
  8
3
100
AcDbLine
 10
185.538661
 20
74.151652
 30
7.460285
 11
188.578336
 21
74.151652
 31
7.460285
  0
LINE
  5
693
100
AcDbEntity
  8
3
100
AcDbLine
 10
185.538661
 20
113.788975
 30
7.460285
 11
154.286066
 21
113.788975
 31
7.460285
  0
ARC
  5
694
100
AcDbEntity
  8
3
100
AcDbCircle
 10
186.031732
 20
114.857509
 30
7.460285
 40
1.176811
100
AcDbArc
 50
197.778622
 51
245.229221
  0
ARC
  5
695
100
AcDbEntity
  8
3
100
AcDbCircle
 10
154.791227
 20
122.487652
 30
7.460285
 40
0.588203
100
AcDbArc
 50
149.184395
 51
221.027486
  0
LINE
  5
696
100
AcDbEntity
  8
3
100
AcDbLine
 10
185.538661
 20
122.788975
 30
7.460285
 11
154.286066
 21
122.788975
 31
7.460285
  0
ARC
  5
697
100
AcDbEntity
  8
3
100
AcDbCircle
 10
186.031732
 20
121.720441
 30
7.460285
 40
1.176811
100
AcDbArc
 50
114.770779
 51
162.221378
  0
LINE
  5
955
100
AcDbEntity
  8
3
100
AcDbLine
 10
73.671673
 20
46.341358
 30
7.460285
 11
73.671673
 21
49.341358
 31
7.460285
  0
LINE
  5
956
100
AcDbEntity
  8
3
100
AcDbLine
 10
83.671673
 20
46.341358
 30
7.460285
 11
83.671673
 21
49.341358
 31
7.460285
  0
LINE
  5
964
100
AcDbEntity
  8
3
100
AcDbLine
 10
78.671673
 20
45.341358
 30
7.460285
 11
82.671673
 21
45.341358
 31
7.460285
  0
ARC
  5
965
100
AcDbEntity
  8
3
100
AcDbCircle
 10
82.671673
 20
46.341358
 30
7.460285
 40
1.0
100
AcDbArc
 50
270.0
 51
0.0
  0
ARC
  5
967
100
AcDbEntity
  8
3
100
AcDbCircle
 10
74.671673
 20
46.341358
 30
7.460285
 40
1.0
100
AcDbArc
 50
180.0
 51
270.0
  0
LINE
  5
969
100
AcDbEntity
  8
3
100
AcDbLine
 10
78.671673
 20
45.341358
 30
7.460285
 11
74.671673
 21
45.341358
 31
7.460285
  0
LINE
  5
9C0
100
AcDbEntity
  8
3
100
AcDbLine
 10
148.601658
 20
45.341358
 30
7.460285
 11
144.601658
 21
45.341358
 31
7.460285
  0
LINE
  5
9C1
100
AcDbEntity
  8
3
100
AcDbLine
 10
143.601658
 20
46.341358
 30
7.460285
 11
143.601658
 21
49.341358
 31
7.460285
  0
ARC
  5
9C2
100
AcDbEntity
  8
3
100
AcDbCircle
 10
144.601658
 20
46.341358
 30
7.460285
 40
1.0
100
AcDbArc
 50
180.0
 51
270.0
  0
LINE
  5
9C7
100
AcDbEntity
  8
3
100
AcDbLine
 10
148.601658
 20
45.341358
 30
7.460285
 11
152.601658
 21
45.341358
 31
7.460285
  0
LINE
  5
9C8
100
AcDbEntity
  8
3
100
AcDbLine
 10
153.601658
 20
46.341358
 30
7.460285
 11
153.601658
 21
49.341358
 31
7.460285
  0
ARC
  5
9C9
100
AcDbEntity
  8
3
100
AcDbCircle
 10
152.601658
 20
46.341358
 30
7.460285
 40
1.0
100
AcDbArc
 50
270.0
 51
0.0
  0
LINE
  5
A2C
100
AcDbEntity
  8
1
100
AcDbLine
 10
148.601658
 20
49.341358
 30
7.460285
 11
148.601658
 21
20.510552
 31
7.460285
  0
LINE
  5
A2D
100
AcDbEntity
  8
1
100
AcDbLine
 10
78.671673
 20
49.341358
 30
7.460285
 11
78.671673
 21
14.510552
 31
7.460285
  0
LINE
  5
A2E
100
AcDbEntity
  8
3
100
AcDbLine
 10
150.601658
 20
45.341358
 30
7.460285
 11
150.601658
 21
21.341358
 31
7.460285
  0
LINE
  5
A2F
100
AcDbEntity
  8
0
100
AcDbLine
 10
150.101658
 20
20.341358
 30
7.460285
 11
150.101658
 21
44.341358
 31
7.460285
  0
LINE
  5
A30
100
AcDbEntity
  8
0
100
AcDbLine
 10
147.101658
 20
20.341358
 30
7.460285
 11
147.101658
 21
44.341358
 31
7.460285
  0
LINE
  5
A31
100
AcDbEntity
  8
3
100
AcDbLine
 10
146.601658
 20
45.341358
 30
7.460285
 11
146.601658
 21
21.341358
 31
7.460285
  0
LINE
  5
A32
100
AcDbEntity
  8
3
100
AcDbLine
 10
150.101658
 20
20.341358
 30
7.460285
 11
148.601658
 21
20.341358
 31
7.460285
  0
LINE
  5
A33
100
AcDbEntity
  8
0
100
AcDbLine
 10
150.601658
 20
21.341358
 30
7.460285
 11
148.601658
 21
21.341358
 31
7.460285
  0
LINE
  5
A34
100
AcDbEntity
  8
3
100
AcDbLine
 10
150.601658
 20
21.341358
 30
7.460285
 11
150.101658
 21
20.341358
 31
7.460285
  0
LINE
  5
A35
100
AcDbEntity
  8
0
100
AcDbLine
 10
146.601658
 20
21.341358
 30
7.460285
 11
148.601658
 21
21.341358
 31
7.460285
  0
LINE
  5
A36
100
AcDbEntity
  8
3
100
AcDbLine
 10
147.101658
 20
20.341358
 30
7.460285
 11
148.601658
 21
20.341358
 31
7.460285
  0
LINE
  5
A37
100
AcDbEntity
  8
3
100
AcDbLine
 10
146.601658
 20
21.341358
 30
7.460285
 11
147.101658
 21
20.341358
 31
7.460285
  0
LINE
  5
A38
100
AcDbEntity
  8
0
100
AcDbLine
 10
148.601658
 20
44.341358
 30
7.460285
 11
150.601658
 21
44.341358
 31
7.460285
  0
LINE
  5
A39
100
AcDbEntity
  8
0
100
AcDbLine
 10
148.601658
 20
44.341358
 30
7.460285
 11
146.601658
 21
44.341358
 31
7.460285
  0
LINE
  5
A46
100
AcDbEntity
  8
3
100
AcDbLine
 10
76.671673
 20
45.341358
 30
7.460285
 11
76.671673
 21
21.341358
 31
7.460285
  0
LINE
  5
A47
100
AcDbEntity
  8
0
100
AcDbLine
 10
77.171673
 20
20.341358
 30
7.460285
 11
77.171673
 21
44.341358
 31
7.460285
  0
LINE
  5
A48
100
AcDbEntity
  8
0
100
AcDbLine
 10
80.171673
 20
20.341358
 30
7.460285
 11
80.171673
 21
44.341358
 31
7.460285
  0
LINE
  5
A49
100
AcDbEntity
  8
3
100
AcDbLine
 10
80.671673
 20
45.341358
 30
7.460285
 11
80.671673
 21
21.341358
 31
7.460285
  0
LINE
  5
A4A
100
AcDbEntity
  8
0
100
AcDbLine
 10
80.671673
 20
21.341358
 30
7.460285
 11
78.671673
 21
21.341358
 31
7.460285
  0
LINE
  5
A4B
100
AcDbEntity
  8
3
100
AcDbLine
 10
80.171673
 20
20.341358
 30
7.460285
 11
78.671673
 21
20.341358
 31
7.460285
  0
LINE
  5
A4C
100
AcDbEntity
  8
3
100
AcDbLine
 10
76.671673
 20
21.341358
 30
7.460285
 11
77.171673
 21
20.341358
 31
7.460285
  0
LINE
  5
A4D
100
AcDbEntity
  8
3
100
AcDbLine
 10
77.171673
 20
20.341358
 30
7.460285
 11
78.671673
 21
20.341358
 31
7.460285
  0
LINE
  5
A4E
100
AcDbEntity
  8
0
100
AcDbLine
 10
76.671673
 20
21.341358
 30
7.460285
 11
78.671673
 21
21.341358
 31
7.460285
  0
LINE
  5
A4F
100
AcDbEntity
  8
3
100
AcDbLine
 10
80.671673
 20
21.341358
 30
7.460285
 11
80.171673
 21
20.341358
 31
7.460285
  0
LINE
  5
A50
100
AcDbEntity
  8
0
100
AcDbLine
 10
78.671673
 20
44.341358
 30
7.460285
 11
80.671673
 21
44.341358
 31
7.460285
  0
LINE
  5
A51
100
AcDbEntity
  8
0
100
AcDbLine
 10
78.671673
 20
44.341358
 30
7.460285
 11
76.671673
 21
44.341358
 31
7.460285
  0
ENDSEC
  0
SECTION
  2
OBJECTS
  0
DICTIONARY
  5
1B8
100
AcDbDictionary
  3
ACAD_GROUP
350
1B9
  3
ACAD_MLINESTYLE
350
1C6
  3
ACDBVARIABLEDICTIONARY
350
1DE
  0
DICTIONARY
  5
1B9
102
{ACAD_REACTORS
330
1B8
102
}
100
AcDbDictionary
  0
DICTIONARY
  5
1C6
102
{ACAD_REACTORS
330
1B8
102
}
100
AcDbDictionary
  3
STANDARD
350
1C7
  0
DICTIONARY
  5
1DE
102
{ACAD_REACTORS
330
1B8
102
}
100
AcDbDictionary
  3
DIMADEC
350
1DF
  0
MLINESTYLE
  5
1C7
102
{ACAD_REACTORS
330
1C6
102
}
100
AcDbMlineStyle
  2
STANDARD
 70
     0
  3

 62
   256
 51
90.0
 52
90.0
 71
     2
 49
0.5
 62
   256
  6
BYLAYER
 49
-0.5
 62
   256
  6
BYLAYER
  0
DICTIONARYVAR
  5
1DF
102
{ACAD_REACTORS
330
1DE
102
}
100
DictionaryVariables
280
     0
  1
0
  0
ENDSEC
  0
EOF
