  0
SECTION
  2
HEADER
  9
$ACADVER
  1
AC1015
  9
$ACADMAINTVER
 70
    13
  9
$DWGCODEPAGE
  3
ANSI_932
  9
$INSBASE
 10
0.0
 20
0.0
 30
0.0
  9
$EXTMIN
 10
71.436788
 20
14.510552
 30
7.460285
  9
$EXTMAX
 10
191.230508
 20
128.9112989999999
 30
7.460285
  9
$LIMMIN
 10
0.0
 20
0.0
  9
$LIMMAX
 10
250.0
 20
160.0
  9
$ORTHOMODE
 70
     1
  9
$REGENMODE
 70
     1
  9
$FILLMODE
 70
     1
  9
$QTEXTMODE
 70
     0
  9
$MIRRTEXT
 70
     1
  9
$LTSCALE
 40
30.0
  9
$ATTMODE
 70
     1
  9
$TEXTSIZE
 40
15.0
  9
$TRACEWID
 40
0.05
  9
$TEXTSTYLE
  7
BIGFONT
  9
$CLAYER
  8
1
  9
$CELTYPE
  6
BYLAYER
  9
$CECOLOR
 62
   256
  9
$CELTSCALE
 40
1.0
  9
$DISPSILH
 70
     0
  9
$DIMSCALE
 40
3.0
  9
$DIMASZ
 40
3.0
  9
$DIMEXO
 40
2.0
  9
$DIMDLI
 40
0.38
  9
$DIMRND
 40
0.0
  9
$DIMDLE
 40
0.0
  9
$DIMEXE
 40
2.0
  9
$DIMTP
 40
0.0
  9
$DIMTM
 40
0.0
  9
$DIMTXT
 40
3.2
  9
$DIMCEN
 40
0.09
  9
$DIMTSZ
 40
0.0
  9
$DIMTOL
 70
     0
  9
$DIMLIM
 70
     0
  9
$DIMTIH
 70
     0
  9
$DIMTOH
 70
     0
  9
$DIMSE1
 70
     0
  9
$DIMSE2
 70
     0
  9
$DIMTAD
 70
     1
  9
$DIMZIN
 70
     0
  9
$DIMBLK
  1

  9
$DIMASO
 70
     0
  9
$DIMSHO
 70
     0
  9
$DIMPOST
  1

  9
$DIMAPOST
  1

  9
$DIMALT
 70
     0
  9
$DIMALTD
 70
     2
  9
$DIMALTF
 40
25.4
  9
$DIMLFAC
 40
1.0
  9
$DIMTOFL
 70
     0
  9
$DIMTVP
 40
1.6
  9
$DIMTIX
 70
     1
  9
$DIMSOXD
 70
     0
  9
$DIMSAH
 70
     0
  9
$DIMBLK1
  1

  9
$DIMBLK2
  1

  9
$DIMSTYLE
  2
STANDARD
  9
$DIMCLRD
 70
     0
  9
$DIMCLRE
 70
     0
  9
$DIMCLRT
 70
     0
  9
$DIMTFAC
 40
1.0
  9
$DIMGAP
 40
0.09
  9
$DIMJUST
 70
     0
  9
$DIMSD1
 70
     0
  9
$DIMSD2
 70
     0
  9
$DIMTOLJ
 70
     1
  9
$DIMTZIN
 70
     0
  9
$DIMALTZ
 70
     0
  9
$DIMALTTZ
 70
     0
  9
$DIMUPT
 70
     0
  9
$DIMDEC
 70
     4
  9
$DIMTDEC
 70
     4
  9
$DIMALTU
 70
     2
  9
$DIMALTTD
 70
     2
  9
$DIMTXSTY
  7
BIGFONT
  9
$DIMAUNIT
 70
     0
  9
$DIMADEC
 70
     0
  9
$DIMALTRND
 40
0.0
  9
$DIMAZIN
 70
     0
  9
$DIMDSEP
 70
    46
  9
$DIMATFIT
 70
     3
  9
$DIMFRAC
 70
     0
  9
$DIMLDRBLK
  1

  9
$DIMLUNIT
 70
     2
  9
$DIMLWD
 70
    -2
  9
$DIMLWE
 70
    -2
  9
$DIMTMOVE
 70
     0
  9
$LUNITS
 70
     2
  9
$LUPREC
 70
     4
  9
$SKETCHINC
 40
0.1
  9
$FILLETRAD
 40
0.0
  9
$AUNITS
 70
     0
  9
$AUPREC
 70
     0
  9
$MENU
  1
ACAD
  9
$ELEVATION
 40
0.0
  9
$PELEVATION
 40
0.0
  9
$THICKNESS
 40
0.0
  9
$LIMCHECK
 70
     0
  9
$CHAMFERA
 40
0.0
  9
$CHAMFERB
 40
0.0
  9
$CHAMFERC
 40
0.0
  9
$CHAMFERD
 40
0.0
  9
$SKPOLY
 70
     0
  9
$TDCREATE
 40
2450868.949313078
  9
$TDUCREATE
 40
2450868.574313078
  9
$TDUPDATE
 40
2455813.644807395
  9
$TDUUPDATE
 40
2455813.269807396
  9
$TDINDWG
 40
0.0330698495
  9
$TDUSRTIMER
 40
0.0330696759
  9
$USRTIMER
 70
     1
  9
$ANGBASE
 50
0.0
  9
$ANGDIR
 70
     0
  9
$PDMODE
 70
     0
  9
$PDSIZE
 40
0.0
  9
$PLINEWID
 40
0.0
  9
$SPLFRAME
 70
     0
  9
$SPLINETYPE
 70
     6
  9
$SPLINESEGS
 70
     8
  9
$HANDSEED
  5
B4F
  9
$SURFTAB1
 70
     6
  9
$SURFTAB2
 70
     6
  9
$SURFTYPE
 70
     6
  9
$SURFU
 70
     6
  9
$SURFV
 70
     6
  9
$UCSBASE
  2

  9
$UCSNAME
  2

  9
$UCSORG
 10
0.0
 20
0.0
 30
0.0
  9
$UCSXDIR
 10
1.0
 20
0.0
 30
0.0
  9
$UCSYDIR
 10
0.0
 20
1.0
 30
0.0
  9
$UCSORTHOREF
  2

  9
$UCSORTHOVIEW
 70
     0
  9
$UCSORGTOP
 10
0.0
 20
0.0
 30
0.0
  9
$UCSORGBOTTOM
 10
0.0
 20
0.0
 30
0.0
  9
$UCSORGLEFT
 10
0.0
 20
0.0
 30
0.0
  9
$UCSORGRIGHT
 10
0.0
 20
0.0
 30
0.0
  9
$UCSORGFRONT
 10
0.0
 20
0.0
 30
0.0
  9
$UCSORGBACK
 10
0.0
 20
0.0
 30
0.0
  9
$PUCSBASE
  2

  9
$PUCSNAME
  2

  9
$PUCSORG
 10
0.0
 20
0.0
 30
0.0
  9
$PUCSXDIR
 10
1.0
 20
0.0
 30
0.0
  9
$PUCSYDIR
 10
0.0
 20
1.0
 30
0.0
  9
$PUCSORTHOREF
  2

  9
$PUCSORTHOVIEW
 70
     0
  9
$PUCSORGTOP
 10
0.0
 20
0.0
 30
0.0
  9
$PUCSORGBOTTOM
 10
0.0
 20
0.0
 30
0.0
  9
$PUCSORGLEFT
 10
0.0
 20
0.0
 30
0.0
  9
$PUCSORGRIGHT
 10
0.0
 20
0.0
 30
0.0
  9
$PUCSORGFRONT
 10
0.0
 20
0.0
 30
0.0
  9
$PUCSORGBACK
 10
0.0
 20
0.0
 30
0.0
  9
$USERI1
 70
     0
  9
$USERI2
 70
     0
  9
$USERI3
 70
     0
  9
$USERI4
 70
     0
  9
$USERI5
 70
     0
  9
$USERR1
 40
0.0
  9
$USERR2
 40
0.0
  9
$USERR3
 40
0.0
  9
$USERR4
 40
0.0
  9
$USERR5
 40
0.0
  9
$WORLDVIEW
 70
     1
  9
$SHADEDGE
 70
     3
  9
$SHADEDIF
 70
    70
  9
$TILEMODE
 70
     1
  9
$MAXACTVP
 70
    16
  9
$PINSBASE
 10
0.0
 20
0.0
 30
0.0
  9
$PLIMCHECK
 70
     0
  9
$PEXTMIN
 10
1.000000000000000E+20
 20
1.000000000000000E+20
 30
1.000000000000000E+20
  9
$PEXTMAX
 10
-1.000000000000000E+20
 20
-1.000000000000000E+20
 30
-1.000000000000000E+20
  9
$PLIMMIN
 10
0.0
 20
0.0
  9
$PLIMMAX
 10
12.0
 20
9.0
  9
$UNITMODE
 70
     0
  9
$VISRETAIN
 70
     0
  9
$PLINEGEN
 70
     1
  9
$PSLTSCALE
 70
     0
  9
$TREEDEPTH
 70
  3020
  9
$CMLSTYLE
  2
STANDARD
  9
$CMLJUST
 70
     0
  9
$CMLSCALE
 40
1.0
  9
$PROXYGRAPHICS
 70
     1
  9
$MEASUREMENT
 70
     0
  9
$CELWEIGHT
370
    -1
  9
$ENDCAPS
280
     0
  9
$JOINSTYLE
280
     0
  9
$LWDISPLAY
290
     0
  9
$INSUNITS
 70
     0
  9
$HYPERLINKBASE
  1

  9
$STYLESHEET
  1

  9
$XEDIT
290
     1
  9
$CEPSNTYPE
380
     0
  9
$PSTYLEMODE
290
     1
  9
$FINGERPRINTGUID
  2
{4AC7BC0F-EBAC-46A6-8EE3-6A525458E066}
  9
$VERSIONGUID
  2
{565B525C-132E-431E-A900-E76C1A499516}
  9
$EXTNAMES
290
     1
  9
$PSVPSCALE
 40
0.0
  9
$OLESTARTUP
290
     0
  0
ENDSEC
  0
SECTION
  2
CLASSES
  0
CLASS
  1
DICTIONARYVAR
  2
AcDbDictionaryVar
  3
AutoCAD 2000
 90
        0
280
     0
281
     0
  0
CLASS
  1
ACDBDICTIONARYWDFLT
  2
AcDbDictionaryWithDefault
  3
AutoCAD 2000
 90
        0
280
     0
281
     0
  0
CLASS
  1
ACDBPLACEHOLDER
  2
AcDbPlaceHolder
  3
AutoCAD 2000
 90
        0
280
     0
281
     0
  0
CLASS
  1
LAYOUT
  2
AcDbLayout
  3
AutoCAD 2000
 90
        0
280
     0
281
     0
  0
CLASS
  1
AMGSETTINGSOBJ
  2
AmgSettingsObj
  3
"AcadM|Product Description: AutoCAD Mechanical 2000|Company: Autodesk"
 90
        0
280
     0
281
     0
  0
CLASS
  1
ACME_DOCUMENT
  2
AcMeDbDoc
  3
AcMeServices
 90
        0
280
     0
281
     0
  0
CLASS
  1
ACMESCOPE
  2
AcMeScope
  3
AcMeServices
 90
        0
280
     0
281
     0
  0
CLASS
  1
ACMECOMMANDHISTORY
  2
AcMeCommandHistory
  3
AcMeServices
 90
        0
280
     0
281
     0
  0
CLASS
  1
ACIMSYSVARMAN
  2
AcImSysVarManager
  3
AcMeServices
 90
        0
280
     0
281
     0
  0
CLASS
  1
ACIMREALSYSVAR
  2
AcImRealSysVar
  3
AcMeServices
 90
        0
280
     0
281
     0
  0
CLASS
  1
ACIMINTSYSVAR
  2
AcImIntSysVar
  3
AcMeServices
 90
        0
280
     0
281
     0
  0
CLASS
  1
ACMEDRAWINGMAN
  2
AcMeDrawingMan
  3
AcMeServices
 90
        0
280
     0
281
     0
  0
CLASS
  1
ACMEVIEW
  2
AcMeView
  3
AcMeServices
 90
        0
280
     0
281
     0
  0
CLASS
  1
ACDBENTITYCACHE
  2
AcMeEntityCache
  3
AcMeServices
 90
        0
280
     0
281
     0
  0
CLASS
  1
GSMANAGER
  2
AcMeGSManager
  3
AcMeServices
 90
        0
280
     0
281
     0
  0
CLASS
  1
AMDTINTERNALREACTOR
  2
AmdtInternalReactor
  3
AcMeServices
 90
        0
280
     0
281
     0
  0
CLASS
  1
ACMESTATEMGR
  2
AcMeStateMgr
  3
AcMeServices
 90
        0
280
     0
281
     0
  0
CLASS
  1
ACGREFMASTER
  2
AcGrefMaster
  3
AcAttribServices
 90
        0
280
     0
281
     0
  0
CLASS
  1
AM_DRAWING_MGR
  2
AcDmDwgMgr
  3
AcMechDwgViewMgmt
 90
        0
280
     0
281
     0
  0
CLASS
  1
AM_DWG_DOCUMENT
  2
AcDmDwgDocument
  3
AcMechDwgViewMgmt
 90
        0
280
     0
281
     0
  0
CLASS
  1
AM_DWG_SHEET
  2
AcDmSheet
  3
AcMechDwgViewMgmt
 90
        0
280
     0
281
     0
  0
CLASS
  1
AM_VIEWDIMPARMAP
  2
AcDmViewDimParMap
  3
AcMechDwgViewMgmt
 90
        0
280
     0
281
     0
  0
CLASS
  1
AM_DWGMGR_NAME
  2
AcDmDwgMgrName
  3
AcMechDwgViewMgmt
 90
        0
280
     0
281
     0
  0
CLASS
  1
ACME_DATABASE
  2
AcMeDbDatabase
  3
AcMeServices
 90
        0
280
     0
281
     0
  0
CLASS
  1
ACRFINSADJUSTERMGR
  2
AcRfInsAdjusterMgr
  3
AcMeServices
 90
        0
280
     0
281
     0
  0
CLASS
  1
ACGREFACADMASTER
  2
AcGrefacadMaster
  3
AcGrefServices
 90
        0
280
     0
281
     0
  0
CLASS
  1
AMDTMENUSTATEMGR
  2
AmdtMenuStateMgr
  3
McadcomServices
 90
        0
280
     0
281
     0
  0
CLASS
  1
AMDTMCOMMENUSTATE
  2
AmdtMcomMenuState
  3
McadcomServices
 90
        0
280
     0
281
     0
  0
CLASS
  1
AMIMASTER
  2
AmiMaster
  3
AmiServices
 90
        0
280
     0
281
     0
  0
CLASS
  1
ASAPP
  2
AcAsAppObject
  3
AutoSurfServices
 90
        0
280
     0
281
     0
  0
CLASS
  1
IM_STATIC_MAN
  2
AcImStaticVarManager
  3
AcMeServices
 90
        0
280
     0
281
     0
  0
CLASS
  1
ACIMSTRSYSVAR
  2
AcImStrSysVar
  3
AcMeServices
 90
        0
280
     0
281
     0
  0
CLASS
  1
ACIMDBLSTATICVAR
  2
AcImDblStaticVar
  3
AcMeServices
 90
        0
280
     0
281
     0
  0
CLASS
  1
ACIMSTRSTATICVAR
  2
AcImStrStaticVar
  3
AcMeServices
 90
        0
280
     0
281
     0
  0
CLASS
  1
ACIMINTSTATICVAR
  2
AcImIntStaticVar
  3
AcMeServices
 90
        0
280
     0
281
     0
  0
CLASS
  1
ACASGREFMASTER
  2
AcAsGrefMaster
  3
AutoSurfResolverServices
 90
        0
280
     0
281
     0
  0
CLASS
  1
ACADGREFMODULE
  2
AcAdGrefModule
  3
AdGrefServices
 90
        0
280
     0
281
     0
  0
CLASS
  1
AMDTMAPISURFMOUDULE
  2
AmdtMApiSurfModule
  3
MApiSurfServices
 90
        0
280
     0
281
     0
  0
CLASS
  1
MAPIAMMOUDLE
  2
MApiAmModule
  3
MApiAmServices
 90
        0
280
     0
281
     0
  0
CLASS
  1
AMDTADMENUSTATE
  2
AmdtAdMenuState
  3
DesignerServices
 90
        0
280
     0
281
     0
  0
CLASS
  1
ADAPPL
  2
AcAdAppl
  3
DesignerServices
 90
        0
280
     0
281
     0
  0
CLASS
  1
DEPMGR
  2
AcAdDepMgr
  3
DesignerServices
 90
        0
280
     0
281
     0
  0
CLASS
  1
PARAMMGR
  2
AcAdParamMgr
  3
DesignerServices
 90
        0
280
     0
281
     0
  0
CLASS
  1
PARAMSCOPE
  2
AcAdParamScope
  3
DesignerServices
 90
        0
280
     0
281
     0
  0
CLASS
  1
NAMEDAPPL
  2
AcAdNamedAppl
  3
DesignerServices
 90
        0
280
     0
281
     0
  0
CLASS
  1
AMDTDMMENUSTATE
  2
AmdtDmMenuState
  3
AcMechDwgViewMgmt
 90
        0
280
     0
281
     0
  0
CLASS
  1
MAPIADMODULE
  2
MApiAdModule
  3
MApiAdServices
 90
        0
280
     0
281
     0
  0
CLASS
  1
AMDTAMMENUSTATE
  2
AmdtAmMenuState
  3
DesignerAssemblies
 90
        0
280
     0
281
     0
  0
CLASS
  1
ACAMPROJECT
  2
AcAmProject
  3
DesignerAssemblies
 90
        0
280
     0
281
     0
  0
CLASS
  1
ACAMGRCOMPDEF
  2
AcAmGrCompDef
  3
DesignerAssemblies
 90
        0
280
     0
281
     0
  0
CLASS
  1
ACCMCONTEXT
  2
AcCmContext
  3
DesignerAssemblies
 90
        0
280
     0
281
     0
  0
CLASS
  1
ACAMCOMPDEF
  2
AcAmCompDef
  3
DesignerAssemblies
 90
        0
280
     0
281
     0
  0
CLASS
  1
ACAMCOMPDEFMGR
  2
AcAmCompDefMgr
  3
DesignerAssemblies
 90
        0
280
     0
281
     0
  0
CLASS
  1
AMCONTEXTMGR
  2
AcAmContextMgr
  3
DesignerAssemblies
 90
        0
280
     0
281
     0
  0
CLASS
  1
ACAMCONTEXTMODELER
  2
AcAmContextModeler
  3
DesignerAssemblies
 90
        0
280
     0
281
     0
  0
CLASS
  1
ACMDATADICTIONARY
  2
AcmDataDictionary
  3
"AcmSymBB|Product Description: AutoCAD Mechanical 2000|Company: Autodesk"
 90
        0
280
     0
281
     0
  0
CLASS
  1
ACMDATAENTRYBLOCK
  2
AcmDataEntryBlock
  3
"AcmSymBB|Product Description: AutoCAD Mechanical 2000|Company: Autodesk"
 90
        0
280
     0
281
     0
  0
CLASS
  1
CATALOGSTATE
  2
AcAmCatalogState
  3
DesignerAssemblies
 90
        0
280
     0
281
     0
  0
CLASS
  1
ACAMGRCOMPDEFSET
  2
AcAmGrCompDefSet
  3
DesignerAssemblies
 90
        0
280
     0
281
     0
  0
CLASS
  1
AMDTBROWSERDBTAB
  2
AmdtBrowserDbTab
  3
McadcomServices
 90
        0
280
     0
281
     0
  0
CLASS
  1
CBROWSERAPPOBJECT
  2
CBrowserAppObject
  3
McadcomServices
 90
        0
280
     0
281
     0
  0
CLASS
  1
DM_PLACEHOLDER
  2
AcDmSelsetPlaceholder
  3
AcMechDwgViewMgmt
 90
        0
280
     0
281
     0
  0
CLASS
  1
AMGOBJPROPCFG
  2
AmgObjPropCfg
  3
"AmgLay|Product Description: AutoCAD Mechanical 2000|Company: Autodesk"
 90
        1
280
     0
281
     0
  0
CLASS
  1
LAYER_INDEX
  2
AcDbLayerIndex
  3
AutoCAD 2000
 90
        0
280
     0
281
     0
  0
CLASS
  1
IDBUFFER
  2
AcDbIdBuffer
  3
AutoCAD 2000
 90
        0
280
     0
281
     0
  0
CLASS
  1
ACAMGFILTERDAT
  2
AcAmgFilterDat
  3
"AcadM|Product Description: AutoCAD Mechanical 2000|Company: Autodesk"
 90
        0
280
     0
281
     0
  0
ENDSEC
  0
SECTION
  2
TABLES
  0
TABLE
  2
VPORT
  5
1B4
330
0
100
AcDbSymbolTable
 70
     4
  0
VPORT
  5
B4E
330
1B4
100
AcDbSymbolTableRecord
100
AcDbViewportTableRecord
  2
*Active
 70
     0
 10
0.0
 20
0.0
 11
1.0
 21
1.0
 12
0.0
 22
0.0
 13
0.0
 23
0.0
 14
5.0
 24
5.0
 15
10.0
 25
10.0
 16
0.0
 26
0.0
 36
1.0
 17
129.7717783130054
 27
87.111399
 37
0.0
 40
174.222798
 41
1.489721886336154
 42
50.0
 43
0.0
 44
0.0
 50
0.0
 51
0.0
 71
     0
 72
   500
 73
     1
 74
     1
 75
     0
 76
     0
 77
     0
 78
     2
281
     0
 65
     0
110
0.0
120
0.0
130
0.0
111
1.0
121
0.0
131
0.0
112
0.0
122
1.0
132
0.0
 79
     0
146
0.0
  0
ENDTAB
  0
TABLE
  2
LTYPE
  5
1B1
330
0
100
AcDbSymbolTable
 70
    19
  0
LTYPE
  5
1BD
330
1B1
100
AcDbSymbolTableRecord
100
AcDbLinetypeTableRecord
  2
BYBLOCK
 70
     0
  3

 72
    65
 73
     0
 40
0.0
  0
LTYPE
  5
1BE
330
1B1
100
AcDbSymbolTableRecord
100
AcDbLinetypeTableRecord
  2
BYLAYER
 70
     0
  3

 72
    65
 73
     0
 40
0.0
  0
LTYPE
  5
1BF
330
1B1
100
AcDbSymbolTableRecord
100
AcDbLinetypeTableRecord
  2
CONTINUOUS
 70
     0
  3
実線
 72
    65
 73
     0
 40
0.0
  0
LTYPE
  5
1CE
330
1B1
100
AcDbSymbolTableRecord
100
AcDbLinetypeTableRecord
  2
CENTER
 70
     0
  3
____ _ ____ _ ____ _ ____ _ ____ _ ____ _ ____
 72
    65
 73
     4
 40
2.0
 49
1.25
 74
     0
 49
-0.25
 74
     0
 49
0.25
 74
     0
 49
-0.25
 74
     0
  0
LTYPE
  5
1CF
330
1B1
100
AcDbSymbolTableRecord
100
AcDbLinetypeTableRecord
  2
HIDDEN
 70
     0
  3
_ _ _ _ _ _ _ _ _ _ _ _ _ _ _ _ _ _ _ _ _ _ _
 72
    65
 73
     2
 40
0.375
 49
0.25
 74
     0
 49
-0.125
 74
     0
  0
LTYPE
  5
202
330
1B1
100
AcDbSymbolTableRecord
100
AcDbLinetypeTableRecord
  2
TENSEN
 70
     0
  3

 72
    65
 73
     2
 40
3.0
 49
2.0
 74
     0
 49
-1.0
 74
     0
  0
LTYPE
  5
203
330
1B1
100
AcDbSymbolTableRecord
100
AcDbLinetypeTableRecord
  2
ITTEN
 70
     0
  3

 72
    65
 73
     4
 40
5.5
 49
2.5
 74
     0
 49
-1.0
 74
     0
 49
1.0
 74
     0
 49
-1.0
 74
     0
  0
LTYPE
  5
549
330
1B1
100
AcDbSymbolTableRecord
100
AcDbLinetypeTableRecord
  2
ITTEN1
 70
     0
  3

 72
    65
 73
     4
 40
8.199999999999999
 49
5.0
 74
     0
 49
-1.0
 74
     0
 49
1.199999999999999
 74
     0
 49
-1.0
 74
     0
  0
LTYPE
  5
A88
330
1B1
100
AcDbSymbolTableRecord
100
AcDbLinetypeTableRecord
  2
PHANTOM2
 70
     0
  3
Phantom (.5x) ___ _ _ ___ _ _ ___ _ _ ___ _ _
 72
    65
 73
     6
 40
1.25
 49
0.625
 74
     0
 49
-0.125
 74
     0
 49
0.125
 74
     0
 49
-0.125
 74
     0
 49
0.125
 74
     0
 49
-0.125
 74
     0
  0
LTYPE
  5
AEA
330
1B1
100
AcDbSymbolTableRecord
100
AcDbLinetypeTableRecord
  2
ASULTYPE
 70
     0
  3
実線
 72
    65
 73
     2
 40
3.0
 49
2.5
 74
     0
 49
0.5
 74
     0
  0
LTYPE
  5
AEB
330
1B1
100
AcDbSymbolTableRecord
100
AcDbLinetypeTableRecord
  2
ASVLTYPE
 70
     0
  3
__ __ __ __ __ __ __ __ __ __ __ __ __ __ __ __ __ __ __ __ __
 72
    65
 73
     2
 40
0.75
 49
0.5
 74
     0
 49
-0.25
 74
     0
  0
LTYPE
  5
B2C
330
1B1
100
AcDbSymbolTableRecord
100
AcDbLinetypeTableRecord
  2
AM_ISO02W050
 70
     0
  3
__ __ __ __ __ __ __ __ __ __ __ __ __ __ __
 72
    65
 73
     2
 40
7.5
 49
6.0
 74
     0
 49
-1.5
 74
     0
  0
LTYPE
  5
B2D
330
1B1
100
AcDbSymbolTableRecord
100
AcDbLinetypeTableRecord
  2
AM_ISO08W050
 70
     0
  3
____ . ____ . ____ . ____ . ____ . ____ . ____
 72
    65
 73
     4
 40
18.0
 49
12.0
 74
     0
 49
-1.5
 74
     0
 49
3.0
 74
     0
 49
-1.5
 74
     0
  0
LTYPE
  5
B2E
330
1B1
100
AcDbSymbolTableRecord
100
AcDbLinetypeTableRecord
  2
AM_ISO09W050
 70
     0
  3
_____ . . _____ . . _____ . . ____ .. ____
 72
    65
 73
     6
 40
22.5
 49
12.0
 74
     0
 49
-1.5
 74
     0
 49
3.0
 74
     0
 49
-1.5
 74
     0
 49
3.0
 74
     0
 49
-1.5
 74
     0
  0
LTYPE
  5
B2F
330
1B1
100
AcDbSymbolTableRecord
100
AcDbLinetypeTableRecord
  2
Amconstr
 70
     0
  3
_______________________
 72
    65
 73
     2
 40
9999.0
 49
9999.0
 74
     0
 49
0.0
 74
     0
  0
LTYPE
  5
B30
330
1B1
100
AcDbSymbolTableRecord
100
AcDbLinetypeTableRecord
  2
AM_ISO08W050x2
 70
     0
  3
__ . __ . __ . __ . __ . __
 72
    65
 73
     4
 40
9.0
 49
6.0
 74
     0
 49
-0.75
 74
     0
 49
1.5
 74
     0
 49
-0.75
 74
     0
  0
LTYPE
  5
B31
330
1B1
100
AcDbSymbolTableRecord
100
AcDbLinetypeTableRecord
  2
AM_ISO02W050x2
 70
     0
  3
 _ _ _ _ _ _ _ _ _ _ _ _
 72
    65
 73
     2
 40
3.75
 49
3.0
 74
     0
 49
-0.75
 74
     0
  0
LTYPE
  5
B34
330
1B1
100
AcDbSymbolTableRecord
100
AcDbLinetypeTableRecord
  2
Amzigzag
 70
     0
  3
/\/-/\/-/\/-/\/-/\/-/\/
 72
    65
 73
     2
 40
11.00009999999999
 49
0.0001
 74
     4
 75
   135
340
B33
 46
0.04
 50
0.0
 44
0.0
 45
0.0
 49
-11.0
 74
     0
  0
LTYPE
  5
B35
330
1B1
100
AcDbSymbolTableRecord
100
AcDbLinetypeTableRecord
  2
CENTER2
 70
     0
  3
Center (.5x) ___ _ ___ _ ___ _ ___ _ ___ _ ___
 72
    65
 73
     4
 40
1.125
 49
0.75
 74
     0
 49
-0.125
 74
     0
 49
0.125
 74
     0
 49
-0.125
 74
     0
  0
LTYPE
  5
B36
330
1B1
100
AcDbSymbolTableRecord
100
AcDbLinetypeTableRecord
  2
HIDDEN2
 70
     0
  3
Hidden (.5x) _ _ _ _ _ _ _ _ _ _ _ _ _ _ _ _ _
 72
    65
 73
     2
 40
0.1875
 49
0.125
 74
     0
 49
-0.0625
 74
     0
  0
LTYPE
  5
B37
330
1B1
100
AcDbSymbolTableRecord
100
AcDbLinetypeTableRecord
  2
Amzigzag2
 70
     0
  3
/\/-/\/-/\/-/\/-/\/-/\/
 72
    65
 73
     2
 40
0.4401
 49
0.0001
 74
     4
 75
   135
340
B33
 46
0.0016
 50
0.0
 44
0.0
 45
0.0
 49
-0.4400000000000001
 74
     0
  0
ENDTAB
  0
TABLE
  2
LAYER
  5
1AE
330
0
100
AcDbSymbolTable
 70
     8
  0
LAYER
  5
1BA
330
1AE
100
AcDbSymbolTableRecord
100
AcDbLayerTableRecord
  2
0
 70
     0
 62
     7
  6
CONTINUOUS
370
    -3
390
A5E
  0
LAYER
  5
1D4
330
1AE
100
AcDbSymbolTableRecord
100
AcDbLayerTableRecord
  2
1
 70
     0
 62
     1
  6
CENTER
370
    -3
390
A5E
  0
LAYER
  5
1D5
330
1AE
100
AcDbSymbolTableRecord
100
AcDbLayerTableRecord
  2
3
 70
     0
 62
     3
  6
CONTINUOUS
370
    -3
390
A5E
  0
LAYER
  5
1D6
330
1AE
100
AcDbSymbolTableRecord
100
AcDbLayerTableRecord
  2
4
 70
     0
 62
     4
  6
CONTINUOUS
370
    -3
390
A5E
  0
LAYER
  5
1D7
330
1AE
100
AcDbSymbolTableRecord
100
AcDbLayerTableRecord
  2
10
 70
     0
 62
     7
  6
CONTINUOUS
370
    -3
390
A5E
  0
LAYER
  5
1D8
330
1AE
100
AcDbSymbolTableRecord
100
AcDbLayerTableRecord
  2
11
 70
     0
 62
     3
  6
CONTINUOUS
370
    -3
390
A5E
  0
LAYER
  5
1D9
330
1AE
100
AcDbSymbolTableRecord
100
AcDbLayerTableRecord
  2
2
 70
     0
 62
     2
  6
HIDDEN
370
    -3
390
A5E
  0
LAYER
  5
204
330
1AE
100
AcDbSymbolTableRecord
100
AcDbLayerTableRecord
  2
DEFPOINTS
 70
     0
 62
     7
  6
CONTINUOUS
290
     0
370
    -3
390
A5E
  0
ENDTAB
  0
TABLE
  2
STYLE
  5
1AF
330
0
100
AcDbSymbolTable
 70
     6
  0
STYLE
  5
1BB
330
1AF
100
AcDbSymbolTableRecord
100
AcDbTextStyleTableRecord
  2
STANDARD
 70
     0
 40
0.0
 41
1.0
 50
0.0
 71
     0
 42
0.2
  3
TXT
  4
BIGFONT
  0
STYLE
  5
1CB
330
1AF
100
AcDbSymbolTableRecord
100
AcDbTextStyleTableRecord
  2
K80
 70
     0
 40
0.0
 41
0.8
 50
0.0
 71
     0
 42
0.2
  3
TXT
  4
BIGFONT
  0
STYLE
  5
1CC
330
1AF
100
AcDbSymbolTableRecord
100
AcDbTextStyleTableRecord
  2
07500
 70
     0
 40
0.0
 41
0.75
 50
0.0
 71
     0
 42
0.2
  3
TXT
  4
BIGFONT
  0
STYLE
  5
1CD
330
1AF
100
AcDbSymbolTableRecord
100
AcDbTextStyleTableRecord
  2
BIGFONT
 70
     0
 40
15.0
 41
0.8
 50
0.0
 71
     0
 42
15.0
  3
txt.shx
  4
bigfont
  0
STYLE
  5
91A
330
1AF
100
AcDbSymbolTableRecord
100
AcDbTextStyleTableRecord
  2
EXTFONT
 70
     0
 40
3.5
 41
0.5
 50
0.0
 71
     0
 42
3.5
  3
txt.shx
  4
bigfont.shx
  0
STYLE
  5
B33
330
1AF
100
AcDbSymbolTableRecord
100
AcDbTextStyleTableRecord
  2

 70
     1
 40
0.0
 41
1.0
 50
0.0
 71
     0
 42
15.0
  3
ltypeshp.shx
  4

  0
ENDTAB
  0
TABLE
  2
VIEW
  5
1B2
330
0
100
AcDbSymbolTable
 70
     1
  0
VIEW
  5
1D0
330
1B2
100
AcDbSymbolTableRecord
100
AcDbViewTableRecord
  2
ALL
 70
     0
 40
810.0
 10
662.9747899999999
 20
405.0
 41
0.0
 11
0.0
 21
0.0
 31
1.0
 12
0.0
 22
0.0
 32
0.0
 42
50.0
 43
0.0
 44
0.0
 50
0.0
 71
     0
281
     0
 72
     0
  0
ENDTAB
  0
TABLE
  2
UCS
  5
1B3
330
0
100
AcDbSymbolTable
 70
     0
  0
ENDTAB
  0
TABLE
  2
APPID
  5
1B5
330
0
100
AcDbSymbolTable
 70
    12
  0
APPID
  5
1BC
330
1B5
100
AcDbSymbolTableRecord
100
AcDbRegAppTableRecord
  2
ACAD
 70
     0
  0
APPID
  5
A67
330
1B5
100
AcDbSymbolTableRecord
100
AcDbRegAppTableRecord
  2
GENIUS_GENDIM_13
 70
     0
  0
APPID
  5
A68
330
1B5
100
AcDbSymbolTableRecord
100
AcDbRegAppTableRecord
  2
GENIUS_GENDTOL_13
 70
     0
  0
APPID
  5
A69
330
1B5
100
AcDbSymbolTableRecord
100
AcDbRegAppTableRecord
  2
GENIUS_GE3DTOL_13
 70
     0
  0
APPID
  5
A6B
330
1B5
100
AcDbSymbolTableRecord
100
AcDbRegAppTableRecord
  2
MCAD_NO_VIS
 70
     0
  0
APPID
  5
A6C
330
1B5
100
AcDbSymbolTableRecord
100
AcDbRegAppTableRecord
  2
ACAD_TEMP_GRAPHIC
 70
     0
  0
APPID
  5
A9D
330
1B5
100
AcDbSymbolTableRecord
100
AcDbRegAppTableRecord
  2
AD_DRAW
 70
     0
  0
APPID
  5
AA0
330
1B5
100
AcDbSymbolTableRecord
100
AcDbRegAppTableRecord
  2
ACATTRIBSERVICES
 70
     0
  0
APPID
  5
AEC
330
1B5
100
AcDbSymbolTableRecord
100
AcDbRegAppTableRecord
  2
ASURF_PCURVE_APPNAME
 70
     0
  0
APPID
  5
B1B
330
1B5
100
AcDbSymbolTableRecord
100
AcDbRegAppTableRecord
  2
DESIGNERASSEMBLIES
 70
     0
  0
APPID
  5
B23
330
1B5
100
AcDbSymbolTableRecord
100
AcDbRegAppTableRecord
  2
ACADM_DIM_EDIT
 70
     0
  0
APPID
  5
B24
330
1B5
100
AcDbSymbolTableRecord
100
AcDbRegAppTableRecord
  2
AMDT_DM_ADJ
 70
     0
  0
ENDTAB
  0
TABLE
  2
DIMSTYLE
  5
1B6
330
0
100
AcDbSymbolTable
 70
     1
100
AcDbDimStyleTable
 71
     0
  0
DIMSTYLE
105
1D3
102
{ACAD_REACTORS
330
214
330
215
330
54B
330
54C
330
551
330
552
330
553
330
554
330
55C
330
55D
330
55F
330
562
330
59B
330
59C
330
59D
330
59E
330
5AB
330
5AC
330
5B1
330
5B2
330
5C2
330
5C3
330
5C4
330
5C5
330
5C6
330
5C7
330
5CD
330
5DF
330
935
102
}
330
1B6
100
AcDbSymbolTableRecord
100
AcDbDimStyleTableRecord
  2
STANDARD
 70
     0
340
1CD
  0
ENDTAB
  0
TABLE
  2
BLOCK_RECORD
  5
1AD
330
0
100
AcDbSymbolTable
 70
    38
  0
BLOCK_RECORD
  5
1C3
102
{ACAD_XDICTIONARY
360
B39
102
}
330
1AD
100
AcDbSymbolTableRecord
100
AcDbBlockTableRecord
  2
*MODEL_SPACE
340
A61
  0
BLOCK_RECORD
  5
1C0
330
1AD
100
AcDbSymbolTableRecord
100
AcDbBlockTableRecord
  2
*PAPER_SPACE
340
A62
  0
BLOCK_RECORD
  5
1C8
330
1AD
100
AcDbSymbolTableRecord
100
AcDbBlockTableRecord
  2
WAKU
340
0
  0
BLOCK_RECORD
  5
1C9
330
1AD
100
AcDbSymbolTableRecord
100
AcDbBlockTableRecord
  2
Z
340
0
  0
BLOCK_RECORD
  5
1CA
330
1AD
100
AcDbSymbolTableRecord
100
AcDbBlockTableRecord
  2
QQ
340
0
  0
BLOCK_RECORD
  5
1E8
330
1AD
100
AcDbSymbolTableRecord
100
AcDbBlockTableRecord
  2
*D3
340
0
  0
BLOCK_RECORD
  5
1F5
330
1AD
100
AcDbSymbolTableRecord
100
AcDbBlockTableRecord
  2
*D4
340
0
  0
BLOCK_RECORD
  5
205
330
1AD
100
AcDbSymbolTableRecord
100
AcDbBlockTableRecord
  2
A$C6E216FFA
340
0
  0
BLOCK_RECORD
  5
408
330
1AD
100
AcDbSymbolTableRecord
100
AcDbBlockTableRecord
  2
*D6
340
0
  0
BLOCK_RECORD
  5
415
330
1AD
100
AcDbSymbolTableRecord
100
AcDbBlockTableRecord
  2
*D7
340
0
  0
BLOCK_RECORD
  5
423
330
1AD
100
AcDbSymbolTableRecord
100
AcDbBlockTableRecord
  2
*D8
340
0
  0
BLOCK_RECORD
  5
431
330
1AD
100
AcDbSymbolTableRecord
100
AcDbBlockTableRecord
  2
*D9
340
0
  0
BLOCK_RECORD
  5
43A
330
1AD
100
AcDbSymbolTableRecord
100
AcDbBlockTableRecord
  2
*D10
340
0
  0
BLOCK_RECORD
  5
443
330
1AD
100
AcDbSymbolTableRecord
100
AcDbBlockTableRecord
  2
*D11
340
0
  0
BLOCK_RECORD
  5
450
330
1AD
100
AcDbSymbolTableRecord
100
AcDbBlockTableRecord
  2
*D12
340
0
  0
BLOCK_RECORD
  5
45D
330
1AD
100
AcDbSymbolTableRecord
100
AcDbBlockTableRecord
  2
*D13
340
0
  0
BLOCK_RECORD
  5
46A
330
1AD
100
AcDbSymbolTableRecord
100
AcDbBlockTableRecord
  2
*D14
340
0
  0
BLOCK_RECORD
  5
477
330
1AD
100
AcDbSymbolTableRecord
100
AcDbBlockTableRecord
  2
*D15
340
0
  0
BLOCK_RECORD
  5
484
330
1AD
100
AcDbSymbolTableRecord
100
AcDbBlockTableRecord
  2
*D16
340
0
  0
BLOCK_RECORD
  5
48D
330
1AD
100
AcDbSymbolTableRecord
100
AcDbBlockTableRecord
  2
*D17
340
0
  0
BLOCK_RECORD
  5
496
330
1AD
100
AcDbSymbolTableRecord
100
AcDbBlockTableRecord
  2
*D18
340
0
  0
BLOCK_RECORD
  5
4A5
330
1AD
100
AcDbSymbolTableRecord
100
AcDbBlockTableRecord
  2
*D19
340
0
  0
BLOCK_RECORD
  5
4AE
330
1AD
100
AcDbSymbolTableRecord
100
AcDbBlockTableRecord
  2
*D20
340
0
  0
BLOCK_RECORD
  5
4BC
330
1AD
100
AcDbSymbolTableRecord
100
AcDbBlockTableRecord
  2
*D21
340
0
  0
BLOCK_RECORD
  5
4CA
330
1AD
100
AcDbSymbolTableRecord
100
AcDbBlockTableRecord
  2
*D22
340
0
  0
BLOCK_RECORD
  5
4D6
330
1AD
100
AcDbSymbolTableRecord
100
AcDbBlockTableRecord
  2
*D23
340
0
  0
BLOCK_RECORD
  5
4DF
330
1AD
100
AcDbSymbolTableRecord
100
AcDbBlockTableRecord
  2
*D24
340
0
  0
BLOCK_RECORD
  5
4EE
330
1AD
100
AcDbSymbolTableRecord
100
AcDbBlockTableRecord
  2
*D25
340
0
  0
BLOCK_RECORD
  5
4FB
330
1AD
100
AcDbSymbolTableRecord
100
AcDbBlockTableRecord
  2
*D26
340
0
  0
BLOCK_RECORD
  5
508
330
1AD
100
AcDbSymbolTableRecord
100
AcDbBlockTableRecord
  2
*D27
340
0
  0
BLOCK_RECORD
  5
515
330
1AD
100
AcDbSymbolTableRecord
100
AcDbBlockTableRecord
  2
*D28
340
0
  0
BLOCK_RECORD
  5
521
330
1AD
100
AcDbSymbolTableRecord
100
AcDbBlockTableRecord
  2
*D29
340
0
  0
BLOCK_RECORD
  5
52E
330
1AD
100
AcDbSymbolTableRecord
100
AcDbBlockTableRecord
  2
*D30
340
0
  0
BLOCK_RECORD
  5
53B
330
1AD
100
AcDbSymbolTableRecord
100
AcDbBlockTableRecord
  2
*D31
340
0
  0
BLOCK_RECORD
  5
54A
330
1AD
100
AcDbSymbolTableRecord
100
AcDbBlockTableRecord
  2
A$C58EF1902
340
0
  0
BLOCK_RECORD
  5
900
330
1AD
100
AcDbSymbolTableRecord
100
AcDbBlockTableRecord
  2
*D33
340
0
  0
BLOCK_RECORD
  5
90D
330
1AD
100
AcDbSymbolTableRecord
100
AcDbBlockTableRecord
  2
*D34
340
0
  0
BLOCK_RECORD
  5
91B
330
1AD
100
AcDbSymbolTableRecord
100
AcDbBlockTableRecord
  2
A$C549F2839
340
0
  0
BLOCK_RECORD
  5
9D2
330
1AD
100
AcDbSymbolTableRecord
100
AcDbBlockTableRecord
  2
A$C696B72E0
340
0
  0
BLOCK_RECORD
  5
B12
330
1AD
100
AcDbSymbolTableRecord
100
AcDbBlockTableRecord
  2
*U37
340
0
  0
ENDTAB
  0
ENDSEC
  0
SECTION
  2
BLOCKS
  0
BLOCK
  5
1DC
330
1C3
100
AcDbEntity
  8
0
100
AcDbBlockBegin
  2
*MODEL_SPACE
 70
     0
 10
0.0
 20
0.0
 30
0.0
  3
*MODEL_SPACE
  1

  0
ENDBLK
  5
1DD
330
1C3
100
AcDbEntity
  8
0
100
AcDbBlockEnd
  0
BLOCK
  5
1DA
330
1C0
100
AcDbEntity
 67
     1
  8
0
100
AcDbBlockBegin
  2
*PAPER_SPACE
 70
     0
 10
0.0
 20
0.0
 30
0.0
  3
*PAPER_SPACE
  1

  0
ENDBLK
  5
1DB
330
1C0
100
AcDbEntity
 67
     1
  8
0
100
AcDbBlockEnd
  0
BLOCK
  5
31
330
1C8
100
AcDbEntity
  8
0
100
AcDbBlockBegin
  2
WAKU
 70
     0
 10
549.0
 20
0.0
 30
0.0
  3
WAKU
  1

  0
LINE
  5
32
330
1C8
100
AcDbEntity
  8
11
100
AcDbLine
 10
452.0
 20
12.0
 30
0.0
 11
549.0
 21
12.0
 31
0.0
  0
LINE
  5
33
330
1C8
100
AcDbEntity
  8
11
100
AcDbLine
 10
477.0
 20
0.0
 30
0.0
 11
477.0
 21
12.0
 31
0.0
  0
LINE
  5
34
330
1C8
100
AcDbEntity
  8
11
100
AcDbLine
 10
452.0
 20
12.0
 30
0.0
 11
452.0
 21
0.0
 31
0.0
  0
TEXT
  5
35
330
1C8
100
AcDbEntity
  8
11
100
AcDbText
 10
454.0
 20
8.5
 30
0.0
 40
2.5
  1
尺度
100
AcDbText
  0
TEXT
  5
36
330
1C8
100
AcDbEntity
  8
11
100
AcDbText
 10
479.0
 20
8.5
 30
0.0
 40
2.5
  1
図番
100
AcDbText
  0
ENDBLK
  5
37
330
1C8
100
AcDbEntity
  8
0
100
AcDbBlockEnd
  0
BLOCK
  5
38
330
1C9
100
AcDbEntity
  8
0
100
AcDbBlockBegin
  2
Z
 70
     0
 10
481.110778
 20
136.7870199999999
 30
0.0
  3
Z
  1

  0
TEXT
  5
39
330
1C9
100
AcDbEntity
  8
0
100
AcDbText
 10
478.1506833333333
 20
140.067934
 30
0.0
 40
5.5
  1
１
 50
360.0
 41
0.8
  7
K80
 72
     1
 11
480.0573499999999
 21
140.067934
 31
0.0
100
AcDbText
  0
TEXT
  5
3A
330
1C9
100
AcDbEntity
  8
0
100
AcDbText
 10
470.108991
 20
139.534665
 30
0.0
 40
6.0
  1
Ｖ
 50
360.0
 41
0.8
  7
K80
 72
     1
 11
472.348991
 21
139.534665
 31
0.0
100
AcDbText
  0
TEXT
  5
3B
330
1C9
100
AcDbEntity
  8
0
100
AcDbText
 10
482.8853246666667
 20
140.0478629999999
 30
0.0
 40
5.5
  1
６
 50
360.0
 41
0.8
  7
K80
 72
     1
 11
484.938658
 21
140.0478629999999
 31
0.0
100
AcDbText
  0
LINE
  5
3C
330
1C9
100
AcDbEntity
  8
0
100
AcDbLine
 10
474.860778
 20
142.7870199999999
 30
0.0
 11
477.360778
 21
142.7870199999999
 31
0.0
  0
TEXT
  5
3D
330
1C9
100
AcDbEntity
  8
0
100
AcDbText
 10
488.0004753333333
 20
140.013502
 30
0.0
 40
5.5
  1
０
 50
360.0
 41
0.8
  7
K80
 72
     1
 11
489.9071419999999
 21
140.013502
 31
0.0
100
AcDbText
  0
ENDBLK
  5
3E
330
1C9
100
AcDbEntity
  8
0
100
AcDbBlockEnd
  0
BLOCK
  5
3F
330
1CA
100
AcDbEntity
  8
0
100
AcDbBlockBegin
  2
QQ
 70
     0
 10
270.0
 20
0.0
 30
0.0
  3
QQ
  1

  0
LINE
  5
40
330
1CA
100
AcDbEntity
  8
11
100
AcDbLine
 10
173.0
 20
36.0
 30
0.0
 11
270.0
 21
36.0
 31
0.0
  0
TEXT
  5
41
330
1CA
100
AcDbEntity
  8
11
100
AcDbText
 10
175.0
 20
32.5
 30
0.0
 40
2.5
  1
部品名称
100
AcDbText
  0
LINE
  5
42
330
1CA
100
AcDbEntity
  8
11
100
AcDbLine
 10
173.0
 20
36.0
 30
0.0
 11
173.0
 21
0.0
 31
0.0
  0
LINE
  5
43
330
1CA
100
AcDbEntity
  8
11
100
AcDbLine
 10
173.0
 20
24.0
 30
0.0
 11
270.0
 21
24.0
 31
0.0
  0
TEXT
  5
44
330
1CA
100
AcDbEntity
  8
11
100
AcDbText
 10
175.0
 20
20.5
 30
0.0
 40
2.5
  1
品番
100
AcDbText
  0
LINE
  5
45
330
1CA
100
AcDbEntity
  8
11
100
AcDbLine
 10
173.0
 20
12.0
 30
0.0
 11
270.0
 21
12.0
 31
0.0
  0
TEXT
  5
46
330
1CA
100
AcDbEntity
  8
11
100
AcDbText
 10
175.0
 20
8.5
 30
0.0
 40
2.5
  1
尺度
100
AcDbText
  0
TEXT
  5
47
330
1CA
100
AcDbEntity
  8
11
100
AcDbText
 10
200.0
 20
8.5
 30
0.0
 40
2.5
  1
図番
100
AcDbText
  0
LINE
  5
48
330
1CA
100
AcDbEntity
  8
11
100
AcDbLine
 10
198.0
 20
0.0
 30
0.0
 11
198.0
 21
12.0
 31
0.0
  0
ENDBLK
  5
49
330
1CA
100
AcDbEntity
  8
0
100
AcDbBlockEnd
  0
BLOCK
  5
1F3
330
1E8
100
AcDbEntity
  8
0
100
AcDbBlockBegin
  2
*D3
 70
     1
 10
0.0
 20
0.0
 30
0.0
  3
*D3
  1

  0
LINE
  5
1E9
330
1E8
100
AcDbEntity
  8
0
  6
ByBlock
 62
     0
100
AcDbLine
 10
123.9
 20
124.5
 30
0.0
 11
94.29999999999999
 21
124.5
 31
0.0
  0
LINE
  5
1EA
330
1E8
100
AcDbEntity
  8
0
  6
ByBlock
 62
     0
100
AcDbLine
 10
123.9
 20
101.5
 30
0.0
 11
94.29999999999999
 21
101.5
 31
0.0
  0
LINE
  5
1EB
330
1E8
100
AcDbEntity
  8
0
  6
ByBlock
 62
     0
100
AcDbLine
 10
94.50000000000001
 20
122.5
 30
0.0
 11
94.50000000000001
 21
114.7999999999999
 31
0.0
  0
LINE
  5
1EC
330
1E8
100
AcDbEntity
  8
0
  6
ByBlock
 62
     0
100
AcDbLine
 10
94.50000000000001
 20
103.4999999999999
 30
0.0
 11
94.50000000000001
 21
111.2
 31
0.0
  0
SOLID
  5
1ED
330
1E8
100
AcDbEntity
  8
0
  6
ByBlock
 62
     0
100
AcDbTrace
 10
94.166667
 20
122.5
 30
0.0
 11
94.83333299999999
 21
122.5
 31
0.0
 12
94.50000000000001
 22
124.5
 32
0.0
 13
94.50000000000001
 23
124.5
 33
0.0
  0
SOLID
  5
1EE
330
1E8
100
AcDbEntity
  8
0
  6
ByBlock
 62
     0
100
AcDbTrace
 10
94.166667
 20
103.4999999999999
 30
0.0
 11
94.83333299999999
 21
103.4999999999999
 31
0.0
 12
94.50000000000001
 22
101.5
 32
0.0
 13
94.50000000000001
 23
101.5
 33
0.0
  0
MTEXT
  5
1EF
330
1E8
100
AcDbEntity
  8
0
  6
ByBlock
 62
     0
100
AcDbMText
 10
94.50000000000001
 20
113.0
 30
0.0
 40
3.5
 41
0.0
 71
     5
 72
     1
  1
\A1;23
 11
0.0
 21
1.0
 31
0.0
 73
     1
 44
1.0
  0
POINT
  5
1F0
330
1E8
100
AcDbEntity
  8
DEFPOINTS
  6
ByBlock
 62
     0
100
AcDbPoint
 10
124.0
 20
124.5
 30
0.0
  0
POINT
  5
1F1
330
1E8
100
AcDbEntity
  8
DEFPOINTS
  6
ByBlock
 62
     0
100
AcDbPoint
 10
124.0
 20
101.5
 30
0.0
  0
POINT
  5
1F2
330
1E8
100
AcDbEntity
  8
DEFPOINTS
  6
ByBlock
 62
     0
100
AcDbPoint
 10
94.50000000000001
 20
101.5
 30
0.0
  0
ENDBLK
  5
1F4
330
1E8
100
AcDbEntity
  8
0
100
AcDbBlockEnd
  0
BLOCK
  5
200
330
1F5
100
AcDbEntity
  8
0
100
AcDbBlockBegin
  2
*D4
 70
     1
 10
0.0
 20
0.0
 30
0.0
  3
*D4
  1

  0
LINE
  5
1F6
330
1F5
100
AcDbEntity
  8
0
  6
ByBlock
 62
     0
100
AcDbLine
 10
127.9
 20
121.0
 30
0.0
 11
99.29999999999999
 21
121.0
 31
0.0
  0
LINE
  5
1F7
330
1F5
100
AcDbEntity
  8
0
  6
ByBlock
 62
     0
100
AcDbLine
 10
123.9
 20
101.5
 30
0.0
 11
99.29999999999999
 21
101.5
 31
0.0
  0
LINE
  5
1F8
330
1F5
100
AcDbEntity
  8
0
  6
ByBlock
 62
     0
100
AcDbLine
 10
99.50000000000001
 20
119.0
 30
0.0
 11
99.50000000000001
 21
113.65
 31
0.0
  0
LINE
  5
1F9
330
1F5
100
AcDbEntity
  8
0
  6
ByBlock
 62
     0
100
AcDbLine
 10
99.50000000000001
 20
103.4999999999999
 30
0.0
 11
99.50000000000001
 21
107.3499999999999
 31
0.0
  0
SOLID
  5
1FA
330
1F5
100
AcDbEntity
  8
0
  6
ByBlock
 62
     0
100
AcDbTrace
 10
99.166667
 20
119.0
 30
0.0
 11
99.83333299999999
 21
119.0
 31
0.0
 12
99.50000000000001
 22
121.0
 32
0.0
 13
99.50000000000001
 23
121.0
 33
0.0
  0
SOLID
  5
1FB
330
1F5
100
AcDbEntity
  8
0
  6
ByBlock
 62
     0
100
AcDbTrace
 10
99.166667
 20
103.4999999999999
 30
0.0
 11
99.83333299999999
 21
103.4999999999999
 31
0.0
 12
99.50000000000001
 22
101.5
 32
0.0
 13
99.50000000000001
 23
101.5
 33
0.0
  0
MTEXT
  5
1FC
330
1F5
100
AcDbEntity
  8
0
  6
ByBlock
 62
     0
100
AcDbMText
 10
99.50000000000001
 20
110.4999999999999
 30
0.0
 40
3.5
 41
0.0
 71
     5
 72
     1
  1
\A1;19.5
 11
0.0
 21
1.0
 31
0.0
 73
     1
 44
1.0
  0
POINT
  5
1FD
330
1F5
100
AcDbEntity
  8
DEFPOINTS
  6
ByBlock
 62
     0
100
AcDbPoint
 10
128.0
 20
121.0
 30
0.0
  0
POINT
  5
1FE
330
1F5
100
AcDbEntity
  8
DEFPOINTS
  6
ByBlock
 62
     0
100
AcDbPoint
 10
124.0
 20
101.5
 30
0.0
  0
POINT
  5
1FF
330
1F5
100
AcDbEntity
  8
DEFPOINTS
  6
ByBlock
 62
     0
100
AcDbPoint
 10
99.50000000000001
 20
101.5
 30
0.0
  0
ENDBLK
  5
201
330
1F5
100
AcDbEntity
  8
0
100
AcDbBlockEnd
  0
BLOCK
  5
27C
330
205
100
AcDbEntity
  8
0
100
AcDbBlockBegin
  2
A$C6E216FFA
 70
     0
 10
0.0
 20
0.0
 30
0.0
  3
A$C6E216FFA
  1

  0
LINE
  5
206
330
205
100
AcDbEntity
  8
3
100
AcDbLine
 10
88.49999999999999
 20
8.0
 30
0.0
 11
115.0
 21
8.0
 31
0.0
  0
LINE
  5
207
330
205
100
AcDbEntity
  8
2
100
AcDbLine
 10
114.5
 20
18.5
 30
0.0
 11
104.4999999999999
 21
18.5
 31
0.0
  0
ARC
  5
208
330
205
100
AcDbEntity
  8
3
100
AcDbCircle
 10
105.0
 20
27.76
 30
0.0
 40
6.759999999999999
100
AcDbArc
 50
224.76027
 51
315.23973
  0
LINE
  5
209
330
205
100
AcDbEntity
  8
2
100
AcDbLine
 10
105.0
 20
9.5
 30
0.0
 11
109.8
 21
12.0
 31
0.0
  0
LINE
  5
20A
330
205
100
AcDbEntity
  8
2
100
AcDbLine
 10
109.8
 20
12.0
 30
0.0
 11
100.2
 21
12.0
 31
0.0
  0
LINE
  5
20B
330
205
100
AcDbEntity
  8
3
100
AcDbLine
 10
88.49999999999999
 20
7.0
 30
0.0
 11
115.0
 21
7.0
 31
0.0
  0
LINE
  5
20C
330
205
100
AcDbEntity
  8
3
100
AcDbLine
 10
88.49999999999999
 20
23.0
 30
0.0
 11
115.0
 21
23.0
 31
0.0
  0
LINE
  5
20D
330
205
100
AcDbEntity
  8
1
100
AcDbLine
 10
65.0
 20
15.0
 30
0.0
 11
214.5
 21
15.0
 31
0.0
  0
ARC
  5
20E
330
205
100
AcDbEntity
  8
0
100
AcDbCircle
 10
105.0
 20
15.0
 30
0.0
 40
4.5
100
AcDbArc
 50
32.230953
 51
109.4712209999999
  0
ARC
  5
20F
330
205
100
AcDbEntity
  8
0
100
AcDbCircle
 10
105.0
 20
15.0
 30
0.0
 40
4.5
100
AcDbArc
 50
250.528779
 51
327.769047
  0
LINE
  5
210
330
205
100
AcDbEntity
  8
3
100
AcDbLine
 10
91.5
 20
26.5
 30
0.0
 11
114.5
 21
26.5
 31
0.0
  0
LINE
  5
211
330
205
100
AcDbEntity
  8
3
100
AcDbLine
 10
114.5
 20
3.5
 30
0.0
 11
91.5
 21
3.5
 31
0.0
  0
LINE
  5
212
330
205
100
AcDbEntity
  8
2
100
AcDbLine
 10
18.0
 20
15.5
 30
0.0
 11
18.0
 21
7.583800999999999
 31
0.0
  0
LINE
  5
213
330
205
100
AcDbEntity
  8
2
100
AcDbLine
 10
24.0
 20
7.583800999999999
 30
0.0
 11
24.0
 21
15.5
 31
0.0
  0
DIMENSION
  5
214
330
205
100
AcDbEntity
  8
0
100
AcDbDimension
  2
*D4
 10
57.5
 20
3.5
 30
0.0
 11
57.5
 21
12.5
 31
0.0
 12
-42.0
 22
-98.0
 32
0.0
 70
   128
 71
     5
 42
-1.0
  3
STANDARD
100
AcDbAlignedDimension
 13
86.0
 23
23.0
 33
0.0
 14
82.0
 24
3.5
 34
0.0
 50
90.0
100
AcDbRotatedDimension
1001
ACAD
1000
DSTYLE
1002
{
1070
    78
1070
     8
1070
   288
1070
     1
1070
   284
1070
     8
1070
   140
1040
2.0
1070
    73
1070
     0
1070
   272
1070
     2
1070
   147
1040
0.1
1070
    42
1040
0.1
1070
    44
1040
0.2
1070
    43
1040
0.4
1070
   271
1070
     2
1070
   141
1040
0.1
1070
    41
1040
2.0
1002
}
  0
DIMENSION
  5
215
330
205
100
AcDbEntity
  8
0
100
AcDbDimension
  2
*D3
 10
52.5
 20
3.5
 30
0.0
 11
52.5
 21
15.0
 31
0.0
 12
-42.0
 22
-98.0
 32
0.0
 70
   128
 71
     5
 42
-1.0
  3
STANDARD
100
AcDbAlignedDimension
 13
82.0
 23
26.5
 33
0.0
 14
82.0
 24
3.5
 34
0.0
 50
90.0
100
AcDbRotatedDimension
1001
ACAD
1000
DSTYLE
1002
{
1070
    78
1070
     8
1070
   288
1070
     1
1070
   284
1070
     8
1070
   140
1040
2.0
1070
    73
1070
     0
1070
   272
1070
     2
1070
   147
1040
0.1
1070
    42
1040
0.1
1070
    44
1040
0.2
1070
    43
1040
0.4
1070
   271
1070
     2
1070
   141
1040
0.1
1070
    41
1040
2.0
1002
}
  0
LINE
  5
216
330
205
100
AcDbEntity
  8
2
100
AcDbLine
 10
101.5
 20
15.5
 30
0.0
 11
101.5
 21
7.0
 31
0.0
  0
LINE
  5
217
330
205
100
AcDbEntity
  8
2
100
AcDbLine
 10
100.2
 20
12.0
 30
0.0
 11
105.0
 21
9.5
 31
0.0
  0
CIRCLE
  5
218
330
205
100
AcDbEntity
  8
3
100
AcDbCircle
 10
21.0
 20
15.0
 30
0.0
 40
14.0
  0
CIRCLE
  5
219
330
205
100
AcDbEntity
  8
0
100
AcDbCircle
 10
21.0
 20
15.0
 30
0.0
 40
5.0
  0
CIRCLE
  5
21A
330
205
100
AcDbEntity
  8
3
100
AcDbCircle
 10
21.0
 20
15.0
 30
0.0
 40
6.0
  0
CIRCLE
  5
21B
330
205
100
AcDbEntity
  8
3
100
AcDbCircle
 10
21.0
 20
15.0
 30
0.0
 40
8.0
  0
CIRCLE
  5
21C
330
205
100
AcDbEntity
  8
3
100
AcDbCircle
 10
21.0
 20
15.0
 30
0.0
 40
11.5
  0
LINE
  5
21D
330
205
100
AcDbEntity
  8
1
100
AcDbLine
 10
21.0
 20
30.5
 30
0.0
 11
21.0
 21
0.0
 31
0.0
  0
LINE
  5
21E
330
205
100
AcDbEntity
  8
2
100
AcDbLine
 10
84.50000000000001
 20
26.5
 30
0.0
 11
84.50000000000001
 21
3.5
 31
0.0
  0
LINE
  5
21F
330
205
100
AcDbEntity
  8
3
100
AcDbLine
 10
88.49999999999999
 20
9.0
 30
0.0
 11
88.49999999999999
 21
15.0
 31
0.0
  0
LINE
  5
220
330
205
100
AcDbEntity
  8
0
100
AcDbLine
 10
87.5
 20
9.0
 30
0.0
 11
87.5
 21
15.0
 31
0.0
  0
LINE
  5
221
330
205
100
AcDbEntity
  8
3
100
AcDbLine
 10
88.49999999999999
 20
15.0
 30
0.0
 11
88.49999999999999
 21
7.0
 31
0.0
  0
LINE
  5
222
330
205
100
AcDbEntity
  8
0
100
AcDbLine
 10
69.5
 20
9.0
 30
0.0
 11
69.5
 21
15.0
 31
0.0
  0
LINE
  5
223
330
205
100
AcDbEntity
  8
3
100
AcDbLine
 10
69.5
 20
9.0
 30
0.0
 11
67.5
 21
11.0
 31
0.0
  0
LINE
  5
224
330
205
100
AcDbEntity
  8
1
100
AcDbLine
 10
105.0
 20
29.0
 30
0.0
 11
105.0
 21
0.0
 31
0.0
  0
LINE
  5
225
330
205
100
AcDbEntity
  8
3
100
AcDbLine
 10
91.5
 20
3.5
 30
0.0
 11
91.5
 21
26.5
 31
0.0
  0
LINE
  5
226
330
205
100
AcDbEntity
  8
3
100
AcDbLine
 10
69.5
 20
9.0
 30
0.0
 11
88.49999999999999
 21
9.0
 31
0.0
  0
LINE
  5
227
330
205
100
AcDbEntity
  8
2
100
AcDbLine
 10
84.50000000000001
 20
3.5
 30
0.0
 11
91.5
 21
3.5
 31
0.0
  0
LINE
  5
228
330
205
100
AcDbEntity
  8
1
100
AcDbLine
 10
0.0
 20
15.0
 30
0.0
 11
41.0
 21
15.0
 31
0.0
  0
ARC
  5
229
330
205
100
AcDbEntity
  8
2
100
AcDbCircle
 10
21.0
 20
15.5
 30
0.0
 40
3.0
100
AcDbArc
 50
0.0
 51
180.0
  0
LINE
  5
22A
330
205
100
AcDbEntity
  8
0
100
AcDbLine
 10
87.5
 20
10.5
 30
0.0
 11
68.0
 21
10.5
 31
0.0
  0
LINE
  5
22B
330
205
100
AcDbEntity
  8
0
100
AcDbLine
 10
87.5
 20
19.5
 30
0.0
 11
68.0
 21
19.5
 31
0.0
  0
LINE
  5
22C
330
205
100
AcDbEntity
  8
3
100
AcDbLine
 10
69.5
 20
21.0
 30
0.0
 11
88.49999999999999
 21
21.0
 31
0.0
  0
LINE
  5
22D
330
205
100
AcDbEntity
  8
0
100
AcDbLine
 10
69.5
 20
21.0
 30
0.0
 11
69.5
 21
15.0
 31
0.0
  0
LINE
  5
22E
330
205
100
AcDbEntity
  8
3
100
AcDbLine
 10
67.5
 20
15.0
 30
0.0
 11
67.5
 21
19.0
 31
0.0
  0
LINE
  5
22F
330
205
100
AcDbEntity
  8
3
100
AcDbLine
 10
67.5
 20
15.0
 30
0.0
 11
67.5
 21
11.0
 31
0.0
  0
LINE
  5
230
330
205
100
AcDbEntity
  8
3
100
AcDbLine
 10
69.5
 20
21.0
 30
0.0
 11
67.5
 21
19.0
 31
0.0
  0
LINE
  5
231
330
205
100
AcDbEntity
  8
0
100
AcDbLine
 10
87.5
 20
21.0
 30
0.0
 11
87.5
 21
15.0
 31
0.0
  0
LINE
  5
232
330
205
100
AcDbEntity
  8
3
100
AcDbLine
 10
88.49999999999999
 20
15.0
 30
0.0
 11
88.49999999999999
 21
23.0
 31
0.0
  0
LINE
  5
233
330
205
100
AcDbEntity
  8
3
100
AcDbLine
 10
88.49999999999999
 20
21.0
 30
0.0
 11
88.49999999999999
 21
15.0
 31
0.0
  0
LINE
  5
234
330
205
100
AcDbEntity
  8
2
100
AcDbLine
 10
91.5
 20
26.5
 30
0.0
 11
84.50000000000001
 21
26.5
 31
0.0
  0
ARC
  5
235
330
205
100
AcDbEntity
  8
2
100
AcDbCircle
 10
104.4999999999999
 20
15.5
 30
0.0
 40
3.0
100
AcDbArc
 50
90.0
 51
180.0
  0
LINE
  5
236
330
205
100
AcDbEntity
  8
2
100
AcDbLine
 10
100.2
 20
12.0
 30
0.0
 11
100.2
 21
23.0
 31
0.0
  0
LINE
  5
237
330
205
100
AcDbEntity
  8
0
100
AcDbLine
 10
103.4999999999999
 20
19.242641
 30
0.0
 11
103.4999999999999
 21
10.75735899999999
 31
0.0
  0
LINE
  5
238
330
205
100
AcDbEntity
  8
0
100
AcDbLine
 10
199.5
 20
5.019999999999999
 30
0.0
 11
199.5
 21
15.0
 31
0.0
  0
LINE
  5
239
330
205
100
AcDbEntity
  8
0
100
AcDbLine
 10
189.4999999999999
 20
5.0
 30
0.0
 11
189.4999999999999
 21
15.0
 31
0.0
  0
LINE
  5
23A
330
205
100
AcDbEntity
  8
3
100
AcDbLine
 10
120.0
 20
9.0
 30
0.0
 11
120.0
 21
15.0
 31
0.0
  0
LINE
  5
23B
330
205
100
AcDbEntity
  8
3
100
AcDbLine
 10
120.0
 20
9.0
 30
0.0
 11
118.5
 21
12.0
 31
0.0
  0
LINE
  5
23C
330
205
100
AcDbEntity
  8
3
100
AcDbLine
 10
115.0
 20
7.0
 30
0.0
 11
115.0
 21
15.0
 31
0.0
  0
LINE
  5
23D
330
205
100
AcDbEntity
  8
3
100
AcDbLine
 10
115.0
 20
7.0
 30
0.0
 11
116.8749999999999
 21
12.0
 31
0.0
  0
LINE
  5
23E
330
205
100
AcDbEntity
  8
3
100
AcDbLine
 10
115.0
 20
8.0
 30
0.0
 11
115.0
 21
15.0
 31
0.0
  0
LINE
  5
23F
330
205
100
AcDbEntity
  8
3
100
AcDbLine
 10
144.3
 20
15.0
 30
0.0
 11
144.3
 21
5.019999999999999
 31
0.0
  0
LINE
  5
240
330
205
100
AcDbEntity
  8
3
100
AcDbLine
 10
151.3
 20
15.0
 30
0.0
 11
151.3
 21
6.0
 31
0.0
  0
LINE
  5
241
330
205
100
AcDbEntity
  8
3
100
AcDbLine
 10
147.8
 20
5.2
 30
0.0
 11
147.8
 21
15.0
 31
0.0
  0
LINE
  5
242
330
205
100
AcDbEntity
  8
3
100
AcDbLine
 10
147.3
 20
15.0
 30
0.0
 11
147.3
 21
5.2
 31
0.0
  0
LINE
  5
243
330
205
100
AcDbEntity
  8
3
100
AcDbLine
 10
114.5
 20
15.0
 30
0.0
 11
114.5
 21
3.5
 31
0.0
  0
LINE
  5
244
330
205
100
AcDbEntity
  8
3
100
AcDbLine
 10
115.0
 20
15.0
 30
0.0
 11
115.0
 21
2.75
 31
0.0
  0
ARC
  5
245
330
205
100
AcDbEntity
  8
3
100
AcDbCircle
 10
183.9722219999999
 20
15.0
 30
0.0
 40
24.027778
100
AcDbArc
 50
328.5605470000001
 51
31.439453
  0
LINE
  5
246
330
205
100
AcDbEntity
  8
0
100
AcDbLine
 10
144.3
 20
5.019999999999999
 30
0.0
 11
199.5
 21
5.019999999999999
 31
0.0
  0
LINE
  5
247
330
205
100
AcDbEntity
  8
3
100
AcDbLine
 10
201.8536399999999
 20
1.032554999999999
 30
0.0
 11
115.0
 21
2.75
 31
0.0
  0
LINE
  5
248
330
205
100
AcDbEntity
  8
3
100
AcDbLine
 10
151.3
 20
9.0
 30
0.0
 11
120.0
 21
9.0
 31
0.0
  0
LINE
  5
249
330
205
100
AcDbEntity
  8
3
100
AcDbLine
 10
151.3
 20
6.0
 30
0.0
 11
147.8
 21
5.2
 31
0.0
  0
LINE
  5
24A
330
205
100
AcDbEntity
  8
3
100
AcDbLine
 10
144.3
 20
5.019999999999999
 30
0.0
 11
114.5
 21
5.019999999999999
 31
0.0
  0
LINE
  5
24B
330
205
100
AcDbEntity
  8
3
100
AcDbLine
 10
114.0
 20
7.0
 30
0.0
 11
115.0
 21
7.0
 31
0.0
  0
LINE
  5
24C
330
205
100
AcDbEntity
  8
0
100
AcDbLine
 10
147.0
 20
5.75
 30
0.0
 11
145.5
 21
5.75
 31
0.0
  0
LINE
  5
24D
330
205
100
AcDbEntity
  8
3
100
AcDbLine
 10
144.3
 20
6.0
 30
0.0
 11
147.3
 21
6.0
 31
0.0
  0
LINE
  5
24E
330
205
100
AcDbEntity
  8
0
100
AcDbLine
 10
144.5
 20
5.0
 30
0.0
 11
145.5
 21
5.75
 31
0.0
  0
LINE
  5
24F
330
205
100
AcDbEntity
  8
0
100
AcDbLine
 10
147.0
 20
5.0
 30
0.0
 11
147.0
 21
5.75
 31
0.0
  0
LINE
  5
250
330
205
100
AcDbEntity
  8
3
100
AcDbLine
 10
147.3
 20
5.2
 30
0.0
 11
147.8
 21
5.2
 31
0.0
  0
ARC
  5
251
330
205
100
AcDbEntity
  8
3
100
AcDbCircle
 10
201.9129509999999
 20
4.031969
 30
0.0
 40
3.0
100
AcDbArc
 50
268.8671799999999
 51
328.5605470000001
  0
LINE
  5
252
330
205
100
AcDbEntity
  8
0
100
AcDbLine
 10
144.3
 20
24.98
 30
0.0
 11
199.5
 21
24.98
 31
0.0
  0
LINE
  5
253
330
205
100
AcDbEntity
  8
3
100
AcDbLine
 10
201.8536399999999
 20
28.967445
 30
0.0
 11
115.0
 21
27.25
 31
0.0
  0
LINE
  5
254
330
205
100
AcDbEntity
  8
0
100
AcDbLine
 10
108.806573
 20
12.6
 30
0.0
 11
171.806573
 21
12.6
 31
0.0
  0
LINE
  5
255
330
205
100
AcDbEntity
  8
0
100
AcDbLine
 10
108.806573
 20
17.4
 30
0.0
 11
171.806573
 21
17.4
 31
0.0
  0
LINE
  5
256
330
205
100
AcDbEntity
  8
3
100
AcDbLine
 10
151.3
 20
21.0
 30
0.0
 11
120.0
 21
21.0
 31
0.0
  0
LINE
  5
257
330
205
100
AcDbEntity
  8
3
100
AcDbLine
 10
151.3
 20
24.0
 30
0.0
 11
147.8
 21
24.8
 31
0.0
  0
LINE
  5
258
330
205
100
AcDbEntity
  8
3
100
AcDbLine
 10
144.3
 20
24.98
 30
0.0
 11
114.5
 21
24.98
 31
0.0
  0
LINE
  5
259
330
205
100
AcDbEntity
  8
3
100
AcDbLine
 10
115.0
 20
23.0
 30
0.0
 11
116.8749999999999
 21
18.0
 31
0.0
  0
LINE
  5
25A
330
205
100
AcDbEntity
  8
2
100
AcDbLine
 10
109.8
 20
23.0
 30
0.0
 11
109.8
 21
12.0
 31
0.0
  0
LINE
  5
25B
330
205
100
AcDbEntity
  8
3
100
AcDbLine
 10
115.0
 20
23.0
 30
0.0
 11
115.0
 21
15.0
 31
0.0
  0
LINE
  5
25C
330
205
100
AcDbEntity
  8
3
100
AcDbLine
 10
114.5
 20
26.5
 30
0.0
 11
114.5
 21
15.0
 31
0.0
  0
LINE
  5
25D
330
205
100
AcDbEntity
  8
3
100
AcDbLine
 10
115.0
 20
22.0
 30
0.0
 11
115.0
 21
15.0
 31
0.0
  0
LINE
  5
25E
330
205
100
AcDbEntity
  8
3
100
AcDbLine
 10
115.0
 20
15.0
 30
0.0
 11
115.0
 21
27.25
 31
0.0
  0
LINE
  5
25F
330
205
100
AcDbEntity
  8
0
100
AcDbLine
 10
108.806573
 20
17.4
 30
0.0
 11
108.806573
 21
12.6
 31
0.0
  0
LINE
  5
260
330
205
100
AcDbEntity
  8
3
100
AcDbLine
 10
114.0
 20
23.0
 30
0.0
 11
115.0
 21
22.0
 31
0.0
  0
LINE
  5
261
330
205
100
AcDbEntity
  8
3
100
AcDbLine
 10
120.0
 20
21.0
 30
0.0
 11
118.5
 21
18.0
 31
0.0
  0
LINE
  5
262
330
205
100
AcDbEntity
  8
3
100
AcDbLine
 10
120.0
 20
21.0
 30
0.0
 11
120.0
 21
15.0
 31
0.0
  0
LINE
  5
263
330
205
100
AcDbEntity
  8
3
100
AcDbLine
 10
118.5
 20
12.0
 30
0.0
 11
118.5
 21
15.0
 31
0.0
  0
LINE
  5
264
330
205
100
AcDbEntity
  8
3
100
AcDbLine
 10
116.8749999999999
 20
12.0
 30
0.0
 11
116.8749999999999
 21
15.0
 31
0.0
  0
LINE
  5
265
330
205
100
AcDbEntity
  8
3
100
AcDbLine
 10
116.8749999999999
 20
12.0
 30
0.0
 11
118.5
 21
12.0
 31
0.0
  0
LINE
  5
266
330
205
100
AcDbEntity
  8
3
100
AcDbLine
 10
116.8749999999999
 20
18.0
 30
0.0
 11
116.8749999999999
 21
15.0
 31
0.0
  0
LINE
  5
267
330
205
100
AcDbEntity
  8
3
100
AcDbLine
 10
118.5
 20
18.0
 30
0.0
 11
118.5
 21
15.0
 31
0.0
  0
LINE
  5
268
330
205
100
AcDbEntity
  8
3
100
AcDbLine
 10
116.8749999999999
 20
18.0
 30
0.0
 11
118.5
 21
18.0
 31
0.0
  0
LINE
  5
269
330
205
100
AcDbEntity
  8
3
100
AcDbLine
 10
144.3
 20
15.0
 30
0.0
 11
144.3
 21
24.98
 31
0.0
  0
LINE
  5
26A
330
205
100
AcDbEntity
  8
3
100
AcDbLine
 10
147.8
 20
24.8
 30
0.0
 11
147.8
 21
15.0
 31
0.0
  0
LINE
  5
26B
330
205
100
AcDbEntity
  8
3
100
AcDbLine
 10
147.3
 20
15.0
 30
0.0
 11
147.3
 21
24.8
 31
0.0
  0
LINE
  5
26C
330
205
100
AcDbEntity
  8
0
100
AcDbLine
 10
147.0
 20
24.25
 30
0.0
 11
145.5
 21
24.25
 31
0.0
  0
LINE
  5
26D
330
205
100
AcDbEntity
  8
3
100
AcDbLine
 10
144.3
 20
24.0
 30
0.0
 11
147.3
 21
24.0
 31
0.0
  0
LINE
  5
26E
330
205
100
AcDbEntity
  8
0
100
AcDbLine
 10
144.5
 20
25.0
 30
0.0
 11
145.5
 21
24.25
 31
0.0
  0
LINE
  5
26F
330
205
100
AcDbEntity
  8
0
100
AcDbLine
 10
147.0
 20
25.0
 30
0.0
 11
147.0
 21
24.25
 31
0.0
  0
LINE
  5
270
330
205
100
AcDbEntity
  8
3
100
AcDbLine
 10
147.3
 20
24.8
 30
0.0
 11
147.8
 21
24.8
 31
0.0
  0
LINE
  5
271
330
205
100
AcDbEntity
  8
3
100
AcDbLine
 10
151.3
 20
15.0
 30
0.0
 11
151.3
 21
24.0
 31
0.0
  0
LINE
  5
272
330
205
100
AcDbEntity
  8
0
100
AcDbLine
 10
171.806573
 20
17.4
 30
0.0
 11
171.806573
 21
12.6
 31
0.0
  0
LINE
  5
273
330
205
100
AcDbEntity
  8
0
100
AcDbLine
 10
173.3065729999999
 20
17.4
 30
0.0
 11
173.3065729999999
 21
12.6
 31
0.0
  0
LINE
  5
274
330
205
100
AcDbEntity
  8
0
100
AcDbLine
 10
174.8065729999999
 20
16.935453
 30
0.0
 11
174.8065729999999
 21
13.06454699999999
 31
0.0
  0
LINE
  5
275
330
205
100
AcDbEntity
  8
0
100
AcDbLine
 10
173.3065729999999
 20
12.6
 30
0.0
 11
174.8065729999999
 21
13.06454699999999
 31
0.0
  0
LINE
  5
276
330
205
100
AcDbEntity
  8
0
100
AcDbLine
 10
171.806573
 20
12.6
 30
0.0
 11
173.3065729999999
 21
13.0
 31
0.0
  0
LINE
  5
277
330
205
100
AcDbEntity
  8
0
100
AcDbLine
 10
173.3065729999999
 20
17.4
 30
0.0
 11
174.8065729999999
 21
16.935453
 31
0.0
  0
LINE
  5
278
330
205
100
AcDbEntity
  8
0
100
AcDbLine
 10
171.806573
 20
17.4
 30
0.0
 11
173.3065729999999
 21
17.0
 31
0.0
  0
LINE
  5
279
330
205
100
AcDbEntity
  8
0
100
AcDbLine
 10
189.4999999999999
 20
25.0
 30
0.0
 11
189.4999999999999
 21
15.0
 31
0.0
  0
LINE
  5
27A
330
205
100
AcDbEntity
  8
0
100
AcDbLine
 10
199.5
 20
24.98
 30
0.0
 11
199.5
 21
15.0
 31
0.0
  0
ARC
  5
27B
330
205
100
AcDbEntity
  8
3
100
AcDbCircle
 10
201.9129509999999
 20
25.968031
 30
0.0
 40
3.0
100
AcDbArc
 50
31.439453
 51
91.13281999999999
  0
ENDBLK
  5
27D
330
205
100
AcDbEntity
  8
0
100
AcDbBlockEnd
  0
BLOCK
  5
413
330
408
100
AcDbEntity
  8
0
100
AcDbBlockBegin
  2
*D6
 70
     1
 10
0.0
 20
0.0
 30
0.0
  3
*D6
  1

  0
LINE
  5
409
330
408
100
AcDbEntity
  8
0
  6
ByBlock
 62
     0
100
AcDbLine
 10
219.575962
 20
161.5526769999999
 30
0.0
 11
215.254669
 21
177.679962
 31
0.0
  0
LINE
  5
40A
330
408
100
AcDbEntity
  8
0
  6
ByBlock
 62
     0
100
AcDbLine
 10
216.678185
 20
160.7762199999999
 30
0.0
 11
212.356891
 21
176.903505
 31
0.0
  0
LINE
  5
40B
330
408
100
AcDbEntity
  8
0
  6
ByBlock
 62
     0
100
AcDbLine
 10
217.4453399999999
 20
177.2316749999999
 30
0.0
 11
219.377191
 21
177.749313
 31
0.0
  0
LINE
  5
40C
330
408
100
AcDbEntity
  8
0
  6
ByBlock
 62
     0
100
AcDbLine
 10
210.6838589999999
 20
175.419941
 30
0.0
 11
208.752007
 21
174.902303
 31
0.0
  0
SOLID
  5
40D
330
408
100
AcDbEntity
  8
0
  6
ByBlock
 62
     0
100
AcDbTrace
 10
217.3590669999999
 20
177.55365
 30
0.0
 11
217.531613
 21
176.9096989999999
 31
0.0
 12
215.5134879999999
 22
176.714037
 32
0.0
 13
215.5134879999999
 23
176.714037
 33
0.0
  0
SOLID
  5
40E
330
408
100
AcDbEntity
  8
0
  6
ByBlock
 62
     0
100
AcDbTrace
 10
210.597586
 20
175.741917
 30
0.0
 11
210.7701319999999
 21
175.0979659999999
 31
0.0
 12
212.6157109999999
 22
175.9375789999999
 32
0.0
 13
212.6157109999999
 23
175.9375789999999
 33
0.0
  0
MTEXT
  5
40F
330
408
100
AcDbEntity
  8
0
  6
ByBlock
 62
     0
100
AcDbMText
 10
214.064599
 20
176.3258079999999
 30
0.0
 40
4.0
 41
0.0
 71
     5
 72
     1
  1
\A1;3
 11
0.965925849201117
 21
0.2588189595935754
 31
0.0
 73
     1
 44
1.0
  0
POINT
  5
410
330
408
100
AcDbEntity
  8
DEFPOINTS
  6
ByBlock
 62
     0
100
AcDbPoint
 10
219.834781
 20
160.5867509999999
 30
0.0
  0
POINT
  5
411
330
408
100
AcDbEntity
  8
DEFPOINTS
  6
ByBlock
 62
     0
100
AcDbPoint
 10
216.9370039999999
 20
159.8102939999999
 30
0.0
  0
POINT
  5
412
330
408
100
AcDbEntity
  8
DEFPOINTS
  6
ByBlock
 62
     0
100
AcDbPoint
 10
212.6157109999999
 20
175.9375789999999
 30
0.0
  0
ENDBLK
  5
414
330
408
100
AcDbEntity
  8
0
100
AcDbBlockEnd
  0
BLOCK
  5
421
330
415
100
AcDbEntity
  8
0
100
AcDbBlockBegin
  2
*D7
 70
     1
 10
0.0
 20
0.0
 30
0.0
  3
*D7
  1

  0
LINE
  5
416
330
415
100
AcDbEntity
  8
0
  6
ByBlock
 62
     0
100
AcDbLine
 10
219.0763879999999
 20
155.6871489999999
 30
0.0
 11
224.413685
 21
156.9111139999999
 31
0.0
  0
LINE
  5
417
330
415
100
AcDbEntity
  8
0
  6
ByBlock
 62
     0
100
AcDbLine
 10
219.263603
 20
154.8707709999999
 30
0.0
 11
224.6008999999999
 21
156.094736
 31
0.0
  0
LINE
  5
418
330
415
100
AcDbEntity
  8
0
  6
ByBlock
 62
     0
100
AcDbLine
 10
222.9919439999999
 20
158.6369909999999
 30
0.0
 11
222.544902
 21
160.5863899999999
 31
0.0
  0
LINE
  5
419
330
415
100
AcDbEntity
  8
0
  6
ByBlock
 62
     0
100
AcDbLine
 10
224.073243
 20
153.921817
 30
0.0
 11
224.5202839999999
 21
151.972418
 31
0.0
  0
LINE
  5
41A
330
415
100
AcDbEntity
  8
0
  6
ByBlock
 62
     0
100
AcDbLine
 10
224.5202839999999
 20
151.972418
 30
0.0
 11
226.5202839999999
 21
151.972418
 31
0.0
  0
SOLID
  5
41B
330
415
100
AcDbEntity
  8
0
  6
ByBlock
 62
     0
100
AcDbTrace
 10
223.316844
 20
158.711498
 30
0.0
 11
222.667045
 21
158.562484
 31
0.0
 12
223.4389859999999
 22
156.6875929999999
 32
0.0
 13
223.4389859999999
 23
156.6875929999999
 33
0.0
  0
SOLID
  5
41C
330
415
100
AcDbEntity
  8
0
  6
ByBlock
 62
     0
100
AcDbTrace
 10
224.3981419999999
 20
153.9963239999999
 30
0.0
 11
223.748343
 21
153.84731
 31
0.0
 12
223.6262009999999
 22
155.8712149999999
 32
0.0
 13
223.6262009999999
 23
155.8712149999999
 33
0.0
  0
MTEXT
  5
41D
330
415
100
AcDbEntity
  8
0
  6
ByBlock
 62
     0
100
AcDbMText
 10
230.353618
 20
151.972418
 30
0.0
 40
3.5
 41
0.0
 71
     5
 72
     1
  1
\A1;0.7
 73
     1
 44
1.0
  0
POINT
  5
41E
330
415
100
AcDbEntity
  8
DEFPOINTS
  6
ByBlock
 62
     0
100
AcDbPoint
 10
218.101689
 20
155.4636279999999
 30
0.0
  0
POINT
  5
41F
330
415
100
AcDbEntity
  8
DEFPOINTS
  6
ByBlock
 62
     0
100
AcDbPoint
 10
218.288904
 20
154.64725
 30
0.0
  0
POINT
  5
420
330
415
100
AcDbEntity
  8
DEFPOINTS
  6
ByBlock
 62
     0
100
AcDbPoint
 10
223.6262009999999
 20
155.8712149999999
 30
0.0
  0
ENDBLK
  5
422
330
415
100
AcDbEntity
  8
0
100
AcDbBlockEnd
  0
BLOCK
  5
42F
330
423
100
AcDbEntity
  8
0
100
AcDbBlockBegin
  2
*D8
 70
     1
 10
0.0
 20
0.0
 30
0.0
  3
*D8
  1

  0
LINE
  5
424
330
423
100
AcDbEntity
  8
0
  6
ByBlock
 62
     0
100
AcDbLine
 10
186.05
 20
139.0
 30
0.0
 11
191.3477409999999
 21
139.0
 31
0.0
  0
LINE
  5
425
330
423
100
AcDbEntity
  8
0
  6
ByBlock
 62
     0
100
AcDbLine
 10
188.4999999999999
 20
138.0
 30
0.0
 11
191.3477409999999
 21
138.0
 31
0.0
  0
LINE
  5
426
330
423
100
AcDbEntity
  8
0
  6
ByBlock
 62
     0
100
AcDbLine
 10
190.3477409999999
 20
136.0
 30
0.0
 11
190.3477409999999
 21
134.0
 31
0.0
  0
LINE
  5
427
330
423
100
AcDbEntity
  8
0
  6
ByBlock
 62
     0
100
AcDbLine
 10
190.3477409999999
 20
141.0
 30
0.0
 11
190.3477409999999
 21
143.0
 31
0.0
  0
LINE
  5
428
330
423
100
AcDbEntity
  8
0
  6
ByBlock
 62
     0
100
AcDbLine
 10
190.3477409999999
 20
143.0
 30
0.0
 11
192.3477409999999
 21
143.0
 31
0.0
  0
SOLID
  5
429
330
423
100
AcDbEntity
  8
0
  6
ByBlock
 62
     0
100
AcDbTrace
 10
190.014408
 20
136.0
 30
0.0
 11
190.6810749999999
 21
136.0
 31
0.0
 12
190.3477409999999
 22
138.0
 32
0.0
 13
190.3477409999999
 23
138.0
 33
0.0
  0
SOLID
  5
42A
330
423
100
AcDbEntity
  8
0
  6
ByBlock
 62
     0
100
AcDbTrace
 10
190.014408
 20
141.0
 30
0.0
 11
190.6810749999999
 21
141.0
 31
0.0
 12
190.3477409999999
 22
139.0
 32
0.0
 13
190.3477409999999
 23
139.0
 33
0.0
  0
MTEXT
  5
42B
330
423
100
AcDbEntity
  8
0
  6
ByBlock
 62
     0
100
AcDbMText
 10
193.556075
 20
143.0
 30
0.0
 40
3.5
 41
0.0
 71
     5
 72
     1
  1
\A1;1
 73
     1
 44
1.0
  0
POINT
  5
42C
330
423
100
AcDbEntity
  8
DEFPOINTS
  6
ByBlock
 62
     0
100
AcDbPoint
 10
185.05
 20
139.0
 30
0.0
  0
POINT
  5
42D
330
423
100
AcDbEntity
  8
DEFPOINTS
  6
ByBlock
 62
     0
100
AcDbPoint
 10
187.5
 20
138.0
 30
0.0
  0
POINT
  5
42E
330
423
100
AcDbEntity
  8
DEFPOINTS
  6
ByBlock
 62
     0
100
AcDbPoint
 10
190.3477409999999
 20
138.0
 30
0.0
  0
ENDBLK
  5
430
330
423
100
AcDbEntity
  8
0
100
AcDbBlockEnd
  0
BLOCK
  5
438
330
431
100
AcDbEntity
  8
0
100
AcDbBlockBegin
  2
*D9
 70
     1
 10
0.0
 20
0.0
 30
0.0
  3
*D9
  1

  0
LINE
  5
432
330
431
100
AcDbEntity
  8
0
  6
ByBlock
 62
     0
100
AcDbLine
 10
205.7793939999999
 20
167.782371
 30
0.0
 11
207.7793939999999
 21
167.782371
 31
0.0
  0
LINE
  5
433
330
431
100
AcDbEntity
  8
0
  6
ByBlock
 62
     0
100
AcDbLine
 10
207.7793939999999
 20
167.782371
 30
0.0
 11
217.221541
 21
154.582357
 31
0.0
  0
MTEXT
  5
434
330
431
100
AcDbEntity
  8
0
  6
ByBlock
 62
     0
100
AcDbMText
 10
196.9877269999999
 20
167.782371
 30
0.0
 40
3.5
 41
0.0
 71
     5
 72
     1
  1
\A1;6-R1.2
 73
     1
 44
1.0
  0
SOLID
  5
435
330
431
100
AcDbEntity
  8
0
  6
ByBlock
 62
     0
100
AcDbTrace
 10
216.32907
 20
156.402963
 30
0.0
 11
215.786845
 21
156.015102
 31
0.0
 12
217.221541
 22
154.582357
 32
0.0
 13
217.221541
 23
154.582357
 33
0.0
  0
POINT
  5
436
330
431
100
AcDbEntity
  8
DEFPOINTS
  6
ByBlock
 62
     0
100
AcDbPoint
 10
217.221541
 20
154.582357
 30
0.0
  0
POINT
  5
437
330
431
100
AcDbEntity
  8
DEFPOINTS
  6
ByBlock
 62
     0
100
AcDbPoint
 10
216.5233909999999
 20
155.558362
 30
0.0
  0
ENDBLK
  5
439
330
431
100
AcDbEntity
  8
0
100
AcDbBlockEnd
  0
BLOCK
  5
441
330
43A
100
AcDbEntity
  8
0
100
AcDbBlockBegin
  2
*D10
 70
     1
 10
0.0
 20
0.0
 30
0.0
  3
*D10
  1

  0
LINE
  5
43B
330
43A
100
AcDbEntity
  8
0
  6
ByBlock
 62
     0
100
AcDbLine
 10
202.561737
 20
163.3032419999999
 30
0.0
 11
204.561737
 21
163.3032419999999
 31
0.0
  0
LINE
  5
43C
330
43A
100
AcDbEntity
  8
0
  6
ByBlock
 62
     0
100
AcDbLine
 10
204.561737
 20
163.3032419999999
 30
0.0
 11
219.688126
 21
157.6069699999999
 31
0.0
  0
MTEXT
  5
43D
330
43A
100
AcDbEntity
  8
0
  6
ByBlock
 62
     0
100
AcDbMText
 10
194.936737
 20
163.3032419999999
 30
0.0
 40
3.5
 41
0.0
 71
     5
 72
     1
  1
\A1;R4.88
 73
     1
 44
1.0
  0
SOLID
  5
43E
330
43A
100
AcDbEntity
  8
0
  6
ByBlock
 62
     0
100
AcDbTrace
 10
217.9339129999999
 20
158.6237539999999
 30
0.0
 11
217.698968
 21
157.999859
 31
0.0
 12
219.688126
 22
157.6069699999999
 32
0.0
 13
219.688126
 23
157.6069699999999
 33
0.0
  0
POINT
  5
43F
330
43A
100
AcDbEntity
  8
DEFPOINTS
  6
ByBlock
 62
     0
100
AcDbPoint
 10
219.688126
 20
157.6069699999999
 30
0.0
  0
POINT
  5
440
330
43A
100
AcDbEntity
  8
DEFPOINTS
  6
ByBlock
 62
     0
100
AcDbPoint
 10
215.125893
 20
159.3250089999999
 30
0.0
  0
ENDBLK
  5
442
330
43A
100
AcDbEntity
  8
0
100
AcDbBlockEnd
  0
BLOCK
  5
44E
330
443
100
AcDbEntity
  8
0
100
AcDbBlockBegin
  2
*D11
 70
     1
 10
0.0
 20
0.0
 30
0.0
  3
*D11
  1

  0
LINE
  5
444
330
443
100
AcDbEntity
  8
0
  6
ByBlock
 62
     0
100
AcDbLine
 10
194.4411189999999
 20
190.0
 30
0.0
 11
194.4411189999999
 21
198.92186
 31
0.0
  0
LINE
  5
445
330
443
100
AcDbEntity
  8
0
  6
ByBlock
 62
     0
100
AcDbLine
 10
192.333718
 20
190.0
 30
0.0
 11
192.333718
 21
198.92186
 31
0.0
  0
LINE
  5
446
330
443
100
AcDbEntity
  8
0
  6
ByBlock
 62
     0
100
AcDbLine
 10
190.333718
 20
197.92186
 30
0.0
 11
188.333718
 21
197.92186
 31
0.0
  0
LINE
  5
447
330
443
100
AcDbEntity
  8
0
  6
ByBlock
 62
     0
100
AcDbLine
 10
196.4411189999999
 20
197.92186
 30
0.0
 11
198.4411189999999
 21
197.92186
 31
0.0
  0
SOLID
  5
448
330
443
100
AcDbEntity
  8
0
  6
ByBlock
 62
     0
100
AcDbTrace
 10
190.333718
 20
198.2551929999999
 30
0.0
 11
190.333718
 21
197.588526
 31
0.0
 12
192.333718
 22
197.92186
 32
0.0
 13
192.333718
 23
197.92186
 33
0.0
  0
SOLID
  5
449
330
443
100
AcDbEntity
  8
0
  6
ByBlock
 62
     0
100
AcDbTrace
 10
196.4411189999999
 20
198.2551929999999
 30
0.0
 11
196.4411189999999
 21
197.588526
 31
0.0
 12
194.4411189999999
 22
197.92186
 32
0.0
 13
194.4411189999999
 23
197.92186
 33
0.0
  0
MTEXT
  5
44A
330
443
100
AcDbEntity
  8
0
  6
ByBlock
 62
     0
100
AcDbMText
 10
205.482786
 20
197.92186
 30
0.0
 40
3.5
 41
0.0
 71
     5
 72
     1
  1
\A1;6-2.1
 73
     1
 44
1.0
  0
POINT
  5
44B
330
443
100
AcDbEntity
  8
DEFPOINTS
  6
ByBlock
 62
     0
100
AcDbPoint
 10
194.4411189999999
 20
189.0
 30
0.0
  0
POINT
  5
44C
330
443
100
AcDbEntity
  8
DEFPOINTS
  6
ByBlock
 62
     0
100
AcDbPoint
 10
192.333718
 20
189.0
 30
0.0
  0
POINT
  5
44D
330
443
100
AcDbEntity
  8
DEFPOINTS
  6
ByBlock
 62
     0
100
AcDbPoint
 10
192.333718
 20
197.92186
 30
0.0
  0
ENDBLK
  5
44F
330
443
100
AcDbEntity
  8
0
100
AcDbBlockEnd
  0
BLOCK
  5
45B
330
450
100
AcDbEntity
  8
0
100
AcDbBlockBegin
  2
*D12
 70
     1
 10
0.0
 20
0.0
 30
0.0
  3
*D12
  1

  0
LINE
  5
451
330
450
100
AcDbEntity
  8
0
  6
ByBlock
 62
     0
100
AcDbLine
 10
180.0
 20
158.4123899999999
 30
0.0
 11
180.0
 21
189.0
 31
0.0
  0
LINE
  5
452
330
450
100
AcDbEntity
  8
0
  6
ByBlock
 62
     0
100
AcDbLine
 10
219.976678
 20
160.810294
 30
0.0
 11
219.976678
 21
189.0
 31
0.0
  0
LINE
  5
453
330
450
100
AcDbEntity
  8
0
  6
ByBlock
 62
     0
100
AcDbLine
 10
182.0
 20
188.0
 30
0.0
 11
196.25
 21
188.0
 31
0.0
  0
LINE
  5
454
330
450
100
AcDbEntity
  8
0
  6
ByBlock
 62
     0
100
AcDbLine
 10
217.976678
 20
188.0
 30
0.0
 11
202.7499999999999
 21
188.0
 31
0.0
  0
SOLID
  5
455
330
450
100
AcDbEntity
  8
0
  6
ByBlock
 62
     0
100
AcDbTrace
 10
182.0
 20
188.333333
 30
0.0
 11
182.0
 21
187.6666669999999
 31
0.0
 12
180.0
 22
188.0
 32
0.0
 13
180.0
 23
188.0
 33
0.0
  0
SOLID
  5
456
330
450
100
AcDbEntity
  8
0
  6
ByBlock
 62
     0
100
AcDbTrace
 10
217.976678
 20
188.333333
 30
0.0
 11
217.976678
 21
187.6666669999999
 31
0.0
 12
219.976678
 22
188.0
 32
0.0
 13
219.976678
 23
188.0
 33
0.0
  0
MTEXT
  5
457
330
450
100
AcDbEntity
  8
0
  6
ByBlock
 62
     0
100
AcDbMText
 10
199.5
 20
188.0
 30
0.0
 40
3.5
 41
0.0
 71
     5
 72
     1
  1
\A1;40
 73
     1
 44
1.0
  0
POINT
  5
458
330
450
100
AcDbEntity
  8
DEFPOINTS
  6
ByBlock
 62
     0
100
AcDbPoint
 10
180.0
 20
157.41239
 30
0.0
  0
POINT
  5
459
330
450
100
AcDbEntity
  8
DEFPOINTS
  6
ByBlock
 62
     0
100
AcDbPoint
 10
219.976678
 20
159.8102939999999
 30
0.0
  0
POINT
  5
45A
330
450
100
AcDbEntity
  8
DEFPOINTS
  6
ByBlock
 62
     0
100
AcDbPoint
 10
219.976678
 20
188.0
 30
0.0
  0
ENDBLK
  5
45C
330
450
100
AcDbEntity
  8
0
100
AcDbBlockEnd
  0
BLOCK
  5
468
330
45D
100
AcDbEntity
  8
0
100
AcDbBlockBegin
  2
*D13
 70
     1
 10
0.0
 20
0.0
 30
0.0
  3
*D13
  1

  0
LINE
  5
45E
330
45D
100
AcDbEntity
  8
0
  6
ByBlock
 62
     0
100
AcDbLine
 10
174.9499999999999
 20
138.0
 30
0.0
 11
174.9499999999999
 21
121.206804
 31
0.0
  0
LINE
  5
45F
330
45D
100
AcDbEntity
  8
0
  6
ByBlock
 62
     0
100
AcDbLine
 10
185.05
 20
138.0
 30
0.0
 11
185.05
 21
121.206804
 31
0.0
  0
LINE
  5
460
330
45D
100
AcDbEntity
  8
0
  6
ByBlock
 62
     0
100
AcDbLine
 10
176.9499999999999
 20
122.206804
 30
0.0
 11
183.05
 21
122.206804
 31
0.0
  0
LINE
  5
461
330
45D
100
AcDbEntity
  8
0
  6
ByBlock
 62
     0
100
AcDbLine
 10
185.05
 20
122.206804
 30
0.0
 11
192.140374
 21
122.206804
 31
0.0
  0
SOLID
  5
462
330
45D
100
AcDbEntity
  8
0
  6
ByBlock
 62
     0
100
AcDbTrace
 10
176.9499999999999
 20
122.540137
 30
0.0
 11
176.9499999999999
 21
121.8734699999999
 31
0.0
 12
174.9499999999999
 22
122.206804
 32
0.0
 13
174.9499999999999
 23
122.206804
 33
0.0
  0
SOLID
  5
463
330
45D
100
AcDbEntity
  8
0
  6
ByBlock
 62
     0
100
AcDbTrace
 10
183.05
 20
122.540137
 30
0.0
 11
183.05
 21
121.8734699999999
 31
0.0
 12
185.05
 22
122.206804
 32
0.0
 13
185.05
 23
122.206804
 33
0.0
  0
MTEXT
  5
464
330
45D
100
AcDbEntity
  8
0
  6
ByBlock
 62
     0
100
AcDbMText
 10
198.307041
 20
122.206804
 30
0.0
 40
3.5
 41
0.0
 71
     5
 72
     1
  1
\A1;\U+220510.1
 73
     1
 44
1.0
  0
POINT
  5
465
330
45D
100
AcDbEntity
  8
DEFPOINTS
  6
ByBlock
 62
     0
100
AcDbPoint
 10
174.9499999999999
 20
139.0
 30
0.0
  0
POINT
  5
466
330
45D
100
AcDbEntity
  8
DEFPOINTS
  6
ByBlock
 62
     0
100
AcDbPoint
 10
185.05
 20
139.0
 30
0.0
  0
POINT
  5
467
330
45D
100
AcDbEntity
  8
DEFPOINTS
  6
ByBlock
 62
     0
100
AcDbPoint
 10
185.05
 20
122.206804
 30
0.0
  0
ENDBLK
  5
469
330
45D
100
AcDbEntity
  8
0
100
AcDbBlockEnd
  0
BLOCK
  5
475
330
46A
100
AcDbEntity
  8
0
100
AcDbBlockBegin
  2
*D14
 70
     1
 10
0.0
 20
0.0
 30
0.0
  3
*D14
  1

  0
LINE
  5
46B
330
46A
100
AcDbEntity
  8
0
  6
ByBlock
 62
     0
100
AcDbLine
 10
185.25
 20
137.0
 30
0.0
 11
185.25
 21
115.125
 31
0.0
  0
LINE
  5
46C
330
46A
100
AcDbEntity
  8
0
  6
ByBlock
 62
     0
100
AcDbLine
 10
174.75
 20
137.0
 30
0.0
 11
174.75
 21
115.125
 31
0.0
  0
LINE
  5
46D
330
46A
100
AcDbEntity
  8
0
  6
ByBlock
 62
     0
100
AcDbLine
 10
183.2499999999999
 20
116.125
 30
0.0
 11
182.6249999999999
 21
116.125
 31
0.0
  0
LINE
  5
46E
330
46A
100
AcDbEntity
  8
0
  6
ByBlock
 62
     0
100
AcDbLine
 10
176.75
 20
116.125
 30
0.0
 11
177.3749999999999
 21
116.125
 31
0.0
  0
SOLID
  5
46F
330
46A
100
AcDbEntity
  8
0
  6
ByBlock
 62
     0
100
AcDbTrace
 10
183.2499999999999
 20
116.458333
 30
0.0
 11
183.2499999999999
 21
115.7916669999999
 31
0.0
 12
185.25
 22
116.125
 32
0.0
 13
185.25
 23
116.125
 33
0.0
  0
SOLID
  5
470
330
46A
100
AcDbEntity
  8
0
  6
ByBlock
 62
     0
100
AcDbTrace
 10
176.75
 20
116.458333
 30
0.0
 11
176.75
 21
115.7916669999999
 31
0.0
 12
174.75
 22
116.125
 32
0.0
 13
174.75
 23
116.125
 33
0.0
  0
MTEXT
  5
471
330
46A
100
AcDbEntity
  8
0
  6
ByBlock
 62
     0
100
AcDbMText
 10
180.0
 20
116.125
 30
0.0
 40
3.5
 41
0.0
 71
     5
 72
     1
  1
\A1;10.5
 73
     1
 44
1.0
  0
POINT
  5
472
330
46A
100
AcDbEntity
  8
DEFPOINTS
  6
ByBlock
 62
     0
100
AcDbPoint
 10
185.25
 20
138.0
 30
0.0
  0
POINT
  5
473
330
46A
100
AcDbEntity
  8
DEFPOINTS
  6
ByBlock
 62
     0
100
AcDbPoint
 10
174.75
 20
138.0
 30
0.0
  0
POINT
  5
474
330
46A
100
AcDbEntity
  8
DEFPOINTS
  6
ByBlock
 62
     0
100
AcDbPoint
 10
174.75
 20
116.125
 30
0.0
  0
ENDBLK
  5
476
330
46A
100
AcDbEntity
  8
0
100
AcDbBlockEnd
  0
BLOCK
  5
482
330
477
100
AcDbEntity
  8
0
100
AcDbBlockBegin
  2
*D15
 70
     1
 10
0.0
 20
0.0
 30
0.0
  3
*D15
  1

  0
LINE
  5
478
330
477
100
AcDbEntity
  8
0
  6
ByBlock
 62
     0
100
AcDbLine
 10
217.937004
 20
226.0
 30
0.0
 11
245.247481
 21
226.0
 31
0.0
  0
LINE
  5
479
330
477
100
AcDbEntity
  8
0
  6
ByBlock
 62
     0
100
AcDbLine
 10
217.937004
 20
217.0
 30
0.0
 11
245.247481
 21
217.0
 31
0.0
  0
LINE
  5
47A
330
477
100
AcDbEntity
  8
0
  6
ByBlock
 62
     0
100
AcDbLine
 10
244.2474809999999
 20
224.0
 30
0.0
 11
244.2474809999999
 21
223.375
 31
0.0
  0
LINE
  5
47B
330
477
100
AcDbEntity
  8
0
  6
ByBlock
 62
     0
100
AcDbLine
 10
244.2474809999999
 20
219.0
 30
0.0
 11
244.2474809999999
 21
219.625
 31
0.0
  0
SOLID
  5
47C
330
477
100
AcDbEntity
  8
0
  6
ByBlock
 62
     0
100
AcDbTrace
 10
243.914147
 20
224.0
 30
0.0
 11
244.580814
 21
224.0
 31
0.0
 12
244.2474809999999
 22
226.0
 32
0.0
 13
244.2474809999999
 23
226.0
 33
0.0
  0
SOLID
  5
47D
330
477
100
AcDbEntity
  8
0
  6
ByBlock
 62
     0
100
AcDbTrace
 10
243.914147
 20
219.0
 30
0.0
 11
244.580814
 21
219.0
 31
0.0
 12
244.2474809999999
 22
217.0
 32
0.0
 13
244.2474809999999
 23
217.0
 33
0.0
  0
MTEXT
  5
47E
330
477
100
AcDbEntity
  8
0
  6
ByBlock
 62
     0
100
AcDbMText
 10
244.2474809999999
 20
221.1815419999999
 30
0.0
 40
3.5
 41
0.0
 71
     5
 72
     1
  1
\A1;\U+22059
 11
0.0
 21
1.0
 31
0.0
 73
     1
 44
1.0
  0
POINT
  5
47F
330
477
100
AcDbEntity
  8
DEFPOINTS
  6
ByBlock
 62
     0
100
AcDbPoint
 10
216.9370039999999
 20
226.0
 30
0.0
  0
POINT
  5
480
330
477
100
AcDbEntity
  8
DEFPOINTS
  6
ByBlock
 62
     0
100
AcDbPoint
 10
216.9370039999999
 20
217.0
 30
0.0
  0
POINT
  5
481
330
477
100
AcDbEntity
  8
DEFPOINTS
  6
ByBlock
 62
     0
100
AcDbPoint
 10
244.2474809999999
 20
217.0
 30
0.0
  0
ENDBLK
  5
483
330
477
100
AcDbEntity
  8
0
100
AcDbBlockEnd
  0
BLOCK
  5
48B
330
484
100
AcDbEntity
  8
0
100
AcDbBlockBegin
  2
*D16
 70
     1
 10
0.0
 20
0.0
 30
0.0
  3
*D16
  1

  0
LINE
  5
485
330
484
100
AcDbEntity
  8
0
  6
ByBlock
 62
     0
100
AcDbLine
 10
164.738254
 20
243.179209
 30
0.0
 11
166.738254
 21
243.179209
 31
0.0
  0
LINE
  5
486
330
484
100
AcDbEntity
  8
0
  6
ByBlock
 62
     0
100
AcDbLine
 10
166.738254
 20
243.179209
 30
0.0
 11
176.869007
 21
226.618289
 31
0.0
  0
MTEXT
  5
487
330
484
100
AcDbEntity
  8
0
  6
ByBlock
 62
     0
100
AcDbMText
 10
161.196587
 20
243.179209
 30
0.0
 40
3.5
 41
0.0
 71
     5
 72
     1
  1
\A1;\U+22058
 73
     1
 44
1.0
  0
SOLID
  5
488
330
484
100
AcDbEntity
  8
0
  6
ByBlock
 62
     0
100
AcDbTrace
 10
177.1533559999999
 20
226.792233
 30
0.0
 11
176.584658
 21
226.444345
 31
0.0
 12
177.9126709999999
 22
224.912193
 32
0.0
 13
177.9126709999999
 23
224.912193
 33
0.0
  0
POINT
  5
489
330
484
100
AcDbEntity
  8
DEFPOINTS
  6
ByBlock
 62
     0
100
AcDbPoint
 10
177.9126709999999
 20
224.912193
 30
0.0
  0
POINT
  5
48A
330
484
100
AcDbEntity
  8
DEFPOINTS
  6
ByBlock
 62
     0
100
AcDbPoint
 10
182.087329
 20
218.0878069999999
 30
0.0
  0
ENDBLK
  5
48C
330
484
100
AcDbEntity
  8
0
100
AcDbBlockEnd
  0
BLOCK
  5
494
330
48D
100
AcDbEntity
  8
0
100
AcDbBlockBegin
  2
*D17
 70
     1
 10
0.0
 20
0.0
 30
0.0
  3
*D17
  1

  0
LINE
  5
48E
330
48D
100
AcDbEntity
  8
0
  6
ByBlock
 62
     0
100
AcDbLine
 10
160.567722
 20
237.719934
 30
0.0
 11
162.567722
 21
237.719934
 31
0.0
  0
LINE
  5
48F
330
48D
100
AcDbEntity
  8
0
  6
ByBlock
 62
     0
100
AcDbLine
 10
162.567722
 20
237.719934
 30
0.0
 11
176.522497
 21
224.7356569999999
 31
0.0
  0
MTEXT
  5
490
330
48D
100
AcDbEntity
  8
0
  6
ByBlock
 62
     0
100
AcDbMText
 10
154.692722
 20
237.719934
 30
0.0
 40
3.5
 41
0.0
 71
     5
 72
     1
  1
\A1;\U+22055.5
 73
     1
 44
1.0
  0
SOLID
  5
491
330
48D
100
AcDbEntity
  8
0
  6
ByBlock
 62
     0
100
AcDbTrace
 10
176.749561
 20
224.979692
 30
0.0
 11
176.295433
 21
224.4916209999999
 31
0.0
 12
177.986709
 22
223.373275
 32
0.0
 13
177.986709
 23
223.373275
 33
0.0
  0
POINT
  5
492
330
48D
100
AcDbEntity
  8
DEFPOINTS
  6
ByBlock
 62
     0
100
AcDbPoint
 10
177.986709
 20
223.373275
 30
0.0
  0
POINT
  5
493
330
48D
100
AcDbEntity
  8
DEFPOINTS
  6
ByBlock
 62
     0
100
AcDbPoint
 10
182.0132909999999
 20
219.626725
 30
0.0
  0
ENDBLK
  5
495
330
48D
100
AcDbEntity
  8
0
100
AcDbBlockEnd
  0
BLOCK
  5
4A3
330
496
100
AcDbEntity
  8
0
100
AcDbBlockBegin
  2
*D18
 70
     1
 10
0.0
 20
0.0
 30
0.0
  3
*D18
  1

  0
LINE
  5
497
330
496
100
AcDbEntity
  8
0
  6
ByBlock
 62
     0
100
AcDbLine
 10
84.47014899999999
 20
134.200446
 30
0.0
 11
84.07459000000001
 21
120.95531
 31
0.0
  0
LINE
  5
498
330
496
100
AcDbEntity
  8
0
  6
ByBlock
 62
     0
100
AcDbLine
 10
71.02985100000001
 20
134.200446
 30
0.0
 11
71.42541
 21
120.95531
 31
0.0
  0
ARC
  5
499
330
496
100
AcDbEntity
  8
0
  6
ByBlock
 62
     0
100
AcDbCircle
 10
77.75
 20
-90.821372
 30
0.0
 40
212.8711019999999
100
AcDbArc
 50
87.21276999999998
 51
87.75108600000001
  0
ARC
  5
49A
330
496
100
AcDbEntity
  8
0
  6
ByBlock
 62
     0
100
AcDbCircle
 10
77.75
 20
-90.821372
 30
0.0
 40
212.8711019999999
100
AcDbArc
 50
92.248914
 51
92.78723000000001
  0
SOLID
  5
49B
330
496
100
AcDbEntity
  8
0
  6
ByBlock
 62
     0
100
AcDbTrace
 10
86.09173199999998
 20
121.5526379999999
 30
0.0
 11
86.11476299999999
 21
122.218906
 31
0.0
 12
84.104442
 22
121.9548649999999
 32
0.0
 13
84.104442
 23
121.9548649999999
 33
0.0
  0
SOLID
  5
49C
330
496
100
AcDbEntity
  8
0
  6
ByBlock
 62
     0
100
AcDbTrace
 10
69.38523700000001
 20
122.218906
 30
0.0
 11
69.408268
 21
121.5526379999999
 31
0.0
 12
71.395558
 22
121.9548649999999
 32
0.0
 13
71.395558
 23
121.9548649999999
 33
0.0
  0
MTEXT
  5
49D
330
496
100
AcDbEntity
  8
0
  6
ByBlock
 62
     0
100
AcDbMText
 10
79.020578
 20
122.045937
 30
0.0
 40
3.5
 41
0.0
 71
     5
 72
     1
  1
\A1;3.42°
 73
     1
 44
1.0
  0
POINT
  5
49E
330
496
100
AcDbEntity
  8
DEFPOINTS
  6
ByBlock
 62
     0
100
AcDbPoint
 10
75.631573
 20
122.0391879999999
 30
0.0
  0
POINT
  5
49F
330
496
100
AcDbEntity
  8
DEFPOINTS
  6
ByBlock
 62
     0
100
AcDbPoint
 10
71.0
 20
135.1999999999999
 30
0.0
  0
POINT
  5
4A0
330
496
100
AcDbEntity
  8
DEFPOINTS
  6
ByBlock
 62
     0
100
AcDbPoint
 10
84.50000000000001
 20
135.1999999999999
 30
0.0
  0
POINT
  5
4A1
330
496
100
AcDbEntity
  8
DEFPOINTS
  6
ByBlock
 62
     0
100
AcDbPoint
 10
84.98488399999999
 20
151.436187
 30
0.0
  0
POINT
  5
4A2
330
496
100
AcDbEntity
  8
DEFPOINTS
  6
ByBlock
 62
     0
100
AcDbPoint
 10
70.51511600000001
 20
151.436187
 30
0.0
  0
ENDBLK
  5
4A4
330
496
100
AcDbEntity
  8
0
100
AcDbBlockEnd
  0
BLOCK
  5
4AC
330
4A5
100
AcDbEntity
  8
0
100
AcDbBlockBegin
  2
*D19
 70
     1
 10
0.0
 20
0.0
 30
0.0
  3
*D19
  1

  0
LINE
  5
4A6
330
4A5
100
AcDbEntity
  8
0
  6
ByBlock
 62
     0
100
AcDbLine
 10
152.085197
 20
168.20786
 30
0.0
 11
154.085197
 21
168.20786
 31
0.0
  0
LINE
  5
4A7
330
4A5
100
AcDbEntity
  8
0
  6
ByBlock
 62
     0
100
AcDbLine
 10
154.085197
 20
168.20786
 30
0.0
 11
173.1321349999999
 21
152.4558719999999
 31
0.0
  0
MTEXT
  5
4A8
330
4A5
100
AcDbEntity
  8
0
  6
ByBlock
 62
     0
100
AcDbMText
 10
146.79353
 20
168.20786
 30
0.0
 40
3.5
 41
0.0
 71
     5
 72
     1
  1
\A1;R1.6
 73
     1
 44
1.0
  0
SOLID
  5
4A9
330
4A5
100
AcDbEntity
  8
0
  6
ByBlock
 62
     0
100
AcDbTrace
 10
171.8033439999999
 20
153.9873509999999
 30
0.0
 11
171.378475
 21
153.473609
 31
0.0
 12
173.1321349999999
 22
152.4558719999999
 32
0.0
 13
173.1321349999999
 23
152.4558719999999
 33
0.0
  0
POINT
  5
4AA
330
4A5
100
AcDbEntity
  8
DEFPOINTS
  6
ByBlock
 62
     0
100
AcDbPoint
 10
173.1321349999999
 20
152.4558719999999
 30
0.0
  0
POINT
  5
4AB
330
4A5
100
AcDbEntity
  8
DEFPOINTS
  6
ByBlock
 62
     0
100
AcDbPoint
 10
174.3651159999999
 20
151.436187
 30
0.0
  0
ENDBLK
  5
4AD
330
4A5
100
AcDbEntity
  8
0
100
AcDbBlockEnd
  0
BLOCK
  5
4BA
330
4AE
100
AcDbEntity
  8
0
100
AcDbBlockBegin
  2
*D20
 70
     1
 10
0.0
 20
0.0
 30
0.0
  3
*D20
  1

  0
LINE
  5
4AF
330
4AE
100
AcDbEntity
  8
0
  6
ByBlock
 62
     0
100
AcDbLine
 10
175.5
 20
148.5
 30
0.0
 11
165.2564749999999
 21
148.5
 31
0.0
  0
LINE
  5
4B0
330
4AE
100
AcDbEntity
  8
0
  6
ByBlock
 62
     0
100
AcDbLine
 10
173.9499999999999
 20
147.015025
 30
0.0
 11
165.2564749999999
 21
147.015025
 31
0.0
  0
LINE
  5
4B1
330
4AE
100
AcDbEntity
  8
0
  6
ByBlock
 62
     0
100
AcDbLine
 10
166.256475
 20
150.5
 30
0.0
 11
166.256475
 21
152.5
 31
0.0
  0
LINE
  5
4B2
330
4AE
100
AcDbEntity
  8
0
  6
ByBlock
 62
     0
100
AcDbLine
 10
166.256475
 20
145.015025
 30
0.0
 11
166.256475
 21
141.689499
 31
0.0
  0
LINE
  5
4B3
330
4AE
100
AcDbEntity
  8
0
  6
ByBlock
 62
     0
100
AcDbLine
 10
166.256475
 20
141.689499
 30
0.0
 11
164.256475
 21
141.689499
 31
0.0
  0
SOLID
  5
4B4
330
4AE
100
AcDbEntity
  8
0
  6
ByBlock
 62
     0
100
AcDbTrace
 10
165.9231419999999
 20
150.5
 30
0.0
 11
166.589808
 21
150.5
 31
0.0
 12
166.256475
 22
148.5
 32
0.0
 13
166.256475
 23
148.5
 33
0.0
  0
SOLID
  5
4B5
330
4AE
100
AcDbEntity
  8
0
  6
ByBlock
 62
     0
100
AcDbTrace
 10
165.9231419999999
 20
145.015025
 30
0.0
 11
166.589808
 21
145.015025
 31
0.0
 12
166.256475
 22
147.015025
 32
0.0
 13
166.256475
 23
147.015025
 33
0.0
  0
MTEXT
  5
4B6
330
4AE
100
AcDbEntity
  8
0
  6
ByBlock
 62
     0
100
AcDbMText
 10
160.7148079999999
 20
141.689499
 30
0.0
 40
3.5
 41
0.0
 71
     5
 72
     1
  1
\A1;1.5
 73
     1
 44
1.0
  0
POINT
  5
4B7
330
4AE
100
AcDbEntity
  8
DEFPOINTS
  6
ByBlock
 62
     0
100
AcDbPoint
 10
176.5
 20
148.5
 30
0.0
  0
POINT
  5
4B8
330
4AE
100
AcDbEntity
  8
DEFPOINTS
  6
ByBlock
 62
     0
100
AcDbPoint
 10
174.9499999999999
 20
147.015025
 30
0.0
  0
POINT
  5
4B9
330
4AE
100
AcDbEntity
  8
DEFPOINTS
  6
ByBlock
 62
     0
100
AcDbPoint
 10
166.256475
 20
147.015025
 30
0.0
  0
ENDBLK
  5
4BB
330
4AE
100
AcDbEntity
  8
0
100
AcDbBlockEnd
  0
BLOCK
  5
4C8
330
4BC
100
AcDbEntity
  8
0
100
AcDbBlockBegin
  2
*D21
 70
     1
 10
0.0
 20
0.0
 30
0.0
  3
*D21
  1

  0
LINE
  5
4BD
330
4BC
100
AcDbEntity
  8
0
  6
ByBlock
 62
     0
100
AcDbLine
 10
173.9499999999999
 20
147.015025
 30
0.0
 11
153.145755
 21
147.015025
 31
0.0
  0
LINE
  5
4BE
330
4BC
100
AcDbEntity
  8
0
  6
ByBlock
 62
     0
100
AcDbLine
 10
173.9499999999999
 20
145.0
 30
0.0
 11
153.145755
 21
145.0
 31
0.0
  0
LINE
  5
4BF
330
4BC
100
AcDbEntity
  8
0
  6
ByBlock
 62
     0
100
AcDbLine
 10
154.145755
 20
149.015025
 30
0.0
 11
154.145755
 21
151.015025
 31
0.0
  0
LINE
  5
4C0
330
4BC
100
AcDbEntity
  8
0
  6
ByBlock
 62
     0
100
AcDbLine
 10
154.145755
 20
143.0
 30
0.0
 11
154.145755
 21
141.0
 31
0.0
  0
LINE
  5
4C1
330
4BC
100
AcDbEntity
  8
0
  6
ByBlock
 62
     0
100
AcDbLine
 10
154.145755
 20
141.0
 30
0.0
 11
152.145755
 21
141.0
 31
0.0
  0
SOLID
  5
4C2
330
4BC
100
AcDbEntity
  8
0
  6
ByBlock
 62
     0
100
AcDbTrace
 10
153.812422
 20
149.015025
 30
0.0
 11
154.4790879999999
 21
149.015025
 31
0.0
 12
154.145755
 22
147.015025
 32
0.0
 13
154.145755
 23
147.015025
 33
0.0
  0
SOLID
  5
4C3
330
4BC
100
AcDbEntity
  8
0
  6
ByBlock
 62
     0
100
AcDbTrace
 10
153.812422
 20
143.0
 30
0.0
 11
154.4790879999999
 21
143.0
 31
0.0
 12
154.145755
 22
145.0
 32
0.0
 13
154.145755
 23
145.0
 33
0.0
  0
MTEXT
  5
4C4
330
4BC
100
AcDbEntity
  8
0
  6
ByBlock
 62
     0
100
AcDbMText
 10
150.3540879999999
 20
141.0
 30
0.0
 40
3.5
 41
0.0
 71
     5
 72
     1
  1
\A1;2
 73
     1
 44
1.0
  0
POINT
  5
4C5
330
4BC
100
AcDbEntity
  8
DEFPOINTS
  6
ByBlock
 62
     0
100
AcDbPoint
 10
174.9499999999999
 20
147.015025
 30
0.0
  0
POINT
  5
4C6
330
4BC
100
AcDbEntity
  8
DEFPOINTS
  6
ByBlock
 62
     0
100
AcDbPoint
 10
174.9499999999999
 20
145.0
 30
0.0
  0
POINT
  5
4C7
330
4BC
100
AcDbEntity
  8
DEFPOINTS
  6
ByBlock
 62
     0
100
AcDbPoint
 10
154.145755
 20
145.0
 30
0.0
  0
ENDBLK
  5
4C9
330
4BC
100
AcDbEntity
  8
0
100
AcDbBlockEnd
  0
BLOCK
  5
4D4
330
4CA
100
AcDbEntity
  8
0
100
AcDbBlockBegin
  2
*D22
 70
     1
 10
0.0
 20
0.0
 30
0.0
  3
*D22
  1

  0
LINE
  5
4CB
330
4CA
100
AcDbEntity
  8
0
  6
ByBlock
 62
     0
100
AcDbLine
 10
173.2499999999999
 20
134.1999999999999
 30
0.0
 11
173.2499999999999
 21
105.998812
 31
0.0
  0
LINE
  5
4CC
330
4CA
100
AcDbEntity
  8
0
  6
ByBlock
 62
     0
100
AcDbLine
 10
186.7499999999999
 20
134.1999999999999
 30
0.0
 11
186.7499999999999
 21
105.998812
 31
0.0
  0
LINE
  5
4CD
330
4CA
100
AcDbEntity
  8
0
  6
ByBlock
 62
     0
100
AcDbLine
 10
175.2499999999999
 20
106.998812
 30
0.0
 11
184.75
 21
106.998812
 31
0.0
  0
SOLID
  5
4CE
330
4CA
100
AcDbEntity
  8
0
  6
ByBlock
 62
     0
100
AcDbTrace
 10
175.2499999999999
 20
107.332146
 30
0.0
 11
175.2499999999999
 21
106.665479
 31
0.0
 12
173.2499999999999
 22
106.998812
 32
0.0
 13
173.2499999999999
 23
106.998812
 33
0.0
  0
SOLID
  5
4CF
330
4CA
100
AcDbEntity
  8
0
  6
ByBlock
 62
     0
100
AcDbTrace
 10
184.75
 20
107.332146
 30
0.0
 11
184.75
 21
106.665479
 31
0.0
 12
186.7499999999999
 22
106.998812
 32
0.0
 13
186.7499999999999
 23
106.998812
 33
0.0
  0
MTEXT
  5
4D0
330
4CA
100
AcDbEntity
  8
0
  6
ByBlock
 62
     0
100
AcDbMText
 10
180.0
 20
106.998812
 30
0.0
 40
3.5
 41
0.0
 71
     5
 72
     1
  1
\A1;\U+220513.5
 73
     1
 44
1.0
  0
POINT
  5
4D1
330
4CA
100
AcDbEntity
  8
DEFPOINTS
  6
ByBlock
 62
     0
100
AcDbPoint
 10
173.2499999999999
 20
135.1999999999999
 30
0.0
  0
POINT
  5
4D2
330
4CA
100
AcDbEntity
  8
DEFPOINTS
  6
ByBlock
 62
     0
100
AcDbPoint
 10
186.7499999999999
 20
135.1999999999999
 30
0.0
  0
POINT
  5
4D3
330
4CA
100
AcDbEntity
  8
DEFPOINTS
  6
ByBlock
 62
     0
100
AcDbPoint
 10
186.7499999999999
 20
106.998812
 30
0.0
  0
ENDBLK
  5
4D5
330
4CA
100
AcDbEntity
  8
0
100
AcDbBlockEnd
  0
BLOCK
  5
4DD
330
4D6
100
AcDbEntity
  8
0
100
AcDbBlockBegin
  2
*D23
 70
     1
 10
0.0
 20
0.0
 30
0.0
  3
*D23
  1

  0
LINE
  5
4D7
330
4D6
100
AcDbEntity
  8
0
  6
ByBlock
 62
     0
100
AcDbLine
 10
156.570706
 20
213.038389
 30
0.0
 11
158.570706
 21
213.038389
 31
0.0
  0
LINE
  5
4D8
330
4D6
100
AcDbEntity
  8
0
  6
ByBlock
 62
     0
100
AcDbLine
 10
158.570706
 20
213.038389
 30
0.0
 11
171.4845549999999
 21
207.5600539999999
 31
0.0
  0
MTEXT
  5
4D9
330
4D6
100
AcDbEntity
  8
0
  6
ByBlock
 62
     0
100
AcDbMText
 10
149.5290389999999
 20
213.038389
 30
0.0
 40
3.5
 41
0.0
 71
     5
 72
     1
  1
\A1;\U+220514.5
 73
     1
 44
1.0
  0
SOLID
  5
4DA
330
4D6
100
AcDbEntity
  8
0
  6
ByBlock
 62
     0
100
AcDbTrace
 10
171.614733
 20
207.8669169999999
 30
0.0
 11
171.354377
 21
207.2531909999999
 31
0.0
 12
173.325732
 22
206.7789859999999
 32
0.0
 13
173.325732
 23
206.7789859999999
 33
0.0
  0
POINT
  5
4DB
330
4D6
100
AcDbEntity
  8
DEFPOINTS
  6
ByBlock
 62
     0
100
AcDbPoint
 10
173.325732
 20
206.7789859999999
 30
0.0
  0
POINT
  5
4DC
330
4D6
100
AcDbEntity
  8
DEFPOINTS
  6
ByBlock
 62
     0
100
AcDbPoint
 10
186.6742679999999
 20
201.1162479999999
 30
0.0
  0
ENDBLK
  5
4DE
330
4D6
100
AcDbEntity
  8
0
100
AcDbBlockEnd
  0
BLOCK
  5
4EC
330
4DF
100
AcDbEntity
  8
0
100
AcDbBlockBegin
  2
*D24
 70
     1
 10
0.0
 20
0.0
 30
0.0
  3
*D24
  1

  0
LINE
  5
4E0
330
4DF
100
AcDbEntity
  8
0
  6
ByBlock
 62
     0
100
AcDbLine
 10
91.39374899999999
 20
164.229025
 30
0.0
 11
89.05006699999999
 21
123.8416289999999
 31
0.0
  0
LINE
  5
4E1
330
4DF
100
AcDbEntity
  8
0
  6
ByBlock
 62
     0
100
AcDbLine
 10
105.979383
 20
164.229025
 30
0.0
 11
108.3230649999999
 21
123.8416289999999
 31
0.0
  0
ARC
  5
4E2
330
4DF
100
AcDbEntity
  8
0
  6
ByBlock
 62
     0
100
AcDbCircle
 10
98.68656600000001
 20
289.902177
 30
0.0
 40
165.339916
100
AcDbArc
 50
265.292707
 51
265.9857779999999
  0
ARC
  5
4E3
330
4DF
100
AcDbEntity
  8
0
  6
ByBlock
 62
     0
100
AcDbCircle
 10
98.68656600000001
 20
289.902177
 30
0.0
 40
165.339916
100
AcDbArc
 50
274.014222
 51
274.7072929999999
  0
SOLID
  5
4E4
330
4DF
100
AcDbEntity
  8
0
  6
ByBlock
 62
     0
100
AcDbTrace
 10
87.13341899999999
 20
125.3005389999999
 30
0.0
 11
87.090773
 21
124.6352379999999
 31
0.0
 12
89.108
 22
124.839949
 32
0.0
 13
89.108
 23
124.839949
 33
0.0
  0
SOLID
  5
4E5
330
4DF
100
AcDbEntity
  8
0
  6
ByBlock
 62
     0
100
AcDbTrace
 10
110.282359
 20
124.6352379999999
 30
0.0
 11
110.2397129999999
 21
125.3005389999999
 31
0.0
 12
108.265132
 22
124.839949
 32
0.0
 13
108.265132
 23
124.839949
 33
0.0
  0
MTEXT
  5
4E6
330
4DF
100
AcDbEntity
  8
0
  6
ByBlock
 62
     0
100
AcDbMText
 10
101.10514
 20
124.5799509999999
 30
0.0
 40
3.5
 41
0.0
 71
     5
 72
     1
  1
\A1;6.64°
 11
0.9998930050829562
 21
0.0146280000743615
 31
0.0
 73
     1
 44
1.0
  0
POINT
  5
4E7
330
4DF
100
AcDbEntity
  8
DEFPOINTS
  6
ByBlock
 62
     0
100
AcDbPoint
 10
95.492121
 20
124.5931219999999
 30
0.0
  0
POINT
  5
4E8
330
4DF
100
AcDbEntity
  8
DEFPOINTS
  6
ByBlock
 62
     0
100
AcDbPoint
 10
91.45168100000001
 20
165.2273449999999
 30
0.0
  0
POINT
  5
4E9
330
4DF
100
AcDbEntity
  8
DEFPOINTS
  6
ByBlock
 62
     0
100
AcDbPoint
 10
105.9214499999999
 20
165.2273449999999
 30
0.0
  0
POINT
  5
4EA
330
4DF
100
AcDbEntity
  8
DEFPOINTS
  6
ByBlock
 62
     0
100
AcDbPoint
 10
105.7919929999999
 20
167.458212
 30
0.0
  0
POINT
  5
4EB
330
4DF
100
AcDbEntity
  8
DEFPOINTS
  6
ByBlock
 62
     0
100
AcDbPoint
 10
91.58113900000001
 20
167.458212
 30
0.0
  0
ENDBLK
  5
4ED
330
4DF
100
AcDbEntity
  8
0
100
AcDbBlockEnd
  0
BLOCK
  5
4F9
330
4EE
100
AcDbEntity
  8
0
100
AcDbBlockBegin
  2
*D25
 70
     1
 10
0.0
 20
0.0
 30
0.0
  3
*D25
  1

  0
LINE
  5
4EF
330
4EE
100
AcDbEntity
  8
0
  6
ByBlock
 62
     0
100
AcDbLine
 10
194.8865659999999
 20
158.291158
 30
0.0
 11
163.75
 21
158.291158
 31
0.0
  0
LINE
  5
4F0
330
4EE
100
AcDbEntity
  8
0
  6
ByBlock
 62
     0
100
AcDbLine
 10
193.1865659999999
 20
148.791158
 30
0.0
 11
163.75
 21
148.791158
 31
0.0
  0
LINE
  5
4F1
330
4EE
100
AcDbEntity
  8
0
  6
ByBlock
 62
     0
100
AcDbLine
 10
164.7499999999999
 20
156.2911579999999
 30
0.0
 11
164.7499999999999
 21
155.666158
 31
0.0
  0
LINE
  5
4F2
330
4EE
100
AcDbEntity
  8
0
  6
ByBlock
 62
     0
100
AcDbLine
 10
164.7499999999999
 20
150.791158
 30
0.0
 11
164.7499999999999
 21
151.4161579999999
 31
0.0
  0
SOLID
  5
4F3
330
4EE
100
AcDbEntity
  8
0
  6
ByBlock
 62
     0
100
AcDbTrace
 10
164.4166669999999
 20
156.2911579999999
 30
0.0
 11
165.083333
 21
156.2911579999999
 31
0.0
 12
164.7499999999999
 22
158.291158
 32
0.0
 13
164.7499999999999
 23
158.291158
 33
0.0
  0
SOLID
  5
4F4
330
4EE
100
AcDbEntity
  8
0
  6
ByBlock
 62
     0
100
AcDbTrace
 10
164.4166669999999
 20
150.791158
 30
0.0
 11
165.083333
 21
150.791158
 31
0.0
 12
164.7499999999999
 22
148.791158
 32
0.0
 13
164.7499999999999
 23
148.791158
 33
0.0
  0
MTEXT
  5
4F5
330
4EE
100
AcDbEntity
  8
0
  6
ByBlock
 62
     0
100
AcDbMText
 10
164.7499999999999
 20
154.0
 30
0.0
 40
3.5
 41
0.0
 71
     5
 72
     1
  1
\A1;9.5
 11
0.0
 21
1.0
 31
0.0
 73
     1
 44
1.0
  0
POINT
  5
4F6
330
4EE
100
AcDbEntity
  8
DEFPOINTS
  6
ByBlock
 62
     0
100
AcDbPoint
 10
195.8865659999999
 20
158.291158
 30
0.0
  0
POINT
  5
4F7
330
4EE
100
AcDbEntity
  8
DEFPOINTS
  6
ByBlock
 62
     0
100
AcDbPoint
 10
194.1865659999999
 20
148.791158
 30
0.0
  0
POINT
  5
4F8
330
4EE
100
AcDbEntity
  8
DEFPOINTS
  6
ByBlock
 62
     0
100
AcDbPoint
 10
164.7499999999999
 20
148.791158
 30
0.0
  0
ENDBLK
  5
4FA
330
4EE
100
AcDbEntity
  8
0
100
AcDbBlockEnd
  0
BLOCK
  5
506
330
4FB
100
AcDbEntity
  8
0
100
AcDbBlockBegin
  2
*D26
 70
     1
 10
0.0
 20
0.0
 30
0.0
  3
*D26
  1

  0
LINE
  5
4FC
330
4FB
100
AcDbEntity
  8
0
  6
ByBlock
 62
     0
100
AcDbLine
 10
192.7016809999999
 20
165.2273449999999
 30
0.0
 11
156.4999999999999
 21
165.2273449999999
 31
0.0
  0
LINE
  5
4FD
330
4FB
100
AcDbEntity
  8
0
  6
ByBlock
 62
     0
100
AcDbLine
 10
193.1865659999999
 20
148.791158
 30
0.0
 11
156.4999999999999
 21
148.791158
 31
0.0
  0
LINE
  5
4FE
330
4FB
100
AcDbEntity
  8
0
  6
ByBlock
 62
     0
100
AcDbLine
 10
157.5
 20
163.2273449999999
 30
0.0
 11
157.5
 21
162.6023449999999
 31
0.0
  0
LINE
  5
4FF
330
4FB
100
AcDbEntity
  8
0
  6
ByBlock
 62
     0
100
AcDbLine
 10
157.5
 20
150.791158
 30
0.0
 11
157.5
 21
151.4161579999999
 31
0.0
  0
SOLID
  5
500
330
4FB
100
AcDbEntity
  8
0
  6
ByBlock
 62
     0
100
AcDbTrace
 10
157.1666669999999
 20
163.2273449999999
 30
0.0
 11
157.833333
 21
163.2273449999999
 31
0.0
 12
157.5
 22
165.2273449999999
 32
0.0
 13
157.5
 23
165.2273449999999
 33
0.0
  0
SOLID
  5
501
330
4FB
100
AcDbEntity
  8
0
  6
ByBlock
 62
     0
100
AcDbTrace
 10
157.1666669999999
 20
150.791158
 30
0.0
 11
157.833333
 21
150.791158
 31
0.0
 12
157.5
 22
148.791158
 32
0.0
 13
157.5
 23
148.791158
 33
0.0
  0
MTEXT
  5
502
330
4FB
100
AcDbEntity
  8
0
  6
ByBlock
 62
     0
100
AcDbMText
 10
157.5
 20
157.009252
 30
0.0
 40
3.5
 41
0.0
 71
     5
 72
     1
  1
\A1;16.44
 11
0.0
 21
1.0
 31
0.0
 73
     1
 44
1.0
  0
POINT
  5
503
330
4FB
100
AcDbEntity
  8
DEFPOINTS
  6
ByBlock
 62
     0
100
AcDbPoint
 10
193.701681
 20
165.2273449999999
 30
0.0
  0
POINT
  5
504
330
4FB
100
AcDbEntity
  8
DEFPOINTS
  6
ByBlock
 62
     0
100
AcDbPoint
 10
194.1865659999999
 20
148.791158
 30
0.0
  0
POINT
  5
505
330
4FB
100
AcDbEntity
  8
DEFPOINTS
  6
ByBlock
 62
     0
100
AcDbPoint
 10
157.5
 20
148.791158
 30
0.0
  0
ENDBLK
  5
507
330
4FB
100
AcDbEntity
  8
0
100
AcDbBlockEnd
  0
BLOCK
  5
513
330
508
100
AcDbEntity
  8
0
100
AcDbBlockBegin
  2
*D27
 70
     1
 10
0.0
 20
0.0
 30
0.0
  3
*D27
  1

  0
LINE
  5
509
330
508
100
AcDbEntity
  8
0
  6
ByBlock
 62
     0
100
AcDbLine
 10
192.25
 20
166.25
 30
0.0
 11
149.75
 21
166.25
 31
0.0
  0
LINE
  5
50A
330
508
100
AcDbEntity
  8
0
  6
ByBlock
 62
     0
100
AcDbLine
 10
193.1865659999999
 20
148.791158
 30
0.0
 11
149.75
 21
148.791158
 31
0.0
  0
LINE
  5
50B
330
508
100
AcDbEntity
  8
0
  6
ByBlock
 62
     0
100
AcDbLine
 10
150.75
 20
164.25
 30
0.0
 11
150.75
 21
163.6249999999999
 31
0.0
  0
LINE
  5
50C
330
508
100
AcDbEntity
  8
0
  6
ByBlock
 62
     0
100
AcDbLine
 10
150.75
 20
150.791158
 30
0.0
 11
150.75
 21
151.4161579999999
 31
0.0
  0
SOLID
  5
50D
330
508
100
AcDbEntity
  8
0
  6
ByBlock
 62
     0
100
AcDbTrace
 10
150.416667
 20
164.25
 30
0.0
 11
151.083333
 21
164.25
 31
0.0
 12
150.75
 22
166.25
 32
0.0
 13
150.75
 23
166.25
 33
0.0
  0
SOLID
  5
50E
330
508
100
AcDbEntity
  8
0
  6
ByBlock
 62
     0
100
AcDbTrace
 10
150.416667
 20
150.791158
 30
0.0
 11
151.083333
 21
150.791158
 31
0.0
 12
150.75
 22
148.791158
 32
0.0
 13
150.75
 23
148.791158
 33
0.0
  0
MTEXT
  5
50F
330
508
100
AcDbEntity
  8
0
  6
ByBlock
 62
     0
100
AcDbMText
 10
150.75
 20
157.2499999999999
 30
0.0
 40
3.5
 41
0.0
 71
     5
 72
     1
  1
\A1;17.46
 11
0.0
 21
1.0
 31
0.0
 73
     1
 44
1.0
  0
POINT
  5
510
330
508
100
AcDbEntity
  8
DEFPOINTS
  6
ByBlock
 62
     0
100
AcDbPoint
 10
193.25
 20
166.25
 30
0.0
  0
POINT
  5
511
330
508
100
AcDbEntity
  8
DEFPOINTS
  6
ByBlock
 62
     0
100
AcDbPoint
 10
194.1865659999999
 20
148.791158
 30
0.0
  0
POINT
  5
512
330
508
100
AcDbEntity
  8
DEFPOINTS
  6
ByBlock
 62
     0
100
AcDbPoint
 10
150.75
 20
148.791158
 30
0.0
  0
ENDBLK
  5
514
330
508
100
AcDbEntity
  8
0
100
AcDbBlockEnd
  0
BLOCK
  5
51F
330
515
100
AcDbEntity
  8
0
100
AcDbBlockBegin
  2
*D28
 70
     1
 10
0.0
 20
0.0
 30
0.0
  3
*D28
  1

  0
LINE
  5
516
330
515
100
AcDbEntity
  8
0
  6
ByBlock
 62
     0
100
AcDbLine
 10
209.043705
 20
160.9498219999999
 30
0.0
 11
222.75
 21
160.9498219999999
 31
0.0
  0
LINE
  5
517
330
515
100
AcDbEntity
  8
0
  6
ByBlock
 62
     0
100
AcDbLine
 10
208.6865659999999
 20
148.791158
 30
0.0
 11
222.75
 21
148.791158
 31
0.0
  0
LINE
  5
518
330
515
100
AcDbEntity
  8
0
  6
ByBlock
 62
     0
100
AcDbLine
 10
221.75
 20
158.9498219999999
 30
0.0
 11
221.75
 21
150.791158
 31
0.0
  0
SOLID
  5
519
330
515
100
AcDbEntity
  8
0
  6
ByBlock
 62
     0
100
AcDbTrace
 10
221.416667
 20
158.9498219999999
 30
0.0
 11
222.083333
 21
158.9498219999999
 31
0.0
 12
221.75
 22
160.9498219999999
 32
0.0
 13
221.75
 23
160.9498219999999
 33
0.0
  0
SOLID
  5
51A
330
515
100
AcDbEntity
  8
0
  6
ByBlock
 62
     0
100
AcDbTrace
 10
221.416667
 20
150.791158
 30
0.0
 11
222.083333
 21
150.791158
 31
0.0
 12
221.75
 22
148.791158
 32
0.0
 13
221.75
 23
148.791158
 33
0.0
  0
MTEXT
  5
51B
330
515
100
AcDbEntity
  8
0
  6
ByBlock
 62
     0
100
AcDbMText
 10
221.75
 20
154.8704899999999
 30
0.0
 40
3.5
 41
0.0
 71
     5
 72
     1
  1
\A1;12.16
 11
0.0
 21
1.0
 31
0.0
 73
     1
 44
1.0
  0
POINT
  5
51C
330
515
100
AcDbEntity
  8
DEFPOINTS
  6
ByBlock
 62
     0
100
AcDbPoint
 10
208.043705
 20
160.9498219999999
 30
0.0
  0
POINT
  5
51D
330
515
100
AcDbEntity
  8
DEFPOINTS
  6
ByBlock
 62
     0
100
AcDbPoint
 10
207.686566
 20
148.791158
 30
0.0
  0
POINT
  5
51E
330
515
100
AcDbEntity
  8
DEFPOINTS
  6
ByBlock
 62
     0
100
AcDbPoint
 10
221.75
 20
148.791158
 30
0.0
  0
ENDBLK
  5
520
330
515
100
AcDbEntity
  8
0
100
AcDbBlockEnd
  0
BLOCK
  5
52C
330
521
100
AcDbEntity
  8
0
100
AcDbBlockBegin
  2
*D29
 70
     1
 10
0.0
 20
0.0
 30
0.0
  3
*D29
  1

  0
LINE
  5
522
330
521
100
AcDbEntity
  8
0
  6
ByBlock
 62
     0
100
AcDbLine
 10
237.7088839999999
 20
177.948119
 30
0.0
 11
268.0
 21
177.948119
 31
0.0
  0
LINE
  5
523
330
521
100
AcDbEntity
  8
0
  6
ByBlock
 62
     0
100
AcDbLine
 10
208.6865659999999
 20
148.791158
 30
0.0
 11
268.0
 21
148.791158
 31
0.0
  0
LINE
  5
524
330
521
100
AcDbEntity
  8
0
  6
ByBlock
 62
     0
100
AcDbLine
 10
267.0
 20
175.9481189999999
 30
0.0
 11
267.0
 21
170.291667
 31
0.0
  0
LINE
  5
525
330
521
100
AcDbEntity
  8
0
  6
ByBlock
 62
     0
100
AcDbLine
 10
267.0
 20
150.791158
 30
0.0
 11
267.0
 21
156.208333
 31
0.0
  0
SOLID
  5
526
330
521
100
AcDbEntity
  8
0
  6
ByBlock
 62
     0
100
AcDbTrace
 10
266.666667
 20
175.9481189999999
 30
0.0
 11
267.3333329999999
 21
175.9481189999999
 31
0.0
 12
267.0
 22
177.948119
 32
0.0
 13
267.0
 23
177.948119
 33
0.0
  0
SOLID
  5
527
330
521
100
AcDbEntity
  8
0
  6
ByBlock
 62
     0
100
AcDbTrace
 10
266.666667
 20
150.791158
 30
0.0
 11
267.3333329999999
 21
150.791158
 31
0.0
 12
267.0
 22
148.791158
 32
0.0
 13
267.0
 23
148.791158
 33
0.0
  0
MTEXT
  5
528
330
521
100
AcDbEntity
  8
0
  6
ByBlock
 62
     0
100
AcDbMText
 10
267.0
 20
163.25
 30
0.0
 40
3.5
 41
0.0
 71
     5
 72
     1
  1
\A1;29.16
 11
0.0
 21
1.0
 31
0.0
 73
     1
 44
1.0
  0
POINT
  5
529
330
521
100
AcDbEntity
  8
DEFPOINTS
  6
ByBlock
 62
     0
100
AcDbPoint
 10
236.708884
 20
177.948119
 30
0.0
  0
POINT
  5
52A
330
521
100
AcDbEntity
  8
DEFPOINTS
  6
ByBlock
 62
     0
100
AcDbPoint
 10
207.686566
 20
148.791158
 30
0.0
  0
POINT
  5
52B
330
521
100
AcDbEntity
  8
DEFPOINTS
  6
ByBlock
 62
     0
100
AcDbPoint
 10
267.0
 20
148.791158
 30
0.0
  0
ENDBLK
  5
52D
330
521
100
AcDbEntity
  8
0
100
AcDbBlockEnd
  0
BLOCK
  5
539
330
52E
100
AcDbEntity
  8
0
100
AcDbBlockBegin
  2
*D30
 70
     1
 10
0.0
 20
0.0
 30
0.0
  3
*D30
  1

  0
LINE
  5
52F
330
52E
100
AcDbEntity
  8
0
  6
ByBlock
 62
     0
100
AcDbLine
 10
208.6865659999999
 20
148.791158
 30
0.0
 11
262.7499999999999
 21
148.791158
 31
0.0
  0
LINE
  5
530
330
52E
100
AcDbEntity
  8
0
  6
ByBlock
 62
     0
100
AcDbLine
 10
251.661718
 20
173.601453
 30
0.0
 11
262.7499999999999
 21
173.601453
 31
0.0
  0
LINE
  5
531
330
52E
100
AcDbEntity
  8
0
  6
ByBlock
 62
     0
100
AcDbLine
 10
261.75
 20
150.791158
 30
0.0
 11
261.75
 21
154.708333
 31
0.0
  0
LINE
  5
532
330
52E
100
AcDbEntity
  8
0
  6
ByBlock
 62
     0
100
AcDbLine
 10
261.75
 20
171.6014529999999
 30
0.0
 11
261.75
 21
168.7916669999999
 31
0.0
  0
SOLID
  5
533
330
52E
100
AcDbEntity
  8
0
  6
ByBlock
 62
     0
100
AcDbTrace
 10
261.416667
 20
150.791158
 30
0.0
 11
262.0833329999999
 21
150.791158
 31
0.0
 12
261.75
 22
148.791158
 32
0.0
 13
261.75
 23
148.791158
 33
0.0
  0
SOLID
  5
534
330
52E
100
AcDbEntity
  8
0
  6
ByBlock
 62
     0
100
AcDbTrace
 10
261.416667
 20
171.6014529999999
 30
0.0
 11
262.0833329999999
 21
171.6014529999999
 31
0.0
 12
261.75
 22
173.601453
 32
0.0
 13
261.75
 23
173.601453
 33
0.0
  0
MTEXT
  5
535
330
52E
100
AcDbEntity
  8
0
  6
ByBlock
 62
     0
100
AcDbMText
 10
261.75
 20
161.7499999999999
 30
0.0
 40
3.5
 41
0.0
 71
     5
 72
     1
  1
\A1;24.81
 11
0.0
 21
1.0
 31
0.0
 73
     1
 44
1.0
  0
POINT
  5
536
330
52E
100
AcDbEntity
  8
DEFPOINTS
  6
ByBlock
 62
     0
100
AcDbPoint
 10
207.686566
 20
148.791158
 30
0.0
  0
POINT
  5
537
330
52E
100
AcDbEntity
  8
DEFPOINTS
  6
ByBlock
 62
     0
100
AcDbPoint
 10
250.661718
 20
173.601453
 30
0.0
  0
POINT
  5
538
330
52E
100
AcDbEntity
  8
DEFPOINTS
  6
ByBlock
 62
     0
100
AcDbPoint
 10
261.75
 20
173.601453
 30
0.0
  0
ENDBLK
  5
53A
330
52E
100
AcDbEntity
  8
0
100
AcDbBlockEnd
  0
BLOCK
  5
547
330
53B
100
AcDbEntity
  8
0
100
AcDbBlockBegin
  2
*D31
 70
     1
 10
0.0
 20
0.0
 30
0.0
  3
*D31
  1

  0
LINE
  5
53C
330
53B
100
AcDbEntity
  8
0
  6
ByBlock
 62
     0
100
AcDbLine
 10
208.6865659999999
 20
148.791158
 30
0.0
 11
229.4571759999999
 21
148.791158
 31
0.0
  0
ARC
  5
53D
330
53B
100
AcDbEntity
  8
0
  6
ByBlock
 62
     0
100
AcDbCircle
 10
145.280291
 20
148.791158
 30
0.0
 40
83.176885
100
AcDbArc
 50
1.377717999999999
 51
2.765000999999999
  0
ARC
  5
53E
330
53B
100
AcDbEntity
  8
0
  6
ByBlock
 62
     0
100
AcDbCircle
 10
145.280291
 20
148.791158
 30
0.0
 40
83.176885
100
AcDbArc
 50
9.255071
 51
13.622282
  0
SOLID
  5
53F
330
53B
100
AcDbEntity
  8
0
  6
ByBlock
 62
     0
100
AcDbTrace
 10
228.76644
 20
150.7950209999999
 30
0.0
 11
228.0998209999999
 21
150.787006
 31
0.0
 12
228.4571759999999
 22
148.791158
 32
0.0
 13
228.4571759999999
 23
148.791158
 33
0.0
  0
SOLID
  5
540
330
53B
100
AcDbEntity
  8
0
  6
ByBlock
 62
     0
100
AcDbTrace
 10
225.7943779999999
 20
168.2985889999999
 30
0.0
 11
226.440356
 21
168.463381
 31
0.0
 12
225.6229919999999
 22
170.3189199999999
 32
0.0
 13
225.6229919999999
 23
170.3189199999999
 33
0.0
  0
MTEXT
  5
541
330
53B
100
AcDbEntity
  8
0
  6
ByBlock
 62
     0
100
AcDbMText
 10
228.0
 20
157.5
 30
0.0
 40
3.5
 41
0.0
 71
     5
 72
     1
  1
\A1;15°
 11
0.1047029516154684
 21
-0.9945035404275888
 31
0.0
 73
     1
 44
1.0
  0
POINT
  5
542
330
53B
100
AcDbEntity
  8
DEFPOINTS
  6
ByBlock
 62
     0
100
AcDbPoint
 10
227.1935319999999
 20
163.2346729999999
 30
0.0
  0
POINT
  5
543
330
53B
100
AcDbEntity
  8
DEFPOINTS
  6
ByBlock
 62
     0
100
AcDbPoint
 10
206.620974
 20
165.2273449999999
 30
0.0
  0
POINT
  5
544
330
53B
100
AcDbEntity
  8
DEFPOINTS
  6
ByBlock
 62
     0
100
AcDbPoint
 10
200.9365659999999
 20
148.791158
 30
0.0
  0
POINT
  5
545
330
53B
100
AcDbEntity
  8
DEFPOINTS
  6
ByBlock
 62
     0
100
AcDbPoint
 10
207.686566
 20
148.791158
 30
0.0
  0
POINT
  5
546
330
53B
100
AcDbEntity
  8
DEFPOINTS
  6
ByBlock
 62
     0
100
AcDbPoint
 10
237.87357
 20
173.601453
 30
0.0
  0
ENDBLK
  5
548
330
53B
100
AcDbEntity
  8
0
100
AcDbBlockEnd
  0
BLOCK
  5
5F0
330
54A
100
AcDbEntity
  8
0
100
AcDbBlockBegin
  2
A$C58EF1902
 70
     0
 10
0.0
 20
0.0
 30
0.0
  3
A$C58EF1902
  1

  0
DIMENSION
  5
54B
330
54A
100
AcDbEntity
  8
0
100
AcDbDimension
  2
*D23
 10
136.789856
 20
95.14279499999998
 30
7.460285
 11
99.64462799999999
 21
107.064937
 31
7.460285
 12
-49.884411
 22
-105.973452
 32
7.460285
 70
   131
 71
     5
 42
-1.0
  3
STANDARD
100
AcDbDiametricDimension
 15
123.441321
 25
100.8055339999999
 35
7.460285
 40
0.0
1001
ACAD
1000
DSTYLE
1002
{
1070
   140
1040
3.5
1070
    77
1070
     0
1070
    40
1040
1.0
1070
   141
1040
0.0
1070
    41
1040
2.0
1002
}
  0
DIMENSION
  5
54C
330
54A
100
AcDbEntity
  8
0
100
AcDbDimension
  2
*D22
 10
136.865589
 20
1.75
 30
7.460285
 11
130.1155889999999
 21
1.75
 31
7.460285
 12
-49.884411
 22
-105.248812
 32
7.460285
 70
   128
  1
%%C13.5
 71
     5
 42
-1.0
  3
STANDARD
100
AcDbAlignedDimension
 13
123.3655889999999
 23
29.951188
 33
7.460285
 14
136.865589
 24
29.951188
 34
7.460285
100
AcDbRotatedDimension
1001
ACAD
1000
DSTYLE
1002
{
1070
   140
1040
3.5
1070
    77
1070
     0
1070
    40
1040
1.0
1070
   141
1040
0.0
1070
    41
1040
2.0
1002
}
  0
LINE
  5
54D
330
54A
100
AcDbEntity
  8
3
100
AcDbLine
 10
130.1155889999999
 20
29.026548
 30
7.460285
 11
123.3655889999999
 21
29.026548
 31
7.460285
  0
LINE
  5
54E
330
54A
100
AcDbEntity
  8
3
100
AcDbLine
 10
135.7999969999999
 20
45.462734
 30
7.460285
 11
122.880704
 21
45.462734
 31
7.460285
  0
ELLIPSE
  5
54F
330
54A
100
AcDbEntity
  8
3
100
AcDbEllipse
 10
129.9130839999999
 20
97.96189100000001
 30
7.460285
 11
0.0
 21
-6.989323423775719
 31
0.0
210
0.0
220
0.0
230
1.0
 40
0.9625929999999998
 41
1.644155871794094
 42
7.784143275053856
  0
ARC
  5
550
330
54A
100
AcDbEntity
  8
3
100
AcDbCircle
 10
130.1155889999999
 20
97.974165
 30
7.460285
 40
7.25
100
AcDbArc
 50
38.366514
 51
321.6334859999999
  0
DIMENSION
  5
551
330
54A
100
AcDbEntity
  8
0
100
AcDbDimension
  2
*D17
 10
132.12888
 20
96.10089000000002
 30
7.460285
 11
104.8083099999999
 21
114.1940979999999
 31
7.460285
 12
-49.884411
 22
-123.525835
 32
7.460285
 70
   131
 71
     5
 42
-1.0
  3
STANDARD
100
AcDbDiametricDimension
 15
128.1022979999999
 25
99.84744
 35
7.460285
 40
0.0
1001
ACAD
1000
DSTYLE
1002
{
1070
   140
1040
3.5
1070
    77
1070
     0
1070
    40
1040
1.0
1070
   141
1040
0.0
1070
    41
1040
2.0
1002
}
  0
DIMENSION
  5
552
330
54A
100
AcDbEntity
  8
0
100
AcDbDimension
  2
*D16
 10
132.2029169999999
 20
94.561972
 30
7.460285
 11
111.312176
 21
119.653374
 31
7.460285
 12
-49.884411
 22
-123.525835
 32
7.460285
 70
   131
 71
     5
 42
-1.0
  3
STANDARD
100
AcDbDiametricDimension
 15
128.02826
 25
101.3863569999999
 35
7.460285
 40
0.0
1001
ACAD
1000
DSTYLE
1002
{
1070
   140
1040
3.5
1070
    77
1070
     0
1070
    40
1040
1.0
1070
   141
1040
0.0
1070
    41
1040
2.0
1002
}
  0
DIMENSION
  5
553
330
54A
100
AcDbEntity
  8
0
100
AcDbDimension
  2
*D14
 10
124.8655889999999
 20
7.874108999999999
 30
7.460285
 11
130.1155889999999
 21
7.874108999999999
 31
7.460285
 12
-49.884411
 22
-108.250891
 32
7.460285
 70
   128
 71
     5
 42
-1.0
  3
STANDARD
100
AcDbAlignedDimension
 13
135.3655889999999
 23
29.749109
 33
7.460285
 14
124.8655889999999
 24
29.749109
 34
7.460285
100
AcDbRotatedDimension
1001
ACAD
1000
DSTYLE
1002
{
1070
   140
1040
3.5
1070
    77
1070
     0
1070
    40
1040
1.0
1070
   141
1040
0.0
1070
    41
1040
2.0
1002
}
  0
DIMENSION
  5
554
330
54A
100
AcDbEntity
  8
0
100
AcDbDimension
  2
*D13
 10
135.1655889999999
 20
13.334793
 30
7.460285
 11
148.4226299999999
 21
13.334793
 31
7.460285
 12
-49.884411
 22
-108.872011
 32
7.460285
 70
   128
  1
%%C10.1
 71
     5
 42
-1.0
  3
STANDARD
100
AcDbAlignedDimension
 13
125.0655889999999
 23
30.127989
 33
7.460285
 14
135.1655889999999
 24
30.127989
 34
7.460285
100
AcDbRotatedDimension
1001
ACAD
1000
DSTYLE
1002
{
1070
   140
1040
3.5
1070
    77
1070
     0
1070
    40
1040
1.0
1070
   141
1040
0.0
1070
    41
1040
2.0
1002
}
  0
LINE
  5
555
330
54A
100
AcDbEntity
  8
2
100
AcDbLine
 10
135.1655889999999
 20
38.52654799999999
 30
7.460285
 11
125.0655889999999
 21
38.52654799999999
 31
7.460285
  0
LINE
  5
556
330
54A
100
AcDbEntity
  8
2
100
AcDbLine
 10
130.1155889999999
 20
30.026548
 30
7.460285
 11
125.0655889999999
 21
30.026548
 31
7.460285
  0
LINE
  5
557
330
54A
100
AcDbEntity
  8
2
100
AcDbLine
 10
130.1155889999999
 20
42.026548
 30
7.460285
 11
126.6155889999999
 21
42.026548
 31
7.460285
  0
LINE
  5
558
330
54A
100
AcDbEntity
  8
2
100
AcDbLine
 10
125.5655889999999
 20
40.526548
 30
7.460285
 11
134.6655889999999
 21
40.526548
 31
7.460285
  0
CIRCLE
  5
559
330
54A
100
AcDbEntity
  8
3
100
AcDbCircle
 10
130.1155889999999
 20
97.974165
 30
7.460285
 40
4.0
  0
LINE
  5
55A
330
54A
100
AcDbEntity
  8
1
100
AcDbLine
 10
119.490357
 20
97.974165
 30
7.460285
 11
172.744439
 21
97.974165
 31
7.460285
  0
LINE
  5
55B
330
54A
100
AcDbEntity
  8
3
100
AcDbLine
 10
123.7781259999999
 20
46.900226
 30
7.460285
 11
136.6409459999999
 21
50.346809
 31
7.460285
  0
DIMENSION
  5
55C
330
54A
100
AcDbEntity
  8
0
100
AcDbDimension
  2
*D24
 10
20.76016099999999
 20
48.943602
 30
7.460285
 11
30.28416299999999
 21
6.065339999999999
 31
7.460285
 12
-70.820977
 22
-118.514611
 32
7.460285
 70
   130
 71
     5
 42
-1.0
  3
STANDARD
100
AcDb2LineAngularDimension
 13
35.100473
 23
46.712734
 33
7.460285
 14
34.971016
 24
48.943602
 34
7.460285
 15
20.630704
 25
46.712734
 35
7.460285
 16
24.671143
 26
6.078511999999999
 36
7.460285
1001
ACAD
1000
DSTYLE
1002
{
1070
   140
1040
3.5
1070
    77
1070
     0
1070
    40
1040
1.0
1070
   141
1040
0.0
1070
    41
1040
2.0
1002
}
  0
DIMENSION
  5
55D
330
54A
100
AcDbEntity
  8
0
100
AcDbDimension
  2
*D18
 10
20.630704
 20
45.462734
 30
7.460285
 11
29.136167
 21
16.072485
 31
7.460285
 12
-49.884411
 22
-105.973452
 32
7.460285
 70
   130
 71
     5
 42
-1.0
  3
STANDARD
100
AcDb2LineAngularDimension
 13
34.61558899999999
 23
29.226548
 33
7.460285
 14
35.100473
 24
45.462734
 34
7.460285
 15
21.11558899999999
 25
29.226548
 35
7.460285
 16
25.747162
 26
16.06573599999999
 36
7.460285
1001
ACAD
1000
DSTYLE
1002
{
1070
   140
1040
3.5
1070
    77
1070
     0
1070
    40
1040
1.0
1070
   141
1040
0.0
1070
    41
1040
2.0
1002
}
  0
MTEXT
  5
55E
102
{ACAD_REACTORS
330
57E
102
}
330
54A
100
AcDbEntity
  8
0
100
AcDbMText
 10
9.516786999999998
 20
19.112628
 30
7.460285
 40
3.5
 41
0.0
 71
     6
 72
     1
  1
\A1;C0.5
 73
     1
 44
1.0
  0
DIMENSION
  5
55F
330
54A
100
AcDbEntity
  8
0
100
AcDbDimension
  2
*D26
 10
86.67902299999999
 20
29.026548
 30
7.460285
 11
86.67902299999999
 21
37.24464099999999
 31
7.460285
 12
-70.820977
 22
-119.764611
 32
7.460285
 70
   128
 71
     5
 42
-1.0
  3
STANDARD
100
AcDbAlignedDimension
 13
122.880704
 23
45.462734
 33
7.460285
 14
123.3655889999999
 24
29.026548
 34
7.460285
 50
90.0
100
AcDbRotatedDimension
1001
ACAD
1000
DSTYLE
1002
{
1070
   140
1040
3.5
1070
    77
1070
     0
1070
    40
1040
1.0
1070
   141
1040
0.0
1070
    41
1040
2.0
1002
}
  0
LINE
  5
560
330
54A
100
AcDbEntity
  8
3
100
AcDbLine
 10
20.630704
 20
45.462734
 30
7.460285
 11
20.76016099999999
 21
47.693602
 31
7.460285
  0
LINE
  5
561
330
54A
100
AcDbEntity
  8
3
100
AcDbLine
 10
35.100473
 20
45.462734
 30
7.460285
 11
34.971016
 21
47.693602
 31
7.460285
  0
DIMENSION
  5
562
330
54A
100
AcDbEntity
  8
0
100
AcDbDimension
  2
*D19
 10
124.4807039999999
 20
45.462734
 30
7.460285
 11
96.90911899999999
 21
62.23440799999999
 31
7.460285
 12
-49.884411
 22
-105.973452
 32
7.460285
 70
   132
 71
     5
 42
-1.0
  3
STANDARD
100
AcDbRadialDimension
 15
123.247724
 25
46.48241999999999
 35
7.460285
 40
0.0
1001
ACAD
1000
DSTYLE
1002
{
1070
   140
1040
3.5
1070
    77
1070
     0
1070
    40
1040
1.0
1070
   141
1040
0.0
1070
    41
1040
2.0
1002
}
  0
LINE
  5
563
330
54A
100
AcDbEntity
  8
3
100
AcDbLine
 10
34.61558899999999
 20
29.026548
 30
7.460285
 11
35.100473
 21
45.462734
 31
7.460285
  0
LINE
  5
564
330
54A
100
AcDbEntity
  8
3
100
AcDbLine
 10
21.11558899999999
 20
29.026548
 30
7.460285
 11
20.630704
 21
45.462734
 31
7.460285
  0
LINE
  5
565
330
54A
100
AcDbEntity
  8
3
100
AcDbLine
 10
123.3655889999999
 20
29.026548
 30
7.460285
 11
122.880704
 21
45.462734
 31
7.460285
  0
LINE
  5
566
330
54A
100
AcDbEntity
  8
3
100
AcDbLine
 10
27.865589
 20
45.462734
 30
7.460285
 11
35.100473
 21
45.462734
 31
7.460285
  0
LINE
  5
567
330
54A
100
AcDbEntity
  8
3
100
AcDbLine
 10
27.865589
 20
45.462734
 30
7.460285
 11
20.630704
 21
45.462734
 31
7.460285
  0
ARC
  5
568
330
54A
100
AcDbEntity
  8
3
100
AcDbCircle
 10
124.4807039999999
 20
45.462734
 30
7.460285
 40
1.6
100
AcDbArc
 50
116.047212
 51
180.0
  0
ARC
  5
569
330
54A
100
AcDbEntity
  8
3
100
AcDbCircle
 10
27.865589
 20
53.680804
 30
7.460285
 40
4.502705
100
AcDbArc
 50
1.985946
 51
178.014054
  0
LINE
  5
56A
330
54A
100
AcDbEntity
  8
1
100
AcDbLine
 10
27.865589
 20
51.438938
 30
7.460285
 11
27.865589
 21
59.95984499999999
 31
7.460285
  0
ELLIPSE
  5
56B
330
54A
100
AcDbEntity
  8
3
100
AcDbEllipse
 10
27.865589
 20
48.52682399999999
 30
7.460285
 11
-6.726268523018858
 21
0.0
 31
0.0
210
0.0
220
0.0
230
1.0
 40
0.270579
 41
0.0
 42
6.283185307179585
  0
LINE
  5
56C
330
54A
100
AcDbEntity
  8
3
100
AcDbLine
 10
27.865589
 20
29.026548
 30
7.460285
 11
34.61558899999999
 21
29.026548
 31
7.460285
  0
LINE
  5
56D
330
54A
100
AcDbEntity
  8
1
100
AcDbLine
 10
27.865589
 20
28.068989
 30
7.460285
 11
27.865589
 21
51.438938
 31
7.460285
  0
LINE
  5
56E
330
54A
100
AcDbEntity
  8
3
100
AcDbLine
 10
27.865589
 20
29.026548
 30
7.460285
 11
21.11558899999999
 21
29.026548
 31
7.460285
  0
ELLIPSE
  5
56F
330
54A
100
AcDbEntity
  8
3
100
AcDbEllipse
 10
27.865589
 20
48.531357
 30
7.460285
 11
-3.5
 21
0.0
 31
0.0
210
0.0
220
0.0
230
1.0
 40
0.2870880000000001
 41
0.0
 42
6.283185307179585
  0
LINE
  5
570
330
54A
100
AcDbEntity
  8
3
100
AcDbLine
 10
23.36558899999999
 20
53.83684200000001
 30
7.460285
 11
23.36558899999999
 21
50.052775
 31
7.460285
  0
LINE
  5
571
330
54A
100
AcDbEntity
  8
3
100
AcDbLine
 10
23.36558899999999
 20
50.052775
 30
7.460285
 11
23.36558899999999
 21
49.879519
 31
7.460285
  0
ARC
  5
572
330
54A
100
AcDbEntity
  8
3
100
AcDbCircle
 10
27.867802
 20
51.657364
 30
7.460285
 40
1.106935
100
AcDbArc
 50
19.043492
 51
161.718975
  0
LINE
  5
573
330
54A
100
AcDbEntity
  8
3
100
AcDbLine
 10
32.365589
 20
53.83684200000001
 30
7.460285
 11
32.365589
 21
50.052775
 31
7.460285
  0
ARC
  5
574
330
54A
100
AcDbEntity
  8
3
100
AcDbCircle
 10
27.843784
 20
55.26698299999999
 30
7.460285
 40
3.420244
100
AcDbArc
 50
278.953154
 51
288.237218
  0
ARC
  5
575
330
54A
100
AcDbEntity
  8
3
100
AcDbCircle
 10
27.839357
 20
54.516983
 30
7.460285
 40
3.420244
100
AcDbArc
 50
279.068291
 51
288.237218
  0
ARC
  5
576
330
54A
100
AcDbEntity
  8
3
100
AcDbCircle
 10
27.843784
 20
55.26698299999999
 30
7.460285
 40
3.420244
100
AcDbArc
 50
252.525249
 51
261.561795
  0
ARC
  5
577
330
54A
100
AcDbEntity
  8
3
100
AcDbCircle
 10
27.839357
 20
54.516983
 30
7.460285
 40
3.420244
100
AcDbArc
 50
252.525249
 51
261.6793589999999
  0
ARC
  5
578
330
54A
100
AcDbEntity
  8
3
100
AcDbCircle
 10
27.863375
 20
50.907364
 30
7.460285
 40
1.106935
100
AcDbArc
 50
19.043492
 51
161.718975
  0
ARC
  5
579
330
54A
100
AcDbEntity
  8
3
100
AcDbCircle
 10
27.867802
 20
50.157364
 30
7.460285
 40
1.106935
100
AcDbArc
 50
19.043492
 51
161.718975
  0
ARC
  5
57A
330
54A
100
AcDbEntity
  8
3
100
AcDbCircle
 10
27.843784
 20
53.766983
 30
7.460285
 40
3.420244
100
AcDbArc
 50
252.525249
 51
288.237218
  0
LINE
  5
57B
330
54A
100
AcDbEntity
  8
3
100
AcDbLine
 10
32.365589
 20
50.052775
 30
7.460285
 11
32.365589
 21
49.879519
 31
7.460285
  0
LINE
  5
57C
330
54A
100
AcDbEntity
  8
2
100
AcDbLine
 10
32.915589
 20
40.026548
 30
7.460285
 11
32.915589
 21
30.026548
 31
7.460285
  0
LINE
  5
57D
330
54A
100
AcDbEntity
  8
2
100
AcDbLine
 10
22.815589
 20
30.026548
 30
7.460285
 11
22.815589
 21
40.026548
 31
7.460285
  0
LEADER
  5
57E
330
54A
100
AcDbEntity
  8
0
100
AcDbLeader
  3
STANDARD
 73
     0
 40
3.5
 41
9.916667
 76
     3
 10
20.681792
 20
28.81064
 30
7.460285
 10
10.965225
 20
19.112628
 30
7.460285
 10
9.606786999999998
 20
19.112628
 30
7.460285
340
55E
1001
ACAD
1000
DSTYLE
1002
{
1070
   140
1040
3.5
1070
    77
1070
     0
1070
    40
1040
1.0
1070
   141
1040
0.0
1070
    41
1040
2.0
1002
}
  0
LINE
  5
57F
330
54A
100
AcDbEntity
  8
2
100
AcDbLine
 10
27.865589
 20
30.026548
 30
7.460285
 11
22.815589
 21
30.026548
 31
7.460285
  0
LINE
  5
580
330
54A
100
AcDbEntity
  8
2
100
AcDbLine
 10
22.815589
 20
30.026548
 30
7.460285
 11
22.615589
 21
29.026548
 31
7.460285
  0
LINE
  5
581
330
54A
100
AcDbEntity
  8
2
100
AcDbLine
 10
27.865589
 20
30.026548
 30
7.460285
 11
32.915589
 21
30.026548
 31
7.460285
  0
LINE
  5
582
330
54A
100
AcDbEntity
  8
2
100
AcDbLine
 10
32.915589
 20
30.026548
 30
7.460285
 11
33.115589
 21
29.026548
 31
7.460285
  0
LINE
  5
583
330
54A
100
AcDbEntity
  8
2
100
AcDbLine
 10
24.365589
 20
42.026548
 30
7.460285
 11
24.365589
 21
48.531357
 31
7.460285
  0
LINE
  5
584
330
54A
100
AcDbEntity
  8
2
100
AcDbLine
 10
31.365589
 20
42.026548
 30
7.460285
 11
31.365589
 21
48.531357
 31
7.460285
  0
LINE
  5
585
330
54A
100
AcDbEntity
  8
2
100
AcDbLine
 10
27.865589
 20
42.026548
 30
7.460285
 11
24.365589
 21
42.026548
 31
7.460285
  0
LINE
  5
586
330
54A
100
AcDbEntity
  8
2
100
AcDbLine
 10
32.915589
 20
38.52654799999999
 30
7.460285
 11
22.815589
 21
38.52654799999999
 31
7.460285
  0
LINE
  5
587
330
54A
100
AcDbEntity
  8
2
100
AcDbLine
 10
23.315589
 20
40.526548
 30
7.460285
 11
32.415589
 21
40.526548
 31
7.460285
  0
LINE
  5
588
330
54A
100
AcDbEntity
  8
2
100
AcDbLine
 10
25.365589
 20
42.026548
 30
7.460285
 11
25.365589
 21
40.526548
 31
7.460285
  0
LINE
  5
589
330
54A
100
AcDbEntity
  8
2
100
AcDbLine
 10
22.815589
 20
40.524477
 30
7.460285
 11
23.440151
 21
40.524477
 31
7.460285
  0
LINE
  5
58A
330
54A
100
AcDbEntity
  8
2
100
AcDbLine
 10
22.815589
 20
40.026548
 30
7.460285
 11
22.815589
 21
40.524477
 31
7.460285
  0
LINE
  5
58B
330
54A
100
AcDbEntity
  8
2
100
AcDbLine
 10
26.365589
 20
40.526548
 30
7.460285
 11
26.365589
 21
38.52654799999999
 31
7.460285
  0
LINE
  5
58C
330
54A
100
AcDbEntity
  8
2
100
AcDbLine
 10
25.365589
 20
40.526548
 30
7.460285
 11
25.365589
 21
38.52654799999999
 31
7.460285
  0
LINE
  5
58D
330
54A
100
AcDbEntity
  8
2
100
AcDbLine
 10
24.365589
 20
40.526548
 30
7.460285
 11
24.365589
 21
38.52654799999999
 31
7.460285
  0
LINE
  5
58E
330
54A
100
AcDbEntity
  8
2
100
AcDbLine
 10
23.36558899999999
 20
40.526548
 30
7.460285
 11
23.36558899999999
 21
38.52654799999999
 31
7.460285
  0
LINE
  5
58F
330
54A
100
AcDbEntity
  8
2
100
AcDbLine
 10
30.365589
 20
42.026548
 30
7.460285
 11
30.365589
 21
40.526548
 31
7.460285
  0
LINE
  5
590
330
54A
100
AcDbEntity
  8
2
100
AcDbLine
 10
32.915589
 20
40.524477
 30
7.460285
 11
32.286802
 21
40.524477
 31
7.460285
  0
LINE
  5
591
330
54A
100
AcDbEntity
  8
2
100
AcDbLine
 10
32.915589
 20
40.026548
 30
7.460285
 11
32.915589
 21
40.524477
 31
7.460285
  0
LINE
  5
592
330
54A
100
AcDbEntity
  8
2
100
AcDbLine
 10
29.36558899999999
 20
40.526548
 30
7.460285
 11
29.36558899999999
 21
38.52654799999999
 31
7.460285
  0
LINE
  5
593
330
54A
100
AcDbEntity
  8
2
100
AcDbLine
 10
28.36558899999999
 20
40.526548
 30
7.460285
 11
28.36558899999999
 21
38.52654799999999
 31
7.460285
  0
LINE
  5
594
330
54A
100
AcDbEntity
  8
2
100
AcDbLine
 10
27.365589
 20
40.526548
 30
7.460285
 11
27.365589
 21
38.52654799999999
 31
7.460285
  0
LINE
  5
595
330
54A
100
AcDbEntity
  8
2
100
AcDbLine
 10
32.365589
 20
40.526548
 30
7.460285
 11
32.365589
 21
38.52654799999999
 31
7.460285
  0
LINE
  5
596
330
54A
100
AcDbEntity
  8
2
100
AcDbLine
 10
31.365589
 20
40.526548
 30
7.460285
 11
31.365589
 21
38.52654799999999
 31
7.460285
  0
LINE
  5
597
330
54A
100
AcDbEntity
  8
2
100
AcDbLine
 10
30.365589
 20
40.526548
 30
7.460285
 11
30.365589
 21
38.52654799999999
 31
7.460285
  0
LINE
  5
598
330
54A
100
AcDbEntity
  8
2
100
AcDbLine
 10
27.865589
 20
42.026548
 30
7.460285
 11
31.365589
 21
42.026548
 31
7.460285
  0
ARC
  5
599
330
54A
100
AcDbEntity
  8
3
100
AcDbCircle
 10
22.459143
 20
47.666691
 30
7.460285
 40
1.699195
100
AcDbArc
 50
135.3256129999999
 51
179.092537
  0
ARC
  5
59A
330
54A
100
AcDbEntity
  8
3
100
AcDbCircle
 10
33.272034
 20
47.666691
 30
7.460285
 40
1.699195
100
AcDbArc
 50
0.907463
 51
44.674387
  0
DIMENSION
  5
59B
330
54A
100
AcDbEntity
  8
0
100
AcDbDimension
  2
*D27
 10
79.929023
 20
29.026548
 30
7.460285
 11
79.929023
 21
37.48538899999999
 31
7.460285
 12
-70.820977
 22
-119.764611
 32
7.460285
 70
   128
 71
     5
 42
-1.0
  3
STANDARD
100
AcDbAlignedDimension
 13
122.429023
 23
46.485389
 33
7.460285
 14
123.3655889999999
 24
29.026548
 34
7.460285
 50
90.0
100
AcDbRotatedDimension
1001
ACAD
1000
DSTYLE
1002
{
1070
   140
1040
3.5
1070
    77
1070
     0
1070
    40
1040
1.0
1070
   141
1040
0.0
1070
    41
1040
2.0
1002
}
  0
DIMENSION
  5
59C
330
54A
100
AcDbEntity
  8
0
100
AcDbDimension
  2
*D25
 10
93.92902300000001
 20
29.026548
 30
7.460285
 11
93.92902300000001
 21
34.235389
 31
7.460285
 12
-70.820977
 22
-119.764611
 32
7.460285
 70
   128
 71
     5
 42
-1.0
  3
STANDARD
100
AcDbAlignedDimension
 13
125.0655889999999
 23
38.52654799999999
 33
7.460285
 14
123.3655889999999
 24
29.026548
 34
7.460285
 50
90.0
100
AcDbRotatedDimension
1001
ACAD
1000
DSTYLE
1002
{
1070
   140
1040
3.5
1070
    77
1070
     0
1070
    40
1040
1.0
1070
   141
1040
0.0
1070
    41
1040
2.0
1002
}
  0
DIMENSION
  5
59D
330
54A
100
AcDbEntity
  8
0
100
AcDbDimension
  2
*D21
 10
104.261344
 20
38.52654799999999
 30
7.460285
 11
100.469677
 21
34.52654799999999
 31
7.460285
 12
-49.884411
 22
-106.473452
 32
7.460285
 70
   128
  1
2
 71
     5
 42
-1.0
  3
STANDARD
100
AcDbAlignedDimension
 13
125.0655889999999
 23
40.54157299999999
 33
7.460285
 14
125.0655889999999
 24
38.52654799999999
 34
7.460285
 50
90.0
100
AcDbRotatedDimension
1001
ACAD
1000
DSTYLE
1002
{
1070
   140
1040
3.5
1070
    77
1070
     0
1070
    40
1040
1.0
1070
   141
1040
0.0
1070
    41
1040
2.0
1002
}
  0
DIMENSION
  5
59E
330
54A
100
AcDbEntity
  8
0
100
AcDbDimension
  2
*D20
 10
116.3720639999999
 20
40.54157299999999
 30
7.460285
 11
110.8303969999999
 21
35.21604599999999
 31
7.460285
 12
-49.884411
 22
-106.473452
 32
7.460285
 70
   128
  1
1.5
 71
     5
 42
-1.0
  3
STANDARD
100
AcDbAlignedDimension
 13
126.6155889999999
 23
42.026548
 33
7.460285
 14
125.0655889999999
 24
40.54157299999999
 34
7.460285
 50
90.0
100
AcDbRotatedDimension
1001
ACAD
1000
DSTYLE
1002
{
1070
   140
1040
3.5
1070
    77
1070
     0
1070
    40
1040
1.0
1070
   141
1040
0.0
1070
    41
1040
2.0
1002
}
  0
LINE
  5
59F
330
54A
100
AcDbEntity
  8
2
100
AcDbLine
 10
125.0655889999999
 20
30.026548
 30
7.460285
 11
125.0655889999999
 21
40.026548
 31
7.460285
  0
MTEXT
  5
5A0
102
{ACAD_REACTORS
330
5A1
102
}
330
54A
100
AcDbEntity
  8
0
100
AcDbMText
 10
112.105959
 20
19.640159
 30
7.460285
 40
3.5
 41
0.0
 71
     6
 72
     1
  1
\A1;C0.5
 73
     1
 44
1.0
  0
LEADER
  5
5A1
330
54A
100
AcDbEntity
  8
0
100
AcDbLeader
  3
STANDARD
 73
     0
 40
3.5
 41
9.916667
 76
     3
 10
123.2709649999999
 20
29.338172
 30
7.460285
 10
113.554397
 20
19.640159
 30
7.460285
 10
112.195959
 20
19.640159
 30
7.460285
340
5A0
1001
ACAD
1000
DSTYLE
1002
{
1070
   140
1040
3.5
1070
    77
1070
     0
1070
    40
1040
1.0
1070
   141
1040
0.0
1070
    41
1040
2.0
1002
}
  0
LINE
  5
5A2
330
54A
100
AcDbEntity
  8
2
100
AcDbLine
 10
125.0655889999999
 20
30.026548
 30
7.460285
 11
124.8655889999999
 21
29.026548
 31
7.460285
  0
LINE
  5
5A3
330
54A
100
AcDbEntity
  8
2
100
AcDbLine
 10
126.6155889999999
 20
42.026548
 30
7.460285
 11
126.6155889999999
 21
47.526548
 31
7.460285
  0
LINE
  5
5A4
330
54A
100
AcDbEntity
  8
2
100
AcDbLine
 10
125.0655889999999
 20
40.54157299999999
 30
7.460285
 11
125.811711
 21
40.54157299999999
 31
7.460285
  0
LINE
  5
5A5
330
54A
100
AcDbEntity
  8
2
100
AcDbLine
 10
125.0655889999999
 20
40.026548
 30
7.460285
 11
125.0655889999999
 21
40.54157299999999
 31
7.460285
  0
LINE
  5
5A6
330
54A
100
AcDbEntity
  8
2
100
AcDbLine
 10
126.6155889999999
 20
40.526548
 30
7.460285
 11
126.6155889999999
 21
38.52654799999999
 31
7.460285
  0
LINE
  5
5A7
330
54A
100
AcDbEntity
  8
2
100
AcDbLine
 10
125.6155889999999
 20
40.526548
 30
7.460285
 11
125.6155889999999
 21
38.52654799999999
 31
7.460285
  0
ELLIPSE
  5
5A8
330
54A
100
AcDbEntity
  8
3
100
AcDbEllipse
 10
137.694647
 20
97.974165
 30
7.460285
 11
-1.053700676307868
 21
0.0
 31
0.0
210
0.0
220
0.0
230
1.0
 40
0.988217
 41
0.0
 42
6.283185307179585
  0
ELLIPSE
  5
5A9
330
54A
100
AcDbEntity
  8
3
100
AcDbEllipse
 10
139.840551
 20
97.974165
 30
7.460285
 11
-1.053700676307868
 21
0.0
 31
0.0
210
0.0
220
0.0
230
1.0
 40
0.988217
 41
0.0
 42
6.283185307179585
  0
ARC
  5
5AA
330
54A
100
AcDbEntity
  8
3
100
AcDbCircle
 10
126.927769
 20
97.974165
 30
7.460285
 40
9.713176999999999
100
AcDbArc
 50
2.950687999999999
 51
23.111086
  0
DIMENSION
  5
5AB
330
54A
100
AcDbEntity
  8
0
100
AcDbDimension
  2
*D15
 10
194.3630689999999
 20
93.47416499999999
 30
7.460285
 11
194.3630689999999
 21
97.65570600000001
 31
7.460285
 12
-49.884411
 22
-123.525835
 32
7.460285
 70
   128
  1
%%C9
 71
     5
 42
-1.0
  3
STANDARD
100
AcDbAlignedDimension
 13
167.052592
 23
102.4741649999999
 33
7.460285
 14
167.052592
 24
93.47416499999999
 34
7.460285
 50
90.0
100
AcDbRotatedDimension
1001
ACAD
1000
DSTYLE
1002
{
1070
   140
1040
3.5
1070
    77
1070
     0
1070
    40
1040
1.0
1070
   141
1040
0.0
1070
    41
1040
2.0
1002
}
  0
DIMENSION
  5
5AC
330
54A
100
AcDbEntity
  8
0
100
AcDbDimension
  2
*D11
 10
140.971171
 20
106.896024
 30
7.460285
 11
154.120239
 21
106.896024
 31
7.460285
 12
-51.362547
 22
-91.02583499999999
 32
7.460285
 70
   128
  1
6-2.1
 71
     5
 42
-1.0
  3
STANDARD
100
AcDbAlignedDimension
 13
143.078572
 23
97.974165
 33
7.460285
 14
140.971171
 24
97.974165
 34
7.460285
100
AcDbRotatedDimension
1001
ACAD
1000
DSTYLE
1002
{
1070
   140
1040
3.5
1070
    77
1070
     0
1070
    40
1040
1.0
1070
   141
1040
0.0
1070
    41
1040
2.0
1002
}
  0
CIRCLE
  5
5AD
330
54A
100
AcDbEntity
  8
3
100
AcDbCircle
 10
130.1155889999999
 20
97.974165
 30
7.460285
 40
2.75
  0
ARC
  5
5AE
330
54A
100
AcDbEntity
  8
3
100
AcDbCircle
 10
165.2785039999999
 20
97.974165
 30
7.460285
 40
4.837085
100
AcDbArc
 50
291.5164349999999
 51
68.483565
  0
ARC
  5
5AF
330
54A
100
AcDbEntity
  8
3
100
AcDbCircle
 10
179.532832
 20
97.974165
 30
7.460285
 40
13.644925
100
AcDbArc
 50
163.8700339999999
 51
196.129966
  0
LINE
  5
5B0
330
54A
100
AcDbEntity
  8
1
100
AcDbLine
 10
130.1155889999999
 20
86.366537
 30
7.460285
 11
130.1155889999999
 21
108.5964889999999
 31
7.460285
  0
DIMENSION
  5
5B1
330
54A
100
AcDbEntity
  8
0
100
AcDbDimension
  2
*D31
 10
167.052592
 20
53.83684200000001
 30
7.460285
 11
157.1790229999999
 21
37.735389
 31
7.460285
 12
-70.820977
 22
-119.764611
 32
7.460285
 70
   130
 71
     5
 42
-1.0
  3
STANDARD
100
AcDb2LineAngularDimension
 13
130.1155889999999
 23
29.026548
 33
7.460285
 14
136.865589
 24
29.026548
 34
7.460285
 15
135.7999969999999
 25
45.462734
 35
7.460285
 16
156.372555
 26
43.470062
 36
7.460285
1001
ACAD
1000
DSTYLE
1002
{
1070
   140
1040
3.5
1070
    77
1070
     0
1070
    40
1040
1.0
1070
   141
1040
0.0
1070
    41
1040
2.0
1002
}
  0
DIMENSION
  5
5B2
330
54A
100
AcDbEntity
  8
0
100
AcDbDimension
  2
*D28
 10
150.9290229999999
 20
29.026548
 30
7.460285
 11
150.9290229999999
 21
35.10587899999999
 31
7.460285
 12
-70.820977
 22
-119.764611
 32
7.460285
 70
   128
 71
     5
 42
-1.0
  3
STANDARD
100
AcDbAlignedDimension
 13
137.2227269999999
 23
41.18521099999999
 33
7.460285
 14
136.865589
 24
29.026548
 34
7.460285
 50
90.0
100
AcDbRotatedDimension
1001
ACAD
1000
DSTYLE
1002
{
1070
   140
1040
3.5
1070
    77
1070
     0
1070
    40
1040
1.0
1070
   141
1040
0.0
1070
    41
1040
2.0
1002
}
  0
LINE
  5
5B3
330
54A
100
AcDbEntity
  8
3
100
AcDbLine
 10
136.865589
 20
29.026548
 30
7.460285
 11
137.2227269999999
 21
41.18521099999999
 31
7.460285
  0
LINE
  5
5B4
330
54A
100
AcDbEntity
  8
3
100
AcDbLine
 10
142.96315
 20
52.040838
 30
7.460285
 11
165.887907
 21
58.183508
 31
7.460285
  0
LINE
  5
5B5
330
54A
100
AcDbEntity
  8
3
100
AcDbLine
 10
161.895074
 20
47.796146
 30
7.460285
 11
137.2227269999999
 21
41.18521099999999
 31
7.460285
  0
LINE
  5
5B6
330
54A
100
AcDbEntity
  8
3
100
AcDbLine
 10
135.7999969999999
 20
45.462734
 30
7.460285
 11
167.052592
 21
53.83684200000001
 31
7.460285
  0
LINE
  5
5B7
330
54A
100
AcDbEntity
  8
1
100
AcDbLine
 10
127.617298
 20
43.27018699999999
 30
7.460285
 11
172.725504
 21
55.35689399999999
 31
7.460285
  0
ARC
  5
5B8
330
54A
100
AcDbEntity
  8
3
100
AcDbCircle
 10
141.4516689999999
 20
53.46696
 30
7.460285
 40
2.078075999999999
100
AcDbArc
 50
253.335603
 51
316.6643969999999
  0
ARC
  5
5B9
330
54A
100
AcDbEntity
  8
3
100
AcDbCircle
 10
142.0388589999999
 20
51.27553699999999
 30
7.460285
 40
1.199999999999999
100
AcDbArc
 50
39.624318
 51
170.375682
  0
ARC
  5
5BA
330
54A
100
AcDbEntity
  8
3
100
AcDbCircle
 10
145.48684
 20
46.309271
 30
7.460285
 40
9.723761999999998
100
AcDbArc
 50
155.4665879999999
 51
211.800465
  0
ARC
  5
5BB
330
54A
100
AcDbEntity
  8
3
100
AcDbCircle
 10
139.931458
 20
50.710861
 30
7.460285
 40
1.199999999999999
100
AcDbArc
 50
39.624318
 51
170.375682
  0
ARC
  5
5BC
330
54A
100
AcDbEntity
  8
3
100
AcDbCircle
 10
137.824056
 20
50.146184
 30
7.460285
 40
1.199999999999999
100
AcDbArc
 50
39.624318
 51
170.375682
  0
ARC
  5
5BD
330
54A
100
AcDbEntity
  8
3
100
AcDbCircle
 10
137.236866
 20
52.337607
 30
7.460285
 40
2.078075999999999
100
AcDbArc
 50
253.335603
 51
316.6643969999999
  0
ARC
  5
5BE
330
54A
100
AcDbEntity
  8
3
100
AcDbCircle
 10
139.3442679999999
 20
52.902284
 30
7.460285
 40
2.078075999999999
100
AcDbArc
 50
253.335603
 51
316.6643969999999
  0
ARC
  5
5BF
330
54A
100
AcDbEntity
  8
3
100
AcDbCircle
 10
126.927769
 20
97.974165
 30
7.460285
 40
9.713176999999999
100
AcDbArc
 50
336.888914
 51
357.049312
  0
ARC
  5
5C0
330
54A
100
AcDbEntity
  8
3
100
AcDbCircle
 10
136.305158
 20
93.775487
 30
7.460285
 40
0.588203
100
AcDbArc
 50
138.9725139999999
 51
210.815605
  0
ELLIPSE
  5
5C1
330
54A
100
AcDbEntity
  8
3
100
AcDbEllipse
 10
142.0248719999999
 20
97.974165
 30
7.460285
 11
-1.053700676307868
 21
0.0
 31
0.0
210
0.0
220
0.0
230
1.0
 40
0.988217
 41
0.0
 42
6.283185307179585
  0
DIMENSION
  5
5C2
330
54A
100
AcDbEntity
  8
0
100
AcDbDimension
  2
*D30
 10
190.929023
 20
53.83684200000001
 30
7.460285
 11
190.929023
 21
41.98538899999999
 31
7.460285
 12
-70.820977
 22
-119.764611
 32
7.460285
 70
   128
 71
     5
 42
-1.0
  3
STANDARD
100
AcDbAlignedDimension
 13
136.865589
 23
29.026548
 33
7.460285
 14
179.8407409999999
 24
53.83684200000001
 34
7.460285
 50
90.0
100
AcDbRotatedDimension
1001
ACAD
1000
DSTYLE
1002
{
1070
   140
1040
3.5
1070
    77
1070
     0
1070
    40
1040
1.0
1070
   141
1040
0.0
1070
    41
1040
2.0
1002
}
  0
DIMENSION
  5
5C3
330
54A
100
AcDbEntity
  8
0
100
AcDbDimension
  2
*D29
 10
196.179023
 20
29.026548
 30
7.460285
 11
196.179023
 21
43.485389
 31
7.460285
 12
-70.820977
 22
-119.764611
 32
7.460285
 70
   128
 71
     5
 42
-1.0
  3
STANDARD
100
AcDbAlignedDimension
 13
165.887907
 23
58.183508
 33
7.460285
 14
136.865589
 24
29.026548
 34
7.460285
 50
90.0
100
AcDbRotatedDimension
1001
ACAD
1000
DSTYLE
1002
{
1070
   140
1040
3.5
1070
    77
1070
     0
1070
    40
1040
1.0
1070
   141
1040
0.0
1070
    41
1040
2.0
1002
}
  0
DIMENSION
  5
5C4
330
54A
100
AcDbEntity
  8
0
100
AcDbDimension
  2
*D12
 10
170.0922669999999
 20
82.02654799999999
 30
7.460285
 11
149.6155889999999
 21
82.02654799999999
 31
7.460285
 12
-49.884411
 22
-105.973452
 32
7.460285
 70
   128
  1
40
 71
     5
 42
-1.0
  3
STANDARD
100
AcDbAlignedDimension
 13
130.1155889999999
 23
51.438938
 33
7.460285
 14
170.0922669999999
 24
53.83684200000001
 34
7.460285
100
AcDbRotatedDimension
1001
ACAD
1000
DSTYLE
1002
{
1070
   140
1040
3.5
1070
    77
1070
     0
1070
    40
1040
1.0
1070
   141
1040
0.0
1070
    41
1040
2.0
1002
}
  0
DIMENSION
  5
5C5
330
54A
100
AcDbEntity
  8
0
100
AcDbDimension
  2
*D10
 10
165.2414809999999
 20
53.351556
 30
7.460285
 11
145.0523259999999
 21
57.32979
 31
7.460285
 12
-49.884411
 22
-105.973452
 32
7.460285
 70
   132
 71
     5
 42
-1.0
  3
STANDARD
100
AcDbRadialDimension
 15
169.8037139999999
 25
51.633518
 35
7.460285
 40
0.0
1001
ACAD
1000
DSTYLE
1002
{
1070
   140
1040
3.5
1070
    77
1070
     0
1070
    40
1040
1.0
1070
   287
1070
     4
1070
   141
1040
0.0
1070
    41
1040
2.0
1002
}
  0
DIMENSION
  5
5C6
330
54A
100
AcDbEntity
  8
0
100
AcDbDimension
  2
*D9
 10
167.0411409999999
 20
49.67856499999999
 30
7.460285
 11
147.505477
 21
61.90257299999999
 31
7.460285
 12
-49.48225
 22
-105.879798
 32
7.460285
 70
   132
  1
6-R1.2
 71
     5
 42
-1.0
  3
STANDARD
100
AcDbRadialDimension
 15
167.7392909999999
 25
48.702559
 35
7.460285
 40
0.0
1001
ACAD
1000
DSTYLE
1002
{
1070
   140
1040
3.5
1070
    77
1070
     0
1070
    40
1040
1.0
1070
   287
1070
     4
1070
   141
1040
0.0
1070
    41
1040
2.0
1002
}
  0
DIMENSION
  5
5C7
330
54A
100
AcDbEntity
  8
0
100
AcDbDimension
  2
*D6
 10
162.731299
 20
69.964127
 30
7.460285
 11
164.1801879999999
 21
70.352356
 31
7.460285
 12
-49.884411
 22
-105.973452
 32
7.460285
 70
   129
 71
     5
 42
-1.0
  3
STANDARD
100
AcDbAlignedDimension
 13
169.9503699999999
 23
54.61329899999999
 33
7.460285
 14
167.052592
 24
53.83684200000001
 34
7.460285
1001
ACAD
1000
DSTYLE
1002
{
1070
   140
1040
4.0
1070
    77
1070
     0
1070
    40
1040
1.0
1070
   141
1040
0.0
1070
    41
1040
2.0
1002
}
  0
ARC
  5
5C8
330
54A
100
AcDbEntity
  8
3
100
AcDbCircle
 10
165.2414809999999
 20
53.351556
 30
7.460285
 40
4.875
100
AcDbArc
 50
307.619865
 51
82.38013499999999
  0
LINE
  5
5C9
330
54A
100
AcDbEntity
  8
3
100
AcDbLine
 10
165.887907
 20
58.183508
 30
7.460285
 11
168.2172779999999
 21
49.490176
 31
7.460285
  0
LINE
  5
5CA
330
54A
100
AcDbEntity
  8
1
100
AcDbLine
 10
130.1155889999999
 20
28.068989
 30
7.460285
 11
130.1155889999999
 21
51.438938
 31
7.460285
  0
LINE
  5
5CB
330
54A
100
AcDbEntity
  8
3
100
AcDbLine
 10
130.1155889999999
 20
29.026548
 30
7.460285
 11
136.865589
 21
29.026548
 31
7.460285
  0
LINE
  5
5CC
330
54A
100
AcDbEntity
  8
2
100
AcDbLine
 10
135.1655889999999
 20
30.026548
 30
7.460285
 11
135.1655889999999
 21
40.026548
 31
7.460285
  0
DIMENSION
  5
5CD
330
54A
100
AcDbEntity
  8
0
100
AcDbDimension
  2
*D8
 10
140.46333
 20
29.026548
 30
7.460285
 11
143.671663
 21
34.026548
 31
7.460285
 12
-49.884411
 22
-108.973452
 32
7.460285
 70
   128
 71
     5
 42
-1.0
  3
STANDARD
100
AcDbAlignedDimension
 13
135.1655889999999
 23
30.026548
 33
7.460285
 14
137.6155889999999
 24
29.026548
 34
7.460285
 50
90.0
100
AcDbRotatedDimension
1001
ACAD
1000
DSTYLE
1002
{
1070
   140
1040
3.5
1070
    77
1070
     0
1070
    40
1040
1.0
1070
   141
1040
0.0
1070
    41
1040
2.0
1002
}
  0
LINE
  5
5CE
330
54A
100
AcDbEntity
  8
2
100
AcDbLine
 10
130.1155889999999
 20
30.026548
 30
7.460285
 11
135.1655889999999
 21
30.026548
 31
7.460285
  0
LINE
  5
5CF
330
54A
100
AcDbEntity
  8
2
100
AcDbLine
 10
135.1655889999999
 20
30.026548
 30
7.460285
 11
135.3655889999999
 21
29.026548
 31
7.460285
  0
LINE
  5
5D0
330
54A
100
AcDbEntity
  8
2
100
AcDbLine
 10
133.615589
 20
42.026548
 30
7.460285
 11
133.615589
 21
49.536167
 31
7.460285
  0
LINE
  5
5D1
330
54A
100
AcDbEntity
  8
2
100
AcDbLine
 10
127.6155889999999
 20
42.026548
 30
7.460285
 11
127.6155889999999
 21
40.526548
 31
7.460285
  0
LINE
  5
5D2
330
54A
100
AcDbEntity
  8
2
100
AcDbLine
 10
132.615589
 20
42.026548
 30
7.460285
 11
132.615589
 21
40.526548
 31
7.460285
  0
LINE
  5
5D3
330
54A
100
AcDbEntity
  8
2
100
AcDbLine
 10
129.615589
 20
40.526548
 30
7.460285
 11
129.615589
 21
38.52654799999999
 31
7.460285
  0
LINE
  5
5D4
330
54A
100
AcDbEntity
  8
2
100
AcDbLine
 10
128.615589
 20
40.526548
 30
7.460285
 11
128.615589
 21
38.52654799999999
 31
7.460285
  0
LINE
  5
5D5
330
54A
100
AcDbEntity
  8
2
100
AcDbLine
 10
127.6155889999999
 20
40.526548
 30
7.460285
 11
127.6155889999999
 21
38.52654799999999
 31
7.460285
  0
LINE
  5
5D6
330
54A
100
AcDbEntity
  8
2
100
AcDbLine
 10
133.615589
 20
40.526548
 30
7.460285
 11
133.615589
 21
38.52654799999999
 31
7.460285
  0
LINE
  5
5D7
330
54A
100
AcDbEntity
  8
2
100
AcDbLine
 10
132.615589
 20
40.526548
 30
7.460285
 11
132.615589
 21
38.52654799999999
 31
7.460285
  0
LINE
  5
5D8
330
54A
100
AcDbEntity
  8
2
100
AcDbLine
 10
131.615589
 20
40.526548
 30
7.460285
 11
131.615589
 21
38.52654799999999
 31
7.460285
  0
LINE
  5
5D9
330
54A
100
AcDbEntity
  8
2
100
AcDbLine
 10
130.615589
 20
40.526548
 30
7.460285
 11
130.615589
 21
38.52654799999999
 31
7.460285
  0
LINE
  5
5DA
330
54A
100
AcDbEntity
  8
2
100
AcDbLine
 10
130.1155889999999
 20
42.026548
 30
7.460285
 11
133.615589
 21
42.026548
 31
7.460285
  0
LINE
  5
5DB
330
54A
100
AcDbEntity
  8
2
100
AcDbLine
 10
135.1655889999999
 20
40.54157299999999
 30
7.460285
 11
134.5670029999999
 21
40.54157299999999
 31
7.460285
  0
LINE
  5
5DC
330
54A
100
AcDbEntity
  8
2
100
AcDbLine
 10
135.1655889999999
 20
40.026548
 30
7.460285
 11
135.1655889999999
 21
40.54157299999999
 31
7.460285
  0
LINE
  5
5DD
330
54A
100
AcDbEntity
  8
2
100
AcDbLine
 10
134.615589
 20
40.526548
 30
7.460285
 11
134.615589
 21
38.52654799999999
 31
7.460285
  0
LINE
  5
5DE
330
54A
100
AcDbEntity
  8
0
100
AcDbLine
 10
170.0922669999999
 20
53.83684200000001
 30
7.460285
 11
179.8407409999999
 21
53.83684200000001
 31
7.460285
  0
DIMENSION
  5
5DF
330
54A
100
AcDbEntity
  8
0
100
AcDbDimension
  2
*D7
 10
173.7417889999999
 20
49.89776299999999
 30
7.460285
 11
180.469206
 21
45.998966
 31
7.460285
 12
-49.884411
 22
-105.973452
 32
7.460285
 70
   129
  1
0.7
 71
     5
 42
-1.0
  3
STANDARD
100
AcDbAlignedDimension
 13
168.2172779999999
 23
49.490176
 33
7.460285
 14
168.404492
 24
48.673797
 34
7.460285
1001
ACAD
1000
DSTYLE
1002
{
1070
   140
1040
3.5
1070
    77
1070
     0
1070
    40
1040
1.0
1070
   141
1040
0.0
1070
    41
1040
2.0
1002
}
  0
LINE
  5
5E0
330
54A
100
AcDbEntity
  8
0
100
AcDbLine
 10
161.963019
 20
51.51810600000001
 30
7.460285
 11
163.284911
 21
46.584738
 31
7.460285
  0
LINE
  5
5E1
330
54A
100
AcDbEntity
  8
0
100
AcDbLine
 10
164.174907
 20
52.053275
 30
7.460285
 11
165.496799
 21
47.119907
 31
7.460285
  0
ARC
  5
5E2
330
54A
100
AcDbEntity
  8
3
100
AcDbCircle
 10
165.513957
 20
46.934701
 30
7.460285
 40
2.078075999999999
100
AcDbArc
 50
73.33560300000001
 51
136.664397
  0
ARC
  5
5E3
330
54A
100
AcDbEntity
  8
3
100
AcDbCircle
 10
164.9267659999999
 20
49.126124
 30
7.460285
 40
1.199999999999999
100
AcDbArc
 50
219.624318
 51
350.3756819999999
  0
ARC
  5
5E4
330
54A
100
AcDbEntity
  8
3
100
AcDbCircle
 10
163.406555
 20
46.370024
 30
7.460285
 40
2.078075999999999
100
AcDbArc
 50
73.33560300000001
 51
136.664397
  0
ARC
  5
5E5
330
54A
100
AcDbEntity
  8
3
100
AcDbCircle
 10
162.819365
 20
48.56144699999999
 30
7.460285
 40
1.199999999999999
100
AcDbArc
 50
219.624318
 51
350.3756819999999
  0
LINE
  5
5E6
330
54A
100
AcDbEntity
  8
0
100
AcDbLine
 10
166.3219139999999
 20
52.552636
 30
7.460285
 11
167.643806
 21
47.619268
 31
7.460285
  0
ARC
  5
5E7
330
54A
100
AcDbEntity
  8
3
100
AcDbCircle
 10
167.621358
 20
47.499377
 30
7.460285
 40
2.078075999999999
100
AcDbArc
 50
73.33560300000001
 51
136.664397
  0
ARC
  5
5E8
330
54A
100
AcDbEntity
  8
3
100
AcDbCircle
 10
167.0341679999999
 20
49.6908
 30
7.460285
 40
1.199999999999999
100
AcDbArc
 50
219.624318
 51
350.3756819999999
  0
LINE
  5
5E9
330
54A
100
AcDbEntity
  8
3
100
AcDbLine
 10
167.052592
 20
53.83684200000001
 30
7.460285
 11
170.0922669999999
 21
53.83684200000001
 31
7.460285
  0
TEXT
  5
5EA
330
54A
100
AcDbEntity
  8
0
100
AcDbText
 10
176.960454
 20
48.421952
 30
7.460285
 40
5.0
  1
ﾐｷﾘ
 41
0.7
  7
BIGFONT
100
AcDbText
  0
LINE
  5
5EB
330
54A
100
AcDbEntity
  8
3
100
AcDbLine
 10
167.052592
 20
93.47416499999999
 30
7.460285
 11
135.7999969999999
 21
93.47416499999999
 31
7.460285
  0
ARC
  5
5EC
330
54A
100
AcDbEntity
  8
3
100
AcDbCircle
 10
167.545663
 20
94.54269899999999
 30
7.460285
 40
1.176811
100
AcDbArc
 50
197.7786219999999
 51
245.229221
  0
ARC
  5
5ED
330
54A
100
AcDbEntity
  8
3
100
AcDbCircle
 10
136.305158
 20
102.172842
 30
7.460285
 40
0.588203
100
AcDbArc
 50
149.1843949999999
 51
221.0274859999999
  0
LINE
  5
5EE
330
54A
100
AcDbEntity
  8
3
100
AcDbLine
 10
167.052592
 20
102.4741649999999
 30
7.460285
 11
135.7999969999999
 21
102.4741649999999
 31
7.460285
  0
ARC
  5
5EF
330
54A
100
AcDbEntity
  8
3
100
AcDbCircle
 10
167.545663
 20
101.4056309999999
 30
7.460285
 40
1.176811
100
AcDbArc
 50
114.770779
 51
162.221378
  0
ENDBLK
  5
5F1
330
54A
100
AcDbEntity
  8
0
100
AcDbBlockEnd
  0
BLOCK
  5
90B
330
900
100
AcDbEntity
  8
0
100
AcDbBlockBegin
  2
*D33
 70
     1
 10
0.0
 20
0.0
 30
0.0
  3
*D33
  1

  0
LINE
  5
901
330
900
100
AcDbEntity
  8
0
  6
ByBlock
 62
     0
100
AcDbLine
 10
100.5624999999999
 20
184.0
 30
0.0
 11
114.68
 21
184.0
 31
0.0
  0
LINE
  5
902
330
900
100
AcDbEntity
  8
0
  6
ByBlock
 62
     0
100
AcDbLine
 10
100.5624999999999
 20
174.0
 30
0.0
 11
114.68
 21
174.0
 31
0.0
  0
LINE
  5
903
330
900
100
AcDbEntity
  8
0
  6
ByBlock
 62
     0
100
AcDbLine
 10
114.5
 20
182.0
 30
0.0
 11
114.5
 21
180.3816669999999
 31
0.0
  0
LINE
  5
904
330
900
100
AcDbEntity
  8
0
  6
ByBlock
 62
     0
100
AcDbLine
 10
114.5
 20
176.0
 30
0.0
 11
114.5
 21
177.618333
 31
0.0
  0
SOLID
  5
905
330
900
100
AcDbEntity
  8
0
  6
ByBlock
 62
     0
100
AcDbTrace
 10
114.1666669999999
 20
182.0
 30
0.0
 11
114.833333
 21
182.0
 31
0.0
 12
114.5
 22
184.0
 32
0.0
 13
114.5
 23
184.0
 33
0.0
  0
SOLID
  5
906
330
900
100
AcDbEntity
  8
0
  6
ByBlock
 62
     0
100
AcDbTrace
 10
114.1666669999999
 20
176.0
 30
0.0
 11
114.833333
 21
176.0
 31
0.0
 12
114.5
 22
174.0
 32
0.0
 13
114.5
 23
174.0
 33
0.0
  0
TEXT
  5
907
330
900
100
AcDbEntity
  8
0
  6
ByBlock
 62
     0
100
AcDbText
 10
116.25
 20
177.9791666666666
 30
0.0
 40
3.5
  1
10
 50
90.0
 41
0.5
  7
EXTFONT
 72
     1
 11
114.5
 21
179.0
 31
0.0
100
AcDbText
 73
     2
  0
POINT
  5
908
330
900
100
AcDbEntity
  8
DEFPOINTS
  6
ByBlock
 62
     0
100
AcDbPoint
 10
100.5
 20
184.0
 30
0.0
  0
POINT
  5
909
330
900
100
AcDbEntity
  8
DEFPOINTS
  6
ByBlock
 62
     0
100
AcDbPoint
 10
100.5
 20
174.0
 30
0.0
  0
POINT
  5
90A
330
900
100
AcDbEntity
  8
DEFPOINTS
  6
ByBlock
 62
     0
100
AcDbPoint
 10
114.5
 20
174.0
 30
0.0
  0
ENDBLK
  5
90C
330
900
100
AcDbEntity
  8
0
100
AcDbBlockEnd
  0
BLOCK
  5
918
330
90D
100
AcDbEntity
  8
0
100
AcDbBlockBegin
  2
*D34
 70
     1
 10
0.0
 20
0.0
 30
0.0
  3
*D34
  1

  0
LINE
  5
90E
330
90D
100
AcDbEntity
  8
0
  6
ByBlock
 62
     0
100
AcDbLine
 10
130.19933
 20
135.964257
 30
0.0
 11
141.072782
 21
135.964257
 31
0.0
  0
LINE
  5
90F
330
90D
100
AcDbEntity
  8
0
  6
ByBlock
 62
     0
100
AcDbLine
 10
130.19933
 20
126.564257
 30
0.0
 11
141.072782
 21
126.564257
 31
0.0
  0
LINE
  5
910
330
90D
100
AcDbEntity
  8
0
  6
ByBlock
 62
     0
100
AcDbLine
 10
140.572782
 20
134.964257
 30
0.0
 11
140.572782
 21
134.8742569999999
 31
0.0
  0
LINE
  5
911
330
90D
100
AcDbEntity
  8
0
  6
ByBlock
 62
     0
100
AcDbLine
 10
140.572782
 20
127.564257
 30
0.0
 11
140.572782
 21
127.7732399999999
 31
0.0
  0
SOLID
  5
912
330
90D
100
AcDbEntity
  8
0
  6
ByBlock
 62
     0
100
AcDbTrace
 10
140.4061159999999
 20
134.964257
 30
0.0
 11
140.739449
 21
134.964257
 31
0.0
 12
140.572782
 22
135.964257
 32
0.0
 13
140.572782
 23
135.964257
 33
0.0
  0
SOLID
  5
913
330
90D
100
AcDbEntity
  8
0
  6
ByBlock
 62
     0
100
AcDbTrace
 10
140.4061159999999
 20
127.564257
 30
0.0
 11
140.739449
 21
127.564257
 31
0.0
 12
140.572782
 22
126.564257
 32
0.0
 13
140.572782
 23
126.564257
 33
0.0
  0
MTEXT
  5
914
330
90D
100
AcDbEntity
  8
0
  6
ByBlock
 62
     0
100
AcDbMText
 10
140.572782
 20
131.3632399999999
 30
0.0
 40
3.5
 41
0.0
 71
     5
 72
     1
  1
\A1;9.4
 11
0.0
 21
1.0
 31
0.0
 73
     1
 44
1.0
  0
POINT
  5
915
330
90D
100
AcDbEntity
  8
DEFPOINTS
  6
ByBlock
 62
     0
100
AcDbPoint
 10
129.69933
 20
135.964257
 30
0.0
  0
POINT
  5
916
330
90D
100
AcDbEntity
  8
DEFPOINTS
  6
ByBlock
 62
     0
100
AcDbPoint
 10
129.69933
 20
126.564257
 30
0.0
  0
POINT
  5
917
330
90D
100
AcDbEntity
  8
DEFPOINTS
  6
ByBlock
 62
     0
100
AcDbPoint
 10
140.572782
 20
126.564257
 30
0.0
  0
ENDBLK
  5
919
330
90D
100
AcDbEntity
  8
0
100
AcDbBlockEnd
  0
BLOCK
  5
94F
330
91B
100
AcDbEntity
  8
0
100
AcDbBlockBegin
  2
A$C549F2839
 70
     0
 10
0.0
 20
0.0
 30
0.0
  3
A$C549F2839
  1

  0
CIRCLE
  5
91C
330
91B
100
AcDbEntity
  8
2
100
AcDbCircle
 10
62.0
 20
8.0
 30
0.0
 40
1.5
  0
CIRCLE
  5
91D
330
91B
100
AcDbEntity
  8
3
100
AcDbCircle
 10
62.0
 20
8.0
 30
0.0
 40
5.0
  0
LINE
  5
91E
330
91B
100
AcDbEntity
  8
1
100
AcDbLine
 10
54.0
 20
8.0
 30
0.0
 11
70.5
 21
8.0
 31
0.0
  0
LINE
  5
91F
330
91B
100
AcDbEntity
  8
3
100
AcDbLine
 10
14.0
 20
13.0
 30
0.0
 11
24.117741
 21
13.0
 31
0.0
  0
LINE
  5
920
330
91B
100
AcDbEntity
  8
3
100
AcDbLine
 10
14.0
 20
3.0
 30
0.0
 11
24.117741
 21
3.0
 31
0.0
  0
LINE
  5
921
330
91B
100
AcDbEntity
  8
1
100
AcDbLine
 10
0.0
 20
8.0
 30
0.0
 11
32.5
 21
8.0
 31
0.0
  0
LINE
  5
922
330
91B
100
AcDbEntity
  8
3
100
AcDbLine
 10
13.0
 20
5.5
 30
0.0
 11
4.0
 21
5.5
 31
0.0
  0
LINE
  5
923
330
91B
100
AcDbEntity
  8
0
100
AcDbLine
 10
3.0
 20
6.0
 30
0.0
 11
12.0
 21
6.0
 31
0.0
  0
LINE
  5
924
330
91B
100
AcDbEntity
  8
0
100
AcDbLine
 10
3.0
 20
10.0
 30
0.0
 11
12.0
 21
10.0
 31
0.0
  0
LINE
  5
925
330
91B
100
AcDbEntity
  8
3
100
AcDbLine
 10
13.0
 20
10.5
 30
0.0
 11
4.0
 21
10.5
 31
0.0
  0
LINE
  5
926
330
91B
100
AcDbEntity
  8
3
100
AcDbLine
 10
3.0
 20
6.0
 30
0.0
 11
3.0
 21
8.0
 31
0.0
  0
LINE
  5
927
330
91B
100
AcDbEntity
  8
0
100
AcDbLine
 10
4.0
 20
5.5
 30
0.0
 11
4.0
 21
8.0
 31
0.0
  0
LINE
  5
928
330
91B
100
AcDbEntity
  8
3
100
AcDbLine
 10
4.0
 20
5.5
 30
0.0
 11
3.0
 21
6.0
 31
0.0
  0
LINE
  5
929
330
91B
100
AcDbEntity
  8
0
100
AcDbLine
 10
3.0
 20
14.0
 30
0.0
 11
3.0
 21
11.5
 31
0.0
  0
LINE
  5
92A
330
91B
100
AcDbEntity
  8
0
100
AcDbLine
 10
4.0
 20
10.5
 30
0.0
 11
4.0
 21
8.0
 31
0.0
  0
LINE
  5
92B
330
91B
100
AcDbEntity
  8
3
100
AcDbLine
 10
3.0
 20
10.0
 30
0.0
 11
3.0
 21
8.0
 31
0.0
  0
LINE
  5
92C
330
91B
100
AcDbEntity
  8
3
100
AcDbLine
 10
4.0
 20
10.5
 30
0.0
 11
3.0
 21
10.0
 31
0.0
  0
LINE
  5
92D
330
91B
100
AcDbEntity
  8
0
100
AcDbLine
 10
12.0
 20
8.0
 30
0.0
 11
12.0
 21
5.5
 31
0.0
  0
LINE
  5
92E
330
91B
100
AcDbEntity
  8
3
100
AcDbLine
 10
13.0
 20
8.0
 30
0.0
 11
13.0
 21
4.0
 31
0.0
  0
ARC
  5
92F
330
91B
100
AcDbEntity
  8
3
100
AcDbCircle
 10
14.0
 20
4.0
 30
0.0
 40
1.0
100
AcDbArc
 50
180.0
 51
270.0
  0
SOLID
  5
930
330
91B
100
AcDbEntity
  8
0
100
AcDbTrace
 10
6.750932999999999
 20
12.118065
 30
0.0
 11
6.300449999999999
 21
11.626628
 31
0.0
 12
8.0
 22
10.520897
 32
0.0
 13
8.0
 23
10.520897
 33
0.0
  0
ARC
  5
931
330
91B
100
AcDbEntity
  8
3
100
AcDbCircle
 10
14.0
 20
12.0
 30
0.0
 40
1.0
100
AcDbArc
 50
90.0
 51
180.0
  0
LINE
  5
932
330
91B
100
AcDbEntity
  8
0
100
AcDbLine
 10
12.0
 20
8.0
 30
0.0
 11
12.0
 21
10.5
 31
0.0
  0
LINE
  5
933
330
91B
100
AcDbEntity
  8
3
100
AcDbLine
 10
13.0
 20
8.0
 30
0.0
 11
13.0
 21
12.0
 31
0.0
  0
DIMENSION
  5
934
330
91B
100
AcDbEntity
  8
0
100
AcDbDimension
  2
*D33
 10
43.5
 20
3.0
 30
0.0
 11
43.5
 21
8.0
 31
0.0
 12
-71.0
 22
-171.0
 32
0.0
  1
10
 71
     5
 42
-1.0
100
AcDbAlignedDimension
 13
29.5
 23
13.0
 33
0.0
 14
29.5
 24
3.0
 34
0.0
 50
90.0
100
AcDbRotatedDimension
  0
DIMENSION
  5
935
330
91B
100
AcDbEntity
  8
0
100
AcDbDimension
  2
*D34
 10
38.373452
 20
3.299999999999999
 30
0.0
 11
38.373452
 21
8.098982000000001
 31
0.0
 12
-102.19933
 22
-123.264258
 32
0.0
 70
   128
 71
     5
 42
-1.0
  3
STANDARD
100
AcDbAlignedDimension
 13
27.5
 23
12.7
 33
0.0
 14
27.5
 24
3.299999999999999
 34
0.0
 50
90.0
100
AcDbRotatedDimension
1001
ACAD
1000
DSTYLE
1002
{
1070
    78
1070
     8
1070
   288
1070
     1
1070
   284
1070
     8
1070
   140
1040
3.5
1070
    73
1070
     0
1070
   272
1070
     2
1070
    42
1040
0.5
1070
    44
1040
0.5
1070
   271
1070
     2
1070
    41
1040
1.0
1002
}
  0
LINE
  5
936
330
91B
100
AcDbEntity
  8
3
100
AcDbLine
 10
28.5
 20
8.0
 30
0.0
 11
28.5
 21
4.299999999999999
 31
0.0
  0
LINE
  5
937
330
91B
100
AcDbEntity
  8
2
100
AcDbLine
 10
28.0
 20
7.0
 30
0.0
 11
28.0
 21
8.0
 31
0.0
  0
LINE
  5
938
330
91B
100
AcDbEntity
  8
2
100
AcDbLine
 10
24.5
 20
6.5
 30
0.0
 11
24.5
 21
8.0
 31
0.0
  0
LINE
  5
939
330
91B
100
AcDbEntity
  8
2
100
AcDbLine
 10
24.0
 20
7.0
 30
0.0
 11
23.0
 21
8.0
 31
0.0
  0
SOLID
  5
93A
330
91B
100
AcDbEntity
  8
0
100
AcDbTrace
 10
27.639783
 20
1.307429999999999
 30
0.0
 11
27.937925
 21
1.903715
 31
0.0
 12
26.0
 22
2.5
 32
0.0
 13
26.0
 23
2.5
 33
0.0
  0
LINE
  5
93B
330
91B
100
AcDbEntity
  8
3
100
AcDbLine
 10
27.5
 20
3.299999999999999
 30
0.0
 11
24.473857
 21
3.299999999999999
 31
0.0
  0
LINE
  5
93C
330
91B
100
AcDbEntity
  8
2
100
AcDbLine
 10
28.0
 20
7.0
 30
0.0
 11
24.0
 21
7.0
 31
0.0
  0
LINE
  5
93D
330
91B
100
AcDbEntity
  8
2
100
AcDbLine
 10
28.0
 20
6.5
 30
0.0
 11
24.5
 21
6.5
 31
0.0
  0
LINE
  5
93E
330
91B
100
AcDbEntity
  8
3
100
AcDbLine
 10
24.473857
 20
3.299999999999999
 30
0.0
 11
24.117741
 21
3.0
 31
0.0
  0
LINE
  5
93F
330
91B
100
AcDbEntity
  8
3
100
AcDbLine
 10
28.5
 20
4.299999999999999
 30
0.0
 11
27.5
 21
3.299999999999999
 31
0.0
  0
LINE
  5
940
330
91B
100
AcDbEntity
  8
2
100
AcDbLine
 10
28.5
 20
6.0
 30
0.0
 11
28.0
 21
7.0
 31
0.0
  0
LINE
  5
941
330
91B
100
AcDbEntity
  8
2
100
AcDbLine
 10
24.0
 20
9.0
 30
0.0
 11
23.0
 21
8.0
 31
0.0
  0
LINE
  5
942
330
91B
100
AcDbEntity
  8
3
100
AcDbLine
 10
27.5
 20
12.7
 30
0.0
 11
24.473857
 21
12.7
 31
0.0
  0
LINE
  5
943
330
91B
100
AcDbEntity
  8
2
100
AcDbLine
 10
28.0
 20
9.5
 30
0.0
 11
24.5
 21
9.5
 31
0.0
  0
LINE
  5
944
330
91B
100
AcDbEntity
  8
2
100
AcDbLine
 10
28.0
 20
9.0
 30
0.0
 11
24.0
 21
9.0
 31
0.0
  0
LINE
  5
945
330
91B
100
AcDbEntity
  8
3
100
AcDbLine
 10
24.473857
 20
12.7
 30
0.0
 11
24.117741
 21
13.0
 31
0.0
  0
LINE
  5
946
330
91B
100
AcDbEntity
  8
2
100
AcDbLine
 10
24.5
 20
9.5
 30
0.0
 11
24.5
 21
8.0
 31
0.0
  0
LINE
  5
947
330
91B
100
AcDbEntity
  8
3
100
AcDbLine
 10
28.5
 20
11.69999999999999
 30
0.0
 11
27.5
 21
12.7
 31
0.0
  0
LINE
  5
948
330
91B
100
AcDbEntity
  8
3
100
AcDbLine
 10
28.5
 20
8.0
 30
0.0
 11
28.5
 21
11.69999999999999
 31
0.0
  0
LINE
  5
949
330
91B
100
AcDbEntity
  8
2
100
AcDbLine
 10
28.0
 20
9.0
 30
0.0
 11
28.0
 21
8.0
 31
0.0
  0
LINE
  5
94A
330
91B
100
AcDbEntity
  8
2
100
AcDbLine
 10
28.5
 20
10.0
 30
0.0
 11
28.0
 21
9.0
 31
0.0
  0
SOLID
  5
94B
330
91B
100
AcDbEntity
  8
0
100
AcDbTrace
 10
30.551504
 20
9.805352
 30
0.0
 11
30.04428199999999
 21
10.23798299999999
 31
0.0
 12
29.0
 22
8.5
 32
0.0
 13
29.0
 23
8.5
 33
0.0
  0
CIRCLE
  5
94C
330
91B
100
AcDbEntity
  8
2
100
AcDbCircle
 10
62.0
 20
8.0
 30
0.0
 40
1.0
  0
LINE
  5
94D
330
91B
100
AcDbEntity
  8
1
100
AcDbLine
 10
62.0
 20
16.0
 30
0.0
 11
62.0
 21
0.0
 31
0.0
  0
SOLID
  5
94E
330
91B
100
AcDbEntity
  8
0
100
AcDbTrace
 10
58.37529599999999
 20
1.312945
 30
0.0
 11
58.98324399999999
 21
1.039368999999999
 31
0.0
 12
59.5
 22
3.0
 32
0.0
 13
59.5
 23
3.0
 33
0.0
  0
ENDBLK
  5
950
330
91B
100
AcDbEntity
  8
0
100
AcDbBlockEnd
  0
BLOCK
  5
9FE
330
9D2
100
AcDbEntity
  8
0
100
AcDbBlockBegin
  2
A$C696B72E0
 70
     0
 10
0.0
 20
0.0
 30
0.0
  3
A$C696B72E0
  1

  0
LINE
  5
9D3
330
9D2
100
AcDbEntity
  8
3
100
AcDbLine
 10
14.0
 20
11.69256999999999
 30
0.0
 11
24.117741
 21
11.69256999999999
 31
0.0
  0
LINE
  5
9D4
330
9D2
100
AcDbEntity
  8
3
100
AcDbLine
 10
14.0
 20
1.69257
 30
0.0
 11
24.117741
 21
1.69257
 31
0.0
  0
LINE
  5
9D5
330
9D2
100
AcDbEntity
  8
1
100
AcDbLine
 10
0.0
 20
6.692569999999999
 30
0.0
 11
32.5
 21
6.692569999999999
 31
0.0
  0
LINE
  5
9D6
330
9D2
100
AcDbEntity
  8
3
100
AcDbLine
 10
13.0
 20
4.192569999999999
 30
0.0
 11
4.0
 21
4.192569999999999
 31
0.0
  0
LINE
  5
9D7
330
9D2
100
AcDbEntity
  8
0
100
AcDbLine
 10
3.0
 20
4.692569999999999
 30
0.0
 11
12.0
 21
4.692569999999999
 31
0.0
  0
LINE
  5
9D8
330
9D2
100
AcDbEntity
  8
0
100
AcDbLine
 10
3.0
 20
8.692569999999999
 30
0.0
 11
12.0
 21
8.692569999999999
 31
0.0
  0
LINE
  5
9D9
330
9D2
100
AcDbEntity
  8
3
100
AcDbLine
 10
13.0
 20
9.192569999999999
 30
0.0
 11
4.0
 21
9.192569999999999
 31
0.0
  0
LINE
  5
9DA
330
9D2
100
AcDbEntity
  8
3
100
AcDbLine
 10
3.0
 20
4.692569999999999
 30
0.0
 11
3.0
 21
6.692569999999999
 31
0.0
  0
LINE
  5
9DB
330
9D2
100
AcDbEntity
  8
0
100
AcDbLine
 10
4.0
 20
4.192569999999999
 30
0.0
 11
4.0
 21
6.692569999999999
 31
0.0
  0
LINE
  5
9DC
330
9D2
100
AcDbEntity
  8
3
100
AcDbLine
 10
4.0
 20
4.192569999999999
 30
0.0
 11
3.0
 21
4.692569999999999
 31
0.0
  0
LINE
  5
9DD
330
9D2
100
AcDbEntity
  8
0
100
AcDbLine
 10
3.0
 20
12.69257
 30
0.0
 11
3.0
 21
10.19257
 31
0.0
  0
LINE
  5
9DE
330
9D2
100
AcDbEntity
  8
0
100
AcDbLine
 10
4.0
 20
9.192569999999999
 30
0.0
 11
4.0
 21
6.692569999999999
 31
0.0
  0
LINE
  5
9DF
330
9D2
100
AcDbEntity
  8
3
100
AcDbLine
 10
3.0
 20
8.692569999999999
 30
0.0
 11
3.0
 21
6.692569999999999
 31
0.0
  0
LINE
  5
9E0
330
9D2
100
AcDbEntity
  8
3
100
AcDbLine
 10
4.0
 20
9.192569999999999
 30
0.0
 11
3.0
 21
8.692569999999999
 31
0.0
  0
LINE
  5
9E1
330
9D2
100
AcDbEntity
  8
0
100
AcDbLine
 10
12.0
 20
6.692569999999999
 30
0.0
 11
12.0
 21
4.192569999999999
 31
0.0
  0
LINE
  5
9E2
330
9D2
100
AcDbEntity
  8
3
100
AcDbLine
 10
13.0
 20
6.692569999999999
 30
0.0
 11
13.0
 21
2.692569999999999
 31
0.0
  0
ARC
  5
9E3
330
9D2
100
AcDbEntity
  8
3
100
AcDbCircle
 10
14.0
 20
2.692569999999999
 30
0.0
 40
1.0
100
AcDbArc
 50
180.0
 51
270.0
  0
SOLID
  5
9E4
330
9D2
100
AcDbEntity
  8
0
100
AcDbTrace
 10
6.750932999999999
 20
10.810634
 30
0.0
 11
6.300449999999999
 21
10.319198
 31
0.0
 12
8.0
 22
9.213466999999999
 32
0.0
 13
8.0
 23
9.213466999999999
 33
0.0
  0
ARC
  5
9E5
330
9D2
100
AcDbEntity
  8
3
100
AcDbCircle
 10
14.0
 20
10.69257
 30
0.0
 40
1.0
100
AcDbArc
 50
90.0
 51
180.0
  0
LINE
  5
9E6
330
9D2
100
AcDbEntity
  8
0
100
AcDbLine
 10
12.0
 20
6.692569999999999
 30
0.0
 11
12.0
 21
9.192569999999999
 31
0.0
  0
LINE
  5
9E7
330
9D2
100
AcDbEntity
  8
3
100
AcDbLine
 10
13.0
 20
6.692569999999999
 30
0.0
 11
13.0
 21
10.69257
 31
0.0
  0
LINE
  5
9E8
330
9D2
100
AcDbEntity
  8
3
100
AcDbLine
 10
28.5
 20
6.692569999999999
 30
0.0
 11
28.5
 21
2.99257
 31
0.0
  0
LINE
  5
9E9
330
9D2
100
AcDbEntity
  8
2
100
AcDbLine
 10
28.0
 20
5.692569999999999
 30
0.0
 11
28.0
 21
6.692569999999999
 31
0.0
  0
LINE
  5
9EA
330
9D2
100
AcDbEntity
  8
2
100
AcDbLine
 10
24.5
 20
5.192569999999999
 30
0.0
 11
24.5
 21
6.692569999999999
 31
0.0
  0
LINE
  5
9EB
330
9D2
100
AcDbEntity
  8
2
100
AcDbLine
 10
24.0
 20
5.692569999999999
 30
0.0
 11
23.0
 21
6.692569999999999
 31
0.0
  0
SOLID
  5
9EC
330
9D2
100
AcDbEntity
  8
0
100
AcDbTrace
 10
27.639783
 20
0.0
 30
0.0
 11
27.937925
 21
0.5962850000000001
 31
0.0
 12
26.0
 22
1.19257
 32
0.0
 13
26.0
 23
1.19257
 33
0.0
  0
LINE
  5
9ED
330
9D2
100
AcDbEntity
  8
3
100
AcDbLine
 10
27.5
 20
1.99257
 30
0.0
 11
24.473857
 21
1.99257
 31
0.0
  0
LINE
  5
9EE
330
9D2
100
AcDbEntity
  8
2
100
AcDbLine
 10
28.0
 20
5.692569999999999
 30
0.0
 11
24.0
 21
5.692569999999999
 31
0.0
  0
LINE
  5
9EF
330
9D2
100
AcDbEntity
  8
2
100
AcDbLine
 10
28.0
 20
5.192569999999999
 30
0.0
 11
24.5
 21
5.192569999999999
 31
0.0
  0
LINE
  5
9F0
330
9D2
100
AcDbEntity
  8
3
100
AcDbLine
 10
24.473857
 20
1.99257
 30
0.0
 11
24.117741
 21
1.69257
 31
0.0
  0
LINE
  5
9F1
330
9D2
100
AcDbEntity
  8
3
100
AcDbLine
 10
28.5
 20
2.99257
 30
0.0
 11
27.5
 21
1.99257
 31
0.0
  0
LINE
  5
9F2
330
9D2
100
AcDbEntity
  8
2
100
AcDbLine
 10
28.5
 20
4.692569999999999
 30
0.0
 11
28.0
 21
5.692569999999999
 31
0.0
  0
LINE
  5
9F3
330
9D2
100
AcDbEntity
  8
2
100
AcDbLine
 10
24.0
 20
7.692569999999999
 30
0.0
 11
23.0
 21
6.692569999999999
 31
0.0
  0
LINE
  5
9F4
330
9D2
100
AcDbEntity
  8
3
100
AcDbLine
 10
27.5
 20
11.39256999999999
 30
0.0
 11
24.473857
 21
11.39256999999999
 31
0.0
  0
LINE
  5
9F5
330
9D2
100
AcDbEntity
  8
2
100
AcDbLine
 10
28.0
 20
8.192569999999999
 30
0.0
 11
24.5
 21
8.192569999999999
 31
0.0
  0
LINE
  5
9F6
330
9D2
100
AcDbEntity
  8
2
100
AcDbLine
 10
28.0
 20
7.692569999999999
 30
0.0
 11
24.0
 21
7.692569999999999
 31
0.0
  0
LINE
  5
9F7
330
9D2
100
AcDbEntity
  8
3
100
AcDbLine
 10
24.473857
 20
11.39256999999999
 30
0.0
 11
24.117741
 21
11.69256999999999
 31
0.0
  0
LINE
  5
9F8
330
9D2
100
AcDbEntity
  8
2
100
AcDbLine
 10
24.5
 20
8.192569999999999
 30
0.0
 11
24.5
 21
6.692569999999999
 31
0.0
  0
LINE
  5
9F9
330
9D2
100
AcDbEntity
  8
3
100
AcDbLine
 10
28.5
 20
10.39256999999999
 30
0.0
 11
27.5
 21
11.39256999999999
 31
0.0
  0
LINE
  5
9FA
330
9D2
100
AcDbEntity
  8
3
100
AcDbLine
 10
28.5
 20
6.692569999999999
 30
0.0
 11
28.5
 21
10.39256999999999
 31
0.0
  0
LINE
  5
9FB
330
9D2
100
AcDbEntity
  8
2
100
AcDbLine
 10
28.0
 20
7.692569999999999
 30
0.0
 11
28.0
 21
6.692569999999999
 31
0.0
  0
LINE
  5
9FC
330
9D2
100
AcDbEntity
  8
2
100
AcDbLine
 10
28.5
 20
8.692569999999999
 30
0.0
 11
28.0
 21
7.692569999999999
 31
0.0
  0
SOLID
  5
9FD
330
9D2
100
AcDbEntity
  8
0
100
AcDbTrace
 10
30.551504
 20
8.497922
 30
0.0
 11
30.04428199999999
 21
8.930552999999999
 31
0.0
 12
29.0
 22
7.192569999999999
 32
0.0
 13
29.0
 23
7.192569999999999
 33
0.0
  0
ENDBLK
  5
9FF
330
9D2
100
AcDbEntity
  8
0
100
AcDbBlockEnd
  0
BLOCK
  5
B13
330
B12
100
AcDbEntity
  8
0
100
AcDbBlockBegin
  2
*U37
 70
     1
 10
0.0
 20
0.0
 30
0.0
  3
*U37
  1

  0
ENDBLK
  5
B14
330
B12
100
AcDbEntity
  8
0
100
AcDbBlockEnd
  0
ENDSEC
  0
SECTION
  2
ENTITIES
  0
LINE
  5
5F5
330
1C3
100
AcDbEntity
  8
3
100
AcDbLine
 10
148.601658
 20
49.34135799999999
 30
7.460285
 11
141.851658
 21
49.34135799999999
 31
7.460285
  0
LINE
  5
5F6
330
1C3
100
AcDbEntity
  8
3
100
AcDbLine
 10
154.286066
 20
65.77754499999999
 30
7.460285
 11
141.366773
 21
65.77754499999999
 31
7.460285
  0
ELLIPSE
  5
5F7
330
1C3
100
AcDbEntity
  8
3
100
AcDbEllipse
 10
148.399153
 20
118.276701
 30
7.460285
 11
0.0
 21
-6.989323423775719
 31
0.0
210
0.0
220
0.0
230
1.0
 40
0.9625929999999998
 41
1.644155871794094
 42
7.784143275053856
  0
ARC
  5
5F8
330
1C3
100
AcDbEntity
  8
3
100
AcDbCircle
 10
148.601658
 20
118.2889749999999
 30
7.460285
 40
7.25
100
AcDbArc
 50
38.366514
 51
321.6334859999999
  0
CIRCLE
  5
601
330
1C3
100
AcDbEntity
  8
3
100
AcDbCircle
 10
148.601658
 20
118.2889749999999
 30
7.460285
 40
4.0
  0
LINE
  5
602
330
1C3
100
AcDbEntity
  8
1
100
AcDbLine
 10
137.9764259999999
 20
118.2889749999999
 30
7.460285
 11
191.230508
 21
118.2889749999999
 31
7.460285
  0
LINE
  5
603
330
1C3
100
AcDbEntity
  8
3
100
AcDbLine
 10
142.264195
 20
67.21503699999999
 30
7.460285
 11
155.127015
 21
70.66161899999999
 31
7.460285
  0
LINE
  5
608
330
1C3
100
AcDbEntity
  8
3
100
AcDbLine
 10
71.436788
 20
65.77754499999999
 30
7.460285
 11
71.56624499999999
 21
68.00841199999999
 31
7.460285
  0
LINE
  5
609
330
1C3
100
AcDbEntity
  8
3
100
AcDbLine
 10
85.90655699999999
 20
65.77754499999999
 30
7.460285
 11
85.77710000000001
 21
68.00841199999999
 31
7.460285
  0
LINE
  5
60B
330
1C3
100
AcDbEntity
  8
3
100
AcDbLine
 10
85.421673
 20
49.34135799999999
 30
7.460285
 11
85.90655699999999
 21
65.77754499999999
 31
7.460285
  0
LINE
  5
60C
330
1C3
100
AcDbEntity
  8
3
100
AcDbLine
 10
71.921673
 20
49.34135799999999
 30
7.460285
 11
71.436788
 21
65.77754499999999
 31
7.460285
  0
LINE
  5
60D
330
1C3
100
AcDbEntity
  8
3
100
AcDbLine
 10
141.851658
 20
49.34135799999999
 30
7.460285
 11
141.366773
 21
65.77754499999999
 31
7.460285
  0
LINE
  5
60E
330
1C3
100
AcDbEntity
  8
3
100
AcDbLine
 10
78.671673
 20
65.77754499999999
 30
7.460285
 11
85.90655699999999
 21
65.77754499999999
 31
7.460285
  0
LINE
  5
60F
330
1C3
100
AcDbEntity
  8
3
100
AcDbLine
 10
78.671673
 20
65.77754499999999
 30
7.460285
 11
71.436788
 21
65.77754499999999
 31
7.460285
  0
ARC
  5
610
330
1C3
100
AcDbEntity
  8
3
100
AcDbCircle
 10
142.966773
 20
65.77754499999999
 30
7.460285
 40
1.6
100
AcDbArc
 50
116.047212
 51
180.0
  0
ARC
  5
611
330
1C3
100
AcDbEntity
  8
3
100
AcDbCircle
 10
78.671673
 20
73.995614
 30
7.460285
 40
4.502705
100
AcDbArc
 50
1.985946
 51
178.014054
  0
LINE
  5
612
330
1C3
100
AcDbEntity
  8
1
100
AcDbLine
 10
78.671673
 20
71.753749
 30
7.460285
 11
78.671673
 21
80.27465500000001
 31
7.460285
  0
ELLIPSE
  5
613
330
1C3
100
AcDbEntity
  8
3
100
AcDbEllipse
 10
78.671673
 20
68.841634
 30
7.460285
 11
-6.726268523018858
 21
0.0
 31
0.0
210
0.0
220
0.0
230
1.0
 40
0.270579
 41
0.0
 42
6.283185307179585
  0
LINE
  5
614
330
1C3
100
AcDbEntity
  8
3
100
AcDbLine
 10
78.671673
 20
49.34135799999999
 30
7.460285
 11
85.421673
 21
49.34135799999999
 31
7.460285
  0
LINE
  5
615
330
1C3
100
AcDbEntity
  8
1
100
AcDbLine
 10
78.671673
 20
48.3838
 30
7.460285
 11
78.671673
 21
71.753749
 31
7.460285
  0
LINE
  5
616
330
1C3
100
AcDbEntity
  8
3
100
AcDbLine
 10
78.671673
 20
49.34135799999999
 30
7.460285
 11
71.921673
 21
49.34135799999999
 31
7.460285
  0
ELLIPSE
  5
617
330
1C3
100
AcDbEntity
  8
3
100
AcDbEllipse
 10
78.671673
 20
68.846168
 30
7.460285
 11
-3.5
 21
0.0
 31
0.0
210
0.0
220
0.0
230
1.0
 40
0.2870880000000001
 41
0.0
 42
6.283185307179585
  0
LINE
  5
618
330
1C3
100
AcDbEntity
  8
3
100
AcDbLine
 10
74.171673
 20
74.151652
 30
7.460285
 11
74.171673
 21
70.367586
 31
7.460285
  0
LINE
  5
619
330
1C3
100
AcDbEntity
  8
3
100
AcDbLine
 10
74.171673
 20
70.367586
 30
7.460285
 11
74.171673
 21
70.19433000000001
 31
7.460285
  0
ARC
  5
61A
330
1C3
100
AcDbEntity
  8
3
100
AcDbCircle
 10
78.67388599999999
 20
71.97217499999999
 30
7.460285
 40
1.106935
100
AcDbArc
 50
19.043492
 51
161.718975
  0
LINE
  5
61B
330
1C3
100
AcDbEntity
  8
3
100
AcDbLine
 10
83.17167299999999
 20
74.151652
 30
7.460285
 11
83.17167299999999
 21
70.367586
 31
7.460285
  0
ARC
  5
61C
330
1C3
100
AcDbEntity
  8
3
100
AcDbCircle
 10
78.64986800000001
 20
75.581793
 30
7.460285
 40
3.420244
100
AcDbArc
 50
278.953154
 51
288.237218
  0
ARC
  5
61D
330
1C3
100
AcDbEntity
  8
3
100
AcDbCircle
 10
78.645441
 20
74.831793
 30
7.460285
 40
3.420244
100
AcDbArc
 50
279.068291
 51
288.237218
  0
ARC
  5
61E
330
1C3
100
AcDbEntity
  8
3
100
AcDbCircle
 10
78.64986800000001
 20
75.581793
 30
7.460285
 40
3.420244
100
AcDbArc
 50
252.525249
 51
261.561795
  0
ARC
  5
61F
330
1C3
100
AcDbEntity
  8
3
100
AcDbCircle
 10
78.645441
 20
74.831793
 30
7.460285
 40
3.420244
100
AcDbArc
 50
252.525249
 51
261.6793589999999
  0
ARC
  5
620
330
1C3
100
AcDbEntity
  8
3
100
AcDbCircle
 10
78.66945900000001
 20
71.22217499999999
 30
7.460285
 40
1.106935
100
AcDbArc
 50
19.043492
 51
161.718975
  0
ARC
  5
621
330
1C3
100
AcDbEntity
  8
3
100
AcDbCircle
 10
78.67388599999999
 20
70.47217499999999
 30
7.460285
 40
1.106935
100
AcDbArc
 50
19.043492
 51
161.718975
  0
ARC
  5
622
330
1C3
100
AcDbEntity
  8
3
100
AcDbCircle
 10
78.64986800000001
 20
74.081793
 30
7.460285
 40
3.420244
100
AcDbArc
 50
252.525249
 51
288.237218
  0
LINE
  5
623
330
1C3
100
AcDbEntity
  8
3
100
AcDbLine
 10
83.17167299999999
 20
70.367586
 30
7.460285
 11
83.17167299999999
 21
70.19433000000001
 31
7.460285
  0
ARC
  5
641
330
1C3
100
AcDbEntity
  8
3
100
AcDbCircle
 10
73.26522699999999
 20
67.98150099999999
 30
7.460285
 40
1.699195
100
AcDbArc
 50
135.3256129999999
 51
179.092537
  0
ARC
  5
642
330
1C3
100
AcDbEntity
  8
3
100
AcDbCircle
 10
84.07811800000001
 20
67.98150099999999
 30
7.460285
 40
1.699195
100
AcDbArc
 50
0.907463
 51
44.674387
  0
ELLIPSE
  5
650
330
1C3
100
AcDbEntity
  8
3
100
AcDbEllipse
 10
156.1807159999999
 20
118.2889749999999
 30
7.460285
 11
-1.053700676307868
 21
0.0
 31
0.0
210
0.0
220
0.0
230
1.0
 40
0.988217
 41
0.0
 42
6.283185307179585
  0
ELLIPSE
  5
651
330
1C3
100
AcDbEntity
  8
3
100
AcDbEllipse
 10
158.3266199999999
 20
118.2889749999999
 30
7.460285
 11
-1.053700676307868
 21
0.0
 31
0.0
210
0.0
220
0.0
230
1.0
 40
0.988217
 41
0.0
 42
6.283185307179585
  0
ARC
  5
652
330
1C3
100
AcDbEntity
  8
3
100
AcDbCircle
 10
145.413838
 20
118.2889749999999
 30
7.460285
 40
9.713176999999999
100
AcDbArc
 50
2.950687999999999
 51
23.111086
  0
CIRCLE
  5
655
330
1C3
100
AcDbEntity
  8
3
100
AcDbCircle
 10
148.601658
 20
118.2889749999999
 30
7.460285
 40
2.75
  0
ARC
  5
656
330
1C3
100
AcDbEntity
  8
3
100
AcDbCircle
 10
183.764573
 20
118.2889749999999
 30
7.460285
 40
4.837085
100
AcDbArc
 50
291.5164349999999
 51
68.483565
  0
ARC
  5
657
330
1C3
100
AcDbEntity
  8
3
100
AcDbCircle
 10
198.018901
 20
118.2889749999999
 30
7.460285
 40
13.644925
100
AcDbArc
 50
163.8700339999999
 51
196.129966
  0
LINE
  5
658
330
1C3
100
AcDbEntity
  8
1
100
AcDbLine
 10
148.601658
 20
106.6813479999999
 30
7.460285
 11
148.601658
 21
128.9112989999999
 31
7.460285
  0
LINE
  5
65B
330
1C3
100
AcDbEntity
  8
3
100
AcDbLine
 10
155.351658
 20
49.34135799999999
 30
7.460285
 11
155.7087969999999
 21
61.500021
 31
7.460285
  0
LINE
  5
65C
330
1C3
100
AcDbEntity
  8
3
100
AcDbLine
 10
161.4492189999999
 20
72.35564899999999
 30
7.460285
 11
184.373976
 21
78.49831899999999
 31
7.460285
  0
LINE
  5
65D
330
1C3
100
AcDbEntity
  8
3
100
AcDbLine
 10
180.3811429999999
 20
68.110957
 30
7.460285
 11
155.7087969999999
 21
61.500021
 31
7.460285
  0
LINE
  5
65E
330
1C3
100
AcDbEntity
  8
3
100
AcDbLine
 10
154.286066
 20
65.77754499999999
 30
7.460285
 11
185.538661
 21
74.151652
 31
7.460285
  0
ARC
  5
660
330
1C3
100
AcDbEntity
  8
3
100
AcDbCircle
 10
159.9377379999999
 20
73.78177099999999
 30
7.460285
 40
2.078075999999999
100
AcDbArc
 50
253.335603
 51
316.6643969999999
  0
ARC
  5
661
330
1C3
100
AcDbEntity
  8
3
100
AcDbCircle
 10
160.524928
 20
71.59034699999999
 30
7.460285
 40
1.199999999999999
100
AcDbArc
 50
39.624318
 51
170.375682
  0
ARC
  5
662
330
1C3
100
AcDbEntity
  8
3
100
AcDbCircle
 10
163.972909
 20
66.624081
 30
7.460285
 40
9.723761999999998
100
AcDbArc
 50
155.4665879999999
 51
211.800465
  0
ARC
  5
663
330
1C3
100
AcDbEntity
  8
3
100
AcDbCircle
 10
158.417527
 20
71.025671
 30
7.460285
 40
1.199999999999999
100
AcDbArc
 50
39.624318
 51
170.375682
  0
ARC
  5
664
330
1C3
100
AcDbEntity
  8
3
100
AcDbCircle
 10
156.310126
 20
70.460994
 30
7.460285
 40
1.199999999999999
100
AcDbArc
 50
39.624318
 51
170.375682
  0
ARC
  5
665
330
1C3
100
AcDbEntity
  8
3
100
AcDbCircle
 10
155.722935
 20
72.65241800000001
 30
7.460285
 40
2.078075999999999
100
AcDbArc
 50
253.335603
 51
316.6643969999999
  0
ARC
  5
666
330
1C3
100
AcDbEntity
  8
3
100
AcDbCircle
 10
157.830337
 20
73.21709399999999
 30
7.460285
 40
2.078075999999999
100
AcDbArc
 50
253.335603
 51
316.6643969999999
  0
ARC
  5
667
330
1C3
100
AcDbEntity
  8
3
100
AcDbCircle
 10
145.413838
 20
118.2889749999999
 30
7.460285
 40
9.713176999999999
100
AcDbArc
 50
336.888914
 51
357.049312
  0
ARC
  5
668
330
1C3
100
AcDbEntity
  8
3
100
AcDbCircle
 10
154.7912269999999
 20
114.090298
 30
7.460285
 40
0.588203
100
AcDbArc
 50
138.9725139999999
 51
210.815605
  0
ELLIPSE
  5
669
330
1C3
100
AcDbEntity
  8
3
100
AcDbEllipse
 10
160.510941
 20
118.2889749999999
 30
7.460285
 11
-1.053700676307868
 21
0.0
 31
0.0
210
0.0
220
0.0
230
1.0
 40
0.988217
 41
0.0
 42
6.283185307179585
  0
ARC
  5
670
330
1C3
100
AcDbEntity
  8
3
100
AcDbCircle
 10
183.7275509999999
 20
73.666367
 30
7.460285
 40
4.875
100
AcDbArc
 50
307.619865
 51
82.38013499999999
  0
LINE
  5
671
330
1C3
100
AcDbEntity
  8
3
100
AcDbLine
 10
184.373976
 20
78.49831899999999
 30
7.460285
 11
186.703347
 21
69.804986
 31
7.460285
  0
LINE
  5
672
330
1C3
100
AcDbEntity
  8
1
100
AcDbLine
 10
148.601658
 20
48.3838
 30
7.460285
 11
148.601658
 21
71.753749
 31
7.460285
  0
LINE
  5
673
330
1C3
100
AcDbEntity
  8
3
100
AcDbLine
 10
148.601658
 20
49.34135799999999
 30
7.460285
 11
155.351658
 21
49.34135799999999
 31
7.460285
  0
ARC
  5
68A
330
1C3
100
AcDbEntity
  8
3
100
AcDbCircle
 10
184.000026
 20
67.249511
 30
7.460285
 40
2.078075999999999
100
AcDbArc
 50
73.33560300000001
 51
136.664397
  0
ARC
  5
68B
330
1C3
100
AcDbEntity
  8
3
100
AcDbCircle
 10
183.412836
 20
69.44093399999999
 30
7.460285
 40
1.199999999999999
100
AcDbArc
 50
219.624318
 51
350.3756819999999
  0
ARC
  5
68C
330
1C3
100
AcDbEntity
  8
3
100
AcDbCircle
 10
181.892624
 20
66.68483399999999
 30
7.460285
 40
2.078075999999999
100
AcDbArc
 50
73.33560300000001
 51
136.664397
  0
ARC
  5
68D
330
1C3
100
AcDbEntity
  8
3
100
AcDbCircle
 10
181.305434
 20
68.87625799999999
 30
7.460285
 40
1.199999999999999
100
AcDbArc
 50
219.624318
 51
350.3756819999999
  0
ARC
  5
68F
330
1C3
100
AcDbEntity
  8
3
100
AcDbCircle
 10
186.1074269999999
 20
67.814187
 30
7.460285
 40
2.078075999999999
100
AcDbArc
 50
73.33560300000001
 51
136.664397
  0
ARC
  5
690
330
1C3
100
AcDbEntity
  8
3
100
AcDbCircle
 10
185.520237
 20
70.005611
 30
7.460285
 40
1.199999999999999
100
AcDbArc
 50
219.624318
 51
350.3756819999999
  0
LINE
  5
691
330
1C3
100
AcDbEntity
  8
3
100
AcDbLine
 10
185.538661
 20
74.151652
 30
7.460285
 11
188.5783359999999
 21
74.151652
 31
7.460285
  0
LINE
  5
693
330
1C3
100
AcDbEntity
  8
3
100
AcDbLine
 10
185.538661
 20
113.788975
 30
7.460285
 11
154.286066
 21
113.788975
 31
7.460285
  0
ARC
  5
694
330
1C3
100
AcDbEntity
  8
3
100
AcDbCircle
 10
186.031732
 20
114.857509
 30
7.460285
 40
1.176811
100
AcDbArc
 50
197.7786219999999
 51
245.229221
  0
ARC
  5
695
330
1C3
100
AcDbEntity
  8
3
100
AcDbCircle
 10
154.7912269999999
 20
122.487652
 30
7.460285
 40
0.588203
100
AcDbArc
 50
149.1843949999999
 51
221.0274859999999
  0
LINE
  5
696
330
1C3
100
AcDbEntity
  8
3
100
AcDbLine
 10
185.538661
 20
122.7889749999999
 30
7.460285
 11
154.286066
 21
122.7889749999999
 31
7.460285
  0
ARC
  5
697
330
1C3
100
AcDbEntity
  8
3
100
AcDbCircle
 10
186.031732
 20
121.7204409999999
 30
7.460285
 40
1.176811
100
AcDbArc
 50
114.770779
 51
162.221378
  0
LINE
  5
955
330
1C3
100
AcDbEntity
  8
3
100
AcDbLine
 10
73.671673
 20
36.341358
 30
7.460285
 11
73.671673
 21
49.34135799999999
 31
7.460285
  0
LINE
  5
956
330
1C3
100
AcDbEntity
  8
3
100
AcDbLine
 10
83.671673
 20
36.341358
 30
7.460285
 11
83.671673
 21
49.34135799999999
 31
7.460285
  0
LINE
  5
964
330
1C3
100
AcDbEntity
  8
3
100
AcDbLine
 10
78.671673
 20
35.341358
 30
7.460285
 11
82.671673
 21
35.341358
 31
7.460285
  0
ARC
  5
965
330
1C3
100
AcDbEntity
  8
3
100
AcDbCircle
 10
82.671673
 20
36.341358
 30
7.460285
 40
1.0
100
AcDbArc
 50
270.0
 51
0.0
  0
ARC
  5
967
330
1C3
100
AcDbEntity
  8
3
100
AcDbCircle
 10
74.67167299999999
 20
36.341358
 30
7.460285
 40
1.0
100
AcDbArc
 50
180.0
 51
270.0
  0
LINE
  5
969
330
1C3
100
AcDbEntity
  8
3
100
AcDbLine
 10
78.671673
 20
35.341358
 30
7.460285
 11
74.67167299999999
 21
35.341358
 31
7.460285
  0
LINE
  5
9C0
330
1C3
100
AcDbEntity
  8
3
100
AcDbLine
 10
148.601658
 20
35.341358
 30
7.460285
 11
144.601658
 21
35.341358
 31
7.460285
  0
LINE
  5
9C1
330
1C3
100
AcDbEntity
  8
3
100
AcDbLine
 10
143.601658
 20
36.341358
 30
7.460285
 11
143.601658
 21
49.34135799999999
 31
7.460285
  0
ARC
  5
9C2
330
1C3
100
AcDbEntity
  8
3
100
AcDbCircle
 10
144.601658
 20
36.341358
 30
7.460285
 40
1.0
100
AcDbArc
 50
180.0
 51
270.0
  0
LINE
  5
9C7
330
1C3
100
AcDbEntity
  8
3
100
AcDbLine
 10
148.601658
 20
35.341358
 30
7.460285
 11
152.601658
 21
35.341358
 31
7.460285
  0
LINE
  5
9C8
330
1C3
100
AcDbEntity
  8
3
100
AcDbLine
 10
153.601658
 20
36.341358
 30
7.460285
 11
153.601658
 21
49.34135799999999
 31
7.460285
  0
ARC
  5
9C9
330
1C3
100
AcDbEntity
  8
3
100
AcDbCircle
 10
152.601658
 20
36.341358
 30
7.460285
 40
1.0
100
AcDbArc
 50
270.0
 51
0.0
  0
LINE
  5
A2C
330
1C3
100
AcDbEntity
  8
1
100
AcDbLine
 10
148.601658
 20
49.34135799999999
 30
7.460285
 11
148.601658
 21
30.510552
 31
7.460285
  0
LINE
  5
A2D
330
1C3
100
AcDbEntity
  8
1
100
AcDbLine
 10
78.671673
 20
49.34135799999999
 30
7.460285
 11
78.671673
 21
14.510552
 31
7.460285
  0
LINE
  5
A2E
330
1C3
100
AcDbEntity
  8
3
100
AcDbLine
 10
150.601658
 20
35.341358
 30
7.460285
 11
150.601658
 21
21.341358
 31
7.460285
  0
LINE
  5
A2F
330
1C3
100
AcDbEntity
  8
0
100
AcDbLine
 10
150.101658
 20
20.341358
 30
7.460285
 11
150.101658
 21
34.34135799999999
 31
7.460285
  0
LINE
  5
A30
330
1C3
100
AcDbEntity
  8
0
100
AcDbLine
 10
147.101658
 20
20.341358
 30
7.460285
 11
147.101658
 21
34.34135799999999
 31
7.460285
  0
LINE
  5
A31
330
1C3
100
AcDbEntity
  8
3
100
AcDbLine
 10
146.601658
 20
35.341358
 30
7.460285
 11
146.601658
 21
21.341358
 31
7.460285
  0
LINE
  5
A32
330
1C3
100
AcDbEntity
  8
3
100
AcDbLine
 10
150.101658
 20
20.341358
 30
7.460285
 11
148.601658
 21
20.341358
 31
7.460285
  0
LINE
  5
A33
330
1C3
100
AcDbEntity
  8
0
100
AcDbLine
 10
150.601658
 20
21.341358
 30
7.460285
 11
148.601658
 21
21.341358
 31
7.460285
  0
LINE
  5
A34
330
1C3
100
AcDbEntity
  8
3
100
AcDbLine
 10
150.601658
 20
21.341358
 30
7.460285
 11
150.101658
 21
20.341358
 31
7.460285
  0
LINE
  5
A35
330
1C3
100
AcDbEntity
  8
0
100
AcDbLine
 10
146.601658
 20
21.341358
 30
7.460285
 11
148.601658
 21
21.341358
 31
7.460285
  0
LINE
  5
A36
330
1C3
100
AcDbEntity
  8
3
100
AcDbLine
 10
147.101658
 20
20.341358
 30
7.460285
 11
148.601658
 21
20.341358
 31
7.460285
  0
LINE
  5
A37
330
1C3
100
AcDbEntity
  8
3
100
AcDbLine
 10
146.601658
 20
21.341358
 30
7.460285
 11
147.101658
 21
20.341358
 31
7.460285
  0
LINE
  5
A38
330
1C3
100
AcDbEntity
  8
0
100
AcDbLine
 10
148.601658
 20
34.34135799999999
 30
7.460285
 11
150.601658
 21
34.34135799999999
 31
7.460285
  0
LINE
  5
A39
330
1C3
100
AcDbEntity
  8
0
100
AcDbLine
 10
148.601658
 20
34.34135799999999
 30
7.460285
 11
146.601658
 21
34.34135799999999
 31
7.460285
  0
LINE
  5
A46
330
1C3
100
AcDbEntity
  8
3
100
AcDbLine
 10
76.671673
 20
35.341358
 30
7.460285
 11
76.671673
 21
21.341358
 31
7.460285
  0
LINE
  5
A47
330
1C3
100
AcDbEntity
  8
0
100
AcDbLine
 10
77.17167299999999
 20
20.341358
 30
7.460285
 11
77.17167299999999
 21
34.34135799999999
 31
7.460285
  0
LINE
  5
A48
330
1C3
100
AcDbEntity
  8
0
100
AcDbLine
 10
80.171673
 20
20.341358
 30
7.460285
 11
80.171673
 21
34.34135799999999
 31
7.460285
  0
LINE
  5
A49
330
1C3
100
AcDbEntity
  8
3
100
AcDbLine
 10
80.67167299999999
 20
35.341358
 30
7.460285
 11
80.67167299999999
 21
21.341358
 31
7.460285
  0
LINE
  5
A4A
330
1C3
100
AcDbEntity
  8
0
100
AcDbLine
 10
80.67167299999999
 20
21.341358
 30
7.460285
 11
78.671673
 21
21.341358
 31
7.460285
  0
LINE
  5
A4B
330
1C3
100
AcDbEntity
  8
3
100
AcDbLine
 10
80.171673
 20
20.341358
 30
7.460285
 11
78.671673
 21
20.341358
 31
7.460285
  0
LINE
  5
A4C
330
1C3
100
AcDbEntity
  8
3
100
AcDbLine
 10
76.671673
 20
21.341358
 30
7.460285
 11
77.17167299999999
 21
20.341358
 31
7.460285
  0
LINE
  5
A4D
330
1C3
100
AcDbEntity
  8
3
100
AcDbLine
 10
77.17167299999999
 20
20.341358
 30
7.460285
 11
78.671673
 21
20.341358
 31
7.460285
  0
LINE
  5
A4E
330
1C3
100
AcDbEntity
  8
0
100
AcDbLine
 10
76.671673
 20
21.341358
 30
7.460285
 11
78.671673
 21
21.341358
 31
7.460285
  0
LINE
  5
A4F
330
1C3
100
AcDbEntity
  8
3
100
AcDbLine
 10
80.67167299999999
 20
21.341358
 30
7.460285
 11
80.171673
 21
20.341358
 31
7.460285
  0
LINE
  5
A50
330
1C3
100
AcDbEntity
  8
0
100
AcDbLine
 10
78.671673
 20
34.34135799999999
 30
7.460285
 11
80.67167299999999
 21
34.34135799999999
 31
7.460285
  0
LINE
  5
A51
330
1C3
100
AcDbEntity
  8
0
100
AcDbLine
 10
78.671673
 20
34.34135799999999
 30
7.460285
 11
76.671673
 21
34.34135799999999
 31
7.460285
  0
ENDSEC
  0
SECTION
  2
OBJECTS
  0
DICTIONARY
  5
1B8
330
0
100
AcDbDictionary
281
     1
  3
ACAD_GROUP
350
1B9
  3
ACAD_LAYOUT
350
A5F
  3
ACAD_MLINESTYLE
350
1C6
  3
ACAD_PLOTSETTINGS
350
A60
  3
ACAD_PLOTSTYLENAME
350
A5D
  3
ACDBVARIABLEDICTIONARY
350
1DE
  3
AcmDictionary
350
B1C
  3
AMG
350
A64
  3
AMGSNAPSETTINGS
350
B47
  3
DWGPROPS
350
B1F
  3
MAPISURF_MODULE
350
AEF
  0
DICTIONARY
  5
B39
330
1C3
100
AcDbDictionary
280
     1
281
     1
  3
ACAD_INDEX
360
B3A
  0
DICTIONARY
  5
1B9
102
{ACAD_REACTORS
330
1B8
102
}
330
1B8
100
AcDbDictionary
281
     1
  0
DICTIONARY
  5
A5F
102
{ACAD_REACTORS
330
1B8
102
}
330
1B8
100
AcDbDictionary
281
     1
  3
Model
350
A61
  3
ﾚｲｱｳﾄ1
350
A62
  0
DICTIONARY
  5
1C6
102
{ACAD_REACTORS
330
1B8
102
}
330
1B8
100
AcDbDictionary
281
     1
  3
STANDARD
350
1C7
  0
DICTIONARY
  5
A60
102
{ACAD_REACTORS
330
1B8
102
}
330
1B8
100
AcDbDictionary
281
     1
  0
ACDBDICTIONARYWDFLT
  5
A5D
102
{ACAD_REACTORS
330
1B8
102
}
330
1B8
100
AcDbDictionary
281
     1
  3
Normal
350
A5E
100
AcDbDictionaryWithDefault
340
A5E
  0
DICTIONARY
  5
1DE
102
{ACAD_REACTORS
330
1B8
102
}
330
1B8
100
AcDbDictionary
281
     1
  3
DIMADEC
350
1DF
  3
DIMASSOC
350
B45
  3
INDEXCTL
350
B44
  0
DICTIONARY
  5
B1C
102
{ACAD_REACTORS
330
1B8
102
}
330
1B8
100
AcDbDictionary
281
     1
  3
AcmBOMDATA
350
B1D
  0
DICTIONARY
  5
A64
102
{ACAD_REACTORS
330
1B8
102
}
330
1B8
100
AcDbDictionary
281
     1
  3
AcMgSettings
350
A65
  3
AMGLAYCFG
350
B29
  0
DICTIONARY
  5
B47
102
{ACAD_REACTORS
330
1B8
102
}
330
1B8
100
AcDbDictionary
281
     1
  3
DIMENSION
350
B4C
  3
FEA
350
B4B
  3
HATCH (1)
350
B48
  3
HATCH (2)
350
B49
  3
SIMPLE WELD
350
B4D
  3
SYMBOLS
350
B4A
  0
XRECORD
  5
B1F
102
{ACAD_REACTORS
330
1B8
102
}
330
1B8
100
AcDbXrecord
280
     1
  1
DWGPROPS COOKIE
  2

  3

  4

  6

  7

  8

  9

300
AmdtFileType=84
301
=
302
=
303
=
304
=
305
=
306
=
307
=
308
=
309
=
 40
0.0310552314814815
 41
2450868.949313078
 42
2453594.592517361
  1

 90
        1
  0
DICTIONARY
  5
B3A
102
{ACAD_REACTORS
330
B39
102
}
330
B39
100
AcDbDictionary
281
     1
  3
*A1
350
B3B
  0
LAYOUT
  5
A61
102
{ACAD_REACTORS
330
A5F
102
}
330
A5F
100
AcDbPlotSettings
  1

  2
\\KONISHIDENXP\SHARP MX-2700FG
  4

  6

 40
0.0
 41
0.0
 42
0.0
 43
0.0
 44
0.0
 45
0.0
 46
0.0
 47
0.0
 48
0.0
 49
0.0
140
0.0
141
0.0
142
1.0
143
1.0
 70
  1712
 72
     0
 73
     0
 74
     0
  7

 75
     0
147
1.0
148
0.0
149
0.0
100
AcDbLayout
  1
Model
 70
     1
 71
     0
 10
0.0
 20
0.0
 11
12.0
 21
9.0
 12
0.0
 22
0.0
 32
0.0
 14
0.0
 24
0.0
 34
0.0
 15
0.0
 25
0.0
 35
0.0
146
0.0
 13
0.0
 23
0.0
 33
0.0
 16
1.0
 26
0.0
 36
0.0
 17
0.0
 27
1.0
 37
0.0
 76
     0
330
1C3
  0
LAYOUT
  5
A62
102
{ACAD_REACTORS
330
A5F
102
}
330
A5F
100
AcDbPlotSettings
  1

  2
\\KONISHIDENXP\SHARP MX-2700FG
  4

  6

 40
0.0
 41
0.0
 42
0.0
 43
0.0
 44
0.0
 45
0.0
 46
0.0
 47
0.0
 48
0.0
 49
0.0
140
0.0
141
0.0
142
1.0
143
1.0
 70
   688
 72
     0
 73
     0
 74
     5
  7

 75
    16
147
1.0
148
0.0
149
0.0
100
AcDbLayout
  1
ﾚｲｱｳﾄ1
 70
     0
 71
     1
 10
0.0
 20
0.0
 11
12.0
 21
9.0
 12
0.0
 22
0.0
 32
0.0
 14
1.000000000000000E+20
 24
1.000000000000000E+20
 34
1.000000000000000E+20
 15
-1.000000000000000E+20
 25
-1.000000000000000E+20
 35
-1.000000000000000E+20
146
0.0
 13
0.0
 23
0.0
 33
0.0
 16
1.0
 26
0.0
 36
0.0
 17
0.0
 27
1.0
 37
0.0
 76
     0
330
1C0
  0
MLINESTYLE
  5
1C7
102
{ACAD_REACTORS
330
1C6
102
}
330
1C6
100
AcDbMlineStyle
  2
STANDARD
 70
     0
  3

 62
   256
 51
90.0
 52
90.0
 71
     2
 49
0.5
 62
   256
  6
BYLAYER
 49
-0.5
 62
   256
  6
BYLAYER
  0
ACDBPLACEHOLDER
  5
A5E
102
{ACAD_REACTORS
330
A5D
102
}
330
A5D
  0
DICTIONARYVAR
  5
1DF
102
{ACAD_REACTORS
330
1DE
102
}
330
1DE
100
DictionaryVariables
280
     0
  1
0
  0
DICTIONARYVAR
  5
B45
102
{ACAD_REACTORS
330
1DE
102
}
330
1DE
100
DictionaryVariables
280
     0
  1
0
  0
DICTIONARYVAR
  5
B44
102
{ACAD_REACTORS
330
1DE
102
}
330
1DE
100
DictionaryVariables
280
     0
  1
1
  0
ACMDATADICTIONARY
  5
B1D
102
{ACAD_REACTORS
330
B1C
102
}
330
B1C
100
AcDbDictionary
281
     1
  3
*A1
350
B1E
100
AcmDataDictionary
  0
DICTIONARY
  5
A65
102
{ACAD_REACTORS
330
A64
102
}
330
A64
100
AcDbDictionary
281
     1
  3
DWGSETTINGS
350
A66
  0
ACAMGFILTERDAT
  5
B4C
102
{ACAD_REACTORS
330
B47
102
}
330
B47
100
AcAmgFilterDat
 70
    15
  1
DIMENSION,AMDT_*_DIM
  2
*
  3
*
  4
*
  5
*
290
     1
  0
ACAMGFILTERDAT
  5
B4B
102
{ACAD_REACTORS
330
B47
102
}
330
B47
100
AcAmgFilterDat
 70
    15
  1
*
  2
AM_FEA-AM_*
  3
*
  4
*
  5
*
290
     1
  0
ACAMGFILTERDAT
  5
B48
102
{ACAD_REACTORS
330
B47
102
}
330
B47
100
AcAmgFilterDat
 70
    15
  1
HATCH
  2
*
  3
*
  4
*
  5
*
290
     1
  0
ACAMGFILTERDAT
  5
B49
102
{ACAD_REACTORS
330
B47
102
}
330
B47
100
AcAmgFilterDat
 70
    15
  1
LINE
  2
8,8N,*-8,*-8N,AM_8,AM_8N,*-AM_8,*-AM_8N
  3
*
  4
*
  5
INSERT,STDPART2D
290
     1
  0
ACAMGFILTERDAT
  5
B4D
102
{ACAD_REACTORS
330
B47
102
}
330
B47
100
AcAmgFilterDat
 70
    15
  1
ARC
  2
AM_5
  3
*
  4
2
  5
INSERT
290
     0
  0
ACAMGFILTERDAT
  5
B4A
102
{ACAD_REACTORS
330
B47
102
}
330
B47
100
AcAmgFilterDat
 70
    15
  1
ACMFCFRAME,ACMDATUMTARGET,ACMDATUMID,ACMWELDSYM,ACMSURFSYM,ACMFEATID,ACMPARTREF,ACMBALLOON,AMDTEDGESYM,AMGSCREWCALCTABLE
  2
*
  3
*
  4
*
  5
*
290
     1
  0
LAYER_INDEX
  5
B3B
102
{ACAD_REACTORS
330
B3A
102
}
330
B3A
100
AcDbIndex
 40
2455813.644807395
100
AcDbLayerIndex
  8
0
360
B3C
 90
       12
  8
1
360
B3D
 90
        7
  8
3
360
B3E
 90
       92
  8
4
360
B3F
 90
        0
  8
10
360
B40
 90
        0
  8
11
360
B41
 90
        0
  8
2
360
B42
 90
        0
  8
DEFPOINTS
360
B43
 90
        0
  0
ACMDATAENTRYBLOCK
  5
B1E
102
{ACAD_REACTORS
330
B1D
102
}
330
B1D
100
AcmDataEntry
100
AcmDataEntryBlock
  0
IDBUFFER
  5
B3C
330
0
100
AcDbIdBuffer
330
A2F
330
A30
330
A33
330
A35
330
A38
330
A39
330
A47
330
A48
330
A4A
330
A4E
330
A50
330
A51
  0
IDBUFFER
  5
B3D
330
0
100
AcDbIdBuffer
330
602
330
612
330
615
330
658
330
A2D
330
672
330
A2C
  0
IDBUFFER
  5
B3E
330
0
100
AcDbIdBuffer
330
665
330
666
330
667
330
668
330
669
330
670
330
671
330
673
330
68A
330
68B
330
68C
330
68D
330
68F
330
690
330
691
330
693
330
694
330
695
330
696
330
697
330
955
330
956
330
964
330
965
330
967
330
969
330
9C0
330
9C1
330
9C2
330
9C7
330
9C8
330
9C9
330
A2E
330
A31
330
A32
330
A34
330
A36
330
A37
330
A46
330
A49
330
A4B
330
A4C
330
A4D
330
A4F
330
5F5
330
5F6
330
5F7
330
5F8
330
601
330
603
330
608
330
609
330
60B
330
60C
330
60D
330
60E
330
60F
330
610
330
611
330
613
330
614
330
616
330
617
330
618
330
619
330
61A
330
61B
330
61C
330
61D
330
61E
330
61F
330
620
330
621
330
622
330
623
330
641
330
642
330
650
330
651
330
652
330
655
330
656
330
657
330
65B
330
65C
330
65D
330
65E
330
660
330
661
330
662
330
663
330
664
  0
IDBUFFER
  5
B3F
330
0
100
AcDbIdBuffer
  0
IDBUFFER
  5
B40
330
0
100
AcDbIdBuffer
  0
IDBUFFER
  5
B41
330
0
100
AcDbIdBuffer
  0
IDBUFFER
  5
B42
330
0
100
AcDbIdBuffer
  0
IDBUFFER
  5
B43
330
0
100
AcDbIdBuffer
  0
ENDSEC
  0
EOF
