  0
SECTION
  2
HEADER
  9
$ACADVER
  1
AC1014
  9
$ACADMAINTVER
 70
     0
  9
$DWGCODEPAGE
  3
ANSI_932
  9
$INSBASE
 10
0.0
 20
0.0
 30
0.0
  9
$EXTMIN
 10
20.0
 20
20.0
 30
0.0
  9
$EXTMAX
 10
237.5
 20
152.153473
 30
0.0
  9
$LIMMIN
 10
0.0
 20
0.0
  9
$LIMMAX
 10
250.0
 20
160.0
  9
$ORTHOMODE
 70
     1
  9
$REGENMODE
 70
     1
  9
$FILLMODE
 70
     1
  9
$QTEXTMODE
 70
     0
  9
$MIRRTEXT
 70
     1
  9
$DRAGMODE
 70
     1
  9
$LTSCALE
 40
20.0
  9
$OSMODE
 70
    32
  9
$ATTMODE
 70
     1
  9
$TEXTSIZE
 40
8.5
  9
$TRACEWID
 40
0.05
  9
$TEXTSTYLE
  7
BIGFONT
  9
$CLAYER
  8
1
  9
$CELTYPE
  6
BYLAYER
  9
$CECOLOR
 62
   256
  9
$CELTSCALE
 40
1.0
  9
$DELOBJ
 70
     1
  9
$DISPSILH
 70
     0
  9
$DIMSCALE
 40
2.0
  9
$DIMASZ
 40
3.0
  9
$DIMEXO
 40
2.0
  9
$DIMDLI
 40
0.38
  9
$DIMRND
 40
0.0
  9
$DIMDLE
 40
0.0
  9
$DIMEXE
 40
2.0
  9
$DIMTP
 40
0.0
  9
$DIMTM
 40
0.0
  9
$DIMTXT
 40
3.2
  9
$DIMCEN
 40
0.09
  9
$DIMTSZ
 40
0.0
  9
$DIMTOL
 70
     0
  9
$DIMLIM
 70
     0
  9
$DIMTIH
 70
     0
  9
$DIMTOH
 70
     0
  9
$DIMSE1
 70
     0
  9
$DIMSE2
 70
     0
  9
$DIMTAD
 70
     1
  9
$DIMZIN
 70
     0
  9
$DIMBLK
  1

  9
$DIMASO
 70
     0
  9
$DIMSHO
 70
     0
  9
$DIMPOST
  1

  9
$DIMAPOST
  1

  9
$DIMALT
 70
     0
  9
$DIMALTD
 70
     2
  9
$DIMALTF
 40
25.4
  9
$DIMLFAC
 40
1.0
  9
$DIMTOFL
 70
     0
  9
$DIMTVP
 40
1.6
  9
$DIMTIX
 70
     1
  9
$DIMSOXD
 70
     0
  9
$DIMSAH
 70
     0
  9
$DIMBLK1
  1

  9
$DIMBLK2
  1

  9
$DIMSTYLE
  2
STANDARD
  9
$DIMCLRD
 70
     0
  9
$DIMCLRE
 70
     0
  9
$DIMCLRT
 70
     0
  9
$DIMTFAC
 40
1.0
  9
$DIMGAP
 40
0.09
  9
$DIMJUST
 70
     0
  9
$DIMSD1
 70
     0
  9
$DIMSD2
 70
     0
  9
$DIMTOLJ
 70
     1
  9
$DIMTZIN
 70
     0
  9
$DIMALTZ
 70
     0
  9
$DIMALTTZ
 70
     0
  9
$DIMFIT
 70
     5
  9
$DIMUPT
 70
     0
  9
$DIMUNIT
 70
     2
  9
$DIMDEC
 70
     4
  9
$DIMTDEC
 70
     4
  9
$DIMALTU
 70
     2
  9
$DIMALTTD
 70
     2
  9
$DIMTXSTY
  7
BIGFONT
  9
$DIMAUNIT
 70
     0
  9
$LUNITS
 70
     2
  9
$LUPREC
 70
     4
  9
$SKETCHINC
 40
0.1
  9
$FILLETRAD
 40
0.0
  9
$AUNITS
 70
     0
  9
$AUPREC
 70
     0
  9
$MENU
  1
ACAD
  9
$ELEVATION
 40
0.0
  9
$PELEVATION
 40
0.0
  9
$THICKNESS
 40
0.0
  9
$LIMCHECK
 70
     0
  9
$BLIPMODE
 70
     0
  9
$CHAMFERA
 40
0.0
  9
$CHAMFERB
 40
0.0
  9
$CHAMFERC
 40
0.0
  9
$CHAMFERD
 40
0.0
  9
$SKPOLY
 70
     0
  9
$TDCREATE
 40
2450865.684213310
  9
$TDUPDATE
 40
2453594.580518842
  9
$TDINDWG
 40
0.0063216204
  9
$TDUSRTIMER
 40
0.0063216204
  9
$USRTIMER
 70
     1
  9
$ANGBASE
 50
0.0
  9
$ANGDIR
 70
     0
  9
$PDMODE
 70
     0
  9
$PDSIZE
 40
0.0
  9
$PLINEWID
 40
0.0
  9
$COORDS
 70
     2
  9
$SPLFRAME
 70
     0
  9
$SPLINETYPE
 70
     6
  9
$SPLINESEGS
 70
     8
  9
$ATTDIA
 70
     0
  9
$ATTREQ
 70
     1
  9
$HANDLING
 70
     1
  9
$HANDSEED
  5
419
  9
$SURFTAB1
 70
     6
  9
$SURFTAB2
 70
     6
  9
$SURFTYPE
 70
     6
  9
$SURFU
 70
     6
  9
$SURFV
 70
     6
  9
$UCSNAME
  2

  9
$UCSORG
 10
0.0
 20
0.0
 30
0.0
  9
$UCSXDIR
 10
1.0
 20
0.0
 30
0.0
  9
$UCSYDIR
 10
0.0
 20
1.0
 30
0.0
  9
$PUCSNAME
  2

  9
$PUCSORG
 10
0.0
 20
0.0
 30
0.0
  9
$PUCSXDIR
 10
1.0
 20
0.0
 30
0.0
  9
$PUCSYDIR
 10
0.0
 20
1.0
 30
0.0
  9
$USERI1
 70
     0
  9
$USERI2
 70
     0
  9
$USERI3
 70
     0
  9
$USERI4
 70
     0
  9
$USERI5
 70
     0
  9
$USERR1
 40
0.0
  9
$USERR2
 40
0.0
  9
$USERR3
 40
0.0
  9
$USERR4
 40
0.0
  9
$USERR5
 40
0.0
  9
$WORLDVIEW
 70
     1
  9
$SHADEDGE
 70
     3
  9
$SHADEDIF
 70
    70
  9
$TILEMODE
 70
     1
  9
$MAXACTVP
 70
    16
  9
$PINSBASE
 10
0.0
 20
0.0
 30
0.0
  9
$PLIMCHECK
 70
     0
  9
$PEXTMIN
 10
1.000000E+20
 20
1.000000E+20
 30
1.000000E+20
  9
$PEXTMAX
 10
-1.000000E+20
 20
-1.000000E+20
 30
-1.000000E+20
  9
$PLIMMIN
 10
0.0
 20
0.0
  9
$PLIMMAX
 10
12.0
 20
9.0
  9
$UNITMODE
 70
     0
  9
$VISRETAIN
 70
     0
  9
$PLINEGEN
 70
     1
  9
$PSLTSCALE
 70
     0
  9
$TREEDEPTH
 70
  3020
  9
$PICKSTYLE
 70
     1
  9
$CMLSTYLE
  2
STANDARD
  9
$CMLJUST
 70
     0
  9
$CMLSCALE
 40
1.0
  9
$PROXYGRAPHICS
 70
     1
  9
$MEASUREMENT
 70
     0
  0
ENDSEC
  0
SECTION
  2
CLASSES
  0
CLASS
  1
DICTIONARYVAR
  2
AcDbDictionaryVar
  3
"AutoCAD"
 90
        0
280
     0
281
     0
  0
CLASS
  1
LWPOLYLINE
  2
AcDbPolyline
  3
"AutoCAD"
 90
        0
280
     0
281
     1
  0
ENDSEC
  0
SECTION
  2
TABLES
  0
TABLE
  2
VPORT
  5
120
100
AcDbSymbolTable
 70
     5
  0
VPORT
  5
418
100
AcDbSymbolTableRecord
100
AcDbViewportTableRecord
  2
*ACTIVE
 70
     0
 10
0.0
 20
0.0
 11
1.0
 21
1.0
 12
141.889764
 22
98.881727
 13
0.0
 23
0.0
 14
5.0
 24
5.0
 15
10.0
 25
10.0
 16
0.0
 26
0.0
 36
1.0
 17
0.0
 27
0.0
 37
0.0
 40
197.763453
 41
1.434944
 42
50.0
 43
0.0
 44
0.0
 50
0.0
 51
0.0
 71
     0
 72
  1000
 73
     1
 74
     1
 75
     0
 76
     0
 77
     0
 78
     2
  0
ENDTAB
  0
TABLE
  2
LTYPE
  5
11D
100
AcDbSymbolTable
 70
     6
  0
LTYPE
  5
129
100
AcDbSymbolTableRecord
100
AcDbLinetypeTableRecord
  2
BYBLOCK
 70
     0
  3

 72
    65
 73
     0
 40
0.0
  0
LTYPE
  5
12A
100
AcDbSymbolTableRecord
100
AcDbLinetypeTableRecord
  2
BYLAYER
 70
     0
  3

 72
    65
 73
     0
 40
0.0
  0
LTYPE
  5
12B
100
AcDbSymbolTableRecord
100
AcDbLinetypeTableRecord
  2
CONTINUOUS
 70
     0
  3
実線
 72
    65
 73
     0
 40
0.0
  0
LTYPE
  5
13A
100
AcDbSymbolTableRecord
100
AcDbLinetypeTableRecord
  2
CENTER
 70
     0
  3
____ _ ____ _ ____ _ ____ _ ____ _ ____ _ ____
 72
    65
 73
     4
 40
2.0
 49
1.25
 74
     0
 49
-0.25
 74
     0
 49
0.25
 74
     0
 49
-0.25
 74
     0
  0
LTYPE
  5
13B
100
AcDbSymbolTableRecord
100
AcDbLinetypeTableRecord
  2
ITTEN1
 70
     0
  3

 72
    65
 73
     4
 40
8.2
 49
5.0
 74
     0
 49
-1.0
 74
     0
 49
1.2
 74
     0
 49
-1.0
 74
     0
  0
LTYPE
  5
13C
100
AcDbSymbolTableRecord
100
AcDbLinetypeTableRecord
  2
TENSEN1
 70
     0
  3

 72
    65
 73
     2
 40
0.4
 49
0.3
 74
     0
 49
-0.1
 74
     0
  0
LTYPE
  5
15B
100
AcDbSymbolTableRecord
100
AcDbLinetypeTableRecord
  2
TENSEN
 70
     0
  3

 72
    65
 73
     2
 40
4.0
 49
3.0
 74
     0
 49
-1.0
 74
     0
  0
LTYPE
  5
20F
100
AcDbSymbolTableRecord
100
AcDbLinetypeTableRecord
  2
TENSEN2
 70
     0
  3

 72
    65
 73
     2
 40
2.1
 49
1.5
 74
     0
 49
-0.6
 74
     0
  0
ENDTAB
  0
TABLE
  2
LAYER
  5
11A
100
AcDbSymbolTable
 70
     7
  0
LAYER
  5
126
100
AcDbSymbolTableRecord
100
AcDbLayerTableRecord
  2
0
 70
     0
 62
     7
  6
CONTINUOUS
  0
LAYER
  5
141
100
AcDbSymbolTableRecord
100
AcDbLayerTableRecord
  2
1
 70
     0
 62
     1
  6
CENTER
  0
LAYER
  5
142
100
AcDbSymbolTableRecord
100
AcDbLayerTableRecord
  2
10
 70
     0
 62
     7
  6
CONTINUOUS
  0
LAYER
  5
143
100
AcDbSymbolTableRecord
100
AcDbLayerTableRecord
  2
11
 70
     0
 62
     3
  6
CONTINUOUS
  0
LAYER
  5
144
100
AcDbSymbolTableRecord
100
AcDbLayerTableRecord
  2
2
 70
     0
 62
     2
  6
TENSEN1
  0
LAYER
  5
15C
100
AcDbSymbolTableRecord
100
AcDbLayerTableRecord
  2
3
 70
     0
 62
     3
  6
CONTINUOUS
  0
LAYER
  5
15D
100
AcDbSymbolTableRecord
100
AcDbLayerTableRecord
  2
DEFPOINTS
 70
     0
 62
     7
  6
CONTINUOUS
  0
ENDTAB
  0
TABLE
  2
STYLE
  5
11B
100
AcDbSymbolTable
 70
     5
  0
STYLE
  5
127
100
AcDbSymbolTableRecord
100
AcDbTextStyleTableRecord
  2
STANDARD
 70
     0
 40
0.0
 41
1.0
 50
0.0
 71
     0
 42
0.2
  3
TXT
  4
BIGFONT
  0
STYLE
  5
136
100
AcDbSymbolTableRecord
100
AcDbTextStyleTableRecord
  2
K80
 70
     0
 40
0.0
 41
0.8
 50
0.0
 71
     0
 42
0.2
  3
TXT
  4
BIGFONT
  0
STYLE
  5
137
100
AcDbSymbolTableRecord
100
AcDbTextStyleTableRecord
  2
07500
 70
     0
 40
0.0
 41
0.75
 50
0.0
 71
     0
 42
0.2
  3
TXT
  4
BIGFONT
  0
STYLE
  5
138
100
AcDbSymbolTableRecord
100
AcDbTextStyleTableRecord
  2
EXTFONT
 70
     0
 40
11.0
 41
1.0
 50
0.0
 71
     0
 42
11.0
  3
txt.shx
  4
extfont
  0
STYLE
  5
139
100
AcDbSymbolTableRecord
100
AcDbTextStyleTableRecord
  2
BIGFONT
 70
     0
 40
8.5
 41
0.8
 50
0.0
 71
     0
 42
8.5
  3
txt.shx
  4
bigfont
  0
ENDTAB
  0
TABLE
  2
VIEW
  5
11E
100
AcDbSymbolTable
 70
     1
  0
VIEW
  5
13D
100
AcDbSymbolTableRecord
100
AcDbViewTableRecord
  2
ALL
 70
     0
 40
540.0
 10
441.983193
 20
270.0
 41
0.0
 11
0.0
 21
0.0
 31
1.0
 12
0.0
 22
0.0
 32
0.0
 42
0.0
 43
0.0
 44
0.0
 50
0.0
 71
     0
  0
ENDTAB
  0
TABLE
  2
UCS
  5
11F
100
AcDbSymbolTable
 70
     0
  0
ENDTAB
  0
TABLE
  2
APPID
  5
121
100
AcDbSymbolTable
 70
     1
  0
APPID
  5
128
100
AcDbSymbolTableRecord
100
AcDbRegAppTableRecord
  2
ACAD
 70
     0
  0
ENDTAB
  0
TABLE
  2
DIMSTYLE
  5
122
100
AcDbSymbolTable
 70
     1
  0
DIMSTYLE
105
140
100
AcDbSymbolTableRecord
100
AcDbDimStyleTableRecord
  2
STANDARD
 70
     0
  3

  4

  5

  6

  7

 40
1.0
 41
0.18
 42
0.0625
 43
0.38
 44
0.18
 45
0.0
 46
0.0
 47
0.0
 48
0.0
140
0.18
141
0.09
142
0.0
143
25.4
144
1.0
145
0.0
146
1.0
147
0.09
 71
     0
 72
     0
 73
     1
 74
     1
 75
     0
 76
     0
 77
     0
 78
     0
170
     0
171
     2
172
     0
173
     0
174
     0
175
     0
176
     0
177
     0
178
     0
270
     2
271
     4
272
     4
273
     2
274
     2
340
139
275
     0
280
     0
281
     0
282
     0
283
     1
284
     0
285
     0
286
     0
287
     5
288
     0
  0
ENDTAB
  0
TABLE
  2
BLOCK_RECORD
  5
119
100
AcDbSymbolTable
 70
    12
  0
BLOCK_RECORD
  5
12F
100
AcDbSymbolTableRecord
100
AcDbBlockTableRecord
  2
*MODEL_SPACE
  0
BLOCK_RECORD
  5
12C
100
AcDbSymbolTableRecord
100
AcDbBlockTableRecord
  2
*PAPER_SPACE
  0
BLOCK_RECORD
  5
134
100
AcDbSymbolTableRecord
100
AcDbBlockTableRecord
  2
WAKU
  0
BLOCK_RECORD
  5
135
100
AcDbSymbolTableRecord
100
AcDbBlockTableRecord
  2
QQ
  0
BLOCK_RECORD
  5
15E
100
AcDbSymbolTableRecord
100
AcDbBlockTableRecord
  2
A$C4A954E17
  0
BLOCK_RECORD
  5
204
100
AcDbSymbolTableRecord
100
AcDbBlockTableRecord
  2
*D3
  0
BLOCK_RECORD
  5
210
100
AcDbSymbolTableRecord
100
AcDbBlockTableRecord
  2
A$C5BB252F2
  0
BLOCK_RECORD
  5
2C0
100
AcDbSymbolTableRecord
100
AcDbBlockTableRecord
  2
*D5
  0
BLOCK_RECORD
  5
2F1
100
AcDbSymbolTableRecord
100
AcDbBlockTableRecord
  2
*D6
  0
BLOCK_RECORD
  5
2FF
100
AcDbSymbolTableRecord
100
AcDbBlockTableRecord
  2
*D7
  0
BLOCK_RECORD
  5
30C
100
AcDbSymbolTableRecord
100
AcDbBlockTableRecord
  2
A$C13AB0A02
  0
BLOCK_RECORD
  5
362
100
AcDbSymbolTableRecord
100
AcDbBlockTableRecord
  2
*D9
  0
BLOCK_RECORD
  5
36F
100
AcDbSymbolTableRecord
100
AcDbBlockTableRecord
  2
*D10
  0
BLOCK_RECORD
  5
394
100
AcDbSymbolTableRecord
100
AcDbBlockTableRecord
  2
A$C39A97E20
  0
ENDTAB
  0
ENDSEC
  0
SECTION
  2
BLOCKS
  0
BLOCK
  5
147
100
AcDbEntity
  8
0
100
AcDbBlockBegin
  2
*MODEL_SPACE
 70
     0
 10
0.0
 20
0.0
 30
0.0
  3
*MODEL_SPACE
  1

  0
ENDBLK
  5
148
100
AcDbEntity
  8
0
100
AcDbBlockEnd
  0
BLOCK
  5
145
100
AcDbEntity
 67
     1
  8
0
100
AcDbBlockBegin
  2
*PAPER_SPACE
 70
     0
 10
0.0
 20
0.0
 30
0.0
  3
*PAPER_SPACE
  1

  0
ENDBLK
  5
146
100
AcDbEntity
 67
     1
  8
0
100
AcDbBlockEnd
  0
BLOCK
  5
30
100
AcDbEntity
  8
0
100
AcDbBlockBegin
  2
WAKU
 70
     0
 10
549.0
 20
0.0
 30
0.0
  3
WAKU
  1

  0
LINE
  5
31
100
AcDbEntity
  8
11
100
AcDbLine
 10
452.0
 20
12.0
 30
0.0
 11
549.0
 21
12.0
 31
0.0
  0
LINE
  5
32
100
AcDbEntity
  8
11
100
AcDbLine
 10
477.0
 20
0.0
 30
0.0
 11
477.0
 21
12.0
 31
0.0
  0
LINE
  5
33
100
AcDbEntity
  8
11
100
AcDbLine
 10
452.0
 20
12.0
 30
0.0
 11
452.0
 21
0.0
 31
0.0
  0
TEXT
  5
34
100
AcDbEntity
  8
11
100
AcDbText
 10
454.0
 20
8.5
 30
0.0
 40
2.5
  1
尺度
100
AcDbText
  0
TEXT
  5
35
100
AcDbEntity
  8
11
100
AcDbText
 10
479.0
 20
8.5
 30
0.0
 40
2.5
  1
図番
100
AcDbText
  0
ENDBLK
  5
36
100
AcDbEntity
  8
0
100
AcDbBlockEnd
  0
BLOCK
  5
37
100
AcDbEntity
  8
0
100
AcDbBlockBegin
  2
QQ
 70
     0
 10
270.0
 20
0.0
 30
0.0
  3
QQ
  1

  0
LINE
  5
38
100
AcDbEntity
  8
11
100
AcDbLine
 10
173.0
 20
36.0
 30
0.0
 11
270.0
 21
36.0
 31
0.0
  0
TEXT
  5
39
100
AcDbEntity
  8
11
100
AcDbText
 10
175.0
 20
32.5
 30
0.0
 40
2.5
  1
部品名称
100
AcDbText
  0
LINE
  5
3A
100
AcDbEntity
  8
11
100
AcDbLine
 10
173.0
 20
36.0
 30
0.0
 11
173.0
 21
0.0
 31
0.0
  0
LINE
  5
3B
100
AcDbEntity
  8
11
100
AcDbLine
 10
173.0
 20
24.0
 30
0.0
 11
270.0
 21
24.0
 31
0.0
  0
TEXT
  5
3C
100
AcDbEntity
  8
11
100
AcDbText
 10
175.0
 20
20.5
 30
0.0
 40
2.5
  1
品番
100
AcDbText
  0
LINE
  5
3D
100
AcDbEntity
  8
11
100
AcDbLine
 10
173.0
 20
12.0
 30
0.0
 11
270.0
 21
12.0
 31
0.0
  0
TEXT
  5
3E
100
AcDbEntity
  8
11
100
AcDbText
 10
175.0
 20
8.5
 30
0.0
 40
2.5
  1
尺度
100
AcDbText
  0
TEXT
  5
3F
100
AcDbEntity
  8
11
100
AcDbText
 10
200.0
 20
8.5
 30
0.0
 40
2.5
  1
図番
100
AcDbText
  0
LINE
  5
40
100
AcDbEntity
  8
11
100
AcDbLine
 10
198.0
 20
0.0
 30
0.0
 11
198.0
 21
12.0
 31
0.0
  0
ENDBLK
  5
41
100
AcDbEntity
  8
0
100
AcDbBlockEnd
  0
BLOCK
  5
1B0
100
AcDbEntity
  8
0
100
AcDbBlockBegin
  2
A$C4A954E17
 70
     0
 10
0.0
 20
0.0
 30
0.0
  3
A$C4A954E17
  1

  0
LINE
  5
15F
100
AcDbEntity
  8
0
100
AcDbLine
 10
47.750721
 20
24.612077
 30
0.0
 11
44.743708
 21
25.276155
 31
0.0
  0
LINE
  5
160
100
AcDbEntity
  8
0
100
AcDbLine
 10
45.672106
 20
22.339966
 30
0.0
 11
47.750721
 21
24.612077
 31
0.0
  0
LINE
  5
161
100
AcDbEntity
  8
3
100
AcDbLine
 10
53.75
 20
9.75
 30
0.0
 11
33.75
 21
8.75
 31
0.0
  0
LINE
  5
162
100
AcDbEntity
  8
3
100
AcDbLine
 10
53.75
 20
20.75
 30
0.0
 11
33.75
 21
21.75
 31
0.0
  0
LINE
  5
163
100
AcDbEntity
  8
2
100
AcDbLine
 10
53.75
 20
12.25
 30
0.0
 11
30.75
 21
12.25
 31
0.0
  0
LINE
  5
164
100
AcDbEntity
  8
3
100
AcDbLine
 10
53.75
 20
18.25
 30
0.0
 11
30.75
 21
18.25
 31
0.0
  0
LINE
  5
165
100
AcDbEntity
  8
1
100
AcDbLine
 10
56.5
 20
15.25
 30
0.0
 11
0.0
 21
15.25
 31
0.0
  0
LINE
  5
166
100
AcDbEntity
  8
0
100
AcDbLine
 10
0.525816
 20
12.828566
 30
0.0
 11
1.769413
 21
10.01137
 31
0.0
  0
LINE
  5
167
100
AcDbEntity
  8
0
100
AcDbLine
 10
3.587377
 20
12.496955
 30
0.0
 11
0.525816
 21
12.828566
 31
0.0
  0
LINE
  5
168
100
AcDbEntity
  8
0
100
AcDbLine
 10
22.360422
 20
26.479654
 30
0.0
 11
23.900156
 21
23.812756
 31
0.0
  0
LINE
  5
169
100
AcDbEntity
  8
0
100
AcDbLine
 10
25.43989
 20
26.479654
 30
0.0
 11
22.360422
 21
26.479654
 31
0.0
  0
LINE
  5
16A
100
AcDbEntity
  8
3
100
AcDbLine
 10
7.357695
 20
21.75
 30
0.0
 11
33.75
 21
21.75
 31
0.0
  0
LINE
  5
16B
100
AcDbEntity
  8
3
100
AcDbLine
 10
7.357695
 20
8.75
 30
0.0
 11
33.75
 21
8.75
 31
0.0
  0
LINE
  5
16C
100
AcDbEntity
  8
0
100
AcDbLine
 10
1.769413
 20
10.01137
 30
0.0
 11
3.587377
 21
12.496955
 31
0.0
  0
LINE
  5
16D
100
AcDbEntity
  8
3
100
AcDbLine
 10
6.25
 20
9.084764
 30
0.0
 11
6.25
 21
15.25
 31
0.0
  0
ARC
  5
16E
100
AcDbEntity
  8
3
100
AcDbCircle
 10
12.751717
 20
15.25
 30
0.0
 40
9.001718
100
AcDbArc
 50
142.338553
 51
217.661447
  0
ARC
  5
16F
100
AcDbEntity
  8
3
100
AcDbCircle
 10
7.357695
 20
10.75
 30
0.0
 40
2.0
100
AcDbArc
 50
210.0
 51
270.0
  0
LINE
  5
170
100
AcDbEntity
  8
0
100
AcDbLine
 10
3.01301
 20
7.194174
 30
0.0
 11
4.830975
 21
9.679759
 31
0.0
  0
LINE
  5
171
100
AcDbEntity
  8
0
100
AcDbLine
 10
1.769413
 20
10.01137
 30
0.0
 11
3.01301
 21
7.194174
 31
0.0
  0
POINT
  5
172
100
AcDbEntity
  8
DEFPOINTS
  6
BYBLOCK
 62
     0
100
AcDbPoint
 10
6.016372
 20
7.698487
 30
0.0
  0
SOLID
  5
173
100
AcDbEntity
  8
0
  6
BYBLOCK
 62
     0
100
AcDbTrace
 10
4.495721
 20
6.357319
 30
0.0
 11
5.012892
 21
5.936631
 31
0.0
 12
6.016372
 22
7.698487
 32
0.0
 13
6.016372
 23
7.698487
 33
0.0
  0
LINE
  5
174
100
AcDbEntity
  8
0
100
AcDbLine
 10
4.830975
 20
9.679759
 30
0.0
 11
1.769413
 21
10.01137
 31
0.0
  0
POINT
  5
175
100
AcDbEntity
  8
DEFPOINTS
  6
BYBLOCK
 62
     0
100
AcDbPoint
 10
7.278437
 20
9.25
 30
0.0
  0
LINE
  5
176
100
AcDbEntity
  8
0
  6
BYBLOCK
 62
     0
100
AcDbLine
 10
7.278437
 20
9.16
 30
0.0
 11
7.278437
 21
9.34
 31
0.0
  0
LINE
  5
177
100
AcDbEntity
  8
0
  6
BYBLOCK
 62
     0
100
AcDbLine
 10
7.188437
 20
9.25
 30
0.0
 11
7.368437
 21
9.25
 31
0.0
  0
POINT
  5
178
100
AcDbEntity
  8
DEFPOINTS
  6
BYBLOCK
 62
     0
100
AcDbPoint
 10
3.75
 20
15.25
 30
0.0
  0
ARC
  5
179
100
AcDbEntity
  8
3
100
AcDbCircle
 10
7.357695
 20
19.75
 30
0.0
 40
2.0
100
AcDbArc
 50
90.0
 51
150.0
  0
POINT
  5
17A
100
AcDbEntity
  8
DEFPOINTS
  6
BYBLOCK
 62
     0
100
AcDbPoint
 10
6.568813
 20
23.394663
 30
0.0
  0
LINE
  5
17B
100
AcDbEntity
  8
0
100
AcDbLine
 10
19.280953
 20
26.479654
 30
0.0
 11
20.820687
 21
23.812756
 31
0.0
  0
LINE
  5
17C
100
AcDbEntity
  8
0
100
AcDbLine
 10
20.820687
 20
23.812756
 30
0.0
 11
22.360422
 21
26.479654
 31
0.0
  0
LINE
  5
17D
100
AcDbEntity
  8
0
100
AcDbLine
 10
22.360422
 20
26.479654
 30
0.0
 11
19.280953
 21
26.479654
 31
0.0
  0
LINE
  5
17E
100
AcDbEntity
  8
3
100
AcDbLine
 10
33.75
 20
8.75
 30
0.0
 11
33.75
 21
15.25
 31
0.0
  0
POINT
  5
17F
100
AcDbEntity
  8
DEFPOINTS
  6
BYBLOCK
 62
     0
100
AcDbPoint
 10
30.75
 20
11.25
 30
0.0
  0
LINE
  5
180
100
AcDbEntity
  8
2
100
AcDbLine
 10
30.75
 20
12.25
 30
0.0
 11
28.0
 21
15.25
 31
0.0
  0
LINE
  5
181
100
AcDbEntity
  8
3
100
AcDbLine
 10
30.75
 20
18.25
 30
0.0
 11
28.0
 21
15.25
 31
0.0
  0
LINE
  5
182
100
AcDbEntity
  8
3
100
AcDbLine
 10
30.75
 20
18.25
 30
0.0
 11
30.75
 21
15.25
 31
0.0
  0
LINE
  5
183
100
AcDbEntity
  8
2
100
AcDbLine
 10
30.75
 20
12.25
 30
0.0
 11
30.75
 21
15.25
 31
0.0
  0
LINE
  5
184
100
AcDbEntity
  8
0
100
AcDbLine
 10
23.900156
 20
23.812756
 30
0.0
 11
25.43989
 21
26.479654
 31
0.0
  0
POINT
  5
185
100
AcDbEntity
  8
DEFPOINTS
  6
BYBLOCK
 62
     0
100
AcDbPoint
 10
33.75
 20
23.25
 30
0.0
  0
LINE
  5
186
100
AcDbEntity
  8
0
100
AcDbLine
 10
41.736695
 20
25.940233
 30
0.0
 11
42.665093
 21
23.004044
 31
0.0
  0
LINE
  5
187
100
AcDbEntity
  8
0
100
AcDbLine
 10
42.665093
 20
23.004044
 30
0.0
 11
44.743708
 21
25.276155
 31
0.0
  0
LINE
  5
188
100
AcDbEntity
  8
0
100
AcDbLine
 10
44.743708
 20
25.276155
 30
0.0
 11
45.672106
 21
22.339966
 31
0.0
  0
LINE
  5
189
100
AcDbEntity
  8
0
100
AcDbLine
 10
44.743708
 20
25.276155
 30
0.0
 11
41.736695
 21
25.940233
 31
0.0
  0
MTEXT
  5
18A
100
AcDbEntity
  8
0
  6
BYBLOCK
 62
     0
100
AcDbMText
 10
88.838473
 20
15.738935
 30
0.0
 40
5.0
 41
0.0
 71
     5
 72
     1
  1
\A1;11
 11
0.0
 21
1.0
 31
0.0
  0
LWPOLYLINE
  5
18B
100
AcDbEntity
  8
0
100
AcDbPolyline
 90
        3
 70
     0
 43
0.0
 10
56.08829
 20
11.212161
 10
82.25
 20
0.0
 10
84.25
 20
0.0
1001
ACAD
1000
DSTYLE
1002
{
1070
    78
1070
     8
1070
   288
1070
     1
1070
   284
1070
     8
1070
   140
1040
5.0
1070
    73
1070
     0
1070
   272
1070
     2
1070
    42
1040
1.0
1070
    44
1040
1.0
1070
   271
1070
     2
1070
    41
1040
2.0
1002
}
  0
LINE
  5
18C
100
AcDbEntity
  8
0
100
AcDbLine
 10
68.447755
 20
16.027725
 30
0.0
 11
66.908021
 21
18.694623
 31
0.0
  0
LINE
  5
18D
100
AcDbEntity
  8
0
100
AcDbLine
 10
65.368286
 20
16.027725
 30
0.0
 11
68.447755
 21
16.027725
 31
0.0
  0
LINE
  5
18E
100
AcDbEntity
  8
0
  6
BYBLOCK
 62
     0
100
AcDbLine
 10
54.75
 20
18.25
 30
0.0
 11
78.371455
 21
18.25
 31
0.0
  0
LINE
  5
18F
100
AcDbEntity
  8
0
  6
BYBLOCK
 62
     0
100
AcDbLine
 10
54.75
 20
12.25
 30
0.0
 11
78.371455
 21
12.25
 31
0.0
  0
LINE
  5
190
100
AcDbEntity
  8
0
  6
BYBLOCK
 62
     0
100
AcDbLine
 10
54.75
 20
20.75
 30
0.0
 11
89.838473
 21
20.75
 31
0.0
  0
LINE
  5
191
100
AcDbEntity
  8
0
  6
BYBLOCK
 62
     0
100
AcDbLine
 10
54.75
 20
9.75
 30
0.0
 11
89.838473
 21
9.75
 31
0.0
  0
LINE
  5
192
100
AcDbEntity
  8
3
100
AcDbLine
 10
53.75
 20
15.25
 30
0.0
 11
53.75
 21
9.75
 31
0.0
  0
POINT
  5
193
100
AcDbEntity
  8
DEFPOINTS
  6
BYBLOCK
 62
     0
100
AcDbPoint
 10
53.75
 20
9.75
 30
0.0
  0
POINT
  5
194
100
AcDbEntity
  8
DEFPOINTS
  6
BYBLOCK
 62
     0
100
AcDbPoint
 10
53.75
 20
8.5
 30
0.0
  0
SOLID
  5
195
100
AcDbEntity
  8
0
100
AcDbTrace
 10
55.956983
 20
10.90578
 30
0.0
 11
54.25
 21
12.0
 31
0.0
 12
56.219596
 22
11.518543
 32
0.0
 13
56.219596
 23
11.518543
 33
0.0
1001
ACAD
1000
DSTYLE
1002
{
1070
    78
1070
     8
1070
   288
1070
     1
1070
   284
1070
     8
1070
   140
1040
5.0
1070
    73
1070
     0
1070
   272
1070
     2
1070
    42
1040
1.0
1070
    44
1040
1.0
1070
   271
1070
     2
1070
    41
1040
2.0
1002
}
  0
LINE
  5
196
100
AcDbEntity
  8
3
100
AcDbLine
 10
53.75
 20
15.25
 30
0.0
 11
53.75
 21
20.75
 31
0.0
  0
POINT
  5
197
100
AcDbEntity
  8
DEFPOINTS
  6
BYBLOCK
 62
     0
100
AcDbPoint
 10
53.75
 20
12.25
 30
0.0
  0
POINT
  5
198
100
AcDbEntity
  8
DEFPOINTS
  6
BYBLOCK
 62
     0
100
AcDbPoint
 10
53.75
 20
18.25
 30
0.0
  0
POINT
  5
199
100
AcDbEntity
  8
DEFPOINTS
  6
BYBLOCK
 62
     0
100
AcDbPoint
 10
53.75
 20
20.75
 30
0.0
  0
POINT
  5
19A
100
AcDbEntity
  8
DEFPOINTS
  6
BYBLOCK
 62
     0
100
AcDbPoint
 10
53.75
 20
20.75
 30
0.0
  0
POINT
  5
19B
100
AcDbEntity
  8
DEFPOINTS
  6
BYBLOCK
 62
     0
100
AcDbPoint
 10
53.75
 20
20.75
 30
0.0
  0
POINT
  5
19C
100
AcDbEntity
  8
DEFPOINTS
  6
BYBLOCK
 62
     0
100
AcDbPoint
 10
53.75
 20
20.75
 30
0.0
  0
SOLID
  5
19D
100
AcDbEntity
  8
0
100
AcDbTrace
 10
55.647213
 20
23.421829
 30
0.0
 11
54.5
 21
21.75
 31
0.0
 12
55.042987
 22
23.703529
 32
0.0
 13
55.042987
 23
23.703529
 33
0.0
1001
ACAD
1000
DSTYLE
1002
{
1070
    78
1070
     8
1070
   288
1070
     1
1070
   284
1070
     8
1070
   140
1040
5.0
1070
    73
1070
     0
1070
   272
1070
     2
1070
    42
1040
1.0
1070
    44
1040
1.0
1070
   271
1070
     2
1070
    41
1040
2.0
1002
}
  0
LINE
  5
19E
100
AcDbEntity
  8
0
100
AcDbLine
 10
62.288818
 20
16.027725
 30
0.0
 11
65.368286
 21
16.027725
 31
0.0
  0
LINE
  5
19F
100
AcDbEntity
  8
0
100
AcDbLine
 10
63.828552
 20
18.694623
 30
0.0
 11
62.288818
 21
16.027725
 31
0.0
  0
LINE
  5
1A0
100
AcDbEntity
  8
0
100
AcDbLine
 10
65.368286
 20
16.027725
 30
0.0
 11
63.828552
 21
18.694623
 31
0.0
  0
LINE
  5
1A1
100
AcDbEntity
  8
0
100
AcDbLine
 10
66.908021
 20
18.694623
 30
0.0
 11
65.368286
 21
16.027725
 31
0.0
  0
LINE
  5
1A2
100
AcDbEntity
  8
0
  6
BYBLOCK
 62
     0
100
AcDbLine
 10
88.838473
 20
11.75
 30
0.0
 11
88.838473
 21
13.148935
 31
0.0
  0
SOLID
  5
1A3
100
AcDbEntity
  8
0
  6
BYBLOCK
 62
     0
100
AcDbTrace
 10
88.505139
 20
11.75
 30
0.0
 11
89.171806
 21
11.75
 31
0.0
 12
88.838473
 22
9.75
 32
0.0
 13
88.838473
 23
9.75
 33
0.0
  0
LINE
  5
1A4
100
AcDbEntity
  8
0
  6
BYBLOCK
 62
     0
100
AcDbLine
 10
77.371455
 20
14.25
 30
0.0
 11
77.371455
 21
16.25
 31
0.0
  0
SOLID
  5
1A5
100
AcDbEntity
  8
0
  6
BYBLOCK
 62
     0
100
AcDbTrace
 10
77.038122
 20
14.25
 30
0.0
 11
77.704788
 21
14.25
 31
0.0
 12
77.371455
 22
12.25
 32
0.0
 13
77.371455
 23
12.25
 33
0.0
  0
POINT
  5
1A6
100
AcDbEntity
  8
DEFPOINTS
  6
BYBLOCK
 62
     0
100
AcDbPoint
 10
77.371455
 20
18.25
 30
0.0
  0
SOLID
  5
1A7
100
AcDbEntity
  8
0
  6
BYBLOCK
 62
     0
100
AcDbTrace
 10
77.038122
 20
16.25
 30
0.0
 11
77.704788
 21
16.25
 31
0.0
 12
77.371455
 22
18.25
 32
0.0
 13
77.371455
 23
18.25
 33
0.0
  0
SOLID
  5
1A8
100
AcDbEntity
  8
0
  6
BYBLOCK
 62
     0
100
AcDbTrace
 10
88.505139
 20
18.75
 30
0.0
 11
89.171806
 21
18.75
 31
0.0
 12
88.838473
 22
20.75
 32
0.0
 13
88.838473
 23
20.75
 33
0.0
  0
LINE
  5
1A9
100
AcDbEntity
  8
0
  6
BYBLOCK
 62
     0
100
AcDbLine
 10
88.838473
 20
18.75
 30
0.0
 11
88.838473
 21
18.328935
 31
0.0
  0
POINT
  5
1AA
100
AcDbEntity
  8
DEFPOINTS
  6
BYBLOCK
 62
     0
100
AcDbPoint
 10
88.838473
 20
20.75
 30
0.0
  0
CIRCLE
  5
1AB
100
AcDbEntity
  8
3
100
AcDbCircle
 10
107.75
 20
15.25
 30
0.0
 40
5.5
  0
CIRCLE
  5
1AC
100
AcDbEntity
  8
3
100
AcDbCircle
 10
107.75
 20
15.25
 30
0.0
 40
6.5
  0
LINE
  5
1AD
100
AcDbEntity
  8
1
100
AcDbLine
 10
98.5
 20
15.25
 30
0.0
 11
118.0
 21
15.25
 31
0.0
  0
LINE
  5
1AE
100
AcDbEntity
  8
1
100
AcDbLine
 10
107.75
 20
5.25
 30
0.0
 11
107.75
 21
25.75
 31
0.0
  0
CIRCLE
  5
1AF
100
AcDbEntity
  8
3
100
AcDbCircle
 10
107.75
 20
15.25
 30
0.0
 40
3.0
  0
ENDBLK
  5
1B1
100
AcDbEntity
  8
0
100
AcDbBlockEnd
  0
BLOCK
  5
20D
100
AcDbEntity
  8
0
100
AcDbBlockBegin
  2
*D3
 70
     1
 10
0.0
 20
0.0
 30
0.0
  3
*D3
  1

  0
LINE
  5
205
100
AcDbEntity
  8
0
  6
BYBLOCK
 62
     0
100
AcDbLine
 10
65.7
 20
129.6
 30
0.0
 11
67.7
 21
129.6
 31
0.0
  0
LINE
  5
206
100
AcDbEntity
  8
0
  6
BYBLOCK
 62
     0
100
AcDbLine
 10
67.7
 20
129.6
 30
0.0
 11
83.593889
 21
114.178207
 31
0.0
  0
MTEXT
  5
207
100
AcDbEntity
  8
0
  6
BYBLOCK
 62
     0
100
AcDbMText
 10
62.693333
 20
129.6
 30
0.0
 40
5.0
 41
0.0
 71
     5
 72
     1
  1
\A1;\U+22058
  7
BIGFONT
  0
SOLID
  5
208
100
AcDbEntity
  8
0
  6
BYBLOCK
 62
     0
100
AcDbTrace
 10
83.826012
 20
114.417435
 30
0.0
 11
83.361767
 21
113.938978
 31
0.0
 12
85.029259
 22
112.785471
 32
0.0
 13
85.029259
 23
112.785471
 33
0.0
  0
LINE
  5
209
100
AcDbEntity
  8
0
  6
BYBLOCK
 62
     0
100
AcDbLine
 10
87.81
 20
110.0
 30
0.0
 11
87.99
 21
110.0
 31
0.0
  0
LINE
  5
20A
100
AcDbEntity
  8
0
  6
BYBLOCK
 62
     0
100
AcDbLine
 10
87.9
 20
109.91
 30
0.0
 11
87.9
 21
110.09
 31
0.0
  0
POINT
  5
20B
100
AcDbEntity
  8
DEFPOINTS
  6
BYBLOCK
 62
     0
100
AcDbPoint
 10
85.029259
 20
112.785471
 30
0.0
  0
POINT
  5
20C
100
AcDbEntity
  8
DEFPOINTS
  6
BYBLOCK
 62
     0
100
AcDbPoint
 10
90.770741
 20
107.214529
 30
0.0
  0
ENDBLK
  5
20E
100
AcDbEntity
  8
0
100
AcDbBlockEnd
  0
BLOCK
  5
267
100
AcDbEntity
  8
0
100
AcDbBlockBegin
  2
A$C5BB252F2
 70
     0
 10
0.0
 20
0.0
 30
0.0
  3
A$C5BB252F2
  1

  0
LINE
  5
211
100
AcDbEntity
  8
2
100
AcDbLine
 10
81.723333
 20
22.75
 30
0.0
 11
82.973333
 21
21.5
 31
0.0
  0
LINE
  5
212
100
AcDbEntity
  8
2
100
AcDbLine
 10
82.973333
 20
24.0
 30
0.0
 11
81.723333
 21
22.75
 31
0.0
  0
LINE
  5
213
100
AcDbEntity
  8
3
100
AcDbLine
 10
92.473333
 20
19.75
 30
0.0
 11
82.473333
 21
19.75
 31
0.0
  0
LINE
  5
214
100
AcDbEntity
  8
3
100
AcDbLine
 10
92.473333
 20
25.75
 30
0.0
 11
82.473333
 21
25.75
 31
0.0
  0
LINE
  5
215
100
AcDbEntity
  8
1
100
AcDbLine
 10
63.473333
 20
22.75
 30
0.0
 11
95.973333
 21
22.75
 31
0.0
  0
LWPOLYLINE
  5
216
100
AcDbEntity
  8
0
100
AcDbPolyline
 90
        3
 70
     0
 43
0.0
 10
68.587772
 20
18.05674
 10
61.473333
 20
3.65
 10
61.073333
 20
3.65
1001
ACAD
1000
DSTYLE
1002
{
1070
    78
1070
     8
1070
   288
1070
     1
1070
   284
1070
     8
1070
   140
1040
5.0
1070
   340
1005
139
1070
    73
1070
     0
1070
   272
1070
     2
1070
    42
1040
0.5
1070
    44
1040
0.5
1070
   271
1070
     2
1070
    41
1040
2.0
1002
}
  0
TEXT
  5
217
100
AcDbEntity
  8
0
100
AcDbText
 10
41.733333
 20
1.15
 30
0.0
 40
5.0
  1
M6-P1.0
 41
0.7
  7
BIGFONT
100
AcDbText
  0
DIMENSION
  5
218
100
AcDbEntity
  8
0
100
AcDbDimension
  2
*D3
 10
30.994074
 20
19.964529
 30
0.0
 11
2.916666
 21
42.35
 31
0.0
 12
-59.776667
 22
-87.25
 32
0.0
 70
   131
  3
STANDARD
100
AcDbDiametricDimension
 15
25.252593
 25
25.535471
 35
0.0
 40
0.0
1001
ACAD
1000
DSTYLE
1002
{
1070
    78
1070
     8
1070
   288
1070
     1
1070
   284
1070
     8
1070
   140
1040
5.0
1070
   340
1005
139
1070
    73
1070
     0
1070
   272
1070
     2
1070
    42
1040
0.5
1070
    44
1040
0.5
1070
   271
1070
     2
1070
    41
1040
2.0
1002
}
  0
CIRCLE
  5
219
100
AcDbEntity
  8
3
100
AcDbCircle
 10
28.123333
 20
22.75
 30
0.0
 40
3.0
  0
CIRCLE
  5
21A
100
AcDbEntity
  8
0
100
AcDbCircle
 10
28.123333
 20
22.75
 30
0.0
 40
4.0
  0
LWPOLYLINE
  5
21B
100
AcDbEntity
  8
3
100
AcDbPolyline
 90
        6
 70
     1
 43
0.0
 10
28.123333
 20
27.35
 10
24.139616
 20
25.05
 10
24.139616
 20
20.45
 10
28.123333
 20
18.15
 10
32.10705
 20
20.45
 10
32.10705
 20
25.05
  0
LINE
  5
21C
100
AcDbEntity
  8
1
100
AcDbLine
 10
28.123333
 20
31.35
 30
0.0
 11
28.123333
 21
14.25
 31
0.0
  0
CIRCLE
  5
21D
100
AcDbEntity
  8
0
100
AcDbCircle
 10
28.123333
 20
22.75
 30
0.0
 40
2.5
  0
LINE
  5
21E
100
AcDbEntity
  8
1
100
AcDbLine
 10
35.823333
 20
22.75
 30
0.0
 11
19.623333
 21
22.75
 31
0.0
  0
LINE
  5
21F
100
AcDbEntity
  8
0
  6
BYBLOCK
 62
     0
100
AcDbLine
 10
75.723333
 20
29.0
 30
0.0
 11
75.723333
 21
45.519963
 31
0.0
  0
LINE
  5
220
100
AcDbEntity
  8
0
  6
BYBLOCK
 62
     0
100
AcDbLine
 10
75.473333
 20
27.25
 30
0.0
 11
75.473333
 21
45.519963
 31
0.0
  0
LINE
  5
221
100
AcDbEntity
  8
3
100
AcDbLine
 10
75.473333
 20
22.75
 30
0.0
 11
75.473333
 21
26.75
 31
0.0
  0
LINE
  5
222
100
AcDbEntity
  8
3
100
AcDbLine
 10
82.473333
 20
22.75
 30
0.0
 11
82.473333
 21
25.65
 31
0.0
  0
LINE
  5
223
100
AcDbEntity
  8
3
100
AcDbLine
 10
67.473333
 20
24.75
 30
0.0
 11
68.473333
 21
25.75
 31
0.0
  0
LINE
  5
224
100
AcDbEntity
  8
3
100
AcDbLine
 10
68.473333
 20
25.75
 30
0.0
 11
68.473333
 21
22.75
 31
0.0
  0
LINE
  5
225
100
AcDbEntity
  8
3
100
AcDbLine
 10
75.473333
 20
22.75
 30
0.0
 11
75.473333
 21
26.75
 31
0.0
  0
LINE
  5
226
100
AcDbEntity
  8
3
100
AcDbLine
 10
74.473333
 20
25.75
 30
0.0
 11
74.473333
 21
22.75
 31
0.0
  0
LINE
  5
227
100
AcDbEntity
  8
3
100
AcDbLine
 10
82.473333
 20
22.75
 30
0.0
 11
82.473333
 21
25.65
 31
0.0
  0
LINE
  5
228
100
AcDbEntity
  8
3
100
AcDbLine
 10
68.473333
 20
19.75
 30
0.0
 11
75.473333
 21
19.75
 31
0.0
  0
LINE
  5
229
100
AcDbEntity
  8
3
100
AcDbLine
 10
67.473333
 20
20.75
 30
0.0
 11
74.473333
 21
20.75
 31
0.0
  0
LINE
  5
22A
100
AcDbEntity
  8
3
100
AcDbLine
 10
67.473333
 20
24.75
 30
0.0
 11
74.473333
 21
24.75
 31
0.0
  0
LINE
  5
22B
100
AcDbEntity
  8
3
100
AcDbLine
 10
67.473333
 20
22.75
 30
0.0
 11
67.473333
 21
20.75
 31
0.0
  0
LINE
  5
22C
100
AcDbEntity
  8
3
100
AcDbLine
 10
68.473333
 20
19.75
 30
0.0
 11
68.473333
 21
22.75
 31
0.0
  0
SOLID
  5
22D
100
AcDbEntity
  8
0
100
AcDbTrace
 10
68.288896
 20
18.204333
 30
0.0
 11
69.473333
 21
19.85
 31
0.0
 12
68.886649
 22
17.909146
 32
0.0
 13
68.886649
 23
17.909146
 33
0.0
1001
ACAD
1000
DSTYLE
1002
{
1070
    78
1070
     8
1070
   288
1070
     1
1070
   284
1070
     8
1070
   140
1040
5.0
1070
   340
1005
139
1070
    73
1070
     0
1070
   272
1070
     2
1070
    42
1040
0.5
1070
    44
1040
0.5
1070
   271
1070
     2
1070
    41
1040
2.0
1002
}
  0
LINE
  5
22E
100
AcDbEntity
  8
3
100
AcDbLine
 10
67.473333
 20
20.75
 30
0.0
 11
68.473333
 21
19.75
 31
0.0
  0
LINE
  5
22F
100
AcDbEntity
  8
3
100
AcDbLine
 10
67.473333
 20
22.75
 30
0.0
 11
67.473333
 21
24.75
 31
0.0
  0
LINE
  5
230
100
AcDbEntity
  8
3
100
AcDbLine
 10
75.473333
 20
20.45
 30
0.0
 11
82.473333
 21
20.45
 31
0.0
  0
LINE
  5
231
100
AcDbEntity
  8
3
100
AcDbLine
 10
75.559047
 20
18.15
 30
0.0
 11
82.473333
 21
18.15
 31
0.0
  0
LINE
  5
232
100
AcDbEntity
  8
3
100
AcDbLine
 10
75.473333
 20
22.75
 30
0.0
 11
75.473333
 21
18.75
 31
0.0
  0
LINE
  5
233
100
AcDbEntity
  8
3
100
AcDbLine
 10
74.473333
 20
19.75
 30
0.0
 11
74.473333
 21
22.75
 31
0.0
  0
LINE
  5
234
100
AcDbEntity
  8
3
100
AcDbLine
 10
75.473333
 20
18.75
 30
0.0
 11
75.559047
 21
18.15
 31
0.0
  0
LINE
  5
235
100
AcDbEntity
  8
3
100
AcDbLine
 10
82.473333
 20
22.75
 30
0.0
 11
82.473333
 21
19.85
 31
0.0
  0
LINE
  5
236
100
AcDbEntity
  8
3
100
AcDbLine
 10
82.473333
 20
19.85
 30
0.0
 11
82.473333
 21
18.15
 31
0.0
  0
LINE
  5
237
100
AcDbEntity
  8
3
100
AcDbLine
 10
68.473333
 20
25.75
 30
0.0
 11
75.473333
 21
25.75
 31
0.0
  0
POINT
  5
238
100
AcDbEntity
  8
DEFPOINTS
  6
BYBLOCK
 62
     0
100
AcDbPoint
 10
67.473333
 20
25.75
 30
0.0
  0
LINE
  5
239
100
AcDbEntity
  8
3
100
AcDbLine
 10
75.823333
 20
27.35
 30
0.0
 11
82.473333
 21
27.35
 31
0.0
  0
LINE
  5
23A
100
AcDbEntity
  8
3
100
AcDbLine
 10
75.473333
 20
25.625
 30
0.0
 11
82.473333
 21
25.625
 31
0.0
  0
LINE
  5
23B
100
AcDbEntity
  8
3
100
AcDbLine
 10
75.473333
 20
26.75
 30
0.0
 11
75.823333
 21
27.35
 31
0.0
  0
POINT
  5
23C
100
AcDbEntity
  8
DEFPOINTS
  6
BYBLOCK
 62
     0
100
AcDbPoint
 10
75.473333
 20
28.5
 30
0.0
  0
POINT
  5
23D
100
AcDbEntity
  8
DEFPOINTS
  6
BYBLOCK
 62
     0
100
AcDbPoint
 10
75.473333
 20
28.75
 30
0.0
  0
POINT
  5
23E
100
AcDbEntity
  8
DEFPOINTS
  6
BYBLOCK
 62
     0
100
AcDbPoint
 10
75.723333
 20
28.5
 30
0.0
  0
POINT
  5
23F
100
AcDbEntity
  8
DEFPOINTS
  6
BYBLOCK
 62
     0
100
AcDbPoint
 10
75.473333
 20
26.75
 30
0.0
  0
LINE
  5
240
100
AcDbEntity
  8
3
100
AcDbLine
 10
82.473333
 20
25.65
 30
0.0
 11
82.473333
 21
27.35
 31
0.0
  0
POINT
  5
241
100
AcDbEntity
  8
DEFPOINTS
  6
BYBLOCK
 62
     0
100
AcDbPoint
 10
82.473333
 20
28.75
 30
0.0
  0
POINT
  5
242
100
AcDbEntity
  8
DEFPOINTS
  6
BYBLOCK
 62
     0
100
AcDbPoint
 10
82.473333
 20
28.5
 30
0.0
  0
LINE
  5
243
100
AcDbEntity
  8
0
  6
BYBLOCK
 62
     0
100
AcDbLine
 10
73.473333
 20
45.019963
 30
0.0
 11
57.401455
 21
45.019963
 31
0.0
  0
MTEXT
  5
244
100
AcDbEntity
  8
0
  6
BYBLOCK
 62
     0
100
AcDbMText
 10
52.353122
 20
45.019963
 30
0.0
 40
5.0
 41
0.0
 71
     5
 72
     1
  1
\A1;0.25
  7
BIGFONT
  0
SOLID
  5
245
100
AcDbEntity
  8
0
  6
BYBLOCK
 62
     0
100
AcDbTrace
 10
77.723333
 20
45.353296
 30
0.0
 11
77.723333
 21
44.68663
 31
0.0
 12
75.723333
 22
45.019963
 32
0.0
 13
75.723333
 23
45.019963
 33
0.0
  0
SOLID
  5
246
100
AcDbEntity
  8
0
  6
BYBLOCK
 62
     0
100
AcDbTrace
 10
73.473333
 20
45.353296
 30
0.0
 11
73.473333
 21
44.68663
 31
0.0
 12
75.473333
 22
45.019963
 32
0.0
 13
75.473333
 23
45.019963
 33
0.0
  0
POINT
  5
247
100
AcDbEntity
  8
DEFPOINTS
  6
BYBLOCK
 62
     0
100
AcDbPoint
 10
75.723333
 20
45.019963
 30
0.0
  0
LINE
  5
248
100
AcDbEntity
  8
0
  6
BYBLOCK
 62
     0
100
AcDbLine
 10
77.723333
 20
45.019963
 30
0.0
 11
79.723333
 21
45.019963
 31
0.0
  0
MTEXT
  5
249
102
{ACAD_REACTORS
330
24A
102
}
100
AcDbEntity
  8
0
100
AcDbMText
 10
108.313333
 20
3.5
 30
0.0
 40
5.0
 41
0.0
 71
     4
 72
     1
  1
\A1;M3-P0.5
  7
BIGFONT
  0
LEADER
  5
24A
100
AcDbEntity
  8
0
100
AcDbLeader
  3
STANDARD
 73
     0
 40
5.0
 41
23.333333
 76
     3
 10
92.723333
 20
22.5
 30
0.0
 10
107.723333
 20
3.5
 30
0.0
 10
108.223333
 20
3.5
 30
0.0
 77
   256
340
249
1001
ACAD
1000
DSTYLE
1002
{
1070
    78
1070
     8
1070
   288
1070
     1
1070
   284
1070
     8
1070
   140
1040
5.0
1070
   340
1005
139
1070
    73
1070
     0
1070
   272
1070
     2
1070
    42
1040
0.5
1070
    44
1040
0.5
1070
   271
1070
     2
1070
    41
1040
2.0
1002
}
  0
LINE
  5
24B
100
AcDbEntity
  8
0
  6
BYBLOCK
 62
     0
100
AcDbLine
 10
92.473333
 20
18.0
 30
0.0
 11
92.473333
 21
2.0
 31
0.0
  0
LINE
  5
24C
100
AcDbEntity
  8
0
  6
BYBLOCK
 62
     0
100
AcDbLine
 10
85.473333
 20
19.25
 30
0.0
 11
85.473333
 21
2.0
 31
0.0
  0
MTEXT
  5
24D
100
AcDbEntity
  8
0
  6
BYBLOCK
 62
     0
100
AcDbMText
 10
88.723333
 20
2.5
 30
0.0
 40
5.0
 41
0.0
 71
     5
 72
     1
  1
\A1;7
  7
BIGFONT
  0
SOLID
  5
24E
100
AcDbEntity
  8
0
  6
BYBLOCK
 62
     0
100
AcDbTrace
 10
90.473333
 20
2.833333
 30
0.0
 11
90.473333
 21
2.166667
 31
0.0
 12
92.473333
 22
2.5
 32
0.0
 13
92.473333
 23
2.5
 33
0.0
  0
SOLID
  5
24F
100
AcDbEntity
  8
0
  6
BYBLOCK
 62
     0
100
AcDbTrace
 10
87.473333
 20
2.833333
 30
0.0
 11
87.473333
 21
2.166667
 31
0.0
 12
85.473333
 22
2.5
 32
0.0
 13
85.473333
 23
2.5
 33
0.0
  0
LINE
  5
250
100
AcDbEntity
  8
0
  6
BYBLOCK
 62
     0
100
AcDbLine
 10
87.473333
 20
2.5
 30
0.0
 11
87.563333
 21
2.5
 31
0.0
  0
LINE
  5
251
100
AcDbEntity
  8
0
  6
BYBLOCK
 62
     0
100
AcDbLine
 10
90.473333
 20
2.5
 30
0.0
 11
89.98
 21
2.5
 31
0.0
  0
POINT
  5
252
100
AcDbEntity
  8
DEFPOINTS
  6
BYBLOCK
 62
     0
100
AcDbPoint
 10
92.473333
 20
2.5
 30
0.0
  0
LWPOLYLINE
  5
253
100
AcDbEntity
  8
0
100
AcDbPolyline
 90
        3
 70
     0
 43
0.0
 10
93.86776
 20
27.738854
 10
103.373333
 20
46.75
 10
104.073333
 20
46.75
1001
ACAD
1000
DSTYLE
1002
{
1070
    78
1070
     8
1070
   288
1070
     1
1070
   284
1070
     8
1070
   140
1040
5.0
1070
   340
1005
139
1070
    73
1070
     0
1070
   272
1070
     2
1070
    42
1040
0.5
1070
    44
1040
0.5
1070
   271
1070
     2
1070
    41
1040
2.0
1002
}
  0
LINE
  5
254
100
AcDbEntity
  8
3
100
AcDbLine
 10
92.473333
 20
22.75
 30
0.0
 11
92.473333
 21
25.75
 31
0.0
  0
LINE
  5
255
100
AcDbEntity
  8
2
100
AcDbLine
 10
82.973333
 20
21.5
 30
0.0
 11
92.473333
 21
21.5
 31
0.0
  0
LINE
  5
256
100
AcDbEntity
  8
2
100
AcDbLine
 10
92.473333
 20
24.0
 30
0.0
 11
85.223333
 21
24.0
 31
0.0
  0
LINE
  5
257
100
AcDbEntity
  8
2
100
AcDbLine
 10
85.473333
 20
21.25
 30
0.0
 11
92.473333
 21
21.25
 31
0.0
  0
LINE
  5
258
100
AcDbEntity
  8
2
100
AcDbLine
 10
92.473333
 20
24.25
 30
0.0
 11
85.473333
 21
24.25
 31
0.0
  0
LINE
  5
259
100
AcDbEntity
  8
2
100
AcDbLine
 10
85.223333
 20
21.5
 30
0.0
 11
85.223333
 21
22.75
 31
0.0
  0
LINE
  5
25A
100
AcDbEntity
  8
2
100
AcDbLine
 10
82.973333
 20
24.0
 30
0.0
 11
82.973333
 21
21.5
 31
0.0
  0
LINE
  5
25B
100
AcDbEntity
  8
2
100
AcDbLine
 10
85.473333
 20
24.25
 30
0.0
 11
85.473333
 21
21.25
 31
0.0
  0
POINT
  5
25C
100
AcDbEntity
  8
DEFPOINTS
  6
BYBLOCK
 62
     0
100
AcDbPoint
 10
85.473333
 20
19.75
 30
0.0
  0
LINE
  5
25D
100
AcDbEntity
  8
2
100
AcDbLine
 10
85.473333
 20
21.25
 30
0.0
 11
85.223333
 21
21.5
 31
0.0
  0
LINE
  5
25E
100
AcDbEntity
  8
2
100
AcDbLine
 10
85.223333
 20
24.0
 30
0.0
 11
82.973333
 21
24.0
 31
0.0
  0
LINE
  5
25F
100
AcDbEntity
  8
2
100
AcDbLine
 10
85.223333
 20
24.0
 30
0.0
 11
85.223333
 21
22.75
 31
0.0
  0
LINE
  5
260
100
AcDbEntity
  8
2
100
AcDbLine
 10
85.223333
 20
24.0
 30
0.0
 11
85.473333
 21
24.25
 31
0.0
  0
LINE
  5
261
100
AcDbEntity
  8
3
100
AcDbLine
 10
92.473333
 20
22.75
 30
0.0
 11
92.473333
 21
19.75
 31
0.0
  0
POINT
  5
262
100
AcDbEntity
  8
DEFPOINTS
  6
BYBLOCK
 62
     0
100
AcDbPoint
 10
92.473333
 20
19.75
 30
0.0
  0
POINT
  5
263
100
AcDbEntity
  8
DEFPOINTS
  6
BYBLOCK
 62
     0
100
AcDbPoint
 10
92.473333
 20
18.5
 30
0.0
  0
SOLID
  5
264
100
AcDbEntity
  8
0
100
AcDbTrace
 10
94.165903
 20
27.589783
 30
0.0
 11
92.973333
 21
25.95
 31
0.0
 12
93.569618
 22
27.887925
 32
0.0
 13
93.569618
 23
27.887925
 33
0.0
1001
ACAD
1000
DSTYLE
1002
{
1070
    78
1070
     8
1070
   288
1070
     1
1070
   284
1070
     8
1070
   140
1040
5.0
1070
   340
1005
139
1070
    73
1070
     0
1070
   272
1070
     2
1070
    42
1040
0.5
1070
    44
1040
0.5
1070
   271
1070
     2
1070
    41
1040
2.0
1002
}
  0
POINT
  5
265
100
AcDbEntity
  8
DEFPOINTS
  6
BYBLOCK
 62
     0
100
AcDbPoint
 10
92.473333
 20
25.75
 30
0.0
  0
POINT
  5
266
100
AcDbEntity
  8
DEFPOINTS
  6
BYBLOCK
 62
     0
100
AcDbPoint
 10
92.473333
 20
26.25
 30
0.0
  0
ENDBLK
  5
268
100
AcDbEntity
  8
0
100
AcDbBlockEnd
  0
BLOCK
  5
2C9
100
AcDbEntity
  8
0
100
AcDbBlockBegin
  2
*D5
 70
     1
 10
0.0
 20
0.0
 30
0.0
  3
*D5
  1

  0
LINE
  5
2CA
100
AcDbEntity
  8
0
  6
BYBLOCK
 62
     0
100
AcDbLine
 10
119.540564
 20
125.990774
 30
0.0
 11
116.669823
 21
128.776245
 31
0.0
  0
MTEXT
  5
2CB
100
AcDbEntity
  8
0
  6
BYBLOCK
 62
     0
100
AcDbMText
 10
92.898527
 20
146.98351
 30
0.0
 40
8.5
 41
0.0
 71
     5
 72
     1
  1
\A1;\U+22058
  7
BIGFONT
  0
SOLID
  5
2CC
100
AcDbEntity
  8
0
  6
BYBLOCK
 62
     0
100
AcDbTrace
 10
119.772687
 20
126.230003
 30
0.0
 11
119.308441
 21
125.751546
 31
0.0
 12
120.975934
 22
124.598039
 32
0.0
 13
120.975934
 23
124.598039
 33
0.0
  0
SOLID
  5
2CD
100
AcDbEntity
  8
0
  6
BYBLOCK
 62
     0
100
AcDbTrace
 10
116.901946
 20
129.015474
 30
0.0
 11
116.437701
 21
128.537017
 31
0.0
 12
115.234453
 22
130.168981
 32
0.0
 13
115.234453
 23
130.168981
 33
0.0
  0
POINT
  5
2CE
100
AcDbEntity
  8
DEFPOINTS
  6
BYBLOCK
 62
     0
100
AcDbPoint
 10
115.234453
 20
130.168981
 30
0.0
  0
POINT
  5
2CF
100
AcDbEntity
  8
DEFPOINTS
  6
BYBLOCK
 62
     0
100
AcDbPoint
 10
120.975934
 20
124.598039
 30
0.0
  0
ENDBLK
  5
2D0
100
AcDbEntity
  8
0
100
AcDbBlockEnd
  0
BLOCK
  5
2FD
100
AcDbEntity
  8
0
100
AcDbBlockBegin
  2
*D6
 70
     1
 10
0.0
 20
0.0
 30
0.0
  3
*D6
  1

  0
LINE
  5
2F2
100
AcDbEntity
  8
0
  6
BYBLOCK
 62
     0
100
AcDbLine
 10
173.0
 20
114.75
 30
0.0
 11
191.449275
 21
114.75
 31
0.0
  0
LINE
  5
2F3
100
AcDbEntity
  8
0
  6
BYBLOCK
 62
     0
100
AcDbLine
 10
173.0
 20
108.75
 30
0.0
 11
191.449275
 21
108.75
 31
0.0
  0
LINE
  5
2F4
100
AcDbEntity
  8
0
  6
BYBLOCK
 62
     0
100
AcDbLine
 10
190.449275
 20
110.75
 30
0.0
 11
190.449275
 21
112.75
 31
0.0
  0
LINE
  5
2F5
100
AcDbEntity
  8
0
  6
BYBLOCK
 62
     0
100
AcDbLine
 10
190.449275
 20
114.75
 30
0.0
 11
190.449275
 21
123.461318
 31
0.0
  0
LINE
  5
2F6
100
AcDbEntity
  8
0
  6
BYBLOCK
 62
     0
100
AcDbLine
 10
190.449275
 20
123.461318
 30
0.0
 11
192.449275
 21
123.461318
 31
0.0
  0
SOLID
  5
2F7
100
AcDbEntity
  8
0
  6
BYBLOCK
 62
     0
100
AcDbTrace
 10
190.115941
 20
110.75
 30
0.0
 11
190.782608
 21
110.75
 31
0.0
 12
190.449275
 22
108.75
 32
0.0
 13
190.449275
 23
108.75
 33
0.0
  0
SOLID
  5
2F8
100
AcDbEntity
  8
0
  6
BYBLOCK
 62
     0
100
AcDbTrace
 10
190.115941
 20
112.75
 30
0.0
 11
190.782608
 21
112.75
 31
0.0
 12
190.449275
 22
114.75
 32
0.0
 13
190.449275
 23
114.75
 33
0.0
  0
MTEXT
  5
2F9
100
AcDbEntity
  8
0
  6
BYBLOCK
 62
     0
100
AcDbMText
 10
194.205941
 20
123.461318
 30
0.0
 40
5.0
 41
0.0
 71
     5
 72
     1
  1
\A1;6
  0
POINT
  5
2FA
100
AcDbEntity
  8
DEFPOINTS
  6
BYBLOCK
 62
     0
100
AcDbPoint
 10
172.0
 20
114.75
 30
0.0
  0
POINT
  5
2FB
100
AcDbEntity
  8
DEFPOINTS
  6
BYBLOCK
 62
     0
100
AcDbPoint
 10
172.0
 20
108.75
 30
0.0
  0
POINT
  5
2FC
100
AcDbEntity
  8
DEFPOINTS
  6
BYBLOCK
 62
     0
100
AcDbPoint
 10
190.449275
 20
108.75
 30
0.0
  0
ENDBLK
  5
2FE
100
AcDbEntity
  8
0
100
AcDbBlockEnd
  0
BLOCK
  5
30A
100
AcDbEntity
  8
0
100
AcDbBlockBegin
  2
*D7
 70
     1
 10
0.0
 20
0.0
 30
0.0
  3
*D7
  1

  0
LINE
  5
300
100
AcDbEntity
  8
0
  6
BYBLOCK
 62
     0
100
AcDbLine
 10
173.0
 20
118.25
 30
0.0
 11
205.938283
 21
118.25
 31
0.0
  0
LINE
  5
301
100
AcDbEntity
  8
0
  6
BYBLOCK
 62
     0
100
AcDbLine
 10
173.0
 20
105.25
 30
0.0
 11
205.938283
 21
105.25
 31
0.0
  0
LINE
  5
302
100
AcDbEntity
  8
0
  6
BYBLOCK
 62
     0
100
AcDbLine
 10
204.938283
 20
116.25
 30
0.0
 11
204.938283
 21
115.822002
 31
0.0
  0
LINE
  5
303
100
AcDbEntity
  8
0
  6
BYBLOCK
 62
     0
100
AcDbLine
 10
204.938283
 20
107.25
 30
0.0
 11
204.938283
 21
108.975335
 31
0.0
  0
SOLID
  5
304
100
AcDbEntity
  8
0
  6
BYBLOCK
 62
     0
100
AcDbTrace
 10
204.60495
 20
116.25
 30
0.0
 11
205.271616
 21
116.25
 31
0.0
 12
204.938283
 22
118.25
 32
0.0
 13
204.938283
 23
118.25
 33
0.0
  0
SOLID
  5
305
100
AcDbEntity
  8
0
  6
BYBLOCK
 62
     0
100
AcDbTrace
 10
204.60495
 20
107.25
 30
0.0
 11
205.271616
 21
107.25
 31
0.0
 12
204.938283
 22
105.25
 32
0.0
 13
204.938283
 23
105.25
 33
0.0
  0
MTEXT
  5
306
100
AcDbEntity
  8
0
  6
BYBLOCK
 62
     0
100
AcDbMText
 10
204.938283
 20
112.398669
 30
0.0
 40
5.0
 41
0.0
 71
     5
 72
     1
  1
\A1;13
 11
0.0
 21
1.0
 31
0.0
  0
POINT
  5
307
100
AcDbEntity
  8
DEFPOINTS
  6
BYBLOCK
 62
     0
100
AcDbPoint
 10
172.0
 20
118.25
 30
0.0
  0
POINT
  5
308
100
AcDbEntity
  8
DEFPOINTS
  6
BYBLOCK
 62
     0
100
AcDbPoint
 10
172.0
 20
105.25
 30
0.0
  0
POINT
  5
309
100
AcDbEntity
  8
DEFPOINTS
  6
BYBLOCK
 62
     0
100
AcDbPoint
 10
204.938283
 20
105.25
 30
0.0
  0
ENDBLK
  5
30B
100
AcDbEntity
  8
0
100
AcDbBlockEnd
  0
BLOCK
  5
336
100
AcDbEntity
  8
0
100
AcDbBlockBegin
  2
A$C13AB0A02
 70
     0
 10
0.0
 20
0.0
 30
0.0
  3
A$C13AB0A02
  1

  0
LINE
  5
30D
100
AcDbEntity
  8
2
100
AcDbLine
 10
35.25
 20
11.5
 30
0.0
 11
32.75
 21
14.5
 31
0.0
  0
LINE
  5
30E
100
AcDbEntity
  8
3
100
AcDbLine
 10
35.25
 20
17.5
 30
0.0
 11
32.75
 21
14.5
 31
0.0
  0
LINE
  5
30F
100
AcDbEntity
  8
3
100
AcDbLine
 10
9.753097
 20
22.5
 30
0.0
 11
40.25
 21
22.5
 31
0.0
  0
LINE
  5
310
100
AcDbEntity
  8
3
100
AcDbLine
 10
9.753097
 20
6.5
 30
0.0
 11
40.25
 21
6.5
 31
0.0
  0
LINE
  5
311
100
AcDbEntity
  8
1
100
AcDbLine
 10
0.0
 20
14.5
 30
0.0
 11
68.5
 21
14.5
 31
0.0
  0
ARC
  5
312
100
AcDbEntity
  8
3
100
AcDbCircle
 10
15.592988
 20
14.5
 30
0.0
 40
10.342988
100
AcDbArc
 50
136.344725
 51
223.655275
  0
LWPOLYLINE
  5
313
100
AcDbEntity
  8
0
100
AcDbPolyline
 90
        3
 70
     1
 43
0.0
 10
6.399652
 20
8.053758
 10
2.832231
 20
8.774973
 10
3.991351
 20
5.324888
  0
LINE
  5
314
100
AcDbEntity
  8
3
100
AcDbLine
 10
8.75
 20
6.769741
 30
0.0
 11
8.75
 21
14.5
 31
0.0
  0
ARC
  5
315
100
AcDbEntity
  8
3
100
AcDbCircle
 10
9.753097
 20
8.5
 30
0.0
 40
2.0
100
AcDbArc
 50
214.748451
 51
270.0
  0
LWPOLYLINE
  5
316
100
AcDbEntity
  8
0
100
AcDbPolyline
 90
        3
 70
     1
 43
0.0
 10
5.240532
 20
11.503843
 10
1.673111
 20
12.225058
 10
2.832231
 20
8.774973
  0
ARC
  5
317
100
AcDbEntity
  8
3
100
AcDbCircle
 10
9.753097
 20
20.5
 30
0.0
 40
2.0
100
AcDbArc
 50
90.0
 51
145.251549
  0
LWPOLYLINE
  5
318
100
AcDbEntity
  8
0
100
AcDbPolyline
 90
        3
 70
     1
 43
0.0
 10
28.519377
 20
23.137661
 10
30.339174
 20
26.289641
 10
26.69958
 20
26.289641
  0
LWPOLYLINE
  5
319
100
AcDbEntity
  8
0
100
AcDbPolyline
 90
        3
 70
     1
 43
0.0
 10
24.879783
 20
23.137661
 10
26.69958
 20
26.289641
 10
23.059987
 20
26.289641
  0
MTEXT
  5
31A
102
{ACAD_REACTORS
330
31B
102
}
100
AcDbEntity
  8
0
100
AcDbMText
 10
91.34
 20
0.0
 30
0.0
 40
5.0
 41
0.0
 71
     4
 72
     1
  1
\A1;C1
  0
LEADER
  5
31B
100
AcDbEntity
  8
0
100
AcDbLeader
  3
STANDARD
 73
     0
 40
5.0
 41
6.666667
 76
     3
 10
66.25
 20
10.5
 30
0.0
 10
90.5
 20
0.0
 30
0.0
 10
91.25
 20
0.0
 30
0.0
 77
   256
340
31A
1001
ACAD
1000
DSTYLE
1002
{
1070
    78
1070
     8
1070
   288
1070
     1
1070
   284
1070
     8
1070
   140
1040
5.0
1070
    73
1070
     0
1070
   272
1070
     2
1070
    42
1040
1.0
1070
    44
1040
1.0
1070
   271
1070
     2
1070
    41
1040
2.0
1002
}
  0
LINE
  5
31C
100
AcDbEntity
  8
1
100
AcDbLine
 10
114.748254
 20
14.5
 30
0.0
 11
142.998254
 21
14.5
 31
0.0
  0
DIMENSION
  5
31D
100
AcDbEntity
  8
0
100
AcDbDimension
  2
*D7
 10
98.188283
 20
8.0
 30
0.0
 11
98.188283
 21
15.148669
 31
0.0
 12
-106.75
 22
-97.25
 32
0.0
 70
   128
  3
STANDARD
100
AcDbAlignedDimension
 13
65.25
 23
21.0
 33
0.0
 14
65.25
 24
8.0
 34
0.0
 50
90.0
100
AcDbRotatedDimension
1001
ACAD
1000
DSTYLE
1002
{
1070
    78
1070
     8
1070
   288
1070
     1
1070
   284
1070
     8
1070
   140
1040
5.0
1070
    73
1070
     0
1070
   272
1070
     2
1070
    42
1040
1.0
1070
    44
1040
1.0
1070
   271
1070
     2
1070
    41
1040
2.0
1002
}
  0
DIMENSION
  5
31E
100
AcDbEntity
  8
0
100
AcDbDimension
  2
*D6
 10
83.699275
 20
11.5
 30
0.0
 11
87.455942
 21
26.211319
 31
0.0
 12
-106.75
 22
-97.25
 32
0.0
 70
   128
  3
STANDARD
100
AcDbAlignedDimension
 13
65.25
 23
17.5
 33
0.0
 14
65.25
 24
11.5
 34
0.0
 50
90.0
100
AcDbRotatedDimension
1001
ACAD
1000
DSTYLE
1002
{
1070
    78
1070
     8
1070
   288
1070
     1
1070
   284
1070
     8
1070
   140
1040
5.0
1070
    73
1070
     0
1070
   272
1070
     2
1070
    42
1040
1.0
1070
    44
1040
1.0
1070
   271
1070
     2
1070
    41
1040
2.0
1002
}
  0
LWPOLYLINE
  5
31F
100
AcDbEntity
  8
0
100
AcDbPolyline
 90
        3
 70
     1
 43
0.0
 10
77.519377
 20
17.936181
 10
79.339174
 20
14.7842
 10
75.69958
 20
14.7842
  0
LINE
  5
320
100
AcDbEntity
  8
3
100
AcDbLine
 10
65.25
 20
8.0
 30
0.0
 11
40.25
 21
6.5
 31
0.0
  0
LINE
  5
321
100
AcDbEntity
  8
3
100
AcDbLine
 10
65.25
 20
21.0
 30
0.0
 11
40.25
 21
22.5
 31
0.0
  0
LINE
  5
322
100
AcDbEntity
  8
1
100
AcDbLine
 10
71.25
 20
14.5
 30
0.0
 11
44.750001
 21
14.5
 31
0.0
  0
LINE
  5
323
100
AcDbEntity
  8
3
100
AcDbLine
 10
50.250001
 20
11.5
 30
0.0
 11
65.250001
 21
11.5
 31
0.0
  0
LINE
  5
324
100
AcDbEntity
  8
3
100
AcDbLine
 10
50.250001
 20
17.5
 30
0.0
 11
65.250001
 21
17.5
 31
0.0
  0
LWPOLYLINE
  5
325
100
AcDbEntity
  8
0
100
AcDbPolyline
 90
        3
 70
     1
 43
0.0
 10
52.927309
 20
21.781492
 10
55.345484
 20
24.501616
 10
51.7807
 20
25.235754
  0
LINE
  5
326
100
AcDbEntity
  8
2
100
AcDbLine
 10
65.25
 20
11.5
 30
0.0
 11
35.25
 21
11.5
 31
0.0
  0
LINE
  5
327
100
AcDbEntity
  8
3
100
AcDbLine
 10
65.25
 20
17.5
 30
0.0
 11
35.25
 21
17.5
 31
0.0
  0
LINE
  5
328
100
AcDbEntity
  8
3
100
AcDbLine
 10
35.25
 20
17.5
 30
0.0
 11
35.25
 21
14.5
 31
0.0
  0
LINE
  5
329
100
AcDbEntity
  8
3
100
AcDbLine
 10
40.25
 20
6.5
 30
0.0
 11
40.25
 21
14.5
 31
0.0
  0
LINE
  5
32A
100
AcDbEntity
  8
2
100
AcDbLine
 10
35.25
 20
11.5
 30
0.0
 11
35.25
 21
14.5
 31
0.0
  0
LWPOLYLINE
  5
32B
100
AcDbEntity
  8
0
100
AcDbPolyline
 90
        3
 70
     1
 43
0.0
 10
49.362525
 20
22.51563
 10
51.7807
 20
25.235754
 10
48.215916
 20
25.969892
  0
LINE
  5
32C
100
AcDbEntity
  8
3
100
AcDbLine
 10
65.25
 20
14.5
 30
0.0
 11
65.25
 21
21.0
 31
0.0
  0
LWPOLYLINE
  5
32D
100
AcDbEntity
  8
0
100
AcDbPolyline
 90
        3
 70
     1
 43
0.0
 10
73.879783
 20
17.936181
 10
75.69958
 20
14.7842
 10
72.059987
 20
14.7842
  0
LINE
  5
32E
100
AcDbEntity
  8
3
100
AcDbLine
 10
65.25
 20
14.5
 30
0.0
 11
65.25
 21
8.0
 31
0.0
  0
LINE
  5
32F
100
AcDbEntity
  8
3
100
AcDbLine
 10
65.25
 20
14.5
 30
0.0
 11
65.25
 21
11.6
 31
0.0
  0
TEXT
  5
330
100
AcDbEntity
  8
0
100
AcDbText
 10
88.525
 20
27.475
 30
0.0
 40
3.5
  1
 0
 41
0.7
  7
BIGFONT
100
AcDbText
  0
TEXT
  5
331
100
AcDbEntity
  8
0
100
AcDbText
 10
88.525
 20
31.675
 30
0.0
 40
3.5
  1
+0.1
 41
0.7
  7
BIGFONT
100
AcDbText
  0
CIRCLE
  5
332
100
AcDbEntity
  8
3
100
AcDbCircle
 10
128.998254
 20
14.5
 30
0.0
 40
3.0
  0
CIRCLE
  5
333
100
AcDbEntity
  8
3
100
AcDbCircle
 10
128.998254
 20
14.5
 30
0.0
 40
6.5
  0
CIRCLE
  5
334
100
AcDbEntity
  8
3
100
AcDbCircle
 10
128.998254
 20
14.5
 30
0.0
 40
8.0
  0
LINE
  5
335
100
AcDbEntity
  8
1
100
AcDbLine
 10
128.998254
 20
27.5
 30
0.0
 11
128.998254
 21
0.5
 31
0.0
  0
ENDBLK
  5
337
100
AcDbEntity
  8
0
100
AcDbBlockEnd
  0
BLOCK
  5
37B
100
AcDbEntity
  8
0
100
AcDbBlockBegin
  2
*D9
 70
     1
 10
0.0
 20
0.0
 30
0.0
  3
*D9
  1

  0
LINE
  5
37C
100
AcDbEntity
  8
0
  6
BYBLOCK
 62
     0
100
AcDbLine
 10
117.545782
 20
70.318485
 30
0.0
 11
150.484065
 21
70.318485
 31
0.0
  0
LINE
  5
37D
100
AcDbEntity
  8
0
  6
BYBLOCK
 62
     0
100
AcDbLine
 10
117.545782
 20
57.318485
 30
0.0
 11
150.484065
 21
57.318485
 31
0.0
  0
LINE
  5
37E
100
AcDbEntity
  8
0
  6
BYBLOCK
 62
     0
100
AcDbLine
 10
149.484065
 20
68.318485
 30
0.0
 11
149.484065
 21
68.228485
 31
0.0
  0
LINE
  5
37F
100
AcDbEntity
  8
0
  6
BYBLOCK
 62
     0
100
AcDbLine
 10
149.484065
 20
59.318485
 30
0.0
 11
149.484065
 21
59.84382
 31
0.0
  0
MTEXT
  5
380
100
AcDbEntity
  8
0
  6
BYBLOCK
 62
     0
100
AcDbMText
 10
149.484065
 20
64.467153
 30
0.0
 40
8.5
 41
0.0
 71
     5
 72
     1
  1
\A1;13
  7
BIGFONT
 11
0.0
 21
1.0
 31
0.0
  0
SOLID
  5
381
100
AcDbEntity
  8
0
  6
BYBLOCK
 62
     0
100
AcDbTrace
 10
149.150732
 20
68.318485
 30
0.0
 11
149.817398
 21
68.318485
 31
0.0
 12
149.484065
 22
70.318485
 32
0.0
 13
149.484065
 23
70.318485
 33
0.0
  0
SOLID
  5
382
100
AcDbEntity
  8
0
  6
BYBLOCK
 62
     0
100
AcDbTrace
 10
149.150732
 20
59.318485
 30
0.0
 11
149.817398
 21
59.318485
 31
0.0
 12
149.484065
 22
57.318485
 32
0.0
 13
149.484065
 23
57.318485
 33
0.0
  0
POINT
  5
383
100
AcDbEntity
  8
DEFPOINTS
  6
BYBLOCK
 62
     0
100
AcDbPoint
 10
116.545782
 20
70.318485
 30
0.0
  0
POINT
  5
384
100
AcDbEntity
  8
DEFPOINTS
  6
BYBLOCK
 62
     0
100
AcDbPoint
 10
116.545782
 20
57.318485
 30
0.0
  0
POINT
  5
385
100
AcDbEntity
  8
DEFPOINTS
  6
BYBLOCK
 62
     0
100
AcDbPoint
 10
149.484065
 20
57.318485
 30
0.0
  0
ENDBLK
  5
386
100
AcDbEntity
  8
0
100
AcDbBlockEnd
  0
BLOCK
  5
387
100
AcDbEntity
  8
0
100
AcDbBlockBegin
  2
*D10
 70
     1
 10
0.0
 20
0.0
 30
0.0
  3
*D10
  1

  0
LINE
  5
388
100
AcDbEntity
  8
0
  6
BYBLOCK
 62
     0
100
AcDbLine
 10
117.545782
 20
66.818485
 30
0.0
 11
135.995057
 21
66.818485
 31
0.0
  0
LINE
  5
389
100
AcDbEntity
  8
0
  6
BYBLOCK
 62
     0
100
AcDbLine
 10
117.545782
 20
60.818485
 30
0.0
 11
135.995057
 21
60.818485
 31
0.0
  0
LINE
  5
38A
100
AcDbEntity
  8
0
  6
BYBLOCK
 62
     0
100
AcDbLine
 10
134.995057
 20
64.818485
 30
0.0
 11
134.995057
 21
62.818485
 31
0.0
  0
MTEXT
  5
38B
100
AcDbEntity
  8
0
  6
BYBLOCK
 62
     0
100
AcDbMText
 10
138.751723
 20
75.529803
 30
0.0
 40
8.5
 41
0.0
 71
     5
 72
     1
  1
\A1;6
  7
BIGFONT
  0
SOLID
  5
38C
100
AcDbEntity
  8
0
  6
BYBLOCK
 62
     0
100
AcDbTrace
 10
134.661723
 20
64.818485
 30
0.0
 11
135.32839
 21
64.818485
 31
0.0
 12
134.995057
 22
66.818485
 32
0.0
 13
134.995057
 23
66.818485
 33
0.0
  0
SOLID
  5
38D
100
AcDbEntity
  8
0
  6
BYBLOCK
 62
     0
100
AcDbTrace
 10
134.661723
 20
62.818485
 30
0.0
 11
135.32839
 21
62.818485
 31
0.0
 12
134.995057
 22
60.818485
 32
0.0
 13
134.995057
 23
60.818485
 33
0.0
  0
POINT
  5
38E
100
AcDbEntity
  8
DEFPOINTS
  6
BYBLOCK
 62
     0
100
AcDbPoint
 10
116.545782
 20
66.818485
 30
0.0
  0
POINT
  5
38F
100
AcDbEntity
  8
DEFPOINTS
  6
BYBLOCK
 62
     0
100
AcDbPoint
 10
116.545782
 20
60.818485
 30
0.0
  0
POINT
  5
390
100
AcDbEntity
  8
DEFPOINTS
  6
BYBLOCK
 62
     0
100
AcDbPoint
 10
134.995057
 20
60.818485
 30
0.0
  0
ENDBLK
  5
391
100
AcDbEntity
  8
0
100
AcDbBlockEnd
  0
BLOCK
  5
3D4
100
AcDbEntity
  8
0
100
AcDbBlockBegin
  2
A$C39A97E20
 70
     0
 10
0.0
 20
0.0
 30
0.0
  3
A$C39A97E20
  1

  0
LINE
  5
395
100
AcDbEntity
  8
2
100
AcDbLine
 10
68.5
 20
9.15
 30
0.0
 11
79.5
 21
9.15
 31
0.0
  0
LINE
  5
396
100
AcDbEntity
  8
2
100
AcDbLine
 10
79.5
 20
11.65
 30
0.0
 11
68.5
 21
11.65
 31
0.0
  0
LINE
  5
397
100
AcDbEntity
  8
3
100
AcDbLine
 10
79.5
 20
7.4
 30
0.0
 11
64.5
 21
7.4
 31
0.0
  0
LINE
  5
398
100
AcDbEntity
  8
3
100
AcDbLine
 10
79.5
 20
13.4
 30
0.0
 11
64.5
 21
13.4
 31
0.0
  0
LINE
  5
399
100
AcDbEntity
  8
1
100
AcDbLine
 10
43.000001
 20
10.4
 30
0.0
 11
85.0
 21
10.4
 31
0.0
  0
LINE
  5
39A
100
AcDbEntity
  8
1
100
AcDbLine
 10
8.7
 20
21.0
 30
0.0
 11
8.7
 21
0.0
 31
0.0
  0
LINE
  5
39B
100
AcDbEntity
  8
1
100
AcDbLine
 10
18.2
 20
10.4
 30
0.0
 11
0.0
 21
10.4
 31
0.0
  0
CIRCLE
  5
39C
100
AcDbEntity
  8
0
100
AcDbCircle
 10
8.7
 20
10.4
 30
0.0
 40
4.979646
  0
LWPOLYLINE
  5
39D
100
AcDbEntity
  8
3
100
AcDbPolyline
 90
        6
 70
     1
 43
0.0
 10
8.7
 20
16.15
 10
3.720354
 20
13.275
 10
3.720354
 20
7.525
 10
8.7
 20
4.65
 10
13.679646
 20
7.525
 10
13.679646
 20
13.275
  0
CIRCLE
  5
39E
100
AcDbEntity
  8
3
100
AcDbCircle
 10
8.7
 20
10.4
 30
0.0
 40
4.0
  0
CIRCLE
  5
39F
100
AcDbEntity
  8
0
100
AcDbCircle
 10
8.7
 20
10.4
 30
0.0
 40
3.2
  0
LINE
  5
3A0
100
AcDbEntity
  8
3
100
AcDbLine
 10
56.500001
 20
13.275
 30
0.0
 11
64.500001
 21
13.275
 31
0.0
  0
LINE
  5
3A1
100
AcDbEntity
  8
3
100
AcDbLine
 10
57.248926
 20
16.15
 30
0.0
 11
64.500001
 21
16.15
 31
0.0
  0
LINE
  5
3A2
100
AcDbEntity
  8
3
100
AcDbLine
 10
56.500001
 20
7.525
 30
0.0
 11
64.500001
 21
7.525
 31
0.0
  0
LINE
  5
3A3
100
AcDbEntity
  8
3
100
AcDbLine
 10
57.248926
 20
4.65
 30
0.0
 11
64.500001
 21
4.65
 31
0.0
  0
ARC
  5
3A4
100
AcDbEntity
  8
3
100
AcDbCircle
 10
101.55
 20
10.4
 30
0.0
 40
45.05
100
AcDbArc
 50
176.181695
 51
183.658987
  0
LINE
  5
3A5
100
AcDbEntity
  8
3
100
AcDbLine
 10
46.5
 20
7.4
 30
0.0
 11
46.5
 21
10.4
 31
0.0
  0
LINE
  5
3A6
100
AcDbEntity
  8
3
100
AcDbLine
 10
47.5
 20
6.4
 30
0.0
 11
47.5
 21
10.4
 31
0.0
  0
LINE
  5
3A7
100
AcDbEntity
  8
3
100
AcDbLine
 10
55.5
 20
6.4
 30
0.0
 11
55.5
 21
10.4
 31
0.0
  0
LINE
  5
3A8
100
AcDbEntity
  8
3
100
AcDbLine
 10
56.500001
 20
10.4
 30
0.0
 11
56.500001
 21
6.4
 31
0.0
  0
LINE
  5
3A9
100
AcDbEntity
  8
3
100
AcDbLine
 10
56.5
 20
6.4
 30
0.0
 11
47.5
 21
6.4
 31
0.0
  0
LINE
  5
3AA
100
AcDbEntity
  8
3
100
AcDbLine
 10
46.5
 20
7.4
 30
0.0
 11
55.5
 21
7.4
 31
0.0
  0
SOLID
  5
3AB
100
AcDbEntity
  8
0
100
AcDbTrace
 10
48.85775
 20
4.613157
 30
0.0
 11
49.6
 21
6.5
 31
0.0
 12
49.50982
 22
4.474419
 32
0.0
 13
49.50982
 23
4.474419
 33
0.0
1001
ACAD
1000
DSTYLE
1002
{
1070
    78
1070
     8
1070
   288
1070
     1
1070
   284
1070
     8
1070
   140
1040
5.0
1070
   340
1005
139
1070
    73
1070
     0
1070
   272
1070
     2
1070
    42
1040
0.5
1070
    44
1040
0.5
1070
   271
1070
     2
1070
    41
1040
2.0
1002
}
  0
LINE
  5
3AC
100
AcDbEntity
  8
3
100
AcDbLine
 10
47.5
 20
6.4
 30
0.0
 11
46.5
 21
7.4
 31
0.0
  0
LINE
  5
3AD
100
AcDbEntity
  8
3
100
AcDbLine
 10
56.500001
 20
6.4
 30
0.0
 11
57.248926
 21
4.65
 31
0.0
  0
LINE
  5
3AE
100
AcDbEntity
  8
3
100
AcDbLine
 10
46.5
 20
13.4
 30
0.0
 11
55.5
 21
13.4
 31
0.0
  0
LINE
  5
3AF
100
AcDbEntity
  8
3
100
AcDbLine
 10
56.5
 20
14.4
 30
0.0
 11
47.5
 21
14.4
 31
0.0
  0
LINE
  5
3B0
100
AcDbEntity
  8
3
100
AcDbLine
 10
46.5
 20
13.4
 30
0.0
 11
46.5
 21
10.4
 31
0.0
  0
LINE
  5
3B1
100
AcDbEntity
  8
3
100
AcDbLine
 10
47.5
 20
14.4
 30
0.0
 11
47.5
 21
10.4
 31
0.0
  0
POINT
  5
3B2
100
AcDbEntity
  8
DEFPOINTS
  6
BYBLOCK
 62
     0
100
AcDbPoint
 10
46.5
 20
13.4
 30
0.0
  0
LINE
  5
3B3
100
AcDbEntity
  8
3
100
AcDbLine
 10
47.5
 20
14.4
 30
0.0
 11
46.5
 21
13.4
 31
0.0
  0
LINE
  5
3B4
100
AcDbEntity
  8
3
100
AcDbLine
 10
56.500001
 20
10.4
 30
0.0
 11
56.500001
 21
15.406246
 31
0.0
  0
LINE
  5
3B5
100
AcDbEntity
  8
3
100
AcDbLine
 10
55.5
 20
14.4
 30
0.0
 11
55.5
 21
10.4
 31
0.0
  0
LINE
  5
3B6
100
AcDbEntity
  8
3
100
AcDbLine
 10
56.500001
 20
14.4
 30
0.0
 11
57.248926
 21
16.15
 31
0.0
  0
POINT
  5
3B7
100
AcDbEntity
  8
DEFPOINTS
  6
BYBLOCK
 62
     0
100
AcDbPoint
 10
56.500001
 20
15.406246
 30
0.0
  0
POINT
  5
3B8
100
AcDbEntity
  8
DEFPOINTS
  6
BYBLOCK
 62
     0
100
AcDbPoint
 10
56.5
 20
16.15
 30
0.0
  0
LINE
  5
3B9
100
AcDbEntity
  8
3
100
AcDbLine
 10
56.5
 20
16.15
 30
0.0
 11
56.5
 21
15.15
 31
0.0
  0
LINE
  5
3BA
100
AcDbEntity
  8
3
100
AcDbLine
 10
64.500001
 20
4.65
 30
0.0
 11
64.500001
 21
10.4
 31
0.0
  0
LINE
  5
3BB
100
AcDbEntity
  8
3
100
AcDbLine
 10
64.500001
 20
10.4
 30
0.0
 11
64.500001
 21
7.5
 31
0.0
  0
LINE
  5
3BC
100
AcDbEntity
  8
3
100
AcDbLine
 10
64.500001
 20
10.4
 30
0.0
 11
64.500001
 21
13.3
 31
0.0
  0
LINE
  5
3BD
100
AcDbEntity
  8
3
100
AcDbLine
 10
64.500001
 20
16.15
 30
0.0
 11
64.500001
 21
10.4
 31
0.0
  0
LINE
  5
3BE
100
AcDbEntity
  8
2
100
AcDbLine
 10
67.0
 20
10.4
 30
0.0
 11
68.5
 21
9.15
 31
0.0
  0
LINE
  5
3BF
100
AcDbEntity
  8
2
100
AcDbLine
 10
68.5
 20
11.65
 30
0.0
 11
67.0
 21
10.4
 31
0.0
  0
LINE
  5
3C0
100
AcDbEntity
  8
2
100
AcDbLine
 10
68.5
 20
11.65
 30
0.0
 11
68.5
 21
9.15
 31
0.0
  0
POINT
  5
3C1
100
AcDbEntity
  8
DEFPOINTS
  6
BYBLOCK
 62
     0
100
AcDbPoint
 10
56.5
 20
17.15
 30
0.0
  0
POINT
  5
3C2
100
AcDbEntity
  8
DEFPOINTS
  6
BYBLOCK
 62
     0
100
AcDbPoint
 10
56.822205
 20
16.4
 30
0.0
  0
POINT
  5
3C3
100
AcDbEntity
  8
DEFPOINTS
  6
BYBLOCK
 62
     0
100
AcDbPoint
 10
64.5
 20
17.15
 30
0.0
  0
POINT
  5
3C4
100
AcDbEntity
  8
DEFPOINTS
  6
BYBLOCK
 62
     0
100
AcDbPoint
 10
64.5
 20
16.9
 30
0.0
  0
SOLID
  5
3C5
100
AcDbEntity
  8
0
100
AcDbTrace
 10
81.02066
 20
16.268981
 30
0.0
 11
79.8
 21
14.65
 31
0.0
 12
80.429604
 22
16.577358
 32
0.0
 13
80.429604
 23
16.577358
 33
0.0
1001
ACAD
1000
DSTYLE
1002
{
1070
    78
1070
     8
1070
   288
1070
     1
1070
   284
1070
     8
1070
   140
1040
5.0
1070
   340
1005
139
1070
    73
1070
     0
1070
   272
1070
     2
1070
    42
1040
0.5
1070
    44
1040
0.5
1070
   271
1070
     2
1070
    41
1040
2.0
1002
}
  0
SOLID
  5
3C6
100
AcDbEntity
  8
0
100
AcDbTrace
 10
80.989788
 20
8.123418
 30
0.0
 11
79.810898
 21
9.773063
 31
0.0
 12
81.461084
 22
8.594931
 32
0.0
 13
81.461084
 23
8.594931
 33
0.0
1001
ACAD
1000
DSTYLE
1002
{
1070
    78
1070
     8
1070
   288
1070
     1
1070
   284
1070
     8
1070
   140
1040
5.0
1070
   340
1005
139
1070
    73
1070
     0
1070
   272
1070
     2
1070
    42
1040
0.5
1070
    44
1040
0.5
1070
   271
1070
     2
1070
    41
1040
2.0
1002
}
  0
LINE
  5
3C7
100
AcDbEntity
  8
3
100
AcDbLine
 10
79.5
 20
10.4
 30
0.0
 11
79.5
 21
7.4
 31
0.0
  0
POINT
  5
3C8
100
AcDbEntity
  8
DEFPOINTS
  6
BYBLOCK
 62
     0
100
AcDbPoint
 10
72.0
 20
7.9
 30
0.0
  0
POINT
  5
3C9
100
AcDbEntity
  8
DEFPOINTS
  6
BYBLOCK
 62
     0
100
AcDbPoint
 10
79.5
 20
7.4
 30
0.0
  0
POINT
  5
3CA
100
AcDbEntity
  8
DEFPOINTS
  6
BYBLOCK
 62
     0
100
AcDbPoint
 10
79.5
 20
6.65
 30
0.0
  0
LINE
  5
3CB
100
AcDbEntity
  8
2
100
AcDbLine
 10
72.0
 20
8.9
 30
0.0
 11
79.5
 21
8.9
 31
0.0
  0
LINE
  5
3CC
100
AcDbEntity
  8
2
100
AcDbLine
 10
79.5
 20
11.9
 30
0.0
 11
72.0
 21
11.9
 31
0.0
  0
LINE
  5
3CD
100
AcDbEntity
  8
2
100
AcDbLine
 10
71.75
 20
11.65
 30
0.0
 11
72.0
 21
11.9
 31
0.0
  0
LINE
  5
3CE
100
AcDbEntity
  8
2
100
AcDbLine
 10
71.75
 20
9.15
 30
0.0
 11
71.75
 21
11.65
 31
0.0
  0
LINE
  5
3CF
100
AcDbEntity
  8
2
100
AcDbLine
 10
72.0
 20
8.9
 30
0.0
 11
71.75
 21
9.15
 31
0.0
  0
LINE
  5
3D0
100
AcDbEntity
  8
2
100
AcDbLine
 10
72.0
 20
11.9
 30
0.0
 11
72.0
 21
8.9
 31
0.0
  0
LINE
  5
3D1
100
AcDbEntity
  8
3
100
AcDbLine
 10
79.5
 20
10.4
 30
0.0
 11
79.5
 21
13.4
 31
0.0
  0
POINT
  5
3D2
100
AcDbEntity
  8
DEFPOINTS
  6
BYBLOCK
 62
     0
100
AcDbPoint
 10
79.5
 20
13.4
 30
0.0
  0
POINT
  5
3D3
100
AcDbEntity
  8
DEFPOINTS
  6
BYBLOCK
 62
     0
100
AcDbPoint
 10
79.5
 20
14.15
 30
0.0
  0
ENDBLK
  5
3D5
100
AcDbEntity
  8
0
100
AcDbBlockEnd
  0
ENDSEC
  0
SECTION
  2
ENTITIES
  0
LINE
  5
33B
100
AcDbEntity
  8
3
100
AcDbLine
 10
61.048878
 20
71.818485
 30
0.0
 11
91.545782
 21
71.818485
 31
0.0
  0
LINE
  5
33C
100
AcDbEntity
  8
3
100
AcDbLine
 10
61.048878
 20
55.818485
 30
0.0
 11
91.545782
 21
55.818485
 31
0.0
  0
LINE
  5
33D
100
AcDbEntity
  8
1
100
AcDbLine
 10
51.295782
 20
63.818485
 30
0.0
 11
119.795782
 21
63.818485
 31
0.0
  0
ARC
  5
33E
100
AcDbEntity
  8
3
100
AcDbCircle
 10
66.88877
 20
63.818485
 30
0.0
 40
10.342988
100
AcDbArc
 50
136.344725
 51
223.655275
  0
LINE
  5
340
100
AcDbEntity
  8
3
100
AcDbLine
 10
60.045782
 20
56.088225
 30
0.0
 11
60.045782
 21
63.818485
 31
0.0
  0
ARC
  5
341
100
AcDbEntity
  8
3
100
AcDbCircle
 10
61.048878
 20
57.818485
 30
0.0
 40
2.0
100
AcDbArc
 50
214.748451
 51
270.0
  0
ARC
  5
343
100
AcDbEntity
  8
3
100
AcDbCircle
 10
61.048878
 20
69.818485
 30
0.0
 40
2.0
100
AcDbArc
 50
90.0
 51
145.251549
  0
LINE
  5
348
100
AcDbEntity
  8
1
100
AcDbLine
 10
166.044035
 20
63.818485
 30
0.0
 11
194.294035
 21
63.818485
 31
0.0
  0
LINE
  5
34C
100
AcDbEntity
  8
3
100
AcDbLine
 10
116.545782
 20
57.318485
 30
0.0
 11
91.545782
 21
55.818485
 31
0.0
  0
LINE
  5
34D
100
AcDbEntity
  8
3
100
AcDbLine
 10
116.545782
 20
70.318485
 30
0.0
 11
91.545782
 21
71.818485
 31
0.0
  0
LINE
  5
34E
100
AcDbEntity
  8
1
100
AcDbLine
 10
122.545782
 20
63.818485
 30
0.0
 11
96.045782
 21
63.818485
 31
0.0
  0
LINE
  5
355
100
AcDbEntity
  8
3
100
AcDbLine
 10
91.545782
 20
55.818485
 30
0.0
 11
91.545782
 21
63.818485
 31
0.0
  0
LINE
  5
358
100
AcDbEntity
  8
3
100
AcDbLine
 10
116.545782
 20
63.818485
 30
0.0
 11
116.545782
 21
70.318485
 31
0.0
  0
LINE
  5
35A
100
AcDbEntity
  8
3
100
AcDbLine
 10
116.545782
 20
63.818485
 30
0.0
 11
116.545782
 21
57.318485
 31
0.0
  0
LINE
  5
35B
100
AcDbEntity
  8
3
100
AcDbLine
 10
116.545782
 20
63.818485
 30
0.0
 11
116.545782
 21
60.918485
 31
0.0
  0
CIRCLE
  5
35F
100
AcDbEntity
  8
3
100
AcDbCircle
 10
180.294035
 20
63.818485
 30
0.0
 40
6.5
  0
CIRCLE
  5
360
100
AcDbEntity
  8
3
100
AcDbCircle
 10
180.294035
 20
63.818485
 30
0.0
 40
8.0
  0
LINE
  5
361
100
AcDbEntity
  8
1
100
AcDbLine
 10
180.294035
 20
76.818485
 30
0.0
 11
180.294035
 21
49.818485
 31
0.0
  0
LINE
  5
392
100
AcDbEntity
  8
3
100
AcDbLine
 10
60.045782
 20
71.548744
 30
0.0
 11
60.045782
 21
63.818485
 31
0.0
  0
LINE
  5
393
100
AcDbEntity
  8
3
100
AcDbLine
 10
91.545782
 20
71.818485
 30
0.0
 11
91.545782
 21
63.818485
 31
0.0
  0
CIRCLE
  5
3DE
100
AcDbEntity
  8
0
100
AcDbCircle
 10
180.294035
 20
63.818485
 30
0.0
 40
4.979646
  0
LWPOLYLINE
  5
3DF
100
AcDbEntity
  8
3
100
AcDbPolyline
 90
        6
 70
     1
 43
0.0
 10
180.294035
 20
58.068485
 10
185.273681
 20
60.943485
 10
185.273681
 20
66.693485
 10
180.294035
 20
69.568485
 10
175.314389
 20
66.693485
 10
175.314389
 20
60.943485
  0
CIRCLE
  5
3E0
100
AcDbEntity
  8
3
100
AcDbCircle
 10
180.294035
 20
63.818485
 30
0.0
 40
4.0
  0
CIRCLE
  5
3E1
100
AcDbEntity
  8
0
100
AcDbCircle
 10
180.294035
 20
63.818485
 30
0.0
 40
3.2
  0
LINE
  5
3E2
100
AcDbEntity
  8
3
100
AcDbLine
 10
124.545782
 20
60.943485
 30
0.0
 11
116.545782
 21
60.943485
 31
0.0
  0
LINE
  5
3E3
100
AcDbEntity
  8
3
100
AcDbLine
 10
123.796857
 20
58.068485
 30
0.0
 11
116.545782
 21
58.068485
 31
0.0
  0
LINE
  5
3E4
100
AcDbEntity
  8
3
100
AcDbLine
 10
124.545782
 20
66.693485
 30
0.0
 11
116.545782
 21
66.693485
 31
0.0
  0
LINE
  5
3E5
100
AcDbEntity
  8
3
100
AcDbLine
 10
123.796857
 20
69.568485
 30
0.0
 11
116.545782
 21
69.568485
 31
0.0
  0
LINE
  5
3E7
100
AcDbEntity
  8
3
100
AcDbLine
 10
134.545782
 20
66.818485
 30
0.0
 11
134.545782
 21
63.818485
 31
0.0
  0
LINE
  5
3E8
100
AcDbEntity
  8
3
100
AcDbLine
 10
133.545782
 20
67.818485
 30
0.0
 11
133.545782
 21
63.818485
 31
0.0
  0
LINE
  5
3E9
100
AcDbEntity
  8
3
100
AcDbLine
 10
125.545782
 20
67.818485
 30
0.0
 11
125.545782
 21
63.818485
 31
0.0
  0
LINE
  5
3EA
100
AcDbEntity
  8
3
100
AcDbLine
 10
124.545782
 20
63.818485
 30
0.0
 11
124.545782
 21
67.818485
 31
0.0
  0
LINE
  5
3EB
100
AcDbEntity
  8
3
100
AcDbLine
 10
124.545782
 20
67.818485
 30
0.0
 11
133.545782
 21
67.818485
 31
0.0
  0
LINE
  5
3EC
100
AcDbEntity
  8
3
100
AcDbLine
 10
134.545782
 20
66.818485
 30
0.0
 11
125.545782
 21
66.818485
 31
0.0
  0
LINE
  5
3EE
100
AcDbEntity
  8
3
100
AcDbLine
 10
133.545782
 20
67.818485
 30
0.0
 11
134.545782
 21
66.818485
 31
0.0
  0
LINE
  5
3EF
100
AcDbEntity
  8
3
100
AcDbLine
 10
124.545782
 20
67.818485
 30
0.0
 11
123.796857
 21
69.568485
 31
0.0
  0
LINE
  5
3F0
100
AcDbEntity
  8
3
100
AcDbLine
 10
134.545782
 20
60.818485
 30
0.0
 11
125.545782
 21
60.818485
 31
0.0
  0
LINE
  5
3F1
100
AcDbEntity
  8
3
100
AcDbLine
 10
124.545782
 20
59.818485
 30
0.0
 11
133.545782
 21
59.818485
 31
0.0
  0
LINE
  5
3F2
100
AcDbEntity
  8
3
100
AcDbLine
 10
134.545782
 20
60.818485
 30
0.0
 11
134.545782
 21
63.818485
 31
0.0
  0
LINE
  5
3F3
100
AcDbEntity
  8
3
100
AcDbLine
 10
133.545782
 20
59.818485
 30
0.0
 11
133.545782
 21
63.818485
 31
0.0
  0
POINT
  5
3F4
100
AcDbEntity
  8
DEFPOINTS
  6
BYBLOCK
 62
     0
100
AcDbPoint
 10
134.545782
 20
60.818485
 30
0.0
  0
LINE
  5
3F5
100
AcDbEntity
  8
3
100
AcDbLine
 10
133.545782
 20
59.818485
 30
0.0
 11
134.545782
 21
60.818485
 31
0.0
  0
LINE
  5
3F7
100
AcDbEntity
  8
3
100
AcDbLine
 10
125.545782
 20
59.818485
 30
0.0
 11
125.545782
 21
63.818485
 31
0.0
  0
LINE
  5
3F8
100
AcDbEntity
  8
3
100
AcDbLine
 10
124.545782
 20
59.818485
 30
0.0
 11
123.796857
 21
58.068485
 31
0.0
  0
LINE
  5
416
100
AcDbEntity
  8
3
100
AcDbLine
 10
124.545782
 20
63.818485
 30
0.0
 11
124.545782
 21
59.818485
 31
0.0
  0
LINE
  5
417
100
AcDbEntity
  8
1
100
AcDbLine
 10
122.545782
 20
63.818485
 30
0.0
 11
141.955042
 21
63.818485
 31
0.0
  0
ENDSEC
  0
SECTION
  2
OBJECTS
  0
DICTIONARY
  5
124
100
AcDbDictionary
  3
ACAD_GROUP
350
125
  3
ACAD_MLINESTYLE
350
132
  3
ACDBVARIABLEDICTIONARY
350
149
  0
DICTIONARY
  5
125
102
{ACAD_REACTORS
330
124
102
}
100
AcDbDictionary
  0
DICTIONARY
  5
132
102
{ACAD_REACTORS
330
124
102
}
100
AcDbDictionary
  3
STANDARD
350
133
  0
DICTIONARY
  5
149
102
{ACAD_REACTORS
330
124
102
}
100
AcDbDictionary
  3
DIMADEC
350
14A
  0
MLINESTYLE
  5
133
102
{ACAD_REACTORS
330
132
102
}
100
AcDbMlineStyle
  2
STANDARD
 70
     0
  3

 62
   256
 51
90.0
 52
90.0
 71
     2
 49
0.5
 62
   256
  6
BYLAYER
 49
-0.5
 62
   256
  6
BYLAYER
  0
DICTIONARYVAR
  5
14A
102
{ACAD_REACTORS
330
149
102
}
100
DictionaryVariables
280
     0
  1
0
  0
ENDSEC
  0
EOF
