  0
SECTION
  2
HEADER
  9
$ACADVER
  1
AC1014
  9
$ACADMAINTVER
 70
     0
  9
$DWGCODEPAGE
  3
ANSI_932
  9
$INSBASE
 10
0.0
 20
0.0
 30
0.0
  9
$EXTMIN
 10
20.0
 20
20.0
 30
0.0
  9
$EXTMAX
 10
237.5
 20
164.632968
 30
0.0
  9
$LIMMIN
 10
0.0
 20
0.0
  9
$LIMMAX
 10
250.0
 20
160.0
  9
$ORTHOMODE
 70
     1
  9
$REGENMODE
 70
     1
  9
$FILLMODE
 70
     1
  9
$QTEXTMODE
 70
     0
  9
$MIRRTEXT
 70
     1
  9
$DRAGMODE
 70
     1
  9
$LTSCALE
 40
20.0
  9
$OSMODE
 70
    32
  9
$ATTMODE
 70
     1
  9
$TEXTSIZE
 40
8.5
  9
$TRACEWID
 40
0.05
  9
$TEXTSTYLE
  7
BIGFONT
  9
$CLAYER
  8
1
  9
$CELTYPE
  6
BYLAYER
  9
$CECOLOR
 62
   256
  9
$CELTSCALE
 40
1.0
  9
$DELOBJ
 70
     1
  9
$DISPSILH
 70
     0
  9
$DIMSCALE
 40
2.0
  9
$DIMASZ
 40
3.0
  9
$DIMEXO
 40
2.0
  9
$DIMDLI
 40
0.38
  9
$DIMRND
 40
0.0
  9
$DIMDLE
 40
0.0
  9
$DIMEXE
 40
2.0
  9
$DIMTP
 40
0.0
  9
$DIMTM
 40
0.0
  9
$DIMTXT
 40
3.2
  9
$DIMCEN
 40
0.09
  9
$DIMTSZ
 40
0.0
  9
$DIMTOL
 70
     0
  9
$DIMLIM
 70
     0
  9
$DIMTIH
 70
     0
  9
$DIMTOH
 70
     0
  9
$DIMSE1
 70
     0
  9
$DIMSE2
 70
     0
  9
$DIMTAD
 70
     1
  9
$DIMZIN
 70
     0
  9
$DIMBLK
  1

  9
$DIMASO
 70
     0
  9
$DIMSHO
 70
     0
  9
$DIMPOST
  1

  9
$DIMAPOST
  1

  9
$DIMALT
 70
     0
  9
$DIMALTD
 70
     2
  9
$DIMALTF
 40
25.4
  9
$DIMLFAC
 40
1.0
  9
$DIMTOFL
 70
     0
  9
$DIMTVP
 40
1.6
  9
$DIMTIX
 70
     1
  9
$DIMSOXD
 70
     0
  9
$DIMSAH
 70
     0
  9
$DIMBLK1
  1

  9
$DIMBLK2
  1

  9
$DIMSTYLE
  2
STANDARD
  9
$DIMCLRD
 70
     0
  9
$DIMCLRE
 70
     0
  9
$DIMCLRT
 70
     0
  9
$DIMTFAC
 40
1.0
  9
$DIMGAP
 40
0.09
  9
$DIMJUST
 70
     0
  9
$DIMSD1
 70
     0
  9
$DIMSD2
 70
     0
  9
$DIMTOLJ
 70
     1
  9
$DIMTZIN
 70
     0
  9
$DIMALTZ
 70
     0
  9
$DIMALTTZ
 70
     0
  9
$DIMFIT
 70
     5
  9
$DIMUPT
 70
     0
  9
$DIMUNIT
 70
     2
  9
$DIMDEC
 70
     4
  9
$DIMTDEC
 70
     4
  9
$DIMALTU
 70
     2
  9
$DIMALTTD
 70
     2
  9
$DIMTXSTY
  7
BIGFONT
  9
$DIMAUNIT
 70
     0
  9
$LUNITS
 70
     2
  9
$LUPREC
 70
     4
  9
$SKETCHINC
 40
0.1
  9
$FILLETRAD
 40
0.0
  9
$AUNITS
 70
     0
  9
$AUPREC
 70
     0
  9
$MENU
  1
ACAD
  9
$ELEVATION
 40
0.0
  9
$PELEVATION
 40
0.0
  9
$THICKNESS
 40
0.0
  9
$LIMCHECK
 70
     0
  9
$BLIPMODE
 70
     0
  9
$CHAMFERA
 40
0.0
  9
$CHAMFERB
 40
0.0
  9
$CHAMFERC
 40
0.0
  9
$CHAMFERD
 40
0.0
  9
$SKPOLY
 70
     0
  9
$TDCREATE
 40
2450865.684213310
  9
$TDUPDATE
 40
2453594.585837303
  9
$TDINDWG
 40
0.0116400810
  9
$TDUSRTIMER
 40
0.0116400810
  9
$USRTIMER
 70
     1
  9
$ANGBASE
 50
0.0
  9
$ANGDIR
 70
     0
  9
$PDMODE
 70
     0
  9
$PDSIZE
 40
0.0
  9
$PLINEWID
 40
0.0
  9
$COORDS
 70
     2
  9
$SPLFRAME
 70
     0
  9
$SPLINETYPE
 70
     6
  9
$SPLINESEGS
 70
     8
  9
$ATTDIA
 70
     0
  9
$ATTREQ
 70
     1
  9
$HANDLING
 70
     1
  9
$HANDSEED
  5
7EA
  9
$SURFTAB1
 70
     6
  9
$SURFTAB2
 70
     6
  9
$SURFTYPE
 70
     6
  9
$SURFU
 70
     6
  9
$SURFV
 70
     6
  9
$UCSNAME
  2

  9
$UCSORG
 10
0.0
 20
0.0
 30
0.0
  9
$UCSXDIR
 10
1.0
 20
0.0
 30
0.0
  9
$UCSYDIR
 10
0.0
 20
1.0
 30
0.0
  9
$PUCSNAME
  2

  9
$PUCSORG
 10
0.0
 20
0.0
 30
0.0
  9
$PUCSXDIR
 10
1.0
 20
0.0
 30
0.0
  9
$PUCSYDIR
 10
0.0
 20
1.0
 30
0.0
  9
$USERI1
 70
     0
  9
$USERI2
 70
     0
  9
$USERI3
 70
     0
  9
$USERI4
 70
     0
  9
$USERI5
 70
     0
  9
$USERR1
 40
0.0
  9
$USERR2
 40
0.0
  9
$USERR3
 40
0.0
  9
$USERR4
 40
0.0
  9
$USERR5
 40
0.0
  9
$WORLDVIEW
 70
     1
  9
$SHADEDGE
 70
     3
  9
$SHADEDIF
 70
    70
  9
$TILEMODE
 70
     1
  9
$MAXACTVP
 70
    16
  9
$PINSBASE
 10
0.0
 20
0.0
 30
0.0
  9
$PLIMCHECK
 70
     0
  9
$PEXTMIN
 10
1.000000E+20
 20
1.000000E+20
 30
1.000000E+20
  9
$PEXTMAX
 10
-1.000000E+20
 20
-1.000000E+20
 30
-1.000000E+20
  9
$PLIMMIN
 10
0.0
 20
0.0
  9
$PLIMMAX
 10
12.0
 20
9.0
  9
$UNITMODE
 70
     0
  9
$VISRETAIN
 70
     0
  9
$PLINEGEN
 70
     1
  9
$PSLTSCALE
 70
     0
  9
$TREEDEPTH
 70
  3020
  9
$PICKSTYLE
 70
     1
  9
$CMLSTYLE
  2
STANDARD
  9
$CMLJUST
 70
     0
  9
$CMLSCALE
 40
1.0
  9
$PROXYGRAPHICS
 70
     1
  9
$MEASUREMENT
 70
     0
  0
ENDSEC
  0
SECTION
  2
CLASSES
  0
CLASS
  1
DICTIONARYVAR
  2
AcDbDictionaryVar
  3
"AutoCAD"
 90
        0
280
     0
281
     0
  0
CLASS
  1
LWPOLYLINE
  2
AcDbPolyline
  3
"AutoCAD"
 90
        0
280
     0
281
     1
  0
ENDSEC
  0
SECTION
  2
TABLES
  0
TABLE
  2
VPORT
  5
120
100
AcDbSymbolTable
 70
    13
  0
VPORT
  5
7E9
100
AcDbSymbolTableRecord
100
AcDbViewportTableRecord
  2
*ACTIVE
 70
     0
 10
0.0
 20
0.0
 11
1.0
 21
1.0
 12
141.889764
 22
98.881727
 13
0.0
 23
0.0
 14
5.0
 24
5.0
 15
10.0
 25
10.0
 16
0.0
 26
0.0
 36
1.0
 17
0.0
 27
0.0
 37
0.0
 40
197.763453
 41
1.434944
 42
50.0
 43
0.0
 44
0.0
 50
0.0
 51
0.0
 71
     0
 72
  1000
 73
     1
 74
     1
 75
     0
 76
     0
 77
     0
 78
     2
  0
ENDTAB
  0
TABLE
  2
LTYPE
  5
11D
100
AcDbSymbolTable
 70
     6
  0
LTYPE
  5
129
100
AcDbSymbolTableRecord
100
AcDbLinetypeTableRecord
  2
BYBLOCK
 70
     0
  3

 72
    65
 73
     0
 40
0.0
  0
LTYPE
  5
12A
100
AcDbSymbolTableRecord
100
AcDbLinetypeTableRecord
  2
BYLAYER
 70
     0
  3

 72
    65
 73
     0
 40
0.0
  0
LTYPE
  5
12B
100
AcDbSymbolTableRecord
100
AcDbLinetypeTableRecord
  2
CONTINUOUS
 70
     0
  3
実線
 72
    65
 73
     0
 40
0.0
  0
LTYPE
  5
13A
100
AcDbSymbolTableRecord
100
AcDbLinetypeTableRecord
  2
CENTER
 70
     0
  3
____ _ ____ _ ____ _ ____ _ ____ _ ____ _ ____
 72
    65
 73
     4
 40
2.0
 49
1.25
 74
     0
 49
-0.25
 74
     0
 49
0.25
 74
     0
 49
-0.25
 74
     0
  0
LTYPE
  5
13B
100
AcDbSymbolTableRecord
100
AcDbLinetypeTableRecord
  2
ITTEN1
 70
     0
  3

 72
    65
 73
     4
 40
8.2
 49
5.0
 74
     0
 49
-1.0
 74
     0
 49
1.2
 74
     0
 49
-1.0
 74
     0
  0
LTYPE
  5
13C
100
AcDbSymbolTableRecord
100
AcDbLinetypeTableRecord
  2
TENSEN1
 70
     0
  3

 72
    65
 73
     2
 40
0.4
 49
0.3
 74
     0
 49
-0.1
 74
     0
  0
LTYPE
  5
15B
100
AcDbSymbolTableRecord
100
AcDbLinetypeTableRecord
  2
TENSEN
 70
     0
  3

 72
    65
 73
     2
 40
4.0
 49
3.0
 74
     0
 49
-1.0
 74
     0
  0
LTYPE
  5
20F
100
AcDbSymbolTableRecord
100
AcDbLinetypeTableRecord
  2
TENSEN2
 70
     0
  3

 72
    65
 73
     2
 40
2.1
 49
1.5
 74
     0
 49
-0.6
 74
     0
  0
ENDTAB
  0
TABLE
  2
LAYER
  5
11A
100
AcDbSymbolTable
 70
     7
  0
LAYER
  5
126
100
AcDbSymbolTableRecord
100
AcDbLayerTableRecord
  2
0
 70
     0
 62
     7
  6
CONTINUOUS
  0
LAYER
  5
141
100
AcDbSymbolTableRecord
100
AcDbLayerTableRecord
  2
1
 70
     0
 62
     1
  6
CENTER
  0
LAYER
  5
142
100
AcDbSymbolTableRecord
100
AcDbLayerTableRecord
  2
10
 70
     0
 62
     7
  6
CONTINUOUS
  0
LAYER
  5
143
100
AcDbSymbolTableRecord
100
AcDbLayerTableRecord
  2
11
 70
     0
 62
     3
  6
CONTINUOUS
  0
LAYER
  5
144
100
AcDbSymbolTableRecord
100
AcDbLayerTableRecord
  2
2
 70
     0
 62
     2
  6
TENSEN1
  0
LAYER
  5
15C
100
AcDbSymbolTableRecord
100
AcDbLayerTableRecord
  2
3
 70
     0
 62
     3
  6
CONTINUOUS
  0
LAYER
  5
15D
100
AcDbSymbolTableRecord
100
AcDbLayerTableRecord
  2
DEFPOINTS
 70
     0
 62
     7
  6
CONTINUOUS
  0
ENDTAB
  0
TABLE
  2
STYLE
  5
11B
100
AcDbSymbolTable
 70
     5
  0
STYLE
  5
127
100
AcDbSymbolTableRecord
100
AcDbTextStyleTableRecord
  2
STANDARD
 70
     0
 40
0.0
 41
1.0
 50
0.0
 71
     0
 42
0.2
  3
TXT
  4
BIGFONT
  0
STYLE
  5
136
100
AcDbSymbolTableRecord
100
AcDbTextStyleTableRecord
  2
K80
 70
     0
 40
0.0
 41
0.8
 50
0.0
 71
     0
 42
0.2
  3
TXT
  4
BIGFONT
  0
STYLE
  5
137
100
AcDbSymbolTableRecord
100
AcDbTextStyleTableRecord
  2
07500
 70
     0
 40
0.0
 41
0.75
 50
0.0
 71
     0
 42
0.2
  3
TXT
  4
BIGFONT
  0
STYLE
  5
138
100
AcDbSymbolTableRecord
100
AcDbTextStyleTableRecord
  2
EXTFONT
 70
     0
 40
11.0
 41
1.0
 50
0.0
 71
     0
 42
11.0
  3
txt.shx
  4
extfont
  0
STYLE
  5
139
100
AcDbSymbolTableRecord
100
AcDbTextStyleTableRecord
  2
BIGFONT
 70
     0
 40
8.5
 41
0.8
 50
0.0
 71
     0
 42
8.5
  3
txt.shx
  4
bigfont
  0
ENDTAB
  0
TABLE
  2
VIEW
  5
11E
100
AcDbSymbolTable
 70
     1
  0
VIEW
  5
13D
100
AcDbSymbolTableRecord
100
AcDbViewTableRecord
  2
ALL
 70
     0
 40
540.0
 10
441.983193
 20
270.0
 41
0.0
 11
0.0
 21
0.0
 31
1.0
 12
0.0
 22
0.0
 32
0.0
 42
0.0
 43
0.0
 44
0.0
 50
0.0
 71
     0
  0
ENDTAB
  0
TABLE
  2
UCS
  5
11F
100
AcDbSymbolTable
 70
     0
  0
ENDTAB
  0
TABLE
  2
APPID
  5
121
100
AcDbSymbolTable
 70
     1
  0
APPID
  5
128
100
AcDbSymbolTableRecord
100
AcDbRegAppTableRecord
  2
ACAD
 70
     0
  0
ENDTAB
  0
TABLE
  2
DIMSTYLE
  5
122
100
AcDbSymbolTable
 70
     1
  0
DIMSTYLE
105
140
100
AcDbSymbolTableRecord
100
AcDbDimStyleTableRecord
  2
STANDARD
 70
     0
  3

  4

  5

  6

  7

 40
1.0
 41
0.18
 42
0.0625
 43
0.38
 44
0.18
 45
0.0
 46
0.0
 47
0.0
 48
0.0
140
0.18
141
0.09
142
0.0
143
25.4
144
1.0
145
0.0
146
1.0
147
0.09
 71
     0
 72
     0
 73
     1
 74
     1
 75
     0
 76
     0
 77
     0
 78
     0
170
     0
171
     2
172
     0
173
     0
174
     0
175
     0
176
     0
177
     0
178
     0
270
     2
271
     4
272
     4
273
     2
274
     2
340
139
275
     0
280
     0
281
     0
282
     0
283
     1
284
     0
285
     0
286
     0
287
     5
288
     0
  0
ENDTAB
  0
TABLE
  2
BLOCK_RECORD
  5
119
100
AcDbSymbolTable
 70
    25
  0
BLOCK_RECORD
  5
12F
100
AcDbSymbolTableRecord
100
AcDbBlockTableRecord
  2
*MODEL_SPACE
  0
BLOCK_RECORD
  5
12C
100
AcDbSymbolTableRecord
100
AcDbBlockTableRecord
  2
*PAPER_SPACE
  0
BLOCK_RECORD
  5
134
100
AcDbSymbolTableRecord
100
AcDbBlockTableRecord
  2
WAKU
  0
BLOCK_RECORD
  5
135
100
AcDbSymbolTableRecord
100
AcDbBlockTableRecord
  2
QQ
  0
BLOCK_RECORD
  5
15E
100
AcDbSymbolTableRecord
100
AcDbBlockTableRecord
  2
A$C4A954E17
  0
BLOCK_RECORD
  5
204
100
AcDbSymbolTableRecord
100
AcDbBlockTableRecord
  2
*D3
  0
BLOCK_RECORD
  5
210
100
AcDbSymbolTableRecord
100
AcDbBlockTableRecord
  2
A$C5BB252F2
  0
BLOCK_RECORD
  5
2C0
100
AcDbSymbolTableRecord
100
AcDbBlockTableRecord
  2
*D5
  0
BLOCK_RECORD
  5
2F1
100
AcDbSymbolTableRecord
100
AcDbBlockTableRecord
  2
*D6
  0
BLOCK_RECORD
  5
2FF
100
AcDbSymbolTableRecord
100
AcDbBlockTableRecord
  2
*D7
  0
BLOCK_RECORD
  5
30C
100
AcDbSymbolTableRecord
100
AcDbBlockTableRecord
  2
A$C13AB0A02
  0
BLOCK_RECORD
  5
362
100
AcDbSymbolTableRecord
100
AcDbBlockTableRecord
  2
*D9
  0
BLOCK_RECORD
  5
36F
100
AcDbSymbolTableRecord
100
AcDbBlockTableRecord
  2
*D10
  0
BLOCK_RECORD
  5
394
100
AcDbSymbolTableRecord
100
AcDbBlockTableRecord
  2
A$C39A97E20
  0
BLOCK_RECORD
  5
41E
100
AcDbSymbolTableRecord
100
AcDbBlockTableRecord
  2
*D12
  0
BLOCK_RECORD
  5
42C
100
AcDbSymbolTableRecord
100
AcDbBlockTableRecord
  2
*D13
  0
BLOCK_RECORD
  5
439
100
AcDbSymbolTableRecord
100
AcDbBlockTableRecord
  2
*D14
  0
BLOCK_RECORD
  5
442
100
AcDbSymbolTableRecord
100
AcDbBlockTableRecord
  2
*D15
  0
BLOCK_RECORD
  5
44B
100
AcDbSymbolTableRecord
100
AcDbBlockTableRecord
  2
A$C54264EBD
  0
BLOCK_RECORD
  5
49B
100
AcDbSymbolTableRecord
100
AcDbBlockTableRecord
  2
*D17
  0
BLOCK_RECORD
  5
4A4
100
AcDbSymbolTableRecord
100
AcDbBlockTableRecord
  2
*D18
  0
BLOCK_RECORD
  5
4AD
100
AcDbSymbolTableRecord
100
AcDbBlockTableRecord
  2
*D19
  0
BLOCK_RECORD
  5
4BA
100
AcDbSymbolTableRecord
100
AcDbBlockTableRecord
  2
*D20
  0
BLOCK_RECORD
  5
4EF
100
AcDbSymbolTableRecord
100
AcDbBlockTableRecord
  2
A$C742E62AD
  0
BLOCK_RECORD
  5
5A7
100
AcDbSymbolTableRecord
100
AcDbBlockTableRecord
  2
A$C5F6C226C
  0
BLOCK_RECORD
  5
659
100
AcDbSymbolTableRecord
100
AcDbBlockTableRecord
  2
A$C37E47D81
  0
BLOCK_RECORD
  5
717
100
AcDbSymbolTableRecord
100
AcDbBlockTableRecord
  2
A$C76515BDE
  0
ENDTAB
  0
ENDSEC
  0
SECTION
  2
BLOCKS
  0
BLOCK
  5
147
100
AcDbEntity
  8
0
100
AcDbBlockBegin
  2
*MODEL_SPACE
 70
     0
 10
0.0
 20
0.0
 30
0.0
  3
*MODEL_SPACE
  1

  0
ENDBLK
  5
148
100
AcDbEntity
  8
0
100
AcDbBlockEnd
  0
BLOCK
  5
145
100
AcDbEntity
 67
     1
  8
0
100
AcDbBlockBegin
  2
*PAPER_SPACE
 70
     0
 10
0.0
 20
0.0
 30
0.0
  3
*PAPER_SPACE
  1

  0
ENDBLK
  5
146
100
AcDbEntity
 67
     1
  8
0
100
AcDbBlockEnd
  0
BLOCK
  5
30
100
AcDbEntity
  8
0
100
AcDbBlockBegin
  2
WAKU
 70
     0
 10
549.0
 20
0.0
 30
0.0
  3
WAKU
  1

  0
LINE
  5
31
100
AcDbEntity
  8
11
100
AcDbLine
 10
452.0
 20
12.0
 30
0.0
 11
549.0
 21
12.0
 31
0.0
  0
LINE
  5
32
100
AcDbEntity
  8
11
100
AcDbLine
 10
477.0
 20
0.0
 30
0.0
 11
477.0
 21
12.0
 31
0.0
  0
LINE
  5
33
100
AcDbEntity
  8
11
100
AcDbLine
 10
452.0
 20
12.0
 30
0.0
 11
452.0
 21
0.0
 31
0.0
  0
TEXT
  5
34
100
AcDbEntity
  8
11
100
AcDbText
 10
454.0
 20
8.5
 30
0.0
 40
2.5
  1
尺度
100
AcDbText
  0
TEXT
  5
35
100
AcDbEntity
  8
11
100
AcDbText
 10
479.0
 20
8.5
 30
0.0
 40
2.5
  1
図番
100
AcDbText
  0
ENDBLK
  5
36
100
AcDbEntity
  8
0
100
AcDbBlockEnd
  0
BLOCK
  5
37
100
AcDbEntity
  8
0
100
AcDbBlockBegin
  2
QQ
 70
     0
 10
270.0
 20
0.0
 30
0.0
  3
QQ
  1

  0
LINE
  5
38
100
AcDbEntity
  8
11
100
AcDbLine
 10
173.0
 20
36.0
 30
0.0
 11
270.0
 21
36.0
 31
0.0
  0
TEXT
  5
39
100
AcDbEntity
  8
11
100
AcDbText
 10
175.0
 20
32.5
 30
0.0
 40
2.5
  1
部品名称
100
AcDbText
  0
LINE
  5
3A
100
AcDbEntity
  8
11
100
AcDbLine
 10
173.0
 20
36.0
 30
0.0
 11
173.0
 21
0.0
 31
0.0
  0
LINE
  5
3B
100
AcDbEntity
  8
11
100
AcDbLine
 10
173.0
 20
24.0
 30
0.0
 11
270.0
 21
24.0
 31
0.0
  0
TEXT
  5
3C
100
AcDbEntity
  8
11
100
AcDbText
 10
175.0
 20
20.5
 30
0.0
 40
2.5
  1
品番
100
AcDbText
  0
LINE
  5
3D
100
AcDbEntity
  8
11
100
AcDbLine
 10
173.0
 20
12.0
 30
0.0
 11
270.0
 21
12.0
 31
0.0
  0
TEXT
  5
3E
100
AcDbEntity
  8
11
100
AcDbText
 10
175.0
 20
8.5
 30
0.0
 40
2.5
  1
尺度
100
AcDbText
  0
TEXT
  5
3F
100
AcDbEntity
  8
11
100
AcDbText
 10
200.0
 20
8.5
 30
0.0
 40
2.5
  1
図番
100
AcDbText
  0
LINE
  5
40
100
AcDbEntity
  8
11
100
AcDbLine
 10
198.0
 20
0.0
 30
0.0
 11
198.0
 21
12.0
 31
0.0
  0
ENDBLK
  5
41
100
AcDbEntity
  8
0
100
AcDbBlockEnd
  0
BLOCK
  5
1B0
100
AcDbEntity
  8
0
100
AcDbBlockBegin
  2
A$C4A954E17
 70
     0
 10
0.0
 20
0.0
 30
0.0
  3
A$C4A954E17
  1

  0
LINE
  5
15F
100
AcDbEntity
  8
0
100
AcDbLine
 10
47.750721
 20
24.612077
 30
0.0
 11
44.743708
 21
25.276155
 31
0.0
  0
LINE
  5
160
100
AcDbEntity
  8
0
100
AcDbLine
 10
45.672106
 20
22.339966
 30
0.0
 11
47.750721
 21
24.612077
 31
0.0
  0
LINE
  5
161
100
AcDbEntity
  8
3
100
AcDbLine
 10
53.75
 20
9.75
 30
0.0
 11
33.75
 21
8.75
 31
0.0
  0
LINE
  5
162
100
AcDbEntity
  8
3
100
AcDbLine
 10
53.75
 20
20.75
 30
0.0
 11
33.75
 21
21.75
 31
0.0
  0
LINE
  5
163
100
AcDbEntity
  8
2
100
AcDbLine
 10
53.75
 20
12.25
 30
0.0
 11
30.75
 21
12.25
 31
0.0
  0
LINE
  5
164
100
AcDbEntity
  8
3
100
AcDbLine
 10
53.75
 20
18.25
 30
0.0
 11
30.75
 21
18.25
 31
0.0
  0
LINE
  5
165
100
AcDbEntity
  8
1
100
AcDbLine
 10
56.5
 20
15.25
 30
0.0
 11
0.0
 21
15.25
 31
0.0
  0
LINE
  5
166
100
AcDbEntity
  8
0
100
AcDbLine
 10
0.525816
 20
12.828566
 30
0.0
 11
1.769413
 21
10.01137
 31
0.0
  0
LINE
  5
167
100
AcDbEntity
  8
0
100
AcDbLine
 10
3.587377
 20
12.496955
 30
0.0
 11
0.525816
 21
12.828566
 31
0.0
  0
LINE
  5
168
100
AcDbEntity
  8
0
100
AcDbLine
 10
22.360422
 20
26.479654
 30
0.0
 11
23.900156
 21
23.812756
 31
0.0
  0
LINE
  5
169
100
AcDbEntity
  8
0
100
AcDbLine
 10
25.43989
 20
26.479654
 30
0.0
 11
22.360422
 21
26.479654
 31
0.0
  0
LINE
  5
16A
100
AcDbEntity
  8
3
100
AcDbLine
 10
7.357695
 20
21.75
 30
0.0
 11
33.75
 21
21.75
 31
0.0
  0
LINE
  5
16B
100
AcDbEntity
  8
3
100
AcDbLine
 10
7.357695
 20
8.75
 30
0.0
 11
33.75
 21
8.75
 31
0.0
  0
LINE
  5
16C
100
AcDbEntity
  8
0
100
AcDbLine
 10
1.769413
 20
10.01137
 30
0.0
 11
3.587377
 21
12.496955
 31
0.0
  0
LINE
  5
16D
100
AcDbEntity
  8
3
100
AcDbLine
 10
6.25
 20
9.084764
 30
0.0
 11
6.25
 21
15.25
 31
0.0
  0
ARC
  5
16E
100
AcDbEntity
  8
3
100
AcDbCircle
 10
12.751717
 20
15.25
 30
0.0
 40
9.001718
100
AcDbArc
 50
142.338553
 51
217.661447
  0
ARC
  5
16F
100
AcDbEntity
  8
3
100
AcDbCircle
 10
7.357695
 20
10.75
 30
0.0
 40
2.0
100
AcDbArc
 50
210.0
 51
270.0
  0
LINE
  5
170
100
AcDbEntity
  8
0
100
AcDbLine
 10
3.01301
 20
7.194174
 30
0.0
 11
4.830975
 21
9.679759
 31
0.0
  0
LINE
  5
171
100
AcDbEntity
  8
0
100
AcDbLine
 10
1.769413
 20
10.01137
 30
0.0
 11
3.01301
 21
7.194174
 31
0.0
  0
POINT
  5
172
100
AcDbEntity
  8
DEFPOINTS
  6
BYBLOCK
 62
     0
100
AcDbPoint
 10
6.016372
 20
7.698487
 30
0.0
  0
SOLID
  5
173
100
AcDbEntity
  8
0
  6
BYBLOCK
 62
     0
100
AcDbTrace
 10
4.495721
 20
6.357319
 30
0.0
 11
5.012892
 21
5.936631
 31
0.0
 12
6.016372
 22
7.698487
 32
0.0
 13
6.016372
 23
7.698487
 33
0.0
  0
LINE
  5
174
100
AcDbEntity
  8
0
100
AcDbLine
 10
4.830975
 20
9.679759
 30
0.0
 11
1.769413
 21
10.01137
 31
0.0
  0
POINT
  5
175
100
AcDbEntity
  8
DEFPOINTS
  6
BYBLOCK
 62
     0
100
AcDbPoint
 10
7.278437
 20
9.25
 30
0.0
  0
LINE
  5
176
100
AcDbEntity
  8
0
  6
BYBLOCK
 62
     0
100
AcDbLine
 10
7.278437
 20
9.16
 30
0.0
 11
7.278437
 21
9.34
 31
0.0
  0
LINE
  5
177
100
AcDbEntity
  8
0
  6
BYBLOCK
 62
     0
100
AcDbLine
 10
7.188437
 20
9.25
 30
0.0
 11
7.368437
 21
9.25
 31
0.0
  0
POINT
  5
178
100
AcDbEntity
  8
DEFPOINTS
  6
BYBLOCK
 62
     0
100
AcDbPoint
 10
3.75
 20
15.25
 30
0.0
  0
ARC
  5
179
100
AcDbEntity
  8
3
100
AcDbCircle
 10
7.357695
 20
19.75
 30
0.0
 40
2.0
100
AcDbArc
 50
90.0
 51
150.0
  0
POINT
  5
17A
100
AcDbEntity
  8
DEFPOINTS
  6
BYBLOCK
 62
     0
100
AcDbPoint
 10
6.568813
 20
23.394663
 30
0.0
  0
LINE
  5
17B
100
AcDbEntity
  8
0
100
AcDbLine
 10
19.280953
 20
26.479654
 30
0.0
 11
20.820687
 21
23.812756
 31
0.0
  0
LINE
  5
17C
100
AcDbEntity
  8
0
100
AcDbLine
 10
20.820687
 20
23.812756
 30
0.0
 11
22.360422
 21
26.479654
 31
0.0
  0
LINE
  5
17D
100
AcDbEntity
  8
0
100
AcDbLine
 10
22.360422
 20
26.479654
 30
0.0
 11
19.280953
 21
26.479654
 31
0.0
  0
LINE
  5
17E
100
AcDbEntity
  8
3
100
AcDbLine
 10
33.75
 20
8.75
 30
0.0
 11
33.75
 21
15.25
 31
0.0
  0
POINT
  5
17F
100
AcDbEntity
  8
DEFPOINTS
  6
BYBLOCK
 62
     0
100
AcDbPoint
 10
30.75
 20
11.25
 30
0.0
  0
LINE
  5
180
100
AcDbEntity
  8
2
100
AcDbLine
 10
30.75
 20
12.25
 30
0.0
 11
28.0
 21
15.25
 31
0.0
  0
LINE
  5
181
100
AcDbEntity
  8
3
100
AcDbLine
 10
30.75
 20
18.25
 30
0.0
 11
28.0
 21
15.25
 31
0.0
  0
LINE
  5
182
100
AcDbEntity
  8
3
100
AcDbLine
 10
30.75
 20
18.25
 30
0.0
 11
30.75
 21
15.25
 31
0.0
  0
LINE
  5
183
100
AcDbEntity
  8
2
100
AcDbLine
 10
30.75
 20
12.25
 30
0.0
 11
30.75
 21
15.25
 31
0.0
  0
LINE
  5
184
100
AcDbEntity
  8
0
100
AcDbLine
 10
23.900156
 20
23.812756
 30
0.0
 11
25.43989
 21
26.479654
 31
0.0
  0
POINT
  5
185
100
AcDbEntity
  8
DEFPOINTS
  6
BYBLOCK
 62
     0
100
AcDbPoint
 10
33.75
 20
23.25
 30
0.0
  0
LINE
  5
186
100
AcDbEntity
  8
0
100
AcDbLine
 10
41.736695
 20
25.940233
 30
0.0
 11
42.665093
 21
23.004044
 31
0.0
  0
LINE
  5
187
100
AcDbEntity
  8
0
100
AcDbLine
 10
42.665093
 20
23.004044
 30
0.0
 11
44.743708
 21
25.276155
 31
0.0
  0
LINE
  5
188
100
AcDbEntity
  8
0
100
AcDbLine
 10
44.743708
 20
25.276155
 30
0.0
 11
45.672106
 21
22.339966
 31
0.0
  0
LINE
  5
189
100
AcDbEntity
  8
0
100
AcDbLine
 10
44.743708
 20
25.276155
 30
0.0
 11
41.736695
 21
25.940233
 31
0.0
  0
MTEXT
  5
18A
100
AcDbEntity
  8
0
  6
BYBLOCK
 62
     0
100
AcDbMText
 10
88.838473
 20
15.738935
 30
0.0
 40
5.0
 41
0.0
 71
     5
 72
     1
  1
\A1;11
 11
0.0
 21
1.0
 31
0.0
  0
LWPOLYLINE
  5
18B
100
AcDbEntity
  8
0
100
AcDbPolyline
 90
        3
 70
     0
 43
0.0
 10
56.08829
 20
11.212161
 10
82.25
 20
0.0
 10
84.25
 20
0.0
1001
ACAD
1000
DSTYLE
1002
{
1070
    78
1070
     8
1070
   288
1070
     1
1070
   284
1070
     8
1070
   140
1040
5.0
1070
    73
1070
     0
1070
   272
1070
     2
1070
    42
1040
1.0
1070
    44
1040
1.0
1070
   271
1070
     2
1070
    41
1040
2.0
1002
}
  0
LINE
  5
18C
100
AcDbEntity
  8
0
100
AcDbLine
 10
68.447755
 20
16.027725
 30
0.0
 11
66.908021
 21
18.694623
 31
0.0
  0
LINE
  5
18D
100
AcDbEntity
  8
0
100
AcDbLine
 10
65.368286
 20
16.027725
 30
0.0
 11
68.447755
 21
16.027725
 31
0.0
  0
LINE
  5
18E
100
AcDbEntity
  8
0
  6
BYBLOCK
 62
     0
100
AcDbLine
 10
54.75
 20
18.25
 30
0.0
 11
78.371455
 21
18.25
 31
0.0
  0
LINE
  5
18F
100
AcDbEntity
  8
0
  6
BYBLOCK
 62
     0
100
AcDbLine
 10
54.75
 20
12.25
 30
0.0
 11
78.371455
 21
12.25
 31
0.0
  0
LINE
  5
190
100
AcDbEntity
  8
0
  6
BYBLOCK
 62
     0
100
AcDbLine
 10
54.75
 20
20.75
 30
0.0
 11
89.838473
 21
20.75
 31
0.0
  0
LINE
  5
191
100
AcDbEntity
  8
0
  6
BYBLOCK
 62
     0
100
AcDbLine
 10
54.75
 20
9.75
 30
0.0
 11
89.838473
 21
9.75
 31
0.0
  0
LINE
  5
192
100
AcDbEntity
  8
3
100
AcDbLine
 10
53.75
 20
15.25
 30
0.0
 11
53.75
 21
9.75
 31
0.0
  0
POINT
  5
193
100
AcDbEntity
  8
DEFPOINTS
  6
BYBLOCK
 62
     0
100
AcDbPoint
 10
53.75
 20
9.75
 30
0.0
  0
POINT
  5
194
100
AcDbEntity
  8
DEFPOINTS
  6
BYBLOCK
 62
     0
100
AcDbPoint
 10
53.75
 20
8.5
 30
0.0
  0
SOLID
  5
195
100
AcDbEntity
  8
0
100
AcDbTrace
 10
55.956983
 20
10.90578
 30
0.0
 11
54.25
 21
12.0
 31
0.0
 12
56.219596
 22
11.518543
 32
0.0
 13
56.219596
 23
11.518543
 33
0.0
1001
ACAD
1000
DSTYLE
1002
{
1070
    78
1070
     8
1070
   288
1070
     1
1070
   284
1070
     8
1070
   140
1040
5.0
1070
    73
1070
     0
1070
   272
1070
     2
1070
    42
1040
1.0
1070
    44
1040
1.0
1070
   271
1070
     2
1070
    41
1040
2.0
1002
}
  0
LINE
  5
196
100
AcDbEntity
  8
3
100
AcDbLine
 10
53.75
 20
15.25
 30
0.0
 11
53.75
 21
20.75
 31
0.0
  0
POINT
  5
197
100
AcDbEntity
  8
DEFPOINTS
  6
BYBLOCK
 62
     0
100
AcDbPoint
 10
53.75
 20
12.25
 30
0.0
  0
POINT
  5
198
100
AcDbEntity
  8
DEFPOINTS
  6
BYBLOCK
 62
     0
100
AcDbPoint
 10
53.75
 20
18.25
 30
0.0
  0
POINT
  5
199
100
AcDbEntity
  8
DEFPOINTS
  6
BYBLOCK
 62
     0
100
AcDbPoint
 10
53.75
 20
20.75
 30
0.0
  0
POINT
  5
19A
100
AcDbEntity
  8
DEFPOINTS
  6
BYBLOCK
 62
     0
100
AcDbPoint
 10
53.75
 20
20.75
 30
0.0
  0
POINT
  5
19B
100
AcDbEntity
  8
DEFPOINTS
  6
BYBLOCK
 62
     0
100
AcDbPoint
 10
53.75
 20
20.75
 30
0.0
  0
POINT
  5
19C
100
AcDbEntity
  8
DEFPOINTS
  6
BYBLOCK
 62
     0
100
AcDbPoint
 10
53.75
 20
20.75
 30
0.0
  0
SOLID
  5
19D
100
AcDbEntity
  8
0
100
AcDbTrace
 10
55.647213
 20
23.421829
 30
0.0
 11
54.5
 21
21.75
 31
0.0
 12
55.042987
 22
23.703529
 32
0.0
 13
55.042987
 23
23.703529
 33
0.0
1001
ACAD
1000
DSTYLE
1002
{
1070
    78
1070
     8
1070
   288
1070
     1
1070
   284
1070
     8
1070
   140
1040
5.0
1070
    73
1070
     0
1070
   272
1070
     2
1070
    42
1040
1.0
1070
    44
1040
1.0
1070
   271
1070
     2
1070
    41
1040
2.0
1002
}
  0
LINE
  5
19E
100
AcDbEntity
  8
0
100
AcDbLine
 10
62.288818
 20
16.027725
 30
0.0
 11
65.368286
 21
16.027725
 31
0.0
  0
LINE
  5
19F
100
AcDbEntity
  8
0
100
AcDbLine
 10
63.828552
 20
18.694623
 30
0.0
 11
62.288818
 21
16.027725
 31
0.0
  0
LINE
  5
1A0
100
AcDbEntity
  8
0
100
AcDbLine
 10
65.368286
 20
16.027725
 30
0.0
 11
63.828552
 21
18.694623
 31
0.0
  0
LINE
  5
1A1
100
AcDbEntity
  8
0
100
AcDbLine
 10
66.908021
 20
18.694623
 30
0.0
 11
65.368286
 21
16.027725
 31
0.0
  0
LINE
  5
1A2
100
AcDbEntity
  8
0
  6
BYBLOCK
 62
     0
100
AcDbLine
 10
88.838473
 20
11.75
 30
0.0
 11
88.838473
 21
13.148935
 31
0.0
  0
SOLID
  5
1A3
100
AcDbEntity
  8
0
  6
BYBLOCK
 62
     0
100
AcDbTrace
 10
88.505139
 20
11.75
 30
0.0
 11
89.171806
 21
11.75
 31
0.0
 12
88.838473
 22
9.75
 32
0.0
 13
88.838473
 23
9.75
 33
0.0
  0
LINE
  5
1A4
100
AcDbEntity
  8
0
  6
BYBLOCK
 62
     0
100
AcDbLine
 10
77.371455
 20
14.25
 30
0.0
 11
77.371455
 21
16.25
 31
0.0
  0
SOLID
  5
1A5
100
AcDbEntity
  8
0
  6
BYBLOCK
 62
     0
100
AcDbTrace
 10
77.038122
 20
14.25
 30
0.0
 11
77.704788
 21
14.25
 31
0.0
 12
77.371455
 22
12.25
 32
0.0
 13
77.371455
 23
12.25
 33
0.0
  0
POINT
  5
1A6
100
AcDbEntity
  8
DEFPOINTS
  6
BYBLOCK
 62
     0
100
AcDbPoint
 10
77.371455
 20
18.25
 30
0.0
  0
SOLID
  5
1A7
100
AcDbEntity
  8
0
  6
BYBLOCK
 62
     0
100
AcDbTrace
 10
77.038122
 20
16.25
 30
0.0
 11
77.704788
 21
16.25
 31
0.0
 12
77.371455
 22
18.25
 32
0.0
 13
77.371455
 23
18.25
 33
0.0
  0
SOLID
  5
1A8
100
AcDbEntity
  8
0
  6
BYBLOCK
 62
     0
100
AcDbTrace
 10
88.505139
 20
18.75
 30
0.0
 11
89.171806
 21
18.75
 31
0.0
 12
88.838473
 22
20.75
 32
0.0
 13
88.838473
 23
20.75
 33
0.0
  0
LINE
  5
1A9
100
AcDbEntity
  8
0
  6
BYBLOCK
 62
     0
100
AcDbLine
 10
88.838473
 20
18.75
 30
0.0
 11
88.838473
 21
18.328935
 31
0.0
  0
POINT
  5
1AA
100
AcDbEntity
  8
DEFPOINTS
  6
BYBLOCK
 62
     0
100
AcDbPoint
 10
88.838473
 20
20.75
 30
0.0
  0
CIRCLE
  5
1AB
100
AcDbEntity
  8
3
100
AcDbCircle
 10
107.75
 20
15.25
 30
0.0
 40
5.5
  0
CIRCLE
  5
1AC
100
AcDbEntity
  8
3
100
AcDbCircle
 10
107.75
 20
15.25
 30
0.0
 40
6.5
  0
LINE
  5
1AD
100
AcDbEntity
  8
1
100
AcDbLine
 10
98.5
 20
15.25
 30
0.0
 11
118.0
 21
15.25
 31
0.0
  0
LINE
  5
1AE
100
AcDbEntity
  8
1
100
AcDbLine
 10
107.75
 20
5.25
 30
0.0
 11
107.75
 21
25.75
 31
0.0
  0
CIRCLE
  5
1AF
100
AcDbEntity
  8
3
100
AcDbCircle
 10
107.75
 20
15.25
 30
0.0
 40
3.0
  0
ENDBLK
  5
1B1
100
AcDbEntity
  8
0
100
AcDbBlockEnd
  0
BLOCK
  5
20D
100
AcDbEntity
  8
0
100
AcDbBlockBegin
  2
*D3
 70
     1
 10
0.0
 20
0.0
 30
0.0
  3
*D3
  1

  0
LINE
  5
205
100
AcDbEntity
  8
0
  6
BYBLOCK
 62
     0
100
AcDbLine
 10
65.7
 20
129.6
 30
0.0
 11
67.7
 21
129.6
 31
0.0
  0
LINE
  5
206
100
AcDbEntity
  8
0
  6
BYBLOCK
 62
     0
100
AcDbLine
 10
67.7
 20
129.6
 30
0.0
 11
83.593889
 21
114.178207
 31
0.0
  0
MTEXT
  5
207
100
AcDbEntity
  8
0
  6
BYBLOCK
 62
     0
100
AcDbMText
 10
62.693333
 20
129.6
 30
0.0
 40
5.0
 41
0.0
 71
     5
 72
     1
  1
\A1;\U+22058
  7
BIGFONT
  0
SOLID
  5
208
100
AcDbEntity
  8
0
  6
BYBLOCK
 62
     0
100
AcDbTrace
 10
83.826012
 20
114.417435
 30
0.0
 11
83.361767
 21
113.938978
 31
0.0
 12
85.029259
 22
112.785471
 32
0.0
 13
85.029259
 23
112.785471
 33
0.0
  0
LINE
  5
209
100
AcDbEntity
  8
0
  6
BYBLOCK
 62
     0
100
AcDbLine
 10
87.81
 20
110.0
 30
0.0
 11
87.99
 21
110.0
 31
0.0
  0
LINE
  5
20A
100
AcDbEntity
  8
0
  6
BYBLOCK
 62
     0
100
AcDbLine
 10
87.9
 20
109.91
 30
0.0
 11
87.9
 21
110.09
 31
0.0
  0
POINT
  5
20B
100
AcDbEntity
  8
DEFPOINTS
  6
BYBLOCK
 62
     0
100
AcDbPoint
 10
85.029259
 20
112.785471
 30
0.0
  0
POINT
  5
20C
100
AcDbEntity
  8
DEFPOINTS
  6
BYBLOCK
 62
     0
100
AcDbPoint
 10
90.770741
 20
107.214529
 30
0.0
  0
ENDBLK
  5
20E
100
AcDbEntity
  8
0
100
AcDbBlockEnd
  0
BLOCK
  5
267
100
AcDbEntity
  8
0
100
AcDbBlockBegin
  2
A$C5BB252F2
 70
     0
 10
0.0
 20
0.0
 30
0.0
  3
A$C5BB252F2
  1

  0
LINE
  5
211
100
AcDbEntity
  8
2
100
AcDbLine
 10
81.723333
 20
22.75
 30
0.0
 11
82.973333
 21
21.5
 31
0.0
  0
LINE
  5
212
100
AcDbEntity
  8
2
100
AcDbLine
 10
82.973333
 20
24.0
 30
0.0
 11
81.723333
 21
22.75
 31
0.0
  0
LINE
  5
213
100
AcDbEntity
  8
3
100
AcDbLine
 10
92.473333
 20
19.75
 30
0.0
 11
82.473333
 21
19.75
 31
0.0
  0
LINE
  5
214
100
AcDbEntity
  8
3
100
AcDbLine
 10
92.473333
 20
25.75
 30
0.0
 11
82.473333
 21
25.75
 31
0.0
  0
LINE
  5
215
100
AcDbEntity
  8
1
100
AcDbLine
 10
63.473333
 20
22.75
 30
0.0
 11
95.973333
 21
22.75
 31
0.0
  0
LWPOLYLINE
  5
216
100
AcDbEntity
  8
0
100
AcDbPolyline
 90
        3
 70
     0
 43
0.0
 10
68.587772
 20
18.05674
 10
61.473333
 20
3.65
 10
61.073333
 20
3.65
1001
ACAD
1000
DSTYLE
1002
{
1070
    78
1070
     8
1070
   288
1070
     1
1070
   284
1070
     8
1070
   140
1040
5.0
1070
   340
1005
139
1070
    73
1070
     0
1070
   272
1070
     2
1070
    42
1040
0.5
1070
    44
1040
0.5
1070
   271
1070
     2
1070
    41
1040
2.0
1002
}
  0
TEXT
  5
217
100
AcDbEntity
  8
0
100
AcDbText
 10
41.733333
 20
1.15
 30
0.0
 40
5.0
  1
M6-P1.0
 41
0.7
  7
BIGFONT
100
AcDbText
  0
DIMENSION
  5
218
100
AcDbEntity
  8
0
100
AcDbDimension
  2
*D3
 10
30.994074
 20
19.964529
 30
0.0
 11
2.916666
 21
42.35
 31
0.0
 12
-59.776667
 22
-87.25
 32
0.0
 70
   131
  3
STANDARD
100
AcDbDiametricDimension
 15
25.252593
 25
25.535471
 35
0.0
 40
0.0
1001
ACAD
1000
DSTYLE
1002
{
1070
    78
1070
     8
1070
   288
1070
     1
1070
   284
1070
     8
1070
   140
1040
5.0
1070
   340
1005
139
1070
    73
1070
     0
1070
   272
1070
     2
1070
    42
1040
0.5
1070
    44
1040
0.5
1070
   271
1070
     2
1070
    41
1040
2.0
1002
}
  0
CIRCLE
  5
219
100
AcDbEntity
  8
3
100
AcDbCircle
 10
28.123333
 20
22.75
 30
0.0
 40
3.0
  0
CIRCLE
  5
21A
100
AcDbEntity
  8
0
100
AcDbCircle
 10
28.123333
 20
22.75
 30
0.0
 40
4.0
  0
LWPOLYLINE
  5
21B
100
AcDbEntity
  8
3
100
AcDbPolyline
 90
        6
 70
     1
 43
0.0
 10
28.123333
 20
27.35
 10
24.139616
 20
25.05
 10
24.139616
 20
20.45
 10
28.123333
 20
18.15
 10
32.10705
 20
20.45
 10
32.10705
 20
25.05
  0
LINE
  5
21C
100
AcDbEntity
  8
1
100
AcDbLine
 10
28.123333
 20
31.35
 30
0.0
 11
28.123333
 21
14.25
 31
0.0
  0
CIRCLE
  5
21D
100
AcDbEntity
  8
0
100
AcDbCircle
 10
28.123333
 20
22.75
 30
0.0
 40
2.5
  0
LINE
  5
21E
100
AcDbEntity
  8
1
100
AcDbLine
 10
35.823333
 20
22.75
 30
0.0
 11
19.623333
 21
22.75
 31
0.0
  0
LINE
  5
21F
100
AcDbEntity
  8
0
  6
BYBLOCK
 62
     0
100
AcDbLine
 10
75.723333
 20
29.0
 30
0.0
 11
75.723333
 21
45.519963
 31
0.0
  0
LINE
  5
220
100
AcDbEntity
  8
0
  6
BYBLOCK
 62
     0
100
AcDbLine
 10
75.473333
 20
27.25
 30
0.0
 11
75.473333
 21
45.519963
 31
0.0
  0
LINE
  5
221
100
AcDbEntity
  8
3
100
AcDbLine
 10
75.473333
 20
22.75
 30
0.0
 11
75.473333
 21
26.75
 31
0.0
  0
LINE
  5
222
100
AcDbEntity
  8
3
100
AcDbLine
 10
82.473333
 20
22.75
 30
0.0
 11
82.473333
 21
25.65
 31
0.0
  0
LINE
  5
223
100
AcDbEntity
  8
3
100
AcDbLine
 10
67.473333
 20
24.75
 30
0.0
 11
68.473333
 21
25.75
 31
0.0
  0
LINE
  5
224
100
AcDbEntity
  8
3
100
AcDbLine
 10
68.473333
 20
25.75
 30
0.0
 11
68.473333
 21
22.75
 31
0.0
  0
LINE
  5
225
100
AcDbEntity
  8
3
100
AcDbLine
 10
75.473333
 20
22.75
 30
0.0
 11
75.473333
 21
26.75
 31
0.0
  0
LINE
  5
226
100
AcDbEntity
  8
3
100
AcDbLine
 10
74.473333
 20
25.75
 30
0.0
 11
74.473333
 21
22.75
 31
0.0
  0
LINE
  5
227
100
AcDbEntity
  8
3
100
AcDbLine
 10
82.473333
 20
22.75
 30
0.0
 11
82.473333
 21
25.65
 31
0.0
  0
LINE
  5
228
100
AcDbEntity
  8
3
100
AcDbLine
 10
68.473333
 20
19.75
 30
0.0
 11
75.473333
 21
19.75
 31
0.0
  0
LINE
  5
229
100
AcDbEntity
  8
3
100
AcDbLine
 10
67.473333
 20
20.75
 30
0.0
 11
74.473333
 21
20.75
 31
0.0
  0
LINE
  5
22A
100
AcDbEntity
  8
3
100
AcDbLine
 10
67.473333
 20
24.75
 30
0.0
 11
74.473333
 21
24.75
 31
0.0
  0
LINE
  5
22B
100
AcDbEntity
  8
3
100
AcDbLine
 10
67.473333
 20
22.75
 30
0.0
 11
67.473333
 21
20.75
 31
0.0
  0
LINE
  5
22C
100
AcDbEntity
  8
3
100
AcDbLine
 10
68.473333
 20
19.75
 30
0.0
 11
68.473333
 21
22.75
 31
0.0
  0
SOLID
  5
22D
100
AcDbEntity
  8
0
100
AcDbTrace
 10
68.288896
 20
18.204333
 30
0.0
 11
69.473333
 21
19.85
 31
0.0
 12
68.886649
 22
17.909146
 32
0.0
 13
68.886649
 23
17.909146
 33
0.0
1001
ACAD
1000
DSTYLE
1002
{
1070
    78
1070
     8
1070
   288
1070
     1
1070
   284
1070
     8
1070
   140
1040
5.0
1070
   340
1005
139
1070
    73
1070
     0
1070
   272
1070
     2
1070
    42
1040
0.5
1070
    44
1040
0.5
1070
   271
1070
     2
1070
    41
1040
2.0
1002
}
  0
LINE
  5
22E
100
AcDbEntity
  8
3
100
AcDbLine
 10
67.473333
 20
20.75
 30
0.0
 11
68.473333
 21
19.75
 31
0.0
  0
LINE
  5
22F
100
AcDbEntity
  8
3
100
AcDbLine
 10
67.473333
 20
22.75
 30
0.0
 11
67.473333
 21
24.75
 31
0.0
  0
LINE
  5
230
100
AcDbEntity
  8
3
100
AcDbLine
 10
75.473333
 20
20.45
 30
0.0
 11
82.473333
 21
20.45
 31
0.0
  0
LINE
  5
231
100
AcDbEntity
  8
3
100
AcDbLine
 10
75.559047
 20
18.15
 30
0.0
 11
82.473333
 21
18.15
 31
0.0
  0
LINE
  5
232
100
AcDbEntity
  8
3
100
AcDbLine
 10
75.473333
 20
22.75
 30
0.0
 11
75.473333
 21
18.75
 31
0.0
  0
LINE
  5
233
100
AcDbEntity
  8
3
100
AcDbLine
 10
74.473333
 20
19.75
 30
0.0
 11
74.473333
 21
22.75
 31
0.0
  0
LINE
  5
234
100
AcDbEntity
  8
3
100
AcDbLine
 10
75.473333
 20
18.75
 30
0.0
 11
75.559047
 21
18.15
 31
0.0
  0
LINE
  5
235
100
AcDbEntity
  8
3
100
AcDbLine
 10
82.473333
 20
22.75
 30
0.0
 11
82.473333
 21
19.85
 31
0.0
  0
LINE
  5
236
100
AcDbEntity
  8
3
100
AcDbLine
 10
82.473333
 20
19.85
 30
0.0
 11
82.473333
 21
18.15
 31
0.0
  0
LINE
  5
237
100
AcDbEntity
  8
3
100
AcDbLine
 10
68.473333
 20
25.75
 30
0.0
 11
75.473333
 21
25.75
 31
0.0
  0
POINT
  5
238
100
AcDbEntity
  8
DEFPOINTS
  6
BYBLOCK
 62
     0
100
AcDbPoint
 10
67.473333
 20
25.75
 30
0.0
  0
LINE
  5
239
100
AcDbEntity
  8
3
100
AcDbLine
 10
75.823333
 20
27.35
 30
0.0
 11
82.473333
 21
27.35
 31
0.0
  0
LINE
  5
23A
100
AcDbEntity
  8
3
100
AcDbLine
 10
75.473333
 20
25.625
 30
0.0
 11
82.473333
 21
25.625
 31
0.0
  0
LINE
  5
23B
100
AcDbEntity
  8
3
100
AcDbLine
 10
75.473333
 20
26.75
 30
0.0
 11
75.823333
 21
27.35
 31
0.0
  0
POINT
  5
23C
100
AcDbEntity
  8
DEFPOINTS
  6
BYBLOCK
 62
     0
100
AcDbPoint
 10
75.473333
 20
28.5
 30
0.0
  0
POINT
  5
23D
100
AcDbEntity
  8
DEFPOINTS
  6
BYBLOCK
 62
     0
100
AcDbPoint
 10
75.473333
 20
28.75
 30
0.0
  0
POINT
  5
23E
100
AcDbEntity
  8
DEFPOINTS
  6
BYBLOCK
 62
     0
100
AcDbPoint
 10
75.723333
 20
28.5
 30
0.0
  0
POINT
  5
23F
100
AcDbEntity
  8
DEFPOINTS
  6
BYBLOCK
 62
     0
100
AcDbPoint
 10
75.473333
 20
26.75
 30
0.0
  0
LINE
  5
240
100
AcDbEntity
  8
3
100
AcDbLine
 10
82.473333
 20
25.65
 30
0.0
 11
82.473333
 21
27.35
 31
0.0
  0
POINT
  5
241
100
AcDbEntity
  8
DEFPOINTS
  6
BYBLOCK
 62
     0
100
AcDbPoint
 10
82.473333
 20
28.75
 30
0.0
  0
POINT
  5
242
100
AcDbEntity
  8
DEFPOINTS
  6
BYBLOCK
 62
     0
100
AcDbPoint
 10
82.473333
 20
28.5
 30
0.0
  0
LINE
  5
243
100
AcDbEntity
  8
0
  6
BYBLOCK
 62
     0
100
AcDbLine
 10
73.473333
 20
45.019963
 30
0.0
 11
57.401455
 21
45.019963
 31
0.0
  0
MTEXT
  5
244
100
AcDbEntity
  8
0
  6
BYBLOCK
 62
     0
100
AcDbMText
 10
52.353122
 20
45.019963
 30
0.0
 40
5.0
 41
0.0
 71
     5
 72
     1
  1
\A1;0.25
  7
BIGFONT
  0
SOLID
  5
245
100
AcDbEntity
  8
0
  6
BYBLOCK
 62
     0
100
AcDbTrace
 10
77.723333
 20
45.353296
 30
0.0
 11
77.723333
 21
44.68663
 31
0.0
 12
75.723333
 22
45.019963
 32
0.0
 13
75.723333
 23
45.019963
 33
0.0
  0
SOLID
  5
246
100
AcDbEntity
  8
0
  6
BYBLOCK
 62
     0
100
AcDbTrace
 10
73.473333
 20
45.353296
 30
0.0
 11
73.473333
 21
44.68663
 31
0.0
 12
75.473333
 22
45.019963
 32
0.0
 13
75.473333
 23
45.019963
 33
0.0
  0
POINT
  5
247
100
AcDbEntity
  8
DEFPOINTS
  6
BYBLOCK
 62
     0
100
AcDbPoint
 10
75.723333
 20
45.019963
 30
0.0
  0
LINE
  5
248
100
AcDbEntity
  8
0
  6
BYBLOCK
 62
     0
100
AcDbLine
 10
77.723333
 20
45.019963
 30
0.0
 11
79.723333
 21
45.019963
 31
0.0
  0
MTEXT
  5
249
102
{ACAD_REACTORS
330
24A
102
}
100
AcDbEntity
  8
0
100
AcDbMText
 10
108.313333
 20
3.5
 30
0.0
 40
5.0
 41
0.0
 71
     4
 72
     1
  1
\A1;M3-P0.5
  7
BIGFONT
  0
LEADER
  5
24A
100
AcDbEntity
  8
0
100
AcDbLeader
  3
STANDARD
 73
     0
 40
5.0
 41
23.333333
 76
     3
 10
92.723333
 20
22.5
 30
0.0
 10
107.723333
 20
3.5
 30
0.0
 10
108.223333
 20
3.5
 30
0.0
 77
   256
340
249
1001
ACAD
1000
DSTYLE
1002
{
1070
    78
1070
     8
1070
   288
1070
     1
1070
   284
1070
     8
1070
   140
1040
5.0
1070
   340
1005
139
1070
    73
1070
     0
1070
   272
1070
     2
1070
    42
1040
0.5
1070
    44
1040
0.5
1070
   271
1070
     2
1070
    41
1040
2.0
1002
}
  0
LINE
  5
24B
100
AcDbEntity
  8
0
  6
BYBLOCK
 62
     0
100
AcDbLine
 10
92.473333
 20
18.0
 30
0.0
 11
92.473333
 21
2.0
 31
0.0
  0
LINE
  5
24C
100
AcDbEntity
  8
0
  6
BYBLOCK
 62
     0
100
AcDbLine
 10
85.473333
 20
19.25
 30
0.0
 11
85.473333
 21
2.0
 31
0.0
  0
MTEXT
  5
24D
100
AcDbEntity
  8
0
  6
BYBLOCK
 62
     0
100
AcDbMText
 10
88.723333
 20
2.5
 30
0.0
 40
5.0
 41
0.0
 71
     5
 72
     1
  1
\A1;7
  7
BIGFONT
  0
SOLID
  5
24E
100
AcDbEntity
  8
0
  6
BYBLOCK
 62
     0
100
AcDbTrace
 10
90.473333
 20
2.833333
 30
0.0
 11
90.473333
 21
2.166667
 31
0.0
 12
92.473333
 22
2.5
 32
0.0
 13
92.473333
 23
2.5
 33
0.0
  0
SOLID
  5
24F
100
AcDbEntity
  8
0
  6
BYBLOCK
 62
     0
100
AcDbTrace
 10
87.473333
 20
2.833333
 30
0.0
 11
87.473333
 21
2.166667
 31
0.0
 12
85.473333
 22
2.5
 32
0.0
 13
85.473333
 23
2.5
 33
0.0
  0
LINE
  5
250
100
AcDbEntity
  8
0
  6
BYBLOCK
 62
     0
100
AcDbLine
 10
87.473333
 20
2.5
 30
0.0
 11
87.563333
 21
2.5
 31
0.0
  0
LINE
  5
251
100
AcDbEntity
  8
0
  6
BYBLOCK
 62
     0
100
AcDbLine
 10
90.473333
 20
2.5
 30
0.0
 11
89.98
 21
2.5
 31
0.0
  0
POINT
  5
252
100
AcDbEntity
  8
DEFPOINTS
  6
BYBLOCK
 62
     0
100
AcDbPoint
 10
92.473333
 20
2.5
 30
0.0
  0
LWPOLYLINE
  5
253
100
AcDbEntity
  8
0
100
AcDbPolyline
 90
        3
 70
     0
 43
0.0
 10
93.86776
 20
27.738854
 10
103.373333
 20
46.75
 10
104.073333
 20
46.75
1001
ACAD
1000
DSTYLE
1002
{
1070
    78
1070
     8
1070
   288
1070
     1
1070
   284
1070
     8
1070
   140
1040
5.0
1070
   340
1005
139
1070
    73
1070
     0
1070
   272
1070
     2
1070
    42
1040
0.5
1070
    44
1040
0.5
1070
   271
1070
     2
1070
    41
1040
2.0
1002
}
  0
LINE
  5
254
100
AcDbEntity
  8
3
100
AcDbLine
 10
92.473333
 20
22.75
 30
0.0
 11
92.473333
 21
25.75
 31
0.0
  0
LINE
  5
255
100
AcDbEntity
  8
2
100
AcDbLine
 10
82.973333
 20
21.5
 30
0.0
 11
92.473333
 21
21.5
 31
0.0
  0
LINE
  5
256
100
AcDbEntity
  8
2
100
AcDbLine
 10
92.473333
 20
24.0
 30
0.0
 11
85.223333
 21
24.0
 31
0.0
  0
LINE
  5
257
100
AcDbEntity
  8
2
100
AcDbLine
 10
85.473333
 20
21.25
 30
0.0
 11
92.473333
 21
21.25
 31
0.0
  0
LINE
  5
258
100
AcDbEntity
  8
2
100
AcDbLine
 10
92.473333
 20
24.25
 30
0.0
 11
85.473333
 21
24.25
 31
0.0
  0
LINE
  5
259
100
AcDbEntity
  8
2
100
AcDbLine
 10
85.223333
 20
21.5
 30
0.0
 11
85.223333
 21
22.75
 31
0.0
  0
LINE
  5
25A
100
AcDbEntity
  8
2
100
AcDbLine
 10
82.973333
 20
24.0
 30
0.0
 11
82.973333
 21
21.5
 31
0.0
  0
LINE
  5
25B
100
AcDbEntity
  8
2
100
AcDbLine
 10
85.473333
 20
24.25
 30
0.0
 11
85.473333
 21
21.25
 31
0.0
  0
POINT
  5
25C
100
AcDbEntity
  8
DEFPOINTS
  6
BYBLOCK
 62
     0
100
AcDbPoint
 10
85.473333
 20
19.75
 30
0.0
  0
LINE
  5
25D
100
AcDbEntity
  8
2
100
AcDbLine
 10
85.473333
 20
21.25
 30
0.0
 11
85.223333
 21
21.5
 31
0.0
  0
LINE
  5
25E
100
AcDbEntity
  8
2
100
AcDbLine
 10
85.223333
 20
24.0
 30
0.0
 11
82.973333
 21
24.0
 31
0.0
  0
LINE
  5
25F
100
AcDbEntity
  8
2
100
AcDbLine
 10
85.223333
 20
24.0
 30
0.0
 11
85.223333
 21
22.75
 31
0.0
  0
LINE
  5
260
100
AcDbEntity
  8
2
100
AcDbLine
 10
85.223333
 20
24.0
 30
0.0
 11
85.473333
 21
24.25
 31
0.0
  0
LINE
  5
261
100
AcDbEntity
  8
3
100
AcDbLine
 10
92.473333
 20
22.75
 30
0.0
 11
92.473333
 21
19.75
 31
0.0
  0
POINT
  5
262
100
AcDbEntity
  8
DEFPOINTS
  6
BYBLOCK
 62
     0
100
AcDbPoint
 10
92.473333
 20
19.75
 30
0.0
  0
POINT
  5
263
100
AcDbEntity
  8
DEFPOINTS
  6
BYBLOCK
 62
     0
100
AcDbPoint
 10
92.473333
 20
18.5
 30
0.0
  0
SOLID
  5
264
100
AcDbEntity
  8
0
100
AcDbTrace
 10
94.165903
 20
27.589783
 30
0.0
 11
92.973333
 21
25.95
 31
0.0
 12
93.569618
 22
27.887925
 32
0.0
 13
93.569618
 23
27.887925
 33
0.0
1001
ACAD
1000
DSTYLE
1002
{
1070
    78
1070
     8
1070
   288
1070
     1
1070
   284
1070
     8
1070
   140
1040
5.0
1070
   340
1005
139
1070
    73
1070
     0
1070
   272
1070
     2
1070
    42
1040
0.5
1070
    44
1040
0.5
1070
   271
1070
     2
1070
    41
1040
2.0
1002
}
  0
POINT
  5
265
100
AcDbEntity
  8
DEFPOINTS
  6
BYBLOCK
 62
     0
100
AcDbPoint
 10
92.473333
 20
25.75
 30
0.0
  0
POINT
  5
266
100
AcDbEntity
  8
DEFPOINTS
  6
BYBLOCK
 62
     0
100
AcDbPoint
 10
92.473333
 20
26.25
 30
0.0
  0
ENDBLK
  5
268
100
AcDbEntity
  8
0
100
AcDbBlockEnd
  0
BLOCK
  5
2C9
100
AcDbEntity
  8
0
100
AcDbBlockBegin
  2
*D5
 70
     1
 10
0.0
 20
0.0
 30
0.0
  3
*D5
  1

  0
LINE
  5
2CA
100
AcDbEntity
  8
0
  6
BYBLOCK
 62
     0
100
AcDbLine
 10
119.540564
 20
125.990774
 30
0.0
 11
116.669823
 21
128.776245
 31
0.0
  0
MTEXT
  5
2CB
100
AcDbEntity
  8
0
  6
BYBLOCK
 62
     0
100
AcDbMText
 10
92.898527
 20
146.98351
 30
0.0
 40
8.5
 41
0.0
 71
     5
 72
     1
  1
\A1;\U+22058
  7
BIGFONT
  0
SOLID
  5
2CC
100
AcDbEntity
  8
0
  6
BYBLOCK
 62
     0
100
AcDbTrace
 10
119.772687
 20
126.230003
 30
0.0
 11
119.308441
 21
125.751546
 31
0.0
 12
120.975934
 22
124.598039
 32
0.0
 13
120.975934
 23
124.598039
 33
0.0
  0
SOLID
  5
2CD
100
AcDbEntity
  8
0
  6
BYBLOCK
 62
     0
100
AcDbTrace
 10
116.901946
 20
129.015474
 30
0.0
 11
116.437701
 21
128.537017
 31
0.0
 12
115.234453
 22
130.168981
 32
0.0
 13
115.234453
 23
130.168981
 33
0.0
  0
POINT
  5
2CE
100
AcDbEntity
  8
DEFPOINTS
  6
BYBLOCK
 62
     0
100
AcDbPoint
 10
115.234453
 20
130.168981
 30
0.0
  0
POINT
  5
2CF
100
AcDbEntity
  8
DEFPOINTS
  6
BYBLOCK
 62
     0
100
AcDbPoint
 10
120.975934
 20
124.598039
 30
0.0
  0
ENDBLK
  5
2D0
100
AcDbEntity
  8
0
100
AcDbBlockEnd
  0
BLOCK
  5
2FD
100
AcDbEntity
  8
0
100
AcDbBlockBegin
  2
*D6
 70
     1
 10
0.0
 20
0.0
 30
0.0
  3
*D6
  1

  0
LINE
  5
2F2
100
AcDbEntity
  8
0
  6
BYBLOCK
 62
     0
100
AcDbLine
 10
173.0
 20
114.75
 30
0.0
 11
191.449275
 21
114.75
 31
0.0
  0
LINE
  5
2F3
100
AcDbEntity
  8
0
  6
BYBLOCK
 62
     0
100
AcDbLine
 10
173.0
 20
108.75
 30
0.0
 11
191.449275
 21
108.75
 31
0.0
  0
LINE
  5
2F4
100
AcDbEntity
  8
0
  6
BYBLOCK
 62
     0
100
AcDbLine
 10
190.449275
 20
110.75
 30
0.0
 11
190.449275
 21
112.75
 31
0.0
  0
LINE
  5
2F5
100
AcDbEntity
  8
0
  6
BYBLOCK
 62
     0
100
AcDbLine
 10
190.449275
 20
114.75
 30
0.0
 11
190.449275
 21
123.461318
 31
0.0
  0
LINE
  5
2F6
100
AcDbEntity
  8
0
  6
BYBLOCK
 62
     0
100
AcDbLine
 10
190.449275
 20
123.461318
 30
0.0
 11
192.449275
 21
123.461318
 31
0.0
  0
SOLID
  5
2F7
100
AcDbEntity
  8
0
  6
BYBLOCK
 62
     0
100
AcDbTrace
 10
190.115941
 20
110.75
 30
0.0
 11
190.782608
 21
110.75
 31
0.0
 12
190.449275
 22
108.75
 32
0.0
 13
190.449275
 23
108.75
 33
0.0
  0
SOLID
  5
2F8
100
AcDbEntity
  8
0
  6
BYBLOCK
 62
     0
100
AcDbTrace
 10
190.115941
 20
112.75
 30
0.0
 11
190.782608
 21
112.75
 31
0.0
 12
190.449275
 22
114.75
 32
0.0
 13
190.449275
 23
114.75
 33
0.0
  0
MTEXT
  5
2F9
100
AcDbEntity
  8
0
  6
BYBLOCK
 62
     0
100
AcDbMText
 10
194.205941
 20
123.461318
 30
0.0
 40
5.0
 41
0.0
 71
     5
 72
     1
  1
\A1;6
  0
POINT
  5
2FA
100
AcDbEntity
  8
DEFPOINTS
  6
BYBLOCK
 62
     0
100
AcDbPoint
 10
172.0
 20
114.75
 30
0.0
  0
POINT
  5
2FB
100
AcDbEntity
  8
DEFPOINTS
  6
BYBLOCK
 62
     0
100
AcDbPoint
 10
172.0
 20
108.75
 30
0.0
  0
POINT
  5
2FC
100
AcDbEntity
  8
DEFPOINTS
  6
BYBLOCK
 62
     0
100
AcDbPoint
 10
190.449275
 20
108.75
 30
0.0
  0
ENDBLK
  5
2FE
100
AcDbEntity
  8
0
100
AcDbBlockEnd
  0
BLOCK
  5
30A
100
AcDbEntity
  8
0
100
AcDbBlockBegin
  2
*D7
 70
     1
 10
0.0
 20
0.0
 30
0.0
  3
*D7
  1

  0
LINE
  5
300
100
AcDbEntity
  8
0
  6
BYBLOCK
 62
     0
100
AcDbLine
 10
173.0
 20
118.25
 30
0.0
 11
205.938283
 21
118.25
 31
0.0
  0
LINE
  5
301
100
AcDbEntity
  8
0
  6
BYBLOCK
 62
     0
100
AcDbLine
 10
173.0
 20
105.25
 30
0.0
 11
205.938283
 21
105.25
 31
0.0
  0
LINE
  5
302
100
AcDbEntity
  8
0
  6
BYBLOCK
 62
     0
100
AcDbLine
 10
204.938283
 20
116.25
 30
0.0
 11
204.938283
 21
115.822002
 31
0.0
  0
LINE
  5
303
100
AcDbEntity
  8
0
  6
BYBLOCK
 62
     0
100
AcDbLine
 10
204.938283
 20
107.25
 30
0.0
 11
204.938283
 21
108.975335
 31
0.0
  0
SOLID
  5
304
100
AcDbEntity
  8
0
  6
BYBLOCK
 62
     0
100
AcDbTrace
 10
204.60495
 20
116.25
 30
0.0
 11
205.271616
 21
116.25
 31
0.0
 12
204.938283
 22
118.25
 32
0.0
 13
204.938283
 23
118.25
 33
0.0
  0
SOLID
  5
305
100
AcDbEntity
  8
0
  6
BYBLOCK
 62
     0
100
AcDbTrace
 10
204.60495
 20
107.25
 30
0.0
 11
205.271616
 21
107.25
 31
0.0
 12
204.938283
 22
105.25
 32
0.0
 13
204.938283
 23
105.25
 33
0.0
  0
MTEXT
  5
306
100
AcDbEntity
  8
0
  6
BYBLOCK
 62
     0
100
AcDbMText
 10
204.938283
 20
112.398669
 30
0.0
 40
5.0
 41
0.0
 71
     5
 72
     1
  1
\A1;13
 11
0.0
 21
1.0
 31
0.0
  0
POINT
  5
307
100
AcDbEntity
  8
DEFPOINTS
  6
BYBLOCK
 62
     0
100
AcDbPoint
 10
172.0
 20
118.25
 30
0.0
  0
POINT
  5
308
100
AcDbEntity
  8
DEFPOINTS
  6
BYBLOCK
 62
     0
100
AcDbPoint
 10
172.0
 20
105.25
 30
0.0
  0
POINT
  5
309
100
AcDbEntity
  8
DEFPOINTS
  6
BYBLOCK
 62
     0
100
AcDbPoint
 10
204.938283
 20
105.25
 30
0.0
  0
ENDBLK
  5
30B
100
AcDbEntity
  8
0
100
AcDbBlockEnd
  0
BLOCK
  5
336
100
AcDbEntity
  8
0
100
AcDbBlockBegin
  2
A$C13AB0A02
 70
     0
 10
0.0
 20
0.0
 30
0.0
  3
A$C13AB0A02
  1

  0
LINE
  5
30D
100
AcDbEntity
  8
2
100
AcDbLine
 10
35.25
 20
11.5
 30
0.0
 11
32.75
 21
14.5
 31
0.0
  0
LINE
  5
30E
100
AcDbEntity
  8
3
100
AcDbLine
 10
35.25
 20
17.5
 30
0.0
 11
32.75
 21
14.5
 31
0.0
  0
LINE
  5
30F
100
AcDbEntity
  8
3
100
AcDbLine
 10
9.753097
 20
22.5
 30
0.0
 11
40.25
 21
22.5
 31
0.0
  0
LINE
  5
310
100
AcDbEntity
  8
3
100
AcDbLine
 10
9.753097
 20
6.5
 30
0.0
 11
40.25
 21
6.5
 31
0.0
  0
LINE
  5
311
100
AcDbEntity
  8
1
100
AcDbLine
 10
0.0
 20
14.5
 30
0.0
 11
68.5
 21
14.5
 31
0.0
  0
ARC
  5
312
100
AcDbEntity
  8
3
100
AcDbCircle
 10
15.592988
 20
14.5
 30
0.0
 40
10.342988
100
AcDbArc
 50
136.344725
 51
223.655275
  0
LWPOLYLINE
  5
313
100
AcDbEntity
  8
0
100
AcDbPolyline
 90
        3
 70
     1
 43
0.0
 10
6.399652
 20
8.053758
 10
2.832231
 20
8.774973
 10
3.991351
 20
5.324888
  0
LINE
  5
314
100
AcDbEntity
  8
3
100
AcDbLine
 10
8.75
 20
6.769741
 30
0.0
 11
8.75
 21
14.5
 31
0.0
  0
ARC
  5
315
100
AcDbEntity
  8
3
100
AcDbCircle
 10
9.753097
 20
8.5
 30
0.0
 40
2.0
100
AcDbArc
 50
214.748451
 51
270.0
  0
LWPOLYLINE
  5
316
100
AcDbEntity
  8
0
100
AcDbPolyline
 90
        3
 70
     1
 43
0.0
 10
5.240532
 20
11.503843
 10
1.673111
 20
12.225058
 10
2.832231
 20
8.774973
  0
ARC
  5
317
100
AcDbEntity
  8
3
100
AcDbCircle
 10
9.753097
 20
20.5
 30
0.0
 40
2.0
100
AcDbArc
 50
90.0
 51
145.251549
  0
LWPOLYLINE
  5
318
100
AcDbEntity
  8
0
100
AcDbPolyline
 90
        3
 70
     1
 43
0.0
 10
28.519377
 20
23.137661
 10
30.339174
 20
26.289641
 10
26.69958
 20
26.289641
  0
LWPOLYLINE
  5
319
100
AcDbEntity
  8
0
100
AcDbPolyline
 90
        3
 70
     1
 43
0.0
 10
24.879783
 20
23.137661
 10
26.69958
 20
26.289641
 10
23.059987
 20
26.289641
  0
MTEXT
  5
31A
102
{ACAD_REACTORS
330
31B
102
}
100
AcDbEntity
  8
0
100
AcDbMText
 10
91.34
 20
0.0
 30
0.0
 40
5.0
 41
0.0
 71
     4
 72
     1
  1
\A1;C1
  0
LEADER
  5
31B
100
AcDbEntity
  8
0
100
AcDbLeader
  3
STANDARD
 73
     0
 40
5.0
 41
6.666667
 76
     3
 10
66.25
 20
10.5
 30
0.0
 10
90.5
 20
0.0
 30
0.0
 10
91.25
 20
0.0
 30
0.0
 77
   256
340
31A
1001
ACAD
1000
DSTYLE
1002
{
1070
    78
1070
     8
1070
   288
1070
     1
1070
   284
1070
     8
1070
   140
1040
5.0
1070
    73
1070
     0
1070
   272
1070
     2
1070
    42
1040
1.0
1070
    44
1040
1.0
1070
   271
1070
     2
1070
    41
1040
2.0
1002
}
  0
LINE
  5
31C
100
AcDbEntity
  8
1
100
AcDbLine
 10
114.748254
 20
14.5
 30
0.0
 11
142.998254
 21
14.5
 31
0.0
  0
DIMENSION
  5
31D
100
AcDbEntity
  8
0
100
AcDbDimension
  2
*D7
 10
98.188283
 20
8.0
 30
0.0
 11
98.188283
 21
15.148669
 31
0.0
 12
-106.75
 22
-97.25
 32
0.0
 70
   128
  3
STANDARD
100
AcDbAlignedDimension
 13
65.25
 23
21.0
 33
0.0
 14
65.25
 24
8.0
 34
0.0
 50
90.0
100
AcDbRotatedDimension
1001
ACAD
1000
DSTYLE
1002
{
1070
    78
1070
     8
1070
   288
1070
     1
1070
   284
1070
     8
1070
   140
1040
5.0
1070
    73
1070
     0
1070
   272
1070
     2
1070
    42
1040
1.0
1070
    44
1040
1.0
1070
   271
1070
     2
1070
    41
1040
2.0
1002
}
  0
DIMENSION
  5
31E
100
AcDbEntity
  8
0
100
AcDbDimension
  2
*D6
 10
83.699275
 20
11.5
 30
0.0
 11
87.455942
 21
26.211319
 31
0.0
 12
-106.75
 22
-97.25
 32
0.0
 70
   128
  3
STANDARD
100
AcDbAlignedDimension
 13
65.25
 23
17.5
 33
0.0
 14
65.25
 24
11.5
 34
0.0
 50
90.0
100
AcDbRotatedDimension
1001
ACAD
1000
DSTYLE
1002
{
1070
    78
1070
     8
1070
   288
1070
     1
1070
   284
1070
     8
1070
   140
1040
5.0
1070
    73
1070
     0
1070
   272
1070
     2
1070
    42
1040
1.0
1070
    44
1040
1.0
1070
   271
1070
     2
1070
    41
1040
2.0
1002
}
  0
LWPOLYLINE
  5
31F
100
AcDbEntity
  8
0
100
AcDbPolyline
 90
        3
 70
     1
 43
0.0
 10
77.519377
 20
17.936181
 10
79.339174
 20
14.7842
 10
75.69958
 20
14.7842
  0
LINE
  5
320
100
AcDbEntity
  8
3
100
AcDbLine
 10
65.25
 20
8.0
 30
0.0
 11
40.25
 21
6.5
 31
0.0
  0
LINE
  5
321
100
AcDbEntity
  8
3
100
AcDbLine
 10
65.25
 20
21.0
 30
0.0
 11
40.25
 21
22.5
 31
0.0
  0
LINE
  5
322
100
AcDbEntity
  8
1
100
AcDbLine
 10
71.25
 20
14.5
 30
0.0
 11
44.750001
 21
14.5
 31
0.0
  0
LINE
  5
323
100
AcDbEntity
  8
3
100
AcDbLine
 10
50.250001
 20
11.5
 30
0.0
 11
65.250001
 21
11.5
 31
0.0
  0
LINE
  5
324
100
AcDbEntity
  8
3
100
AcDbLine
 10
50.250001
 20
17.5
 30
0.0
 11
65.250001
 21
17.5
 31
0.0
  0
LWPOLYLINE
  5
325
100
AcDbEntity
  8
0
100
AcDbPolyline
 90
        3
 70
     1
 43
0.0
 10
52.927309
 20
21.781492
 10
55.345484
 20
24.501616
 10
51.7807
 20
25.235754
  0
LINE
  5
326
100
AcDbEntity
  8
2
100
AcDbLine
 10
65.25
 20
11.5
 30
0.0
 11
35.25
 21
11.5
 31
0.0
  0
LINE
  5
327
100
AcDbEntity
  8
3
100
AcDbLine
 10
65.25
 20
17.5
 30
0.0
 11
35.25
 21
17.5
 31
0.0
  0
LINE
  5
328
100
AcDbEntity
  8
3
100
AcDbLine
 10
35.25
 20
17.5
 30
0.0
 11
35.25
 21
14.5
 31
0.0
  0
LINE
  5
329
100
AcDbEntity
  8
3
100
AcDbLine
 10
40.25
 20
6.5
 30
0.0
 11
40.25
 21
14.5
 31
0.0
  0
LINE
  5
32A
100
AcDbEntity
  8
2
100
AcDbLine
 10
35.25
 20
11.5
 30
0.0
 11
35.25
 21
14.5
 31
0.0
  0
LWPOLYLINE
  5
32B
100
AcDbEntity
  8
0
100
AcDbPolyline
 90
        3
 70
     1
 43
0.0
 10
49.362525
 20
22.51563
 10
51.7807
 20
25.235754
 10
48.215916
 20
25.969892
  0
LINE
  5
32C
100
AcDbEntity
  8
3
100
AcDbLine
 10
65.25
 20
14.5
 30
0.0
 11
65.25
 21
21.0
 31
0.0
  0
LWPOLYLINE
  5
32D
100
AcDbEntity
  8
0
100
AcDbPolyline
 90
        3
 70
     1
 43
0.0
 10
73.879783
 20
17.936181
 10
75.69958
 20
14.7842
 10
72.059987
 20
14.7842
  0
LINE
  5
32E
100
AcDbEntity
  8
3
100
AcDbLine
 10
65.25
 20
14.5
 30
0.0
 11
65.25
 21
8.0
 31
0.0
  0
LINE
  5
32F
100
AcDbEntity
  8
3
100
AcDbLine
 10
65.25
 20
14.5
 30
0.0
 11
65.25
 21
11.6
 31
0.0
  0
TEXT
  5
330
100
AcDbEntity
  8
0
100
AcDbText
 10
88.525
 20
27.475
 30
0.0
 40
3.5
  1
 0
 41
0.7
  7
BIGFONT
100
AcDbText
  0
TEXT
  5
331
100
AcDbEntity
  8
0
100
AcDbText
 10
88.525
 20
31.675
 30
0.0
 40
3.5
  1
+0.1
 41
0.7
  7
BIGFONT
100
AcDbText
  0
CIRCLE
  5
332
100
AcDbEntity
  8
3
100
AcDbCircle
 10
128.998254
 20
14.5
 30
0.0
 40
3.0
  0
CIRCLE
  5
333
100
AcDbEntity
  8
3
100
AcDbCircle
 10
128.998254
 20
14.5
 30
0.0
 40
6.5
  0
CIRCLE
  5
334
100
AcDbEntity
  8
3
100
AcDbCircle
 10
128.998254
 20
14.5
 30
0.0
 40
8.0
  0
LINE
  5
335
100
AcDbEntity
  8
1
100
AcDbLine
 10
128.998254
 20
27.5
 30
0.0
 11
128.998254
 21
0.5
 31
0.0
  0
ENDBLK
  5
337
100
AcDbEntity
  8
0
100
AcDbBlockEnd
  0
BLOCK
  5
37B
100
AcDbEntity
  8
0
100
AcDbBlockBegin
  2
*D9
 70
     1
 10
0.0
 20
0.0
 30
0.0
  3
*D9
  1

  0
LINE
  5
37C
100
AcDbEntity
  8
0
  6
BYBLOCK
 62
     0
100
AcDbLine
 10
117.545782
 20
70.318485
 30
0.0
 11
150.484065
 21
70.318485
 31
0.0
  0
LINE
  5
37D
100
AcDbEntity
  8
0
  6
BYBLOCK
 62
     0
100
AcDbLine
 10
117.545782
 20
57.318485
 30
0.0
 11
150.484065
 21
57.318485
 31
0.0
  0
LINE
  5
37E
100
AcDbEntity
  8
0
  6
BYBLOCK
 62
     0
100
AcDbLine
 10
149.484065
 20
68.318485
 30
0.0
 11
149.484065
 21
68.228485
 31
0.0
  0
LINE
  5
37F
100
AcDbEntity
  8
0
  6
BYBLOCK
 62
     0
100
AcDbLine
 10
149.484065
 20
59.318485
 30
0.0
 11
149.484065
 21
59.84382
 31
0.0
  0
MTEXT
  5
380
100
AcDbEntity
  8
0
  6
BYBLOCK
 62
     0
100
AcDbMText
 10
149.484065
 20
64.467153
 30
0.0
 40
8.5
 41
0.0
 71
     5
 72
     1
  1
\A1;13
  7
BIGFONT
 11
0.0
 21
1.0
 31
0.0
  0
SOLID
  5
381
100
AcDbEntity
  8
0
  6
BYBLOCK
 62
     0
100
AcDbTrace
 10
149.150732
 20
68.318485
 30
0.0
 11
149.817398
 21
68.318485
 31
0.0
 12
149.484065
 22
70.318485
 32
0.0
 13
149.484065
 23
70.318485
 33
0.0
  0
SOLID
  5
382
100
AcDbEntity
  8
0
  6
BYBLOCK
 62
     0
100
AcDbTrace
 10
149.150732
 20
59.318485
 30
0.0
 11
149.817398
 21
59.318485
 31
0.0
 12
149.484065
 22
57.318485
 32
0.0
 13
149.484065
 23
57.318485
 33
0.0
  0
POINT
  5
383
100
AcDbEntity
  8
DEFPOINTS
  6
BYBLOCK
 62
     0
100
AcDbPoint
 10
116.545782
 20
70.318485
 30
0.0
  0
POINT
  5
384
100
AcDbEntity
  8
DEFPOINTS
  6
BYBLOCK
 62
     0
100
AcDbPoint
 10
116.545782
 20
57.318485
 30
0.0
  0
POINT
  5
385
100
AcDbEntity
  8
DEFPOINTS
  6
BYBLOCK
 62
     0
100
AcDbPoint
 10
149.484065
 20
57.318485
 30
0.0
  0
ENDBLK
  5
386
100
AcDbEntity
  8
0
100
AcDbBlockEnd
  0
BLOCK
  5
387
100
AcDbEntity
  8
0
100
AcDbBlockBegin
  2
*D10
 70
     1
 10
0.0
 20
0.0
 30
0.0
  3
*D10
  1

  0
LINE
  5
388
100
AcDbEntity
  8
0
  6
BYBLOCK
 62
     0
100
AcDbLine
 10
117.545782
 20
66.818485
 30
0.0
 11
135.995057
 21
66.818485
 31
0.0
  0
LINE
  5
389
100
AcDbEntity
  8
0
  6
BYBLOCK
 62
     0
100
AcDbLine
 10
117.545782
 20
60.818485
 30
0.0
 11
135.995057
 21
60.818485
 31
0.0
  0
LINE
  5
38A
100
AcDbEntity
  8
0
  6
BYBLOCK
 62
     0
100
AcDbLine
 10
134.995057
 20
64.818485
 30
0.0
 11
134.995057
 21
62.818485
 31
0.0
  0
MTEXT
  5
38B
100
AcDbEntity
  8
0
  6
BYBLOCK
 62
     0
100
AcDbMText
 10
138.751723
 20
75.529803
 30
0.0
 40
8.5
 41
0.0
 71
     5
 72
     1
  1
\A1;6
  7
BIGFONT
  0
SOLID
  5
38C
100
AcDbEntity
  8
0
  6
BYBLOCK
 62
     0
100
AcDbTrace
 10
134.661723
 20
64.818485
 30
0.0
 11
135.32839
 21
64.818485
 31
0.0
 12
134.995057
 22
66.818485
 32
0.0
 13
134.995057
 23
66.818485
 33
0.0
  0
SOLID
  5
38D
100
AcDbEntity
  8
0
  6
BYBLOCK
 62
     0
100
AcDbTrace
 10
134.661723
 20
62.818485
 30
0.0
 11
135.32839
 21
62.818485
 31
0.0
 12
134.995057
 22
60.818485
 32
0.0
 13
134.995057
 23
60.818485
 33
0.0
  0
POINT
  5
38E
100
AcDbEntity
  8
DEFPOINTS
  6
BYBLOCK
 62
     0
100
AcDbPoint
 10
116.545782
 20
66.818485
 30
0.0
  0
POINT
  5
38F
100
AcDbEntity
  8
DEFPOINTS
  6
BYBLOCK
 62
     0
100
AcDbPoint
 10
116.545782
 20
60.818485
 30
0.0
  0
POINT
  5
390
100
AcDbEntity
  8
DEFPOINTS
  6
BYBLOCK
 62
     0
100
AcDbPoint
 10
134.995057
 20
60.818485
 30
0.0
  0
ENDBLK
  5
391
100
AcDbEntity
  8
0
100
AcDbBlockEnd
  0
BLOCK
  5
3D4
100
AcDbEntity
  8
0
100
AcDbBlockBegin
  2
A$C39A97E20
 70
     0
 10
0.0
 20
0.0
 30
0.0
  3
A$C39A97E20
  1

  0
LINE
  5
395
100
AcDbEntity
  8
2
100
AcDbLine
 10
68.5
 20
9.15
 30
0.0
 11
79.5
 21
9.15
 31
0.0
  0
LINE
  5
396
100
AcDbEntity
  8
2
100
AcDbLine
 10
79.5
 20
11.65
 30
0.0
 11
68.5
 21
11.65
 31
0.0
  0
LINE
  5
397
100
AcDbEntity
  8
3
100
AcDbLine
 10
79.5
 20
7.4
 30
0.0
 11
64.5
 21
7.4
 31
0.0
  0
LINE
  5
398
100
AcDbEntity
  8
3
100
AcDbLine
 10
79.5
 20
13.4
 30
0.0
 11
64.5
 21
13.4
 31
0.0
  0
LINE
  5
399
100
AcDbEntity
  8
1
100
AcDbLine
 10
43.000001
 20
10.4
 30
0.0
 11
85.0
 21
10.4
 31
0.0
  0
LINE
  5
39A
100
AcDbEntity
  8
1
100
AcDbLine
 10
8.7
 20
21.0
 30
0.0
 11
8.7
 21
0.0
 31
0.0
  0
LINE
  5
39B
100
AcDbEntity
  8
1
100
AcDbLine
 10
18.2
 20
10.4
 30
0.0
 11
0.0
 21
10.4
 31
0.0
  0
CIRCLE
  5
39C
100
AcDbEntity
  8
0
100
AcDbCircle
 10
8.7
 20
10.4
 30
0.0
 40
4.979646
  0
LWPOLYLINE
  5
39D
100
AcDbEntity
  8
3
100
AcDbPolyline
 90
        6
 70
     1
 43
0.0
 10
8.7
 20
16.15
 10
3.720354
 20
13.275
 10
3.720354
 20
7.525
 10
8.7
 20
4.65
 10
13.679646
 20
7.525
 10
13.679646
 20
13.275
  0
CIRCLE
  5
39E
100
AcDbEntity
  8
3
100
AcDbCircle
 10
8.7
 20
10.4
 30
0.0
 40
4.0
  0
CIRCLE
  5
39F
100
AcDbEntity
  8
0
100
AcDbCircle
 10
8.7
 20
10.4
 30
0.0
 40
3.2
  0
LINE
  5
3A0
100
AcDbEntity
  8
3
100
AcDbLine
 10
56.500001
 20
13.275
 30
0.0
 11
64.500001
 21
13.275
 31
0.0
  0
LINE
  5
3A1
100
AcDbEntity
  8
3
100
AcDbLine
 10
57.248926
 20
16.15
 30
0.0
 11
64.500001
 21
16.15
 31
0.0
  0
LINE
  5
3A2
100
AcDbEntity
  8
3
100
AcDbLine
 10
56.500001
 20
7.525
 30
0.0
 11
64.500001
 21
7.525
 31
0.0
  0
LINE
  5
3A3
100
AcDbEntity
  8
3
100
AcDbLine
 10
57.248926
 20
4.65
 30
0.0
 11
64.500001
 21
4.65
 31
0.0
  0
ARC
  5
3A4
100
AcDbEntity
  8
3
100
AcDbCircle
 10
101.55
 20
10.4
 30
0.0
 40
45.05
100
AcDbArc
 50
176.181695
 51
183.658987
  0
LINE
  5
3A5
100
AcDbEntity
  8
3
100
AcDbLine
 10
46.5
 20
7.4
 30
0.0
 11
46.5
 21
10.4
 31
0.0
  0
LINE
  5
3A6
100
AcDbEntity
  8
3
100
AcDbLine
 10
47.5
 20
6.4
 30
0.0
 11
47.5
 21
10.4
 31
0.0
  0
LINE
  5
3A7
100
AcDbEntity
  8
3
100
AcDbLine
 10
55.5
 20
6.4
 30
0.0
 11
55.5
 21
10.4
 31
0.0
  0
LINE
  5
3A8
100
AcDbEntity
  8
3
100
AcDbLine
 10
56.500001
 20
10.4
 30
0.0
 11
56.500001
 21
6.4
 31
0.0
  0
LINE
  5
3A9
100
AcDbEntity
  8
3
100
AcDbLine
 10
56.5
 20
6.4
 30
0.0
 11
47.5
 21
6.4
 31
0.0
  0
LINE
  5
3AA
100
AcDbEntity
  8
3
100
AcDbLine
 10
46.5
 20
7.4
 30
0.0
 11
55.5
 21
7.4
 31
0.0
  0
SOLID
  5
3AB
100
AcDbEntity
  8
0
100
AcDbTrace
 10
48.85775
 20
4.613157
 30
0.0
 11
49.6
 21
6.5
 31
0.0
 12
49.50982
 22
4.474419
 32
0.0
 13
49.50982
 23
4.474419
 33
0.0
1001
ACAD
1000
DSTYLE
1002
{
1070
    78
1070
     8
1070
   288
1070
     1
1070
   284
1070
     8
1070
   140
1040
5.0
1070
   340
1005
139
1070
    73
1070
     0
1070
   272
1070
     2
1070
    42
1040
0.5
1070
    44
1040
0.5
1070
   271
1070
     2
1070
    41
1040
2.0
1002
}
  0
LINE
  5
3AC
100
AcDbEntity
  8
3
100
AcDbLine
 10
47.5
 20
6.4
 30
0.0
 11
46.5
 21
7.4
 31
0.0
  0
LINE
  5
3AD
100
AcDbEntity
  8
3
100
AcDbLine
 10
56.500001
 20
6.4
 30
0.0
 11
57.248926
 21
4.65
 31
0.0
  0
LINE
  5
3AE
100
AcDbEntity
  8
3
100
AcDbLine
 10
46.5
 20
13.4
 30
0.0
 11
55.5
 21
13.4
 31
0.0
  0
LINE
  5
3AF
100
AcDbEntity
  8
3
100
AcDbLine
 10
56.5
 20
14.4
 30
0.0
 11
47.5
 21
14.4
 31
0.0
  0
LINE
  5
3B0
100
AcDbEntity
  8
3
100
AcDbLine
 10
46.5
 20
13.4
 30
0.0
 11
46.5
 21
10.4
 31
0.0
  0
LINE
  5
3B1
100
AcDbEntity
  8
3
100
AcDbLine
 10
47.5
 20
14.4
 30
0.0
 11
47.5
 21
10.4
 31
0.0
  0
POINT
  5
3B2
100
AcDbEntity
  8
DEFPOINTS
  6
BYBLOCK
 62
     0
100
AcDbPoint
 10
46.5
 20
13.4
 30
0.0
  0
LINE
  5
3B3
100
AcDbEntity
  8
3
100
AcDbLine
 10
47.5
 20
14.4
 30
0.0
 11
46.5
 21
13.4
 31
0.0
  0
LINE
  5
3B4
100
AcDbEntity
  8
3
100
AcDbLine
 10
56.500001
 20
10.4
 30
0.0
 11
56.500001
 21
15.406246
 31
0.0
  0
LINE
  5
3B5
100
AcDbEntity
  8
3
100
AcDbLine
 10
55.5
 20
14.4
 30
0.0
 11
55.5
 21
10.4
 31
0.0
  0
LINE
  5
3B6
100
AcDbEntity
  8
3
100
AcDbLine
 10
56.500001
 20
14.4
 30
0.0
 11
57.248926
 21
16.15
 31
0.0
  0
POINT
  5
3B7
100
AcDbEntity
  8
DEFPOINTS
  6
BYBLOCK
 62
     0
100
AcDbPoint
 10
56.500001
 20
15.406246
 30
0.0
  0
POINT
  5
3B8
100
AcDbEntity
  8
DEFPOINTS
  6
BYBLOCK
 62
     0
100
AcDbPoint
 10
56.5
 20
16.15
 30
0.0
  0
LINE
  5
3B9
100
AcDbEntity
  8
3
100
AcDbLine
 10
56.5
 20
16.15
 30
0.0
 11
56.5
 21
15.15
 31
0.0
  0
LINE
  5
3BA
100
AcDbEntity
  8
3
100
AcDbLine
 10
64.500001
 20
4.65
 30
0.0
 11
64.500001
 21
10.4
 31
0.0
  0
LINE
  5
3BB
100
AcDbEntity
  8
3
100
AcDbLine
 10
64.500001
 20
10.4
 30
0.0
 11
64.500001
 21
7.5
 31
0.0
  0
LINE
  5
3BC
100
AcDbEntity
  8
3
100
AcDbLine
 10
64.500001
 20
10.4
 30
0.0
 11
64.500001
 21
13.3
 31
0.0
  0
LINE
  5
3BD
100
AcDbEntity
  8
3
100
AcDbLine
 10
64.500001
 20
16.15
 30
0.0
 11
64.500001
 21
10.4
 31
0.0
  0
LINE
  5
3BE
100
AcDbEntity
  8
2
100
AcDbLine
 10
67.0
 20
10.4
 30
0.0
 11
68.5
 21
9.15
 31
0.0
  0
LINE
  5
3BF
100
AcDbEntity
  8
2
100
AcDbLine
 10
68.5
 20
11.65
 30
0.0
 11
67.0
 21
10.4
 31
0.0
  0
LINE
  5
3C0
100
AcDbEntity
  8
2
100
AcDbLine
 10
68.5
 20
11.65
 30
0.0
 11
68.5
 21
9.15
 31
0.0
  0
POINT
  5
3C1
100
AcDbEntity
  8
DEFPOINTS
  6
BYBLOCK
 62
     0
100
AcDbPoint
 10
56.5
 20
17.15
 30
0.0
  0
POINT
  5
3C2
100
AcDbEntity
  8
DEFPOINTS
  6
BYBLOCK
 62
     0
100
AcDbPoint
 10
56.822205
 20
16.4
 30
0.0
  0
POINT
  5
3C3
100
AcDbEntity
  8
DEFPOINTS
  6
BYBLOCK
 62
     0
100
AcDbPoint
 10
64.5
 20
17.15
 30
0.0
  0
POINT
  5
3C4
100
AcDbEntity
  8
DEFPOINTS
  6
BYBLOCK
 62
     0
100
AcDbPoint
 10
64.5
 20
16.9
 30
0.0
  0
SOLID
  5
3C5
100
AcDbEntity
  8
0
100
AcDbTrace
 10
81.02066
 20
16.268981
 30
0.0
 11
79.8
 21
14.65
 31
0.0
 12
80.429604
 22
16.577358
 32
0.0
 13
80.429604
 23
16.577358
 33
0.0
1001
ACAD
1000
DSTYLE
1002
{
1070
    78
1070
     8
1070
   288
1070
     1
1070
   284
1070
     8
1070
   140
1040
5.0
1070
   340
1005
139
1070
    73
1070
     0
1070
   272
1070
     2
1070
    42
1040
0.5
1070
    44
1040
0.5
1070
   271
1070
     2
1070
    41
1040
2.0
1002
}
  0
SOLID
  5
3C6
100
AcDbEntity
  8
0
100
AcDbTrace
 10
80.989788
 20
8.123418
 30
0.0
 11
79.810898
 21
9.773063
 31
0.0
 12
81.461084
 22
8.594931
 32
0.0
 13
81.461084
 23
8.594931
 33
0.0
1001
ACAD
1000
DSTYLE
1002
{
1070
    78
1070
     8
1070
   288
1070
     1
1070
   284
1070
     8
1070
   140
1040
5.0
1070
   340
1005
139
1070
    73
1070
     0
1070
   272
1070
     2
1070
    42
1040
0.5
1070
    44
1040
0.5
1070
   271
1070
     2
1070
    41
1040
2.0
1002
}
  0
LINE
  5
3C7
100
AcDbEntity
  8
3
100
AcDbLine
 10
79.5
 20
10.4
 30
0.0
 11
79.5
 21
7.4
 31
0.0
  0
POINT
  5
3C8
100
AcDbEntity
  8
DEFPOINTS
  6
BYBLOCK
 62
     0
100
AcDbPoint
 10
72.0
 20
7.9
 30
0.0
  0
POINT
  5
3C9
100
AcDbEntity
  8
DEFPOINTS
  6
BYBLOCK
 62
     0
100
AcDbPoint
 10
79.5
 20
7.4
 30
0.0
  0
POINT
  5
3CA
100
AcDbEntity
  8
DEFPOINTS
  6
BYBLOCK
 62
     0
100
AcDbPoint
 10
79.5
 20
6.65
 30
0.0
  0
LINE
  5
3CB
100
AcDbEntity
  8
2
100
AcDbLine
 10
72.0
 20
8.9
 30
0.0
 11
79.5
 21
8.9
 31
0.0
  0
LINE
  5
3CC
100
AcDbEntity
  8
2
100
AcDbLine
 10
79.5
 20
11.9
 30
0.0
 11
72.0
 21
11.9
 31
0.0
  0
LINE
  5
3CD
100
AcDbEntity
  8
2
100
AcDbLine
 10
71.75
 20
11.65
 30
0.0
 11
72.0
 21
11.9
 31
0.0
  0
LINE
  5
3CE
100
AcDbEntity
  8
2
100
AcDbLine
 10
71.75
 20
9.15
 30
0.0
 11
71.75
 21
11.65
 31
0.0
  0
LINE
  5
3CF
100
AcDbEntity
  8
2
100
AcDbLine
 10
72.0
 20
8.9
 30
0.0
 11
71.75
 21
9.15
 31
0.0
  0
LINE
  5
3D0
100
AcDbEntity
  8
2
100
AcDbLine
 10
72.0
 20
11.9
 30
0.0
 11
72.0
 21
8.9
 31
0.0
  0
LINE
  5
3D1
100
AcDbEntity
  8
3
100
AcDbLine
 10
79.5
 20
10.4
 30
0.0
 11
79.5
 21
13.4
 31
0.0
  0
POINT
  5
3D2
100
AcDbEntity
  8
DEFPOINTS
  6
BYBLOCK
 62
     0
100
AcDbPoint
 10
79.5
 20
13.4
 30
0.0
  0
POINT
  5
3D3
100
AcDbEntity
  8
DEFPOINTS
  6
BYBLOCK
 62
     0
100
AcDbPoint
 10
79.5
 20
14.15
 30
0.0
  0
ENDBLK
  5
3D5
100
AcDbEntity
  8
0
100
AcDbBlockEnd
  0
BLOCK
  5
42A
100
AcDbEntity
  8
0
100
AcDbBlockBegin
  2
*D12
 70
     1
 10
0.0
 20
0.0
 30
0.0
  3
*D12
  1

  0
LINE
  5
41F
100
AcDbEntity
  8
0
  6
BYBLOCK
 62
     0
100
AcDbLine
 10
173.0
 20
88.0
 30
0.0
 11
192.743333
 21
88.0
 31
0.0
  0
LINE
  5
420
100
AcDbEntity
  8
0
  6
BYBLOCK
 62
     0
100
AcDbLine
 10
173.0
 20
96.0
 30
0.0
 11
192.743333
 21
96.0
 31
0.0
  0
LINE
  5
421
100
AcDbEntity
  8
0
  6
BYBLOCK
 62
     0
100
AcDbLine
 10
191.743333
 20
90.0
 30
0.0
 11
191.743333
 21
94.0
 31
0.0
  0
LINE
  5
422
100
AcDbEntity
  8
0
  6
BYBLOCK
 62
     0
100
AcDbLine
 10
191.743333
 20
96.0
 30
0.0
 11
191.743333
 21
108.0
 31
0.0
  0
LINE
  5
423
100
AcDbEntity
  8
0
  6
BYBLOCK
 62
     0
100
AcDbLine
 10
191.743333
 20
108.0
 30
0.0
 11
193.743333
 21
108.0
 31
0.0
  0
SOLID
  5
424
100
AcDbEntity
  8
0
  6
BYBLOCK
 62
     0
100
AcDbTrace
 10
191.41
 20
90.0
 30
0.0
 11
192.076667
 21
90.0
 31
0.0
 12
191.743333
 22
88.0
 32
0.0
 13
191.743333
 23
88.0
 33
0.0
  0
SOLID
  5
425
100
AcDbEntity
  8
0
  6
BYBLOCK
 62
     0
100
AcDbTrace
 10
191.41
 20
94.0
 30
0.0
 11
192.076667
 21
94.0
 31
0.0
 12
191.743333
 22
96.0
 32
0.0
 13
191.743333
 23
96.0
 33
0.0
  0
MTEXT
  5
426
100
AcDbEntity
  8
0
  6
BYBLOCK
 62
     0
100
AcDbMText
 10
195.5
 20
108.0
 30
0.0
 40
5.0
 41
0.0
 71
     5
 72
     1
  1
\A1;8
  0
POINT
  5
427
100
AcDbEntity
  8
DEFPOINTS
  6
BYBLOCK
 62
     0
100
AcDbPoint
 10
172.0
 20
88.0
 30
0.0
  0
POINT
  5
428
100
AcDbEntity
  8
DEFPOINTS
  6
BYBLOCK
 62
     0
100
AcDbPoint
 10
172.0
 20
96.0
 30
0.0
  0
POINT
  5
429
100
AcDbEntity
  8
DEFPOINTS
  6
BYBLOCK
 62
     0
100
AcDbPoint
 10
191.743333
 20
96.0
 30
0.0
  0
ENDBLK
  5
42B
100
AcDbEntity
  8
0
100
AcDbBlockEnd
  0
BLOCK
  5
437
100
AcDbEntity
  8
0
100
AcDbBlockBegin
  2
*D13
 70
     1
 10
0.0
 20
0.0
 30
0.0
  3
*D13
  1

  0
LINE
  5
42D
100
AcDbEntity
  8
0
  6
BYBLOCK
 62
     0
100
AcDbLine
 10
173.0
 20
82.5
 30
0.0
 11
206.25
 21
82.5
 31
0.0
  0
LINE
  5
42E
100
AcDbEntity
  8
0
  6
BYBLOCK
 62
     0
100
AcDbLine
 10
173.0
 20
101.5
 30
0.0
 11
206.25
 21
101.5
 31
0.0
  0
LINE
  5
42F
100
AcDbEntity
  8
0
  6
BYBLOCK
 62
     0
100
AcDbLine
 10
205.25
 20
84.5
 30
0.0
 11
205.25
 21
88.826667
 31
0.0
  0
LINE
  5
430
100
AcDbEntity
  8
0
  6
BYBLOCK
 62
     0
100
AcDbLine
 10
205.25
 20
99.5
 30
0.0
 11
205.25
 21
95.673333
 31
0.0
  0
SOLID
  5
431
100
AcDbEntity
  8
0
  6
BYBLOCK
 62
     0
100
AcDbTrace
 10
204.916667
 20
84.5
 30
0.0
 11
205.583333
 21
84.5
 31
0.0
 12
205.25
 22
82.5
 32
0.0
 13
205.25
 23
82.5
 33
0.0
  0
SOLID
  5
432
100
AcDbEntity
  8
0
  6
BYBLOCK
 62
     0
100
AcDbTrace
 10
204.916667
 20
99.5
 30
0.0
 11
205.583333
 21
99.5
 31
0.0
 12
205.25
 22
101.5
 32
0.0
 13
205.25
 23
101.5
 33
0.0
  0
MTEXT
  5
433
100
AcDbEntity
  8
0
  6
BYBLOCK
 62
     0
100
AcDbMText
 10
205.25
 20
92.25
 30
0.0
 40
5.0
 41
0.0
 71
     5
 72
     1
  1
\A1;19
 11
0.0
 21
1.0
 31
0.0
  0
POINT
  5
434
100
AcDbEntity
  8
DEFPOINTS
  6
BYBLOCK
 62
     0
100
AcDbPoint
 10
172.0
 20
82.5
 30
0.0
  0
POINT
  5
435
100
AcDbEntity
  8
DEFPOINTS
  6
BYBLOCK
 62
     0
100
AcDbPoint
 10
172.0
 20
101.5
 30
0.0
  0
POINT
  5
436
100
AcDbEntity
  8
DEFPOINTS
  6
BYBLOCK
 62
     0
100
AcDbPoint
 10
205.25
 20
101.5
 30
0.0
  0
ENDBLK
  5
438
100
AcDbEntity
  8
0
100
AcDbBlockEnd
  0
BLOCK
  5
440
100
AcDbEntity
  8
0
100
AcDbBlockBegin
  2
*D14
 70
     1
 10
0.0
 20
0.0
 30
0.0
  3
*D14
  1

  0
LINE
  5
43A
100
AcDbEntity
  8
0
  6
BYBLOCK
 62
     0
100
AcDbLine
 10
123.5
 20
99.0
 30
0.0
 11
121.5
 21
99.0
 31
0.0
  0
LINE
  5
43B
100
AcDbEntity
  8
0
  6
BYBLOCK
 62
     0
100
AcDbLine
 10
121.5
 20
99.0
 30
0.0
 11
105.973612
 21
124.966545
 31
0.0
  0
MTEXT
  5
43C
100
AcDbEntity
  8
0
  6
BYBLOCK
 62
     0
100
AcDbMText
 10
127.756667
 20
99.0
 30
0.0
 40
5.0
 41
0.0
 71
     5
 72
     1
  1
\A1;R2
  0
SOLID
  5
43D
100
AcDbEntity
  8
0
  6
BYBLOCK
 62
     0
100
AcDbTrace
 10
107.286091
 20
123.421065
 30
0.0
 11
106.713909
 21
123.078935
 31
0.0
 12
105.973612
 22
124.966545
 32
0.0
 13
105.973612
 23
124.966545
 33
0.0
  0
POINT
  5
43E
100
AcDbEntity
  8
DEFPOINTS
  6
BYBLOCK
 62
     0
100
AcDbPoint
 10
105.973612
 20
124.966545
 30
0.0
  0
POINT
  5
43F
100
AcDbEntity
  8
DEFPOINTS
  6
BYBLOCK
 62
     0
100
AcDbPoint
 10
107.0
 20
123.25
 30
0.0
  0
ENDBLK
  5
441
100
AcDbEntity
  8
0
100
AcDbBlockEnd
  0
BLOCK
  5
449
100
AcDbEntity
  8
0
100
AcDbBlockBegin
  2
*D15
 70
     1
 10
0.0
 20
0.0
 30
0.0
  3
*D15
  1

  0
LINE
  5
443
100
AcDbEntity
  8
0
  6
BYBLOCK
 62
     0
100
AcDbLine
 10
145.25
 20
98.25
 30
0.0
 11
143.25
 21
98.25
 31
0.0
  0
LINE
  5
444
100
AcDbEntity
  8
0
  6
BYBLOCK
 62
     0
100
AcDbLine
 10
143.25
 20
98.25
 30
0.0
 11
104.162448
 21
122.767206
 31
0.0
  0
MTEXT
  5
445
100
AcDbEntity
  8
0
  6
BYBLOCK
 62
     0
100
AcDbMText
 10
151.173333
 20
98.25
 30
0.0
 40
5.0
 41
0.0
 71
     5
 72
     1
  1
\A1;R14
  0
SOLID
  5
446
100
AcDbEntity
  8
0
  6
BYBLOCK
 62
     0
100
AcDbTrace
 10
106.033859
 20
121.986864
 30
0.0
 11
105.679618
 21
121.4221
 31
0.0
 12
104.162448
 22
122.767206
 32
0.0
 13
104.162448
 23
122.767206
 33
0.0
  0
POINT
  5
447
100
AcDbEntity
  8
DEFPOINTS
  6
BYBLOCK
 62
     0
100
AcDbPoint
 10
104.162448
 20
122.767206
 30
0.0
  0
POINT
  5
448
100
AcDbEntity
  8
DEFPOINTS
  6
BYBLOCK
 62
     0
100
AcDbPoint
 10
116.147059
 20
115.25
 30
0.0
  0
ENDBLK
  5
44A
100
AcDbEntity
  8
0
100
AcDbBlockEnd
  0
BLOCK
  5
472
100
AcDbEntity
  8
0
100
AcDbBlockBegin
  2
A$C54264EBD
 70
     0
 10
0.0
 20
0.0
 30
0.0
  3
A$C54264EBD
  1

  0
DIMENSION
  5
44C
100
AcDbEntity
  8
0
100
AcDbDimension
  2
*D15
 10
17.897059
 20
21.75
 30
0.0
 11
52.923334
 21
4.75
 31
0.0
 12
-98.25
 22
-93.5
 32
0.0
 70
   132
  1
R14
  3
STANDARD
100
AcDbRadialDimension
 15
5.912448
 25
29.267206
 35
0.0
 40
0.0
1001
ACAD
1000
DSTYLE
1002
{
1070
    78
1070
     8
1070
   288
1070
     1
1070
   284
1070
     8
1070
   140
1040
5.0
1070
    73
1070
     0
1070
   272
1070
     2
1070
   287
1070
     4
1070
    42
1040
1.0
1070
    44
1040
1.0
1070
   271
1070
     2
1070
    41
1040
2.0
1002
}
  0
LINE
  5
44D
100
AcDbEntity
  8
2
100
AcDbLine
 10
73.75
 20
17.75
 30
0.0
 11
36.75
 21
17.75
 31
0.0
  0
LINE
  5
44E
100
AcDbEntity
  8
3
100
AcDbLine
 10
73.75
 20
25.75
 30
0.0
 11
36.75
 21
25.75
 31
0.0
  0
LINE
  5
44F
100
AcDbEntity
  8
3
100
AcDbLine
 10
43.75
 20
31.75
 30
0.0
 11
73.75
 21
30.25
 31
0.0
  0
LINE
  5
450
100
AcDbEntity
  8
3
100
AcDbLine
 10
43.75
 20
11.75
 30
0.0
 11
73.75
 21
13.25
 31
0.0
  0
LINE
  5
451
100
AcDbEntity
  8
1
100
AcDbLine
 10
77.0
 20
21.75
 30
0.0
 11
0.0
 21
21.75
 31
0.0
  0
DIMENSION
  5
452
100
AcDbEntity
  8
0
100
AcDbDimension
  2
*D14
 10
8.75
 20
29.75
 30
0.0
 11
29.506667
 21
5.5
 31
0.0
 12
-98.25
 22
-93.5
 32
0.0
 70
   132
  3
STANDARD
100
AcDbRadialDimension
 15
7.723612
 25
31.466546
 35
0.0
 40
0.0
1001
ACAD
1000
DSTYLE
1002
{
1070
    78
1070
     8
1070
   288
1070
     1
1070
   284
1070
     8
1070
   140
1040
5.0
1070
    73
1070
     0
1070
   272
1070
     2
1070
   287
1070
     4
1070
    42
1040
1.0
1070
    44
1040
1.0
1070
   271
1070
     2
1070
    41
1040
2.0
1002
}
  0
LINE
  5
453
100
AcDbEntity
  8
3
100
AcDbLine
 10
8.75
 20
11.75
 30
0.0
 11
43.75
 21
11.75
 31
0.0
  0
LINE
  5
454
100
AcDbEntity
  8
3
100
AcDbLine
 10
43.75
 20
31.75
 30
0.0
 11
8.75
 21
31.75
 31
0.0
  0
LINE
  5
455
100
AcDbEntity
  8
3
100
AcDbLine
 10
7.75
 20
12.017949
 30
0.0
 11
7.75
 21
21.75
 31
0.0
  0
ARC
  5
456
100
AcDbEntity
  8
3
100
AcDbCircle
 10
17.897059
 20
21.75
 30
0.0
 40
14.147059
100
AcDbArc
 50
139.434882
 51
220.565118
  0
LWPOLYLINE
  5
457
100
AcDbEntity
  8
0
100
AcDbPolyline
 90
        3
 70
     1
 43
0.0
 10
4.849568
 20
14.666998
 10
2.108865
 20
15.476966
 10
2.777764
 20
12.698464
  0
ARC
  5
458
100
AcDbEntity
  8
3
100
AcDbCircle
 10
8.75
 20
13.75
 30
0.0
 40
2.0
100
AcDbArc
 50
216.869898
 51
270.0
  0
LWPOLYLINE
  5
459
100
AcDbEntity
  8
0
100
AcDbPolyline
 90
        3
 70
     1
 43
0.0
 10
4.180669
 20
17.445501
 10
1.439966
 20
18.255469
 10
2.108865
 20
15.476966
  0
ARC
  5
45A
100
AcDbEntity
  8
3
100
AcDbCircle
 10
8.75
 20
29.75
 30
0.0
 40
2.0
100
AcDbArc
 50
90.0
 51
143.130102
  0
LINE
  5
45B
100
AcDbEntity
  8
2
100
AcDbLine
 10
34.0
 20
21.75
 30
0.0
 11
36.75
 21
17.75
 31
0.0
  0
LINE
  5
45C
100
AcDbEntity
  8
2
100
AcDbLine
 10
36.75
 20
17.75
 30
0.0
 11
36.75
 21
21.75
 31
0.0
  0
LINE
  5
45D
100
AcDbEntity
  8
3
100
AcDbLine
 10
43.75
 20
11.75
 30
0.0
 11
43.75
 21
21.75
 31
0.0
  0
LWPOLYLINE
  5
45E
100
AcDbEntity
  8
0
100
AcDbPolyline
 90
        3
 70
     1
 43
0.0
 10
26.9
 20
33.2
 10
28.328942
 20
35.675
 10
25.471058
 20
35.675
  0
LWPOLYLINE
  5
45F
100
AcDbEntity
  8
0
100
AcDbPolyline
 90
        3
 70
     1
 43
0.0
 10
24.042117
 20
33.2
 10
25.471058
 20
35.675
 10
22.613175
 20
35.675
  0
LINE
  5
460
100
AcDbEntity
  8
3
100
AcDbLine
 10
36.75
 20
25.75
 30
0.0
 11
34.0
 21
21.75
 31
0.0
  0
LINE
  5
461
100
AcDbEntity
  8
3
100
AcDbLine
 10
36.75
 20
25.75
 30
0.0
 11
36.75
 21
21.75
 31
0.0
  0
MTEXT
  5
462
102
{ACAD_REACTORS
330
463
102
}
100
AcDbEntity
  8
0
100
AcDbMText
 10
90.34
 20
0.0
 30
0.0
 40
5.0
 41
0.0
 71
     4
 72
     1
  1
\A1;C1
  0
LEADER
  5
463
100
AcDbEntity
  8
0
100
AcDbLeader
  3
STANDARD
 73
     0
 74
     0
 75
     1
 40
5.0
 41
6.666667
 76
     3
 10
74.5
 20
17.5
 30
0.0
 10
88.25
 20
0.0
 30
0.0
 10
90.25
 20
0.0
 30
0.0
 77
   256
340
462
1001
ACAD
1000
DSTYLE
1002
{
1070
    78
1070
     8
1070
   288
1070
     1
1070
   284
1070
     8
1070
   140
1040
5.0
1070
    73
1070
     0
1070
   272
1070
     2
1070
    42
1040
1.0
1070
    44
1040
1.0
1070
   271
1070
     2
1070
    41
1040
2.0
1002
}
  0
LINE
  5
464
100
AcDbEntity
  8
1
100
AcDbLine
 10
135.5
 20
39.75
 30
0.0
 11
135.5
 21
3.75
 31
0.0
  0
CIRCLE
  5
465
100
AcDbEntity
  8
3
100
AcDbCircle
 10
135.5
 20
21.75
 30
0.0
 40
8.5
  0
CIRCLE
  5
466
100
AcDbEntity
  8
3
100
AcDbCircle
 10
135.5
 20
21.75
 30
0.0
 40
10.0
  0
CIRCLE
  5
467
100
AcDbEntity
  8
3
100
AcDbCircle
 10
135.5
 20
21.75
 30
0.0
 40
4.0
  0
LINE
  5
468
100
AcDbEntity
  8
1
100
AcDbLine
 10
116.5
 20
21.75
 30
0.0
 11
155.0
 21
21.75
 31
0.0
  0
DIMENSION
  5
469
100
AcDbEntity
  8
0
100
AcDbDimension
  2
*D13
 10
107.0
 20
31.25
 30
0.0
 11
107.0
 21
22.0
 31
0.0
 12
-98.25
 22
-70.25
 32
0.0
 70
   128
  3
STANDARD
100
AcDbAlignedDimension
 13
73.75
 23
12.25
 33
0.0
 14
73.75
 24
31.25
 34
0.0
 50
90.0
100
AcDbRotatedDimension
1001
ACAD
1000
DSTYLE
1002
{
1070
    78
1070
     8
1070
   288
1070
     1
1070
   284
1070
     8
1070
   140
1040
5.0
1070
    73
1070
     0
1070
   272
1070
     2
1070
    42
1040
1.0
1070
    44
1040
1.0
1070
   271
1070
     2
1070
    41
1040
2.0
1002
}
  0
DIMENSION
  5
46A
100
AcDbEntity
  8
0
100
AcDbDimension
  2
*D12
 10
93.493334
 20
25.75
 30
0.0
 11
97.25
 21
37.75
 31
0.0
 12
-98.25
 22
-70.25
 32
0.0
 70
   128
  3
STANDARD
100
AcDbAlignedDimension
 13
73.75
 23
17.75
 33
0.0
 14
73.75
 24
25.75
 34
0.0
 50
90.0
100
AcDbRotatedDimension
1001
ACAD
1000
DSTYLE
1002
{
1070
    78
1070
     8
1070
   288
1070
     1
1070
   284
1070
     8
1070
   140
1040
5.0
1070
    73
1070
     0
1070
   272
1070
     2
1070
    42
1040
1.0
1070
    44
1040
1.0
1070
   271
1070
     2
1070
    41
1040
2.0
1002
}
  0
LWPOLYLINE
  5
46B
100
AcDbEntity
  8
0
100
AcDbPolyline
 90
        3
 70
     1
 43
0.0
 10
55.112133
 20
32.331478
 10
56.689061
 20
34.714921
 10
53.836475
 20
34.888859
  0
LWPOLYLINE
  5
46C
100
AcDbEntity
  8
0
100
AcDbPolyline
 90
        3
 70
     1
 43
0.0
 10
57.964719
 20
32.15754
 10
59.541646
 20
34.540983
 10
56.689061
 20
34.714921
  0
LINE
  5
46D
100
AcDbEntity
  8
3
100
AcDbLine
 10
73.75
 20
13.25
 30
0.0
 11
73.75
 21
21.75
 31
0.0
  0
LINE
  5
46E
100
AcDbEntity
  8
3
100
AcDbLine
 10
73.75
 20
30.25
 30
0.0
 11
73.75
 21
21.75
 31
0.0
  0
LWPOLYLINE
  5
46F
100
AcDbEntity
  8
0
100
AcDbPolyline
 90
        3
 70
     1
 43
0.0
 10
82.1
 20
26.05
 10
80.671058
 20
23.575
 10
83.528942
 20
23.575
  0
LWPOLYLINE
  5
470
100
AcDbEntity
  8
0
100
AcDbPolyline
 90
        3
 70
     1
 43
0.0
 10
84.957884
 20
26.05
 10
83.528942
 20
23.575
 10
86.386826
 20
23.575
  0
TEXT
  5
471
100
AcDbEntity
  8
0
100
AcDbText
 10
100.175
 20
40.525
 30
0.0
 40
3.5
  1
0
 41
0.7
  7
BIGFONT
100
AcDbText
  0
ENDBLK
  5
473
100
AcDbEntity
  8
0
100
AcDbBlockEnd
  0
BLOCK
  5
4C6
100
AcDbEntity
  8
0
100
AcDbBlockBegin
  2
*D17
 70
     1
 10
0.0
 20
0.0
 30
0.0
  3
*D17
  1

  0
LINE
  5
4C7
100
AcDbEntity
  8
0
  6
BYBLOCK
 62
     0
100
AcDbLine
 10
93.643658
 20
48.194323
 30
0.0
 11
91.643658
 21
48.194323
 31
0.0
  0
LINE
  5
4C8
100
AcDbEntity
  8
0
  6
BYBLOCK
 62
     0
100
AcDbLine
 10
91.643658
 20
48.194323
 30
0.0
 11
52.556107
 21
72.711529
 31
0.0
  0
MTEXT
  5
4C9
100
AcDbEntity
  8
0
  6
BYBLOCK
 62
     0
100
AcDbMText
 10
101.666992
 20
48.194323
 30
0.0
 40
8.5
 41
0.0
 71
     5
 72
     1
  1
\A1;R14
  7
BIGFONT
  0
SOLID
  5
4CA
100
AcDbEntity
  8
0
  6
BYBLOCK
 62
     0
100
AcDbTrace
 10
54.427517
 20
71.931187
 30
0.0
 11
54.073276
 21
71.366424
 31
0.0
 12
52.556107
 22
72.711529
 32
0.0
 13
52.556107
 23
72.711529
 33
0.0
  0
POINT
  5
4CB
100
AcDbEntity
  8
DEFPOINTS
  6
BYBLOCK
 62
     0
100
AcDbPoint
 10
52.556107
 20
72.711529
 30
0.0
  0
POINT
  5
4CC
100
AcDbEntity
  8
DEFPOINTS
  6
BYBLOCK
 62
     0
100
AcDbPoint
 10
64.540717
 20
65.194323
 30
0.0
  0
ENDBLK
  5
4CD
100
AcDbEntity
  8
0
100
AcDbBlockEnd
  0
BLOCK
  5
4CE
100
AcDbEntity
  8
0
100
AcDbBlockBegin
  2
*D18
 70
     1
 10
0.0
 20
0.0
 30
0.0
  3
*D18
  1

  0
LINE
  5
4CF
100
AcDbEntity
  8
0
  6
BYBLOCK
 62
     0
100
AcDbLine
 10
71.893658
 20
48.944323
 30
0.0
 11
69.893658
 21
48.944323
 31
0.0
  0
LINE
  5
4D0
100
AcDbEntity
  8
0
  6
BYBLOCK
 62
     0
100
AcDbLine
 10
69.893658
 20
48.944323
 30
0.0
 11
54.36727
 21
74.910869
 31
0.0
  0
MTEXT
  5
4D1
100
AcDbEntity
  8
0
  6
BYBLOCK
 62
     0
100
AcDbMText
 10
77.650325
 20
48.944323
 30
0.0
 40
8.5
 41
0.0
 71
     5
 72
     1
  1
\A1;R2
  7
BIGFONT
  0
SOLID
  5
4D2
100
AcDbEntity
  8
0
  6
BYBLOCK
 62
     0
100
AcDbTrace
 10
55.679749
 20
73.365388
 30
0.0
 11
55.107568
 21
73.023259
 31
0.0
 12
54.36727
 22
74.910869
 32
0.0
 13
54.36727
 23
74.910869
 33
0.0
  0
POINT
  5
4D3
100
AcDbEntity
  8
DEFPOINTS
  6
BYBLOCK
 62
     0
100
AcDbPoint
 10
54.36727
 20
74.910869
 30
0.0
  0
POINT
  5
4D4
100
AcDbEntity
  8
DEFPOINTS
  6
BYBLOCK
 62
     0
100
AcDbPoint
 10
55.393658
 20
73.194323
 30
0.0
  0
ENDBLK
  5
4D5
100
AcDbEntity
  8
0
100
AcDbBlockEnd
  0
BLOCK
  5
4D6
100
AcDbEntity
  8
0
100
AcDbBlockBegin
  2
*D19
 70
     1
 10
0.0
 20
0.0
 30
0.0
  3
*D19
  1

  0
LINE
  5
4D7
100
AcDbEntity
  8
0
  6
BYBLOCK
 62
     0
100
AcDbLine
 10
121.393658
 20
55.694323
 30
0.0
 11
154.643658
 21
55.694323
 31
0.0
  0
LINE
  5
4D8
100
AcDbEntity
  8
0
  6
BYBLOCK
 62
     0
100
AcDbLine
 10
121.393658
 20
74.694323
 30
0.0
 11
154.643658
 21
74.694323
 31
0.0
  0
LINE
  5
4D9
100
AcDbEntity
  8
0
  6
BYBLOCK
 62
     0
100
AcDbLine
 10
153.643658
 20
57.694323
 30
0.0
 11
153.643658
 21
60.82099
 31
0.0
  0
LINE
  5
4DA
100
AcDbEntity
  8
0
  6
BYBLOCK
 62
     0
100
AcDbLine
 10
153.643658
 20
72.694323
 30
0.0
 11
153.643658
 21
70.067657
 31
0.0
  0
MTEXT
  5
4DB
100
AcDbEntity
  8
0
  6
BYBLOCK
 62
     0
100
AcDbMText
 10
153.643658
 20
65.444323
 30
0.0
 40
8.5
 41
0.0
 71
     5
 72
     1
  1
\A1;19
  7
BIGFONT
 11
0.0
 21
1.0
 31
0.0
  0
SOLID
  5
4DC
100
AcDbEntity
  8
0
  6
BYBLOCK
 62
     0
100
AcDbTrace
 10
153.310325
 20
57.694323
 30
0.0
 11
153.976992
 21
57.694323
 31
0.0
 12
153.643658
 22
55.694323
 32
0.0
 13
153.643658
 23
55.694323
 33
0.0
  0
SOLID
  5
4DD
100
AcDbEntity
  8
0
  6
BYBLOCK
 62
     0
100
AcDbTrace
 10
153.310325
 20
72.694323
 30
0.0
 11
153.976992
 21
72.694323
 31
0.0
 12
153.643658
 22
74.694323
 32
0.0
 13
153.643658
 23
74.694323
 33
0.0
  0
POINT
  5
4DE
100
AcDbEntity
  8
DEFPOINTS
  6
BYBLOCK
 62
     0
100
AcDbPoint
 10
120.393658
 20
55.694323
 30
0.0
  0
POINT
  5
4DF
100
AcDbEntity
  8
DEFPOINTS
  6
BYBLOCK
 62
     0
100
AcDbPoint
 10
120.393658
 20
74.694323
 30
0.0
  0
POINT
  5
4E0
100
AcDbEntity
  8
DEFPOINTS
  6
BYBLOCK
 62
     0
100
AcDbPoint
 10
153.643658
 20
74.694323
 30
0.0
  0
ENDBLK
  5
4E1
100
AcDbEntity
  8
0
100
AcDbBlockEnd
  0
BLOCK
  5
4E2
100
AcDbEntity
  8
0
100
AcDbBlockBegin
  2
*D20
 70
     1
 10
0.0
 20
0.0
 30
0.0
  3
*D20
  1

  0
LINE
  5
4E3
100
AcDbEntity
  8
0
  6
BYBLOCK
 62
     0
100
AcDbLine
 10
121.393658
 20
61.194323
 30
0.0
 11
141.136992
 21
61.194323
 31
0.0
  0
LINE
  5
4E4
100
AcDbEntity
  8
0
  6
BYBLOCK
 62
     0
100
AcDbLine
 10
121.393658
 20
69.194323
 30
0.0
 11
141.136992
 21
69.194323
 31
0.0
  0
LINE
  5
4E5
100
AcDbEntity
  8
0
  6
BYBLOCK
 62
     0
100
AcDbLine
 10
140.136992
 20
63.194323
 30
0.0
 11
140.136992
 21
67.194323
 31
0.0
  0
MTEXT
  5
4E6
100
AcDbEntity
  8
0
  6
BYBLOCK
 62
     0
100
AcDbMText
 10
143.893658
 20
81.194323
 30
0.0
 40
8.5
 41
0.0
 71
     5
 72
     1
  1
\A1;8
  7
BIGFONT
  0
SOLID
  5
4E7
100
AcDbEntity
  8
0
  6
BYBLOCK
 62
     0
100
AcDbTrace
 10
139.803658
 20
63.194323
 30
0.0
 11
140.470325
 21
63.194323
 31
0.0
 12
140.136992
 22
61.194323
 32
0.0
 13
140.136992
 23
61.194323
 33
0.0
  0
SOLID
  5
4E8
100
AcDbEntity
  8
0
  6
BYBLOCK
 62
     0
100
AcDbTrace
 10
139.803658
 20
67.194323
 30
0.0
 11
140.470325
 21
67.194323
 31
0.0
 12
140.136992
 22
69.194323
 32
0.0
 13
140.136992
 23
69.194323
 33
0.0
  0
POINT
  5
4E9
100
AcDbEntity
  8
DEFPOINTS
  6
BYBLOCK
 62
     0
100
AcDbPoint
 10
120.393658
 20
61.194323
 30
0.0
  0
POINT
  5
4EA
100
AcDbEntity
  8
DEFPOINTS
  6
BYBLOCK
 62
     0
100
AcDbPoint
 10
120.393658
 20
69.194323
 30
0.0
  0
POINT
  5
4EB
100
AcDbEntity
  8
DEFPOINTS
  6
BYBLOCK
 62
     0
100
AcDbPoint
 10
140.136992
 20
69.194323
 30
0.0
  0
ENDBLK
  5
4EC
100
AcDbEntity
  8
0
100
AcDbBlockEnd
  0
BLOCK
  5
549
100
AcDbEntity
  8
0
100
AcDbBlockBegin
  2
A$C742E62AD
 70
     0
 10
0.0
 20
0.0
 30
0.0
  3
A$C742E62AD
  1

  0
LINE
  5
4F0
100
AcDbEntity
  8
3
100
AcDbLine
 10
9.171797
 20
10.833333
 30
0.0
 11
16.1
 21
6.833333
 31
0.0
  0
LINE
  5
4F1
100
AcDbEntity
  8
3
100
AcDbLine
 10
16.1
 20
22.833333
 30
0.0
 11
9.171797
 21
18.833333
 31
0.0
  0
SOLID
  5
4F2
100
AcDbEntity
  8
0
  6
BYBLOCK
 62
     0
100
AcDbTrace
 10
10.382969
 20
21.465766
 30
0.0
 11
9.894943
 21
21.011591
 31
0.0
 12
11.50148
 22
19.7746
 32
0.0
 13
11.50148
 23
19.7746
 33
0.0
  0
CIRCLE
  5
4F3
100
AcDbEntity
  8
3
100
AcDbCircle
 10
16.1
 20
14.833333
 30
0.0
 40
5.0
  0
CIRCLE
  5
4F4
100
AcDbEntity
  8
3
100
AcDbCircle
 10
16.1
 20
14.833333
 30
0.0
 40
6.75
  0
LINE
  5
4F5
100
AcDbEntity
  8
1
100
AcDbLine
 10
30.35
 20
14.833333
 30
0.0
 11
1.35
 21
14.833333
 31
0.0
  0
LINE
  5
4F6
100
AcDbEntity
  8
0
  6
BYBLOCK
 62
     0
100
AcDbLine
 10
0.0
 20
32.133333
 30
0.0
 11
10.138956
 21
21.238679
 31
0.0
  0
LINE
  5
4F7
100
AcDbEntity
  8
3
100
AcDbLine
 10
9.171797
 20
18.833333
 30
0.0
 11
9.171797
 21
10.833333
 31
0.0
  0
POINT
  5
4F8
100
AcDbEntity
  8
DEFPOINTS
  6
BYBLOCK
 62
     0
100
AcDbPoint
 10
9.171797
 20
10.833333
 30
0.0
  0
LINE
  5
4F9
100
AcDbEntity
  8
3
100
AcDbLine
 10
23.028203
 20
10.833333
 30
0.0
 11
23.028203
 21
18.833333
 31
0.0
  0
CIRCLE
  5
4FA
100
AcDbEntity
  8
0
100
AcDbCircle
 10
16.1
 20
14.833333
 30
0.0
 40
4.2
  0
LINE
  5
4FB
100
AcDbEntity
  8
1
100
AcDbLine
 10
16.1
 20
29.833333
 30
0.0
 11
16.1
 21
1.833333
 31
0.0
  0
LINE
  5
4FC
100
AcDbEntity
  8
3
100
AcDbLine
 10
16.1
 20
6.833333
 30
0.0
 11
23.028203
 21
10.833333
 31
0.0
  0
LINE
  5
4FD
100
AcDbEntity
  8
0
  6
BYBLOCK
 62
     0
100
AcDbLine
 10
16.1
 20
14.743333
 30
0.0
 11
16.1
 21
14.923333
 31
0.0
  0
LINE
  5
4FE
100
AcDbEntity
  8
0
  6
BYBLOCK
 62
     0
100
AcDbLine
 10
16.01
 20
14.833333
 30
0.0
 11
16.19
 21
14.833333
 31
0.0
  0
POINT
  5
4FF
100
AcDbEntity
  8
DEFPOINTS
  6
BYBLOCK
 62
     0
100
AcDbPoint
 10
20.69852
 20
9.892066
 30
0.0
  0
POINT
  5
500
100
AcDbEntity
  8
DEFPOINTS
  6
BYBLOCK
 62
     0
100
AcDbPoint
 10
23.028203
 20
10.833333
 30
0.0
  0
LINE
  5
501
100
AcDbEntity
  8
3
100
AcDbLine
 10
23.028203
 20
18.833333
 30
0.0
 11
16.1
 21
22.833333
 31
0.0
  0
POINT
  5
502
100
AcDbEntity
  8
DEFPOINTS
  6
BYBLOCK
 62
     0
100
AcDbPoint
 10
11.50148
 20
19.7746
 30
0.0
  0
SOLID
  5
503
100
AcDbEntity
  8
0
  6
BYBLOCK
 62
     0
100
AcDbTrace
 10
108.200001
 20
0.666667
 30
0.0
 11
108.200001
 21
0.0
 31
0.0
 12
106.200001
 22
0.333333
 32
0.0
 13
106.200001
 23
0.333333
 33
0.0
  0
SOLID
  5
504
100
AcDbEntity
  8
0
  6
BYBLOCK
 62
     0
100
AcDbTrace
 10
111.200001
 20
0.666667
 30
0.0
 11
111.200001
 21
0.0
 31
0.0
 12
113.200001
 22
0.333333
 32
0.0
 13
113.200001
 23
0.333333
 33
0.0
  0
LINE
  5
505
100
AcDbEntity
  8
3
100
AcDbLine
 10
93.2
 20
18.733333
 30
0.0
 11
113.200001
 21
18.733333
 31
0.0
  0
LINE
  5
506
100
AcDbEntity
  8
1
100
AcDbLine
 10
66.2
 20
14.833333
 30
0.0
 11
119.200001
 21
14.833333
 31
0.0
  0
LINE
  5
507
100
AcDbEntity
  8
3
100
AcDbLine
 10
93.2
 20
10.933333
 30
0.0
 11
113.200001
 21
10.933333
 31
0.0
  0
LINE
  5
508
100
AcDbEntity
  8
3
100
AcDbLine
 10
93.2
 20
10.933333
 30
0.0
 11
113.200001
 21
10.933333
 31
0.0
  0
LINE
  5
509
100
AcDbEntity
  8
2
100
AcDbLine
 10
112.200001
 20
13.333333
 30
0.0
 11
100.200001
 21
13.333333
 31
0.0
  0
LINE
  5
50A
100
AcDbEntity
  8
2
100
AcDbLine
 10
112.200001
 20
16.333333
 30
0.0
 11
100.200001
 21
16.333333
 31
0.0
  0
LINE
  5
50B
100
AcDbEntity
  8
3
100
AcDbLine
 10
83.200001
 20
9.833333
 30
0.0
 11
72.200001
 21
9.833333
 31
0.0
  0
LINE
  5
50C
100
AcDbEntity
  8
3
100
AcDbLine
 10
71.200001
 20
10.833333
 30
0.0
 11
81.700001
 21
10.833333
 31
0.0
  0
LINE
  5
50D
100
AcDbEntity
  8
3
100
AcDbLine
 10
71.200001
 20
18.833333
 30
0.0
 11
81.700001
 21
18.833333
 31
0.0
  0
LINE
  5
50E
100
AcDbEntity
  8
3
100
AcDbLine
 10
83.200001
 20
19.833333
 30
0.0
 11
72.200001
 21
19.833333
 31
0.0
  0
LINE
  5
50F
100
AcDbEntity
  8
3
100
AcDbLine
 10
72.200001
 20
19.833333
 30
0.0
 11
72.200001
 21
14.833333
 31
0.0
  0
LINE
  5
510
100
AcDbEntity
  8
3
100
AcDbLine
 10
71.200001
 20
18.833333
 30
0.0
 11
71.200001
 21
14.833333
 31
0.0
  0
LINE
  5
511
100
AcDbEntity
  8
3
100
AcDbLine
 10
71.200001
 20
10.833333
 30
0.0
 11
71.200001
 21
14.833333
 31
0.0
  0
LINE
  5
512
100
AcDbEntity
  8
3
100
AcDbLine
 10
72.200001
 20
9.833333
 30
0.0
 11
72.200001
 21
14.833333
 31
0.0
  0
LINE
  5
513
100
AcDbEntity
  8
3
100
AcDbLine
 10
72.200001
 20
9.833333
 30
0.0
 11
71.200001
 21
10.833333
 31
0.0
  0
SOLID
  5
514
100
AcDbEntity
  8
0
100
AcDbTrace
 10
73.612288
 20
8.467157
 30
0.0
 11
74.9
 21
10.033333
 31
0.0
 12
74.189843
 22
8.134179
 32
0.0
 13
74.189843
 23
8.134179
 33
0.0
1001
ACAD
1000
DSTYLE
1002
{
1070
    78
1070
     8
1070
   288
1070
     1
1070
   284
1070
     8
1070
   140
1040
5.0
1070
   340
1005
139
1070
    73
1070
     0
1070
   272
1070
     2
1070
    42
1040
0.5
1070
    44
1040
0.5
1070
   271
1070
     2
1070
    41
1040
2.0
1002
}
  0
LINE
  5
515
100
AcDbEntity
  8
3
100
AcDbLine
 10
72.200001
 20
19.833333
 30
0.0
 11
71.200001
 21
18.833333
 31
0.0
  0
POINT
  5
516
100
AcDbEntity
  8
DEFPOINTS
  6
BYBLOCK
 62
     0
100
AcDbPoint
 10
71.200001
 20
18.833333
 30
0.0
  0
SOLID
  5
517
100
AcDbEntity
  8
0
100
AcDbTrace
 10
70.489867
 20
21.591384
 30
0.0
 11
71.5
 21
19.833333
 31
0.0
 12
69.97429
 22
21.168744
 32
0.0
 13
69.97429
 23
21.168744
 33
0.0
1001
ACAD
1000
DSTYLE
1002
{
1070
    78
1070
     8
1070
   288
1070
     1
1070
   284
1070
     8
1070
   140
1040
5.0
1070
   340
1005
139
1070
    73
1070
     0
1070
   272
1070
     2
1070
    42
1040
0.5
1070
    44
1040
0.5
1070
   271
1070
     2
1070
    41
1040
2.0
1002
}
  0
ARC
  5
518
100
AcDbEntity
  8
3
100
AcDbCircle
 10
163.25
 20
14.833333
 30
0.0
 40
80.05
100
AcDbArc
 50
177.135808
 51
182.864192
  0
LINE
  5
519
100
AcDbEntity
  8
3
100
AcDbLine
 10
81.700001
 20
19.833333
 30
0.0
 11
81.700001
 21
14.833333
 31
0.0
  0
LINE
  5
51A
100
AcDbEntity
  8
3
100
AcDbLine
 10
83.2
 20
14.833333
 30
0.0
 11
83.2
 21
21.583333
 31
0.0
  0
LINE
  5
51B
100
AcDbEntity
  8
3
100
AcDbLine
 10
93.2
 20
14.833333
 30
0.0
 11
93.2
 21
18.733333
 31
0.0
  0
LINE
  5
51C
100
AcDbEntity
  8
2
100
AcDbLine
 10
100.200001
 20
16.333333
 30
0.0
 11
100.200001
 21
14.833333
 31
0.0
  0
LINE
  5
51D
100
AcDbEntity
  8
2
100
AcDbLine
 10
100.200001
 20
16.333333
 30
0.0
 11
99.200001
 21
14.833333
 31
0.0
  0
LINE
  5
51E
100
AcDbEntity
  8
3
100
AcDbLine
 10
93.2
 20
22.833333
 30
0.0
 11
93.2
 21
14.833333
 31
0.0
  0
LINE
  5
51F
100
AcDbEntity
  8
3
100
AcDbLine
 10
83.3
 20
10.833333
 30
0.0
 11
93.2
 21
10.833333
 31
0.0
  0
LINE
  5
520
100
AcDbEntity
  8
3
100
AcDbLine
 10
83.3
 20
6.833333
 30
0.0
 11
93.2
 21
6.833333
 31
0.0
  0
ARC
  5
521
100
AcDbEntity
  8
3
100
AcDbCircle
 10
103.25
 20
8.833333
 30
0.0
 40
20.05
100
AcDbArc
 50
174.27519
 51
185.72481
  0
LINE
  5
522
100
AcDbEntity
  8
3
100
AcDbLine
 10
83.2
 20
8.083333
 30
0.0
 11
83.3
 21
6.833333
 31
0.0
  0
LINE
  5
523
100
AcDbEntity
  8
3
100
AcDbLine
 10
83.2
 20
14.833333
 30
0.0
 11
83.2
 21
8.083333
 31
0.0
  0
LINE
  5
524
100
AcDbEntity
  8
3
100
AcDbLine
 10
81.700001
 20
9.833333
 30
0.0
 11
81.700001
 21
14.833333
 31
0.0
  0
LINE
  5
525
100
AcDbEntity
  8
3
100
AcDbLine
 10
93.2
 20
6.833333
 30
0.0
 11
93.2
 21
14.833333
 31
0.0
  0
LINE
  5
526
100
AcDbEntity
  8
3
100
AcDbLine
 10
93.2
 20
14.833333
 30
0.0
 11
93.2
 21
10.933333
 31
0.0
  0
LINE
  5
527
100
AcDbEntity
  8
2
100
AcDbLine
 10
100.200001
 20
13.333333
 30
0.0
 11
100.200001
 21
14.833333
 31
0.0
  0
LINE
  5
528
100
AcDbEntity
  8
2
100
AcDbLine
 10
100.200001
 20
13.333333
 30
0.0
 11
99.200001
 21
14.833333
 31
0.0
  0
LINE
  5
529
100
AcDbEntity
  8
3
100
AcDbLine
 10
83.5
 20
22.833333
 30
0.0
 11
93.2
 21
22.833333
 31
0.0
  0
LINE
  5
52A
100
AcDbEntity
  8
3
100
AcDbLine
 10
83.3
 20
18.833333
 30
0.0
 11
93.2
 21
18.833333
 31
0.0
  0
ARC
  5
52B
100
AcDbEntity
  8
3
100
AcDbCircle
 10
93.300039
 20
20.338331
 30
0.0
 40
10.112656
100
AcDbArc
 50
165.716453
 51
188.558737
  0
POINT
  5
52C
100
AcDbEntity
  8
DEFPOINTS
  6
BYBLOCK
 62
     0
100
AcDbPoint
 10
83.2
 20
21.583333
 30
0.0
  0
POINT
  5
52D
100
AcDbEntity
  8
DEFPOINTS
  6
BYBLOCK
 62
     0
100
AcDbPoint
 10
83.2
 20
20.833333
 30
0.0
  0
POINT
  5
52E
100
AcDbEntity
  8
DEFPOINTS
  6
BYBLOCK
 62
     0
100
AcDbPoint
 10
83.5
 20
22.833333
 30
0.0
  0
POINT
  5
52F
100
AcDbEntity
  8
DEFPOINTS
  6
BYBLOCK
 62
     0
100
AcDbPoint
 10
83.2
 20
20.843317
 30
0.0
  0
POINT
  5
530
100
AcDbEntity
  8
DEFPOINTS
  6
BYBLOCK
 62
     0
100
AcDbPoint
 10
93.2
 20
22.833333
 30
0.0
  0
POINT
  5
531
100
AcDbEntity
  8
DEFPOINTS
  6
BYBLOCK
 62
     0
100
AcDbPoint
 10
93.2
 20
22.833333
 30
0.0
  0
LINE
  5
532
100
AcDbEntity
  8
2
100
AcDbLine
 10
105.700001
 20
16.333333
 30
0.0
 11
105.700001
 21
14.833333
 31
0.0
  0
LINE
  5
533
100
AcDbEntity
  8
2
100
AcDbLine
 10
106.200001
 20
16.833333
 30
0.0
 11
106.200001
 21
14.833333
 31
0.0
  0
LINE
  5
534
100
AcDbEntity
  8
2
100
AcDbLine
 10
112.200001
 20
16.333333
 30
0.0
 11
112.200001
 21
14.833333
 31
0.0
  0
LINE
  5
535
100
AcDbEntity
  8
3
100
AcDbLine
 10
113.200001
 20
10.933333
 30
0.0
 11
113.200001
 21
18.733333
 31
0.0
  0
LINE
  5
536
100
AcDbEntity
  8
2
100
AcDbLine
 10
112.700001
 20
12.833333
 30
0.0
 11
106.200001
 21
12.833333
 31
0.0
  0
POINT
  5
537
100
AcDbEntity
  8
DEFPOINTS
  6
BYBLOCK
 62
     0
100
AcDbPoint
 10
106.200001
 20
0.333333
 30
0.0
  0
LINE
  5
538
100
AcDbEntity
  8
0
  6
BYBLOCK
 62
     0
100
AcDbLine
 10
108.200001
 20
0.333333
 30
0.0
 11
108.290001
 21
0.333333
 31
0.0
  0
LINE
  5
539
100
AcDbEntity
  8
0
  6
BYBLOCK
 62
     0
100
AcDbLine
 10
111.200001
 20
0.333333
 30
0.0
 11
110.456667
 21
0.333333
 31
0.0
  0
LINE
  5
53A
100
AcDbEntity
  8
2
100
AcDbLine
 10
106.200001
 20
12.833333
 30
0.0
 11
105.700001
 21
13.333333
 31
0.0
  0
LINE
  5
53B
100
AcDbEntity
  8
2
100
AcDbLine
 10
105.700001
 20
13.333333
 30
0.0
 11
105.700001
 21
14.833333
 31
0.0
  0
POINT
  5
53C
100
AcDbEntity
  8
DEFPOINTS
  6
BYBLOCK
 62
     0
100
AcDbPoint
 10
106.200001
 20
12.833333
 30
0.0
  0
LINE
  5
53D
100
AcDbEntity
  8
2
100
AcDbLine
 10
106.200001
 20
12.833333
 30
0.0
 11
106.200001
 21
14.833333
 31
0.0
  0
POINT
  5
53E
100
AcDbEntity
  8
DEFPOINTS
  6
BYBLOCK
 62
     0
100
AcDbPoint
 10
113.200001
 20
10.933333
 30
0.0
  0
POINT
  5
53F
100
AcDbEntity
  8
DEFPOINTS
  6
BYBLOCK
 62
     0
100
AcDbPoint
 10
113.200001
 20
10.933333
 30
0.0
  0
SOLID
  5
540
100
AcDbEntity
  8
0
100
AcDbTrace
 10
114.056735
 20
12.583677
 30
0.0
 11
113.5
 21
14.533333
 31
0.0
 12
114.658962
 22
12.869627
 32
0.0
 13
114.658962
 23
12.869627
 33
0.0
1001
ACAD
1000
DSTYLE
1002
{
1070
    78
1070
     8
1070
   288
1070
     1
1070
   284
1070
     8
1070
   140
1040
5.0
1070
   340
1005
139
1070
    73
1070
     0
1070
   272
1070
     2
1070
    42
1040
0.5
1070
    44
1040
0.5
1070
   271
1070
     2
1070
    41
1040
2.0
1002
}
  0
LINE
  5
541
100
AcDbEntity
  8
2
100
AcDbLine
 10
113.200001
 20
12.333333
 30
0.0
 11
112.200001
 21
13.333333
 31
0.0
  0
LINE
  5
542
100
AcDbEntity
  8
2
100
AcDbLine
 10
112.200001
 20
13.333333
 30
0.0
 11
112.200001
 21
14.833333
 31
0.0
  0
LINE
  5
543
100
AcDbEntity
  8
2
100
AcDbLine
 10
112.700001
 20
16.833333
 30
0.0
 11
106.200001
 21
16.833333
 31
0.0
  0
LINE
  5
544
100
AcDbEntity
  8
2
100
AcDbLine
 10
106.200001
 20
16.833333
 30
0.0
 11
105.700001
 21
16.333333
 31
0.0
  0
SOLID
  5
545
100
AcDbEntity
  8
0
100
AcDbTrace
 10
114.909799
 20
20.581086
 30
0.0
 11
113.6
 21
19.033333
 31
0.0
 12
114.337025
 22
20.922223
 32
0.0
 13
114.337025
 23
20.922223
 33
0.0
1001
ACAD
1000
DSTYLE
1002
{
1070
    78
1070
     8
1070
   288
1070
     1
1070
   284
1070
     8
1070
   140
1040
5.0
1070
   340
1005
139
1070
    73
1070
     0
1070
   272
1070
     2
1070
    42
1040
0.5
1070
    44
1040
0.5
1070
   271
1070
     2
1070
    41
1040
2.0
1002
}
  0
POINT
  5
546
100
AcDbEntity
  8
DEFPOINTS
  6
BYBLOCK
 62
     0
100
AcDbPoint
 10
113.200001
 20
18.733333
 30
0.0
  0
POINT
  5
547
100
AcDbEntity
  8
DEFPOINTS
  6
BYBLOCK
 62
     0
100
AcDbPoint
 10
113.200001
 20
18.733333
 30
0.0
  0
LINE
  5
548
100
AcDbEntity
  8
2
100
AcDbLine
 10
113.200001
 20
17.333333
 30
0.0
 11
112.200001
 21
16.333333
 31
0.0
  0
ENDBLK
  5
54A
100
AcDbEntity
  8
0
100
AcDbBlockEnd
  0
BLOCK
  5
5FE
100
AcDbEntity
  8
0
100
AcDbBlockBegin
  2
A$C5F6C226C
 70
     0
 10
0.0
 20
0.0
 30
0.0
  3
A$C5F6C226C
  1

  0
LINE
  5
5A8
100
AcDbEntity
  8
2
100
AcDbLine
 10
93.5
 20
12.75
 30
0.0
 11
49.5
 21
12.75
 31
0.0
  0
LINE
  5
5A9
100
AcDbEntity
  8
3
100
AcDbLine
 10
93.5
 20
22.75
 30
0.0
 11
49.5
 21
22.75
 31
0.0
  0
LINE
  5
5AA
100
AcDbEntity
  8
3
100
AcDbLine
 10
13.23987
 20
30.25
 30
0.0
 11
58.5
 21
30.25
 31
0.0
  0
LINE
  5
5AB
100
AcDbEntity
  8
3
100
AcDbLine
 10
13.23987
 20
5.25
 30
0.0
 11
58.5
 21
5.25
 31
0.0
  0
LINE
  5
5AC
100
AcDbEntity
  8
1
100
AcDbLine
 10
0.0
 20
17.75
 30
0.0
 11
100.25
 21
17.75
 31
0.0
  0
LINE
  5
5AD
100
AcDbEntity
  8
0
100
AcDbLine
 10
4.410121
 20
11.399766
 30
0.0
 11
6.846783
 21
14.100261
 31
0.0
  0
LINE
  5
5AE
100
AcDbEntity
  8
0
100
AcDbLine
 10
6.846783
 20
14.100261
 30
0.0
 11
3.289754
 21
14.860225
 31
0.0
  0
LINE
  5
5AF
100
AcDbEntity
  8
0
100
AcDbLine
 10
5.530487
 20
7.939306
 30
0.0
 11
7.96715
 21
10.639802
 31
0.0
  0
LINE
  5
5B0
100
AcDbEntity
  8
0
100
AcDbLine
 10
7.96715
 20
10.639802
 30
0.0
 11
4.410121
 21
11.399766
 31
0.0
  0
LINE
  5
5B1
100
AcDbEntity
  8
0
100
AcDbLine
 10
4.410121
 20
11.399766
 30
0.0
 11
5.530487
 21
7.939306
 31
0.0
  0
LINE
  5
5B2
100
AcDbEntity
  8
0
100
AcDbLine
 10
3.289754
 20
14.860225
 30
0.0
 11
4.410121
 21
11.399766
 31
0.0
  0
ARC
  5
5B3
100
AcDbEntity
  8
3
100
AcDbCircle
 10
22.5
 20
17.75
 30
0.0
 40
16.0
100
AcDbArc
 50
131.409622
 51
228.590378
  0
LINE
  5
5B4
100
AcDbEntity
  8
3
100
AcDbLine
 10
12.51237
 20
5.387006
 30
0.0
 11
12.5
 21
17.75
 31
0.0
  0
SOLID
  5
5B5
100
AcDbEntity
  8
0
  6
BYBLOCK
 62
     0
100
AcDbTrace
 10
10.344119
 20
4.470479
 30
0.0
 11
10.844119
 21
4.029521
 31
0.0
 12
11.916994
 22
5.75
 32
0.0
 13
11.916994
 23
5.75
 33
0.0
  0
POINT
  5
5B6
100
AcDbEntity
  8
DEFPOINTS
  6
BYBLOCK
 62
     0
100
AcDbPoint
 10
13.23987
 20
7.25
 30
0.0
  0
POINT
  5
5B7
100
AcDbEntity
  8
DEFPOINTS
  6
BYBLOCK
 62
     0
100
AcDbPoint
 10
11.916994
 20
5.75
 30
0.0
  0
LINE
  5
5B8
100
AcDbEntity
  8
0
  6
BYBLOCK
 62
     0
100
AcDbLine
 10
13.23987
 20
7.16
 30
0.0
 11
13.23987
 21
7.34
 31
0.0
  0
LINE
  5
5B9
100
AcDbEntity
  8
0
  6
BYBLOCK
 62
     0
100
AcDbLine
 10
13.14987
 20
7.25
 30
0.0
 11
13.32987
 21
7.25
 31
0.0
  0
ARC
  5
5BA
100
AcDbEntity
  8
3
100
AcDbCircle
 10
13.23987
 20
7.25
 30
0.0
 40
2.0
100
AcDbArc
 50
228.590378
 51
270.0
  0
POINT
  5
5BB
100
AcDbEntity
  8
DEFPOINTS
  6
BYBLOCK
 62
     0
100
AcDbPoint
 10
6.5
 20
17.75
 30
0.0
  0
SOLID
  5
5BC
100
AcDbEntity
  8
0
  6
BYBLOCK
 62
     0
100
AcDbTrace
 10
9.779502
 20
23.029896
 30
0.0
 11
9.542918
 21
22.40662
 31
0.0
 12
7.791383
 22
23.428009
 32
0.0
 13
7.791383
 23
23.428009
 33
0.0
  0
POINT
  5
5BD
100
AcDbEntity
  8
DEFPOINTS
  6
BYBLOCK
 62
     0
100
AcDbPoint
 10
7.791383
 20
23.428009
 30
0.0
  0
POINT
  5
5BE
100
AcDbEntity
  8
DEFPOINTS
  6
BYBLOCK
 62
     0
100
AcDbPoint
 10
22.75
 20
17.75
 30
0.0
  0
LINE
  5
5BF
100
AcDbEntity
  8
2
100
AcDbLine
 10
49.5
 20
12.75
 30
0.0
 11
45.25
 21
17.75
 31
0.0
  0
LINE
  5
5C0
100
AcDbEntity
  8
2
100
AcDbLine
 10
49.5
 20
12.75
 30
0.0
 11
49.5
 21
17.75
 31
0.0
  0
POINT
  5
5C1
100
AcDbEntity
  8
DEFPOINTS
  6
BYBLOCK
 62
     0
100
AcDbPoint
 10
49.5
 20
12.75
 30
0.0
  0
LINE
  5
5C2
100
AcDbEntity
  8
3
100
AcDbLine
 10
49.5
 20
22.75
 30
0.0
 11
45.25
 21
17.75
 31
0.0
  0
LINE
  5
5C3
100
AcDbEntity
  8
3
100
AcDbLine
 10
49.5
 20
22.75
 30
0.0
 11
49.5
 21
17.75
 31
0.0
  0
ARC
  5
5C4
100
AcDbEntity
  8
3
100
AcDbCircle
 10
13.23987
 20
28.25
 30
0.0
 40
2.0
100
AcDbArc
 50
90.0
 51
131.409622
  0
POINT
  5
5C5
100
AcDbEntity
  8
DEFPOINTS
  6
BYBLOCK
 62
     0
100
AcDbPoint
 10
14.512508
 20
30.25
 30
0.0
  0
LINE
  5
5C6
100
AcDbEntity
  8
0
100
AcDbLine
 10
38.24404
 20
33.75
 30
0.0
 11
40.062693
 21
30.6
 31
0.0
  0
LINE
  5
5C7
100
AcDbEntity
  8
0
100
AcDbLine
 10
41.881346
 20
33.75
 30
0.0
 11
38.24404
 21
33.75
 31
0.0
  0
LINE
  5
5C8
100
AcDbEntity
  8
0
100
AcDbLine
 10
41.881346
 20
33.75
 30
0.0
 11
43.7
 21
30.6
 31
0.0
  0
LINE
  5
5C9
100
AcDbEntity
  8
0
100
AcDbLine
 10
43.7
 20
30.6
 30
0.0
 11
45.518653
 21
33.75
 31
0.0
  0
LINE
  5
5CA
100
AcDbEntity
  8
0
100
AcDbLine
 10
40.062693
 20
30.6
 30
0.0
 11
41.881346
 21
33.75
 31
0.0
  0
LINE
  5
5CB
100
AcDbEntity
  8
0
100
AcDbLine
 10
45.518653
 20
33.75
 30
0.0
 11
41.881346
 21
33.75
 31
0.0
  0
SOLID
  5
5CC
100
AcDbEntity
  8
0
100
AcDbTrace
 10
94.973537
 20
10.471423
 30
0.0
 11
94.0
 21
12.25
 31
0.0
 12
95.497749
 22
10.883304
 32
0.0
 13
95.497749
 23
10.883304
 33
0.0
1001
ACAD
1000
DSTYLE
1002
{
1070
    78
1070
     8
1070
   288
1070
     1
1070
   284
1070
     8
1070
   140
1040
5.0
1070
    73
1070
     0
1070
   272
1070
     2
1070
    42
1040
1.0
1070
    44
1040
1.0
1070
   271
1070
     2
1070
    41
1040
2.0
1002
}
  0
LINE
  5
5CD
100
AcDbEntity
  8
0
  6
BYBLOCK
 62
     0
100
AcDbLine
 10
94.5
 20
6.75
 30
0.0
 11
134.5
 21
6.75
 31
0.0
  0
LINE
  5
5CE
100
AcDbEntity
  8
0
  6
BYBLOCK
 62
     0
100
AcDbLine
 10
94.5
 20
28.75
 30
0.0
 11
134.5
 21
28.75
 31
0.0
  0
LINE
  5
5CF
100
AcDbEntity
  8
0
  6
BYBLOCK
 62
     0
100
AcDbLine
 10
94.5
 20
12.75
 30
0.0
 11
115.493333
 21
12.75
 31
0.0
  0
LINE
  5
5D0
100
AcDbEntity
  8
0
  6
BYBLOCK
 62
     0
100
AcDbLine
 10
94.5
 20
22.75
 30
0.0
 11
115.493333
 21
22.75
 31
0.0
  0
SOLID
  5
5D1
100
AcDbEntity
  8
0
100
AcDbTrace
 10
95.38675
 20
31.7292
 30
0.0
 11
94.0
 21
30.25
 31
0.0
 12
94.83205
 22
32.099
 32
0.0
 13
94.83205
 23
32.099
 33
0.0
1001
ACAD
1000
DSTYLE
1002
{
1070
    78
1070
     8
1070
   288
1070
     1
1070
   284
1070
     8
1070
   140
1040
5.0
1070
    73
1070
     0
1070
   272
1070
     2
1070
    42
1040
1.0
1070
    44
1040
1.0
1070
   271
1070
     2
1070
    41
1040
2.0
1002
}
  0
LINE
  5
5D2
100
AcDbEntity
  8
3
100
AcDbLine
 10
93.5
 20
17.75
 30
0.0
 11
93.5
 21
28.75
 31
0.0
  0
LINE
  5
5D3
100
AcDbEntity
  8
3
100
AcDbLine
 10
93.5
 20
6.75
 30
0.0
 11
58.5
 21
5.25
 31
0.0
  0
LINE
  5
5D4
100
AcDbEntity
  8
3
100
AcDbLine
 10
58.5
 20
5.25
 30
0.0
 11
58.5
 21
17.75
 31
0.0
  0
LINE
  5
5D5
100
AcDbEntity
  8
3
100
AcDbLine
 10
93.5
 20
17.75
 30
0.0
 11
93.5
 21
6.75
 31
0.0
  0
POINT
  5
5D6
100
AcDbEntity
  8
DEFPOINTS
  6
BYBLOCK
 62
     0
100
AcDbPoint
 10
93.5
 20
6.75
 30
0.0
  0
POINT
  5
5D7
100
AcDbEntity
  8
DEFPOINTS
  6
BYBLOCK
 62
     0
100
AcDbPoint
 10
93.5
 20
6.75
 30
0.0
  0
POINT
  5
5D8
100
AcDbEntity
  8
DEFPOINTS
  6
BYBLOCK
 62
     0
100
AcDbPoint
 10
93.5
 20
12.75
 30
0.0
  0
POINT
  5
5D9
100
AcDbEntity
  8
DEFPOINTS
  6
BYBLOCK
 62
     0
100
AcDbPoint
 10
93.5
 20
22.75
 30
0.0
  0
LINE
  5
5DA
100
AcDbEntity
  8
0
100
AcDbLine
 10
71.327755
 20
32.914439
 30
0.0
 11
73.037423
 21
29.703982
 31
0.0
  0
LINE
  5
5DB
100
AcDbEntity
  8
0
100
AcDbLine
 10
74.962926
 20
32.789826
 30
0.0
 11
71.327755
 21
32.914439
 31
0.0
  0
LINE
  5
5DC
100
AcDbEntity
  8
3
100
AcDbLine
 10
93.5
 20
28.75
 30
0.0
 11
58.5
 21
30.25
 31
0.0
  0
POINT
  5
5DD
100
AcDbEntity
  8
DEFPOINTS
  6
BYBLOCK
 62
     0
100
AcDbPoint
 10
58.5
 20
30.25
 30
0.0
  0
LINE
  5
5DE
100
AcDbEntity
  8
0
100
AcDbLine
 10
74.962926
 20
32.789826
 30
0.0
 11
76.672595
 21
29.579369
 31
0.0
  0
LINE
  5
5DF
100
AcDbEntity
  8
0
100
AcDbLine
 10
76.672595
 20
29.579369
 30
0.0
 11
78.598098
 21
32.665214
 31
0.0
  0
LINE
  5
5E0
100
AcDbEntity
  8
0
100
AcDbLine
 10
73.037423
 20
29.703982
 30
0.0
 11
74.962926
 21
32.789826
 31
0.0
  0
LINE
  5
5E1
100
AcDbEntity
  8
0
100
AcDbLine
 10
78.598098
 20
32.665214
 30
0.0
 11
74.962926
 21
32.789826
 31
0.0
  0
POINT
  5
5E2
100
AcDbEntity
  8
DEFPOINTS
  6
BYBLOCK
 62
     0
100
AcDbPoint
 10
93.5
 20
28.75
 30
0.0
  0
POINT
  5
5E3
100
AcDbEntity
  8
DEFPOINTS
  6
BYBLOCK
 62
     0
100
AcDbPoint
 10
93.5
 20
28.75
 30
0.0
  0
POINT
  5
5E4
100
AcDbEntity
  8
DEFPOINTS
  6
BYBLOCK
 62
     0
100
AcDbPoint
 10
93.5
 20
28.75
 30
0.0
  0
POINT
  5
5E5
100
AcDbEntity
  8
DEFPOINTS
  6
BYBLOCK
 62
     0
100
AcDbPoint
 10
93.5
 20
28.75
 30
0.0
  0
LINE
  5
5E6
100
AcDbEntity
  8
0
  6
BYBLOCK
 62
     0
100
AcDbLine
 10
133.5
 20
26.75
 30
0.0
 11
133.5
 21
22.506666
 31
0.0
  0
LINE
  5
5E7
100
AcDbEntity
  8
0
  6
BYBLOCK
 62
     0
100
AcDbLine
 10
114.493333
 20
22.75
 30
0.0
 11
114.493333
 21
38.0
 31
0.0
  0
LINE
  5
5E8
100
AcDbEntity
  8
0
100
AcDbLine
 10
106.368653
 20
19.75
 30
0.0
 11
104.55
 21
22.9
 31
0.0
  0
LINE
  5
5E9
100
AcDbEntity
  8
0
100
AcDbLine
 10
102.731346
 20
19.75
 30
0.0
 11
106.368653
 21
19.75
 31
0.0
  0
LINE
  5
5EA
100
AcDbEntity
  8
0
100
AcDbLine
 10
104.55
 20
22.9
 30
0.0
 11
102.731346
 21
19.75
 31
0.0
  0
LINE
  5
5EB
100
AcDbEntity
  8
0
  6
BYBLOCK
 62
     0
100
AcDbLine
 10
114.493333
 20
14.75
 30
0.0
 11
114.493333
 21
20.75
 31
0.0
  0
SOLID
  5
5EC
100
AcDbEntity
  8
0
  6
BYBLOCK
 62
     0
100
AcDbTrace
 10
114.16
 20
14.75
 30
0.0
 11
114.826666
 21
14.75
 31
0.0
 12
114.493333
 22
12.75
 32
0.0
 13
114.493333
 23
12.75
 33
0.0
  0
POINT
  5
5ED
100
AcDbEntity
  8
DEFPOINTS
  6
BYBLOCK
 62
     0
100
AcDbPoint
 10
114.493333
 20
12.75
 30
0.0
  0
LINE
  5
5EE
100
AcDbEntity
  8
0
100
AcDbLine
 10
110.00596
 20
19.75
 30
0.0
 11
108.187306
 21
22.9
 31
0.0
  0
LINE
  5
5EF
100
AcDbEntity
  8
0
100
AcDbLine
 10
108.187306
 20
22.9
 30
0.0
 11
106.368653
 21
19.75
 31
0.0
  0
LINE
  5
5F0
100
AcDbEntity
  8
0
100
AcDbLine
 10
106.368653
 20
19.75
 30
0.0
 11
110.00596
 21
19.75
 31
0.0
  0
SOLID
  5
5F1
100
AcDbEntity
  8
0
  6
BYBLOCK
 62
     0
100
AcDbTrace
 10
114.16
 20
20.75
 30
0.0
 11
114.826666
 21
20.75
 31
0.0
 12
114.493333
 22
22.75
 32
0.0
 13
114.493333
 23
22.75
 33
0.0
  0
SOLID
  5
5F2
100
AcDbEntity
  8
0
  6
BYBLOCK
 62
     0
100
AcDbTrace
 10
133.166666
 20
8.75
 30
0.0
 11
133.833333
 21
8.75
 31
0.0
 12
133.5
 22
6.75
 32
0.0
 13
133.5
 23
6.75
 33
0.0
  0
POINT
  5
5F3
100
AcDbEntity
  8
DEFPOINTS
  6
BYBLOCK
 62
     0
100
AcDbPoint
 10
133.5
 20
6.75
 30
0.0
  0
MTEXT
  5
5F4
100
AcDbEntity
  8
0
  6
BYBLOCK
 62
     0
100
AcDbMText
 10
133.5
 20
18.25
 30
0.0
 40
5.0
 41
0.0
 71
     5
 72
     1
  1
\A1;22
 11
0.0
 21
1.0
 31
0.0
  0
LINE
  5
5F5
100
AcDbEntity
  8
0
  6
BYBLOCK
 62
     0
100
AcDbLine
 10
133.5
 20
8.75
 30
0.0
 11
133.5
 21
13.993333
 31
0.0
  0
MTEXT
  5
5F6
100
AcDbEntity
  8
0
  6
BYBLOCK
 62
     0
100
AcDbMText
 10
119.5
 20
38.0
 30
0.0
 40
5.0
 41
0.0
 71
     5
 72
     1
  1
\A1;10
  0
LINE
  5
5F7
100
AcDbEntity
  8
0
  6
BYBLOCK
 62
     0
100
AcDbLine
 10
114.493333
 20
38.0
 30
0.0
 11
116.493333
 21
38.0
 31
0.0
  0
SOLID
  5
5F8
100
AcDbEntity
  8
0
  6
BYBLOCK
 62
     0
100
AcDbTrace
 10
133.166666
 20
26.75
 30
0.0
 11
133.833333
 21
26.75
 31
0.0
 12
133.5
 22
28.75
 32
0.0
 13
133.5
 23
28.75
 33
0.0
  0
CIRCLE
  5
5F9
100
AcDbEntity
  8
3
100
AcDbCircle
 10
165.5
 20
17.75
 30
0.0
 40
11.0
  0
CIRCLE
  5
5FA
100
AcDbEntity
  8
3
100
AcDbCircle
 10
165.5
 20
17.75
 30
0.0
 40
12.5
  0
LINE
  5
5FB
100
AcDbEntity
  8
1
100
AcDbLine
 10
165.5
 20
36.0
 30
0.0
 11
165.5
 21
0.0
 31
0.0
  0
CIRCLE
  5
5FC
100
AcDbEntity
  8
3
100
AcDbCircle
 10
165.5
 20
17.75
 30
0.0
 40
5.0
  0
LINE
  5
5FD
100
AcDbEntity
  8
1
100
AcDbLine
 10
146.5
 20
17.75
 30
0.0
 11
183.75
 21
17.75
 31
0.0
  0
ENDBLK
  5
5FF
100
AcDbEntity
  8
0
100
AcDbBlockEnd
  0
BLOCK
  5
6B7
100
AcDbEntity
  8
0
100
AcDbBlockBegin
  2
A$C37E47D81
 70
     0
 10
0.0
 20
0.0
 30
0.0
  3
A$C37E47D81
  1

  0
LINE
  5
65A
100
AcDbEntity
  8
3
100
AcDbLine
 10
11.171796
 20
13.0
 30
0.0
 11
18.1
 21
9.0
 31
0.0
  0
LINE
  5
65B
100
AcDbEntity
  8
3
100
AcDbLine
 10
18.1
 20
25.0
 30
0.0
 11
11.171796
 21
21.0
 31
0.0
  0
SOLID
  5
65C
100
AcDbEntity
  8
0
  6
BYBLOCK
 62
     0
100
AcDbTrace
 10
12.382969
 20
23.632433
 30
0.0
 11
11.894942
 21
23.178258
 31
0.0
 12
13.50148
 22
21.941266
 32
0.0
 13
13.50148
 23
21.941266
 33
0.0
  0
CIRCLE
  5
65D
100
AcDbEntity
  8
3
100
AcDbCircle
 10
18.1
 20
17.0
 30
0.0
 40
5.0
  0
CIRCLE
  5
65E
100
AcDbEntity
  8
3
100
AcDbCircle
 10
18.1
 20
17.0
 30
0.0
 40
6.75
  0
LINE
  5
65F
100
AcDbEntity
  8
1
100
AcDbLine
 10
32.35
 20
17.0
 30
0.0
 11
3.35
 21
17.0
 31
0.0
  0
LINE
  5
660
100
AcDbEntity
  8
0
  6
BYBLOCK
 62
     0
100
AcDbLine
 10
2.0
 20
34.3
 30
0.0
 11
12.138956
 21
23.405345
 31
0.0
  0
LINE
  5
661
100
AcDbEntity
  8
3
100
AcDbLine
 10
11.171796
 20
21.0
 30
0.0
 11
11.171796
 21
13.0
 31
0.0
  0
POINT
  5
662
100
AcDbEntity
  8
DEFPOINTS
  6
BYBLOCK
 62
     0
100
AcDbPoint
 10
11.171796
 20
13.0
 30
0.0
  0
LINE
  5
663
100
AcDbEntity
  8
0
  6
BYBLOCK
 62
     0
100
AcDbLine
 10
0.0
 20
34.3
 30
0.0
 11
2.0
 21
34.3
 31
0.0
  0
LINE
  5
664
100
AcDbEntity
  8
3
100
AcDbLine
 10
25.028203
 20
13.0
 30
0.0
 11
25.028203
 21
21.0
 31
0.0
  0
CIRCLE
  5
665
100
AcDbEntity
  8
0
100
AcDbCircle
 10
18.1
 20
17.0
 30
0.0
 40
4.2
  0
LINE
  5
666
100
AcDbEntity
  8
1
100
AcDbLine
 10
18.1
 20
32.0
 30
0.0
 11
18.1
 21
4.0
 31
0.0
  0
LINE
  5
667
100
AcDbEntity
  8
3
100
AcDbLine
 10
18.1
 20
9.0
 30
0.0
 11
25.028203
 21
13.0
 31
0.0
  0
LINE
  5
668
100
AcDbEntity
  8
0
  6
BYBLOCK
 62
     0
100
AcDbLine
 10
18.1
 20
16.91
 30
0.0
 11
18.1
 21
17.09
 31
0.0
  0
LINE
  5
669
100
AcDbEntity
  8
0
  6
BYBLOCK
 62
     0
100
AcDbLine
 10
18.01
 20
17.0
 30
0.0
 11
18.19
 21
17.0
 31
0.0
  0
POINT
  5
66A
100
AcDbEntity
  8
DEFPOINTS
  6
BYBLOCK
 62
     0
100
AcDbPoint
 10
22.69852
 20
12.058733
 30
0.0
  0
POINT
  5
66B
100
AcDbEntity
  8
DEFPOINTS
  6
BYBLOCK
 62
     0
100
AcDbPoint
 10
25.028203
 20
13.0
 30
0.0
  0
LINE
  5
66C
100
AcDbEntity
  8
3
100
AcDbLine
 10
25.028203
 20
21.0
 30
0.0
 11
18.1
 21
25.0
 31
0.0
  0
POINT
  5
66D
100
AcDbEntity
  8
DEFPOINTS
  6
BYBLOCK
 62
     0
100
AcDbPoint
 10
13.50148
 20
21.941266
 30
0.0
  0
MTEXT
  5
66E
100
AcDbEntity
  8
0
  6
BYBLOCK
 62
     0
100
AcDbMText
 10
111.2
 20
2.5
 30
0.0
 40
5.0
 41
0.0
 71
     5
 72
     1
  1
\A1;7
  0
SOLID
  5
66F
100
AcDbEntity
  8
0
  6
BYBLOCK
 62
     0
100
AcDbTrace
 10
110.2
 20
2.833333
 30
0.0
 11
110.2
 21
2.166667
 31
0.0
 12
108.2
 22
2.5
 32
0.0
 13
108.2
 23
2.5
 33
0.0
  0
SOLID
  5
670
100
AcDbEntity
  8
0
  6
BYBLOCK
 62
     0
100
AcDbTrace
 10
113.2
 20
2.833333
 30
0.0
 11
113.2
 21
2.166667
 31
0.0
 12
115.2
 22
2.5
 32
0.0
 13
115.2
 23
2.5
 33
0.0
  0
LINE
  5
671
100
AcDbEntity
  8
0
  6
BYBLOCK
 62
     0
100
AcDbLine
 10
108.2
 20
14.0
 30
0.0
 11
108.2
 21
1.5
 31
0.0
  0
LINE
  5
672
100
AcDbEntity
  8
0
  6
BYBLOCK
 62
     0
100
AcDbLine
 10
115.2
 20
12.1
 30
0.0
 11
115.2
 21
1.5
 31
0.0
  0
LINE
  5
673
100
AcDbEntity
  8
3
100
AcDbLine
 10
95.2
 20
20.9
 30
0.0
 11
115.2
 21
20.9
 31
0.0
  0
LINE
  5
674
100
AcDbEntity
  8
1
100
AcDbLine
 10
68.2
 20
17.0
 30
0.0
 11
121.2
 21
17.0
 31
0.0
  0
LINE
  5
675
100
AcDbEntity
  8
3
100
AcDbLine
 10
95.2
 20
13.1
 30
0.0
 11
115.2
 21
13.1
 31
0.0
  0
LINE
  5
676
100
AcDbEntity
  8
3
100
AcDbLine
 10
95.2
 20
13.1
 30
0.0
 11
115.2
 21
13.1
 31
0.0
  0
LINE
  5
677
100
AcDbEntity
  8
2
100
AcDbLine
 10
114.2
 20
15.5
 30
0.0
 11
102.2
 21
15.5
 31
0.0
  0
LINE
  5
678
100
AcDbEntity
  8
2
100
AcDbLine
 10
114.2
 20
18.5
 30
0.0
 11
102.2
 21
18.5
 31
0.0
  0
LINE
  5
679
100
AcDbEntity
  8
3
100
AcDbLine
 10
85.2
 20
12.0
 30
0.0
 11
74.2
 21
12.0
 31
0.0
  0
LINE
  5
67A
100
AcDbEntity
  8
3
100
AcDbLine
 10
73.2
 20
13.0
 30
0.0
 11
83.7
 21
13.0
 31
0.0
  0
LINE
  5
67B
100
AcDbEntity
  8
3
100
AcDbLine
 10
73.2
 20
21.0
 30
0.0
 11
83.7
 21
21.0
 31
0.0
  0
LINE
  5
67C
100
AcDbEntity
  8
3
100
AcDbLine
 10
85.2
 20
22.0
 30
0.0
 11
74.2
 21
22.0
 31
0.0
  0
LINE
  5
67D
100
AcDbEntity
  8
3
100
AcDbLine
 10
74.2
 20
22.0
 30
0.0
 11
74.2
 21
17.0
 31
0.0
  0
LINE
  5
67E
100
AcDbEntity
  8
3
100
AcDbLine
 10
73.2
 20
21.0
 30
0.0
 11
73.2
 21
17.0
 31
0.0
  0
LINE
  5
67F
100
AcDbEntity
  8
3
100
AcDbLine
 10
73.2
 20
13.0
 30
0.0
 11
73.2
 21
17.0
 31
0.0
  0
LINE
  5
680
100
AcDbEntity
  8
3
100
AcDbLine
 10
74.2
 20
12.0
 30
0.0
 11
74.2
 21
17.0
 31
0.0
  0
LINE
  5
681
100
AcDbEntity
  8
3
100
AcDbLine
 10
74.2
 20
12.0
 30
0.0
 11
73.2
 21
13.0
 31
0.0
  0
SOLID
  5
682
100
AcDbEntity
  8
0
100
AcDbTrace
 10
75.612287
 20
10.633823
 30
0.0
 11
76.9
 21
12.2
 31
0.0
 12
76.189843
 22
10.300845
 32
0.0
 13
76.189843
 23
10.300845
 33
0.0
1001
ACAD
1000
DSTYLE
1002
{
1070
    78
1070
     8
1070
   288
1070
     1
1070
   284
1070
     8
1070
   140
1040
5.0
1070
   340
1005
139
1070
    73
1070
     0
1070
   272
1070
     2
1070
    42
1040
0.5
1070
    44
1040
0.5
1070
   271
1070
     2
1070
    41
1040
2.0
1002
}
  0
LINE
  5
683
100
AcDbEntity
  8
3
100
AcDbLine
 10
74.2
 20
22.0
 30
0.0
 11
73.2
 21
21.0
 31
0.0
  0
POINT
  5
684
100
AcDbEntity
  8
DEFPOINTS
  6
BYBLOCK
 62
     0
100
AcDbPoint
 10
73.2
 20
21.0
 30
0.0
  0
SOLID
  5
685
100
AcDbEntity
  8
0
100
AcDbTrace
 10
72.489867
 20
23.758051
 30
0.0
 11
73.5
 21
22.0
 31
0.0
 12
71.97429
 22
23.33541
 32
0.0
 13
71.97429
 23
23.33541
 33
0.0
1001
ACAD
1000
DSTYLE
1002
{
1070
    78
1070
     8
1070
   288
1070
     1
1070
   284
1070
     8
1070
   140
1040
5.0
1070
   340
1005
139
1070
    73
1070
     0
1070
   272
1070
     2
1070
    42
1040
0.5
1070
    44
1040
0.5
1070
   271
1070
     2
1070
    41
1040
2.0
1002
}
  0
ARC
  5
686
100
AcDbEntity
  8
3
100
AcDbCircle
 10
165.25
 20
17.0
 30
0.0
 40
80.05
100
AcDbArc
 50
177.135808
 51
182.864192
  0
LINE
  5
687
100
AcDbEntity
  8
3
100
AcDbLine
 10
83.7
 20
22.0
 30
0.0
 11
83.7
 21
17.0
 31
0.0
  0
LINE
  5
688
100
AcDbEntity
  8
3
100
AcDbLine
 10
85.2
 20
17.0
 30
0.0
 11
85.2
 21
23.75
 31
0.0
  0
LINE
  5
689
100
AcDbEntity
  8
3
100
AcDbLine
 10
95.2
 20
17.0
 30
0.0
 11
95.2
 21
20.9
 31
0.0
  0
LINE
  5
68A
100
AcDbEntity
  8
2
100
AcDbLine
 10
102.2
 20
18.5
 30
0.0
 11
102.2
 21
17.0
 31
0.0
  0
LINE
  5
68B
100
AcDbEntity
  8
2
100
AcDbLine
 10
102.2
 20
18.5
 30
0.0
 11
101.2
 21
17.0
 31
0.0
  0
LINE
  5
68C
100
AcDbEntity
  8
3
100
AcDbLine
 10
95.2
 20
25.0
 30
0.0
 11
95.2
 21
17.0
 31
0.0
  0
LINE
  5
68D
100
AcDbEntity
  8
3
100
AcDbLine
 10
85.3
 20
13.0
 30
0.0
 11
95.2
 21
13.0
 31
0.0
  0
LINE
  5
68E
100
AcDbEntity
  8
3
100
AcDbLine
 10
85.3
 20
9.0
 30
0.0
 11
95.2
 21
9.0
 31
0.0
  0
ARC
  5
68F
100
AcDbEntity
  8
3
100
AcDbCircle
 10
105.25
 20
11.0
 30
0.0
 40
20.05
100
AcDbArc
 50
174.27519
 51
185.72481
  0
LINE
  5
690
100
AcDbEntity
  8
3
100
AcDbLine
 10
85.2
 20
10.25
 30
0.0
 11
85.3
 21
9.0
 31
0.0
  0
LINE
  5
691
100
AcDbEntity
  8
3
100
AcDbLine
 10
85.2
 20
17.0
 30
0.0
 11
85.2
 21
10.25
 31
0.0
  0
LINE
  5
692
100
AcDbEntity
  8
3
100
AcDbLine
 10
83.7
 20
12.0
 30
0.0
 11
83.7
 21
17.0
 31
0.0
  0
LINE
  5
693
100
AcDbEntity
  8
3
100
AcDbLine
 10
95.2
 20
9.0
 30
0.0
 11
95.2
 21
17.0
 31
0.0
  0
LINE
  5
694
100
AcDbEntity
  8
3
100
AcDbLine
 10
95.2
 20
17.0
 30
0.0
 11
95.2
 21
13.1
 31
0.0
  0
LINE
  5
695
100
AcDbEntity
  8
2
100
AcDbLine
 10
102.2
 20
15.5
 30
0.0
 11
102.2
 21
17.0
 31
0.0
  0
LINE
  5
696
100
AcDbEntity
  8
2
100
AcDbLine
 10
102.2
 20
15.5
 30
0.0
 11
101.2
 21
17.0
 31
0.0
  0
LINE
  5
697
100
AcDbEntity
  8
3
100
AcDbLine
 10
85.5
 20
25.0
 30
0.0
 11
95.2
 21
25.0
 31
0.0
  0
LINE
  5
698
100
AcDbEntity
  8
3
100
AcDbLine
 10
85.3
 20
21.0
 30
0.0
 11
95.2
 21
21.0
 31
0.0
  0
ARC
  5
699
100
AcDbEntity
  8
3
100
AcDbCircle
 10
95.300039
 20
22.504998
 30
0.0
 40
10.112656
100
AcDbArc
 50
165.716453
 51
188.558737
  0
POINT
  5
69A
100
AcDbEntity
  8
DEFPOINTS
  6
BYBLOCK
 62
     0
100
AcDbPoint
 10
85.2
 20
23.75
 30
0.0
  0
POINT
  5
69B
100
AcDbEntity
  8
DEFPOINTS
  6
BYBLOCK
 62
     0
100
AcDbPoint
 10
85.2
 20
23.0
 30
0.0
  0
POINT
  5
69C
100
AcDbEntity
  8
DEFPOINTS
  6
BYBLOCK
 62
     0
100
AcDbPoint
 10
85.5
 20
25.0
 30
0.0
  0
POINT
  5
69D
100
AcDbEntity
  8
DEFPOINTS
  6
BYBLOCK
 62
     0
100
AcDbPoint
 10
85.2
 20
23.009984
 30
0.0
  0
POINT
  5
69E
100
AcDbEntity
  8
DEFPOINTS
  6
BYBLOCK
 62
     0
100
AcDbPoint
 10
95.2
 20
25.0
 30
0.0
  0
POINT
  5
69F
100
AcDbEntity
  8
DEFPOINTS
  6
BYBLOCK
 62
     0
100
AcDbPoint
 10
95.2
 20
25.0
 30
0.0
  0
LINE
  5
6A0
100
AcDbEntity
  8
2
100
AcDbLine
 10
107.7
 20
18.5
 30
0.0
 11
107.7
 21
17.0
 31
0.0
  0
LINE
  5
6A1
100
AcDbEntity
  8
2
100
AcDbLine
 10
108.2
 20
19.0
 30
0.0
 11
108.2
 21
17.0
 31
0.0
  0
LINE
  5
6A2
100
AcDbEntity
  8
2
100
AcDbLine
 10
114.2
 20
18.5
 30
0.0
 11
114.2
 21
17.0
 31
0.0
  0
LINE
  5
6A3
100
AcDbEntity
  8
3
100
AcDbLine
 10
115.2
 20
13.1
 30
0.0
 11
115.2
 21
20.9
 31
0.0
  0
LINE
  5
6A4
100
AcDbEntity
  8
2
100
AcDbLine
 10
114.7
 20
15.0
 30
0.0
 11
108.2
 21
15.0
 31
0.0
  0
POINT
  5
6A5
100
AcDbEntity
  8
DEFPOINTS
  6
BYBLOCK
 62
     0
100
AcDbPoint
 10
108.2
 20
2.5
 30
0.0
  0
LINE
  5
6A6
100
AcDbEntity
  8
0
  6
BYBLOCK
 62
     0
100
AcDbLine
 10
110.2
 20
2.5
 30
0.0
 11
110.29
 21
2.5
 31
0.0
  0
LINE
  5
6A7
100
AcDbEntity
  8
0
  6
BYBLOCK
 62
     0
100
AcDbLine
 10
113.2
 20
2.5
 30
0.0
 11
112.456667
 21
2.5
 31
0.0
  0
LINE
  5
6A8
100
AcDbEntity
  8
2
100
AcDbLine
 10
108.2
 20
15.0
 30
0.0
 11
107.7
 21
15.5
 31
0.0
  0
LINE
  5
6A9
100
AcDbEntity
  8
2
100
AcDbLine
 10
107.7
 20
15.5
 30
0.0
 11
107.7
 21
17.0
 31
0.0
  0
POINT
  5
6AA
100
AcDbEntity
  8
DEFPOINTS
  6
BYBLOCK
 62
     0
100
AcDbPoint
 10
108.2
 20
15.0
 30
0.0
  0
LINE
  5
6AB
100
AcDbEntity
  8
2
100
AcDbLine
 10
108.2
 20
15.0
 30
0.0
 11
108.2
 21
17.0
 31
0.0
  0
POINT
  5
6AC
100
AcDbEntity
  8
DEFPOINTS
  6
BYBLOCK
 62
     0
100
AcDbPoint
 10
115.2
 20
13.1
 30
0.0
  0
POINT
  5
6AD
100
AcDbEntity
  8
DEFPOINTS
  6
BYBLOCK
 62
     0
100
AcDbPoint
 10
115.2
 20
13.1
 30
0.0
  0
SOLID
  5
6AE
100
AcDbEntity
  8
0
100
AcDbTrace
 10
116.056735
 20
14.750344
 30
0.0
 11
115.5
 21
16.7
 31
0.0
 12
116.658962
 22
15.036293
 32
0.0
 13
116.658962
 23
15.036293
 33
0.0
1001
ACAD
1000
DSTYLE
1002
{
1070
    78
1070
     8
1070
   288
1070
     1
1070
   284
1070
     8
1070
   140
1040
5.0
1070
   340
1005
139
1070
    73
1070
     0
1070
   272
1070
     2
1070
    42
1040
0.5
1070
    44
1040
0.5
1070
   271
1070
     2
1070
    41
1040
2.0
1002
}
  0
LINE
  5
6AF
100
AcDbEntity
  8
2
100
AcDbLine
 10
115.2
 20
14.5
 30
0.0
 11
114.2
 21
15.5
 31
0.0
  0
LINE
  5
6B0
100
AcDbEntity
  8
2
100
AcDbLine
 10
114.2
 20
15.5
 30
0.0
 11
114.2
 21
17.0
 31
0.0
  0
LINE
  5
6B1
100
AcDbEntity
  8
2
100
AcDbLine
 10
114.7
 20
19.0
 30
0.0
 11
108.2
 21
19.0
 31
0.0
  0
LINE
  5
6B2
100
AcDbEntity
  8
2
100
AcDbLine
 10
108.2
 20
19.0
 30
0.0
 11
107.7
 21
18.5
 31
0.0
  0
SOLID
  5
6B3
100
AcDbEntity
  8
0
100
AcDbTrace
 10
116.909799
 20
22.747752
 30
0.0
 11
115.6
 21
21.2
 31
0.0
 12
116.337025
 22
23.088889
 32
0.0
 13
116.337025
 23
23.088889
 33
0.0
1001
ACAD
1000
DSTYLE
1002
{
1070
    78
1070
     8
1070
   288
1070
     1
1070
   284
1070
     8
1070
   140
1040
5.0
1070
   340
1005
139
1070
    73
1070
     0
1070
   272
1070
     2
1070
    42
1040
0.5
1070
    44
1040
0.5
1070
   271
1070
     2
1070
    41
1040
2.0
1002
}
  0
POINT
  5
6B4
100
AcDbEntity
  8
DEFPOINTS
  6
BYBLOCK
 62
     0
100
AcDbPoint
 10
115.2
 20
20.9
 30
0.0
  0
POINT
  5
6B5
100
AcDbEntity
  8
DEFPOINTS
  6
BYBLOCK
 62
     0
100
AcDbPoint
 10
115.2
 20
20.9
 30
0.0
  0
LINE
  5
6B6
100
AcDbEntity
  8
2
100
AcDbLine
 10
115.2
 20
19.5
 30
0.0
 11
114.2
 21
18.5
 31
0.0
  0
ENDBLK
  5
6B8
100
AcDbEntity
  8
0
100
AcDbBlockEnd
  0
BLOCK
  5
76A
100
AcDbEntity
  8
0
100
AcDbBlockBegin
  2
A$C76515BDE
 70
     0
 10
0.0
 20
0.0
 30
0.0
  3
A$C76515BDE
  1

  0
LINE
  5
718
100
AcDbEntity
  8
3
100
AcDbLine
 10
76.592556
 20
19.0587
 30
0.0
 11
101.592556
 21
19.0587
 31
0.0
  0
LINE
  5
719
100
AcDbEntity
  8
3
100
AcDbLine
 10
76.592556
 20
9.2587
 30
0.0
 11
101.592556
 21
9.2587
 31
0.0
  0
LINE
  5
71A
100
AcDbEntity
  8
3
100
AcDbLine
 10
76.592556
 20
9.2587
 30
0.0
 11
101.592556
 21
9.2587
 31
0.0
  0
LINE
  5
71B
100
AcDbEntity
  8
1
100
AcDbLine
 10
42.092556
 20
14.1587
 30
0.0
 11
109.092556
 21
14.1587
 31
0.0
  0
LINE
  5
71C
100
AcDbEntity
  8
3
100
AcDbLine
 10
12.592556
 20
4.4087
 30
0.0
 11
21.036304
 21
9.2837
 31
0.0
  0
LINE
  5
71D
100
AcDbEntity
  8
3
100
AcDbLine
 10
4.148809
 20
9.2837
 30
0.0
 11
12.592556
 21
4.4087
 31
0.0
  0
SOLID
  5
71E
100
AcDbEntity
  8
0
100
AcDbTrace
 10
55.008718
 20
6.389687
 30
0.0
 11
55.492556
 21
8.3587
 31
0.0
 12
55.67347
 22
6.339199
 32
0.0
 13
55.67347
 23
6.339199
 33
0.0
1001
ACAD
1000
DSTYLE
1002
{
1070
    78
1070
     8
1070
   288
1070
     1
1070
   284
1070
     8
1070
   140
1040
5.0
1070
   340
1005
139
1070
    73
1070
     0
1070
   272
1070
     2
1070
    42
1040
0.5
1070
    44
1040
0.5
1070
   271
1070
     2
1070
    41
1040
2.0
1002
}
  0
CIRCLE
  5
71F
100
AcDbEntity
  8
0
100
AcDbCircle
 10
12.592556
 20
14.1587
 30
0.0
 40
8.0
  0
ARC
  5
720
100
AcDbEntity
  8
3
100
AcDbCircle
 10
94.842556
 20
6.6587
 30
0.0
 40
31.25016
100
AcDbArc
 50
175.411458
 51
184.588542
  0
LINE
  5
721
100
AcDbEntity
  8
1
100
AcDbLine
 10
12.592556
 20
28.316848
 30
0.0
 11
12.592556
 21
0.0
 31
0.0
  0
LINE
  5
722
100
AcDbEntity
  8
3
100
AcDbLine
 10
63.592556
 20
14.1587
 30
0.0
 11
63.592556
 21
6.1587
 31
0.0
  0
LINE
  5
723
100
AcDbEntity
  8
3
100
AcDbLine
 10
76.592556
 20
4.1587
 30
0.0
 11
76.592556
 21
14.1587
 31
0.0
  0
POINT
  5
724
100
AcDbEntity
  8
DEFPOINTS
  6
BYBLOCK
 62
     0
100
AcDbPoint
 10
17.018544
 20
7.49457
 30
0.0
  0
LINE
  5
725
100
AcDbEntity
  8
3
100
AcDbLine
 10
63.692556
 20
4.1587
 30
0.0
 11
76.592556
 21
4.1587
 31
0.0
  0
LINE
  5
726
100
AcDbEntity
  8
3
100
AcDbLine
 10
63.592556
 20
6.1587
 30
0.0
 11
63.692556
 21
4.1587
 31
0.0
  0
LINE
  5
727
100
AcDbEntity
  8
3
100
AcDbLine
 10
21.036304
 20
19.0337
 30
0.0
 11
12.592556
 21
23.9087
 31
0.0
  0
CIRCLE
  5
728
100
AcDbEntity
  8
3
100
AcDbCircle
 10
12.592556
 20
14.1587
 30
0.0
 40
4.5
  0
CIRCLE
  5
729
100
AcDbEntity
  8
3
100
AcDbCircle
 10
12.592556
 20
14.1587
 30
0.0
 40
6.0
  0
LINE
  5
72A
100
AcDbEntity
  8
1
100
AcDbLine
 10
25.115283
 20
14.1587
 30
0.0
 11
0.0
 21
14.1587
 31
0.0
  0
LINE
  5
72B
100
AcDbEntity
  8
3
100
AcDbLine
 10
12.592556
 20
23.9087
 30
0.0
 11
4.148809
 21
19.0337
 31
0.0
  0
LINE
  5
72C
100
AcDbEntity
  8
3
100
AcDbLine
 10
4.148809
 20
19.0337
 30
0.0
 11
4.148809
 21
9.2837
 31
0.0
  0
POINT
  5
72D
100
AcDbEntity
  8
DEFPOINTS
  6
BYBLOCK
 62
     0
100
AcDbPoint
 10
4.148809
 20
9.2837
 30
0.0
  0
LINE
  5
72E
100
AcDbEntity
  8
0
  6
BYBLOCK
 62
     0
100
AcDbLine
 10
12.592556
 20
14.0687
 30
0.0
 11
12.592556
 21
14.2487
 31
0.0
  0
LINE
  5
72F
100
AcDbEntity
  8
0
  6
BYBLOCK
 62
     0
100
AcDbLine
 10
12.502556
 20
14.1587
 30
0.0
 11
12.682556
 21
14.1587
 31
0.0
  0
SOLID
  5
730
100
AcDbEntity
  8
0
  6
BYBLOCK
 62
     0
100
AcDbTrace
 10
7.337743
 20
22.673278
 30
0.0
 11
6.782399
 21
22.304446
 31
0.0
 12
8.166568
 22
20.82283
 32
0.0
 13
8.166568
 23
20.82283
 33
0.0
  0
POINT
  5
731
100
AcDbEntity
  8
DEFPOINTS
  6
BYBLOCK
 62
     0
100
AcDbPoint
 10
8.166568
 20
20.82283
 30
0.0
  0
LINE
  5
732
100
AcDbEntity
  8
3
100
AcDbLine
 10
21.036304
 20
9.2837
 30
0.0
 11
21.036304
 21
19.0337
 31
0.0
  0
POINT
  5
733
100
AcDbEntity
  8
DEFPOINTS
  6
BYBLOCK
 62
     0
100
AcDbPoint
 10
21.036304
 20
9.2837
 30
0.0
  0
LINE
  5
734
100
AcDbEntity
  8
3
100
AcDbLine
 10
63.592556
 20
8.1587
 30
0.0
 11
50.092556
 21
8.1587
 31
0.0
  0
LINE
  5
735
100
AcDbEntity
  8
3
100
AcDbLine
 10
48.592556
 20
9.6587
 30
0.0
 11
62.092556
 21
9.6587
 31
0.0
  0
LINE
  5
736
100
AcDbEntity
  8
3
100
AcDbLine
 10
48.592556
 20
18.6587
 30
0.0
 11
62.092556
 21
18.6587
 31
0.0
  0
LINE
  5
737
100
AcDbEntity
  8
3
100
AcDbLine
 10
63.592556
 20
20.1587
 30
0.0
 11
50.092556
 21
20.1587
 31
0.0
  0
LINE
  5
738
100
AcDbEntity
  8
3
100
AcDbLine
 10
50.092556
 20
8.1587
 30
0.0
 11
48.592556
 21
9.6587
 31
0.0
  0
LINE
  5
739
100
AcDbEntity
  8
3
100
AcDbLine
 10
50.092556
 20
20.1587
 30
0.0
 11
48.592556
 21
18.6587
 31
0.0
  0
LINE
  5
73A
100
AcDbEntity
  8
3
100
AcDbLine
 10
48.592556
 20
18.6587
 30
0.0
 11
48.592556
 21
14.1587
 31
0.0
  0
LINE
  5
73B
100
AcDbEntity
  8
3
100
AcDbLine
 10
48.592556
 20
9.6587
 30
0.0
 11
48.592556
 21
14.1587
 31
0.0
  0
POINT
  5
73C
100
AcDbEntity
  8
DEFPOINTS
  6
BYBLOCK
 62
     0
100
AcDbPoint
 10
48.592556
 20
18.6587
 30
0.0
  0
LINE
  5
73D
100
AcDbEntity
  8
3
100
AcDbLine
 10
50.092556
 20
20.1587
 30
0.0
 11
50.092556
 21
14.1587
 31
0.0
  0
LINE
  5
73E
100
AcDbEntity
  8
3
100
AcDbLine
 10
50.092556
 20
8.1587
 30
0.0
 11
50.092556
 21
14.1587
 31
0.0
  0
LINE
  5
73F
100
AcDbEntity
  8
3
100
AcDbLine
 10
63.592556
 20
22.1587
 30
0.0
 11
64.185085
 21
24.1587
 31
0.0
  0
LINE
  5
740
100
AcDbEntity
  8
3
100
AcDbLine
 10
76.592556
 20
24.1587
 30
0.0
 11
76.592556
 21
14.1587
 31
0.0
  0
LINE
  5
741
100
AcDbEntity
  8
3
100
AcDbLine
 10
63.692556
 20
19.1587
 30
0.0
 11
76.592556
 21
19.1587
 31
0.0
  0
LINE
  5
742
100
AcDbEntity
  8
3
100
AcDbLine
 10
63.692556
 20
9.1587
 30
0.0
 11
76.592556
 21
9.1587
 31
0.0
  0
ARC
  5
743
100
AcDbEntity
  8
3
100
AcDbCircle
 10
188.642556
 20
14.1587
 30
0.0
 40
125.05
100
AcDbArc
 50
177.708474
 51
182.291526
  0
LINE
  5
744
100
AcDbEntity
  8
3
100
AcDbLine
 10
62.092556
 20
20.1587
 30
0.0
 11
62.092556
 21
14.1587
 31
0.0
  0
LINE
  5
745
100
AcDbEntity
  8
3
100
AcDbLine
 10
63.592556
 20
14.1587
 30
0.0
 11
63.592556
 21
22.1587
 31
0.0
  0
LINE
  5
746
100
AcDbEntity
  8
3
100
AcDbLine
 10
62.092556
 20
8.1587
 30
0.0
 11
62.092556
 21
14.1587
 31
0.0
  0
POINT
  5
747
100
AcDbEntity
  8
DEFPOINTS
  6
BYBLOCK
 62
     0
100
AcDbPoint
 10
63.592556
 20
22.1587
 30
0.0
  0
LINE
  5
748
100
AcDbEntity
  8
3
100
AcDbLine
 10
76.592556
 20
14.1587
 30
0.0
 11
76.592556
 21
19.0587
 31
0.0
  0
LINE
  5
749
100
AcDbEntity
  8
3
100
AcDbLine
 10
76.592556
 20
14.1587
 30
0.0
 11
76.592556
 21
9.2587
 31
0.0
  0
LINE
  5
74A
100
AcDbEntity
  8
3
100
AcDbLine
 10
64.185085
 20
24.1587
 30
0.0
 11
76.592556
 21
24.1587
 31
0.0
  0
POINT
  5
74B
100
AcDbEntity
  8
DEFPOINTS
  6
BYBLOCK
 62
     0
100
AcDbPoint
 10
63.592556
 20
24.1587
 30
0.0
  0
POINT
  5
74C
100
AcDbEntity
  8
DEFPOINTS
  6
BYBLOCK
 62
     0
100
AcDbPoint
 10
63.592556
 20
24.1587
 30
0.0
  0
POINT
  5
74D
100
AcDbEntity
  8
DEFPOINTS
  6
BYBLOCK
 62
     0
100
AcDbPoint
 10
64.185085
 20
24.1587
 30
0.0
  0
POINT
  5
74E
100
AcDbEntity
  8
DEFPOINTS
  6
BYBLOCK
 62
     0
100
AcDbPoint
 10
76.592556
 20
24.1587
 30
0.0
  0
POINT
  5
74F
100
AcDbEntity
  8
DEFPOINTS
  6
BYBLOCK
 62
     0
100
AcDbPoint
 10
76.592556
 20
24.1587
 30
0.0
  0
LINE
  5
750
100
AcDbEntity
  8
2
100
AcDbLine
 10
100.592556
 20
12.1587
 30
0.0
 11
87.592556
 21
12.1587
 31
0.0
  0
LINE
  5
751
100
AcDbEntity
  8
2
100
AcDbLine
 10
101.259223
 20
11.1587
 30
0.0
 11
91.592556
 21
11.1587
 31
0.0
  0
LINE
  5
752
100
AcDbEntity
  8
2
100
AcDbLine
 10
101.259223
 20
17.1587
 30
0.0
 11
91.592556
 21
17.1587
 31
0.0
  0
LINE
  5
753
100
AcDbEntity
  8
2
100
AcDbLine
 10
100.592556
 20
16.1587
 30
0.0
 11
87.592556
 21
16.1587
 31
0.0
  0
LINE
  5
754
100
AcDbEntity
  8
2
100
AcDbLine
 10
87.592556
 20
16.1587
 30
0.0
 11
87.592556
 21
14.1587
 31
0.0
  0
LINE
  5
755
100
AcDbEntity
  8
2
100
AcDbLine
 10
87.592556
 20
16.1587
 30
0.0
 11
86.092556
 21
14.1587
 31
0.0
  0
LINE
  5
756
100
AcDbEntity
  8
2
100
AcDbLine
 10
90.592556
 20
16.1587
 30
0.0
 11
90.592556
 21
14.1587
 31
0.0
  0
LINE
  5
757
100
AcDbEntity
  8
2
100
AcDbLine
 10
91.592556
 20
17.1587
 30
0.0
 11
91.592556
 21
14.1587
 31
0.0
  0
LINE
  5
758
100
AcDbEntity
  8
2
100
AcDbLine
 10
87.592556
 20
12.1587
 30
0.0
 11
87.592556
 21
14.1587
 31
0.0
  0
LINE
  5
759
100
AcDbEntity
  8
2
100
AcDbLine
 10
87.592556
 20
12.1587
 30
0.0
 11
86.092556
 21
14.1587
 31
0.0
  0
LINE
  5
75A
100
AcDbEntity
  8
2
100
AcDbLine
 10
91.592556
 20
11.1587
 30
0.0
 11
90.592556
 21
12.1587
 31
0.0
  0
LINE
  5
75B
100
AcDbEntity
  8
2
100
AcDbLine
 10
91.592556
 20
11.1587
 30
0.0
 11
91.592556
 21
14.1587
 31
0.0
  0
POINT
  5
75C
100
AcDbEntity
  8
DEFPOINTS
  6
BYBLOCK
 62
     0
100
AcDbPoint
 10
91.592556
 20
11.1587
 30
0.0
  0
LINE
  5
75D
100
AcDbEntity
  8
2
100
AcDbLine
 10
90.592556
 20
12.1587
 30
0.0
 11
90.592556
 21
14.1587
 31
0.0
  0
LINE
  5
75E
100
AcDbEntity
  8
2
100
AcDbLine
 10
91.592556
 20
17.1587
 30
0.0
 11
90.592556
 21
16.1587
 31
0.0
  0
LINE
  5
75F
100
AcDbEntity
  8
2
100
AcDbLine
 10
100.592556
 20
16.1587
 30
0.0
 11
100.592556
 21
14.1587
 31
0.0
  0
LINE
  5
760
100
AcDbEntity
  8
3
100
AcDbLine
 10
101.592556
 20
9.2587
 30
0.0
 11
101.592556
 21
19.0587
 31
0.0
  0
SOLID
  5
761
100
AcDbEntity
  8
0
100
AcDbTrace
 10
102.319933
 20
11.630615
 30
0.0
 11
101.692556
 21
13.5587
 31
0.0
 12
102.911345
 22
11.93831
 32
0.0
 13
102.911345
 23
11.93831
 33
0.0
1001
ACAD
1000
DSTYLE
1002
{
1070
    78
1070
     8
1070
   288
1070
     1
1070
   284
1070
     8
1070
   140
1040
5.0
1070
   340
1005
139
1070
    73
1070
     0
1070
   272
1070
     2
1070
    42
1040
0.5
1070
    44
1040
0.5
1070
   271
1070
     2
1070
    41
1040
2.0
1002
}
  0
LINE
  5
762
100
AcDbEntity
  8
2
100
AcDbLine
 10
101.592556
 20
10.6587
 30
0.0
 11
100.592556
 21
12.1587
 31
0.0
  0
POINT
  5
763
100
AcDbEntity
  8
DEFPOINTS
  6
BYBLOCK
 62
     0
100
AcDbPoint
 10
101.592556
 20
9.2587
 30
0.0
  0
POINT
  5
764
100
AcDbEntity
  8
DEFPOINTS
  6
BYBLOCK
 62
     0
100
AcDbPoint
 10
101.592556
 20
9.2587
 30
0.0
  0
LINE
  5
765
100
AcDbEntity
  8
2
100
AcDbLine
 10
100.592556
 20
12.1587
 30
0.0
 11
100.592556
 21
14.1587
 31
0.0
  0
SOLID
  5
766
100
AcDbEntity
  8
0
100
AcDbTrace
 10
103.925117
 20
20.84049
 30
0.0
 11
102.792556
 21
19.1587
 31
0.0
 12
103.318452
 22
21.116899
 32
0.0
 13
103.318452
 23
21.116899
 33
0.0
1001
ACAD
1000
DSTYLE
1002
{
1070
    78
1070
     8
1070
   288
1070
     1
1070
   284
1070
     8
1070
   140
1040
5.0
1070
   340
1005
139
1070
    73
1070
     0
1070
   272
1070
     2
1070
    42
1040
0.5
1070
    44
1040
0.5
1070
   271
1070
     2
1070
    41
1040
2.0
1002
}
  0
POINT
  5
767
100
AcDbEntity
  8
DEFPOINTS
  6
BYBLOCK
 62
     0
100
AcDbPoint
 10
101.592556
 20
19.0587
 30
0.0
  0
POINT
  5
768
100
AcDbEntity
  8
DEFPOINTS
  6
BYBLOCK
 62
     0
100
AcDbPoint
 10
101.592556
 20
19.0587
 30
0.0
  0
LINE
  5
769
100
AcDbEntity
  8
2
100
AcDbLine
 10
101.592556
 20
17.6587
 30
0.0
 11
100.592556
 21
16.1587
 31
0.0
  0
ENDBLK
  5
76B
100
AcDbEntity
  8
0
100
AcDbBlockEnd
  0
ENDSEC
  0
SECTION
  2
ENTITIES
  0
LINE
  5
603
100
AcDbEntity
  8
3
100
AcDbLine
 10
64.7805
 20
80.302755
 30
0.0
 11
110.04063
 21
80.302755
 31
0.0
  0
LINE
  5
604
100
AcDbEntity
  8
3
100
AcDbLine
 10
64.7805
 20
55.302755
 30
0.0
 11
110.04063
 21
55.302755
 31
0.0
  0
LINE
  5
605
100
AcDbEntity
  8
1
100
AcDbLine
 10
51.54063
 20
67.802755
 30
0.0
 11
151.79063
 21
67.802755
 31
0.0
  0
ARC
  5
60C
100
AcDbEntity
  8
3
100
AcDbCircle
 10
74.04063
 20
67.802755
 30
0.0
 40
16.0
100
AcDbArc
 50
131.409622
 51
228.590378
  0
LINE
  5
60D
100
AcDbEntity
  8
3
100
AcDbLine
 10
64.053
 20
55.439761
 30
0.0
 11
64.04063
 21
67.802755
 31
0.0
  0
POINT
  5
610
100
AcDbEntity
  8
DEFPOINTS
  6
BYBLOCK
 62
     0
100
AcDbPoint
 10
63.457624
 20
55.802755
 30
0.0
  0
ARC
  5
613
100
AcDbEntity
  8
3
100
AcDbCircle
 10
64.7805
 20
57.302755
 30
0.0
 40
2.0
100
AcDbArc
 50
228.590378
 51
270.0
  0
POINT
  5
614
100
AcDbEntity
  8
DEFPOINTS
  6
BYBLOCK
 62
     0
100
AcDbPoint
 10
58.04063
 20
67.802755
 30
0.0
  0
POINT
  5
616
100
AcDbEntity
  8
DEFPOINTS
  6
BYBLOCK
 62
     0
100
AcDbPoint
 10
59.332013
 20
73.480764
 30
0.0
  0
POINT
  5
617
100
AcDbEntity
  8
DEFPOINTS
  6
BYBLOCK
 62
     0
100
AcDbPoint
 10
74.29063
 20
67.802755
 30
0.0
  0
ARC
  5
61D
100
AcDbEntity
  8
3
100
AcDbCircle
 10
64.7805
 20
78.302755
 30
0.0
 40
2.0
100
AcDbArc
 50
90.0
 51
131.409622
  0
POINT
  5
61E
100
AcDbEntity
  8
DEFPOINTS
  6
BYBLOCK
 62
     0
100
AcDbPoint
 10
66.053137
 20
80.302755
 30
0.0
  0
LINE
  5
62B
100
AcDbEntity
  8
3
100
AcDbLine
 10
145.04063
 20
67.802755
 30
0.0
 11
145.04063
 21
78.802755
 31
0.0
  0
LINE
  5
62C
100
AcDbEntity
  8
3
100
AcDbLine
 10
145.04063
 20
56.802755
 30
0.0
 11
110.04063
 21
55.302755
 31
0.0
  0
LINE
  5
62D
100
AcDbEntity
  8
3
100
AcDbLine
 10
110.04063
 20
55.302755
 30
0.0
 11
110.04063
 21
67.802755
 31
0.0
  0
LINE
  5
62E
100
AcDbEntity
  8
3
100
AcDbLine
 10
145.04063
 20
67.802755
 30
0.0
 11
145.04063
 21
56.802755
 31
0.0
  0
POINT
  5
62F
100
AcDbEntity
  8
DEFPOINTS
  6
BYBLOCK
 62
     0
100
AcDbPoint
 10
145.04063
 20
56.802755
 30
0.0
  0
POINT
  5
630
100
AcDbEntity
  8
DEFPOINTS
  6
BYBLOCK
 62
     0
100
AcDbPoint
 10
145.04063
 20
56.802755
 30
0.0
  0
POINT
  5
631
100
AcDbEntity
  8
DEFPOINTS
  6
BYBLOCK
 62
     0
100
AcDbPoint
 10
145.04063
 20
62.802755
 30
0.0
  0
POINT
  5
632
100
AcDbEntity
  8
DEFPOINTS
  6
BYBLOCK
 62
     0
100
AcDbPoint
 10
145.04063
 20
72.802755
 30
0.0
  0
LINE
  5
635
100
AcDbEntity
  8
3
100
AcDbLine
 10
145.04063
 20
78.802755
 30
0.0
 11
110.04063
 21
80.302755
 31
0.0
  0
POINT
  5
636
100
AcDbEntity
  8
DEFPOINTS
  6
BYBLOCK
 62
     0
100
AcDbPoint
 10
110.04063
 20
80.302755
 30
0.0
  0
POINT
  5
63B
100
AcDbEntity
  8
DEFPOINTS
  6
BYBLOCK
 62
     0
100
AcDbPoint
 10
145.04063
 20
78.802755
 30
0.0
  0
POINT
  5
63C
100
AcDbEntity
  8
DEFPOINTS
  6
BYBLOCK
 62
     0
100
AcDbPoint
 10
145.04063
 20
78.802755
 30
0.0
  0
POINT
  5
63D
100
AcDbEntity
  8
DEFPOINTS
  6
BYBLOCK
 62
     0
100
AcDbPoint
 10
145.04063
 20
78.802755
 30
0.0
  0
POINT
  5
63E
100
AcDbEntity
  8
DEFPOINTS
  6
BYBLOCK
 62
     0
100
AcDbPoint
 10
145.04063
 20
78.802755
 30
0.0
  0
CIRCLE
  5
652
100
AcDbEntity
  8
3
100
AcDbCircle
 10
217.04063
 20
67.802755
 30
0.0
 40
11.0
  0
CIRCLE
  5
653
100
AcDbEntity
  8
3
100
AcDbCircle
 10
217.04063
 20
67.802755
 30
0.0
 40
12.5
  0
LINE
  5
654
100
AcDbEntity
  8
1
100
AcDbLine
 10
217.04063
 20
86.052755
 30
0.0
 11
217.04063
 21
50.052755
 31
0.0
  0
LINE
  5
656
100
AcDbEntity
  8
1
100
AcDbLine
 10
198.04063
 20
67.802755
 30
0.0
 11
235.29063
 21
67.802755
 31
0.0
  0
LINE
  5
657
100
AcDbEntity
  8
3
100
AcDbLine
 10
64.053
 20
80.165748
 30
0.0
 11
64.04063
 21
67.802755
 31
0.0
  0
LINE
  5
658
100
AcDbEntity
  8
3
100
AcDbLine
 10
110.04063
 20
80.302755
 30
0.0
 11
110.04063
 21
67.802755
 31
0.0
  0
LINE
  5
7BF
100
AcDbEntity
  8
3
100
AcDbLine
 10
158.04063
 20
73.802755
 30
0.0
 11
171.54063
 21
73.802755
 31
0.0
  0
LINE
  5
7C0
100
AcDbEntity
  8
3
100
AcDbLine
 10
173.04063
 20
72.302755
 30
0.0
 11
159.54063
 21
72.302755
 31
0.0
  0
LINE
  5
7C1
100
AcDbEntity
  8
3
100
AcDbLine
 10
158.04063
 20
67.802755
 30
0.0
 11
158.04063
 21
75.802755
 31
0.0
  0
LINE
  5
7C2
100
AcDbEntity
  8
3
100
AcDbLine
 10
159.54063
 20
73.802755
 30
0.0
 11
159.54063
 21
67.802755
 31
0.0
  0
ARC
  5
7C3
100
AcDbEntity
  8
3
100
AcDbCircle
 10
32.99063
 20
67.802755
 30
0.0
 40
125.05
100
AcDbArc
 50
357.708474
 51
2.291526
  0
LINE
  5
7C4
100
AcDbEntity
  8
3
100
AcDbLine
 10
157.94063
 20
77.802755
 30
0.0
 11
145.04063
 21
77.802755
 31
0.0
  0
LINE
  5
7C5
100
AcDbEntity
  8
3
100
AcDbLine
 10
157.94063
 20
72.802755
 30
0.0
 11
145.04063
 21
72.802755
 31
0.0
  0
ARC
  5
7C6
100
AcDbEntity
  8
3
100
AcDbCircle
 10
126.79063
 20
75.302755
 30
0.0
 40
31.25016
100
AcDbArc
 50
355.411458
 51
4.588542
  0
LINE
  5
7C7
100
AcDbEntity
  8
3
100
AcDbLine
 10
158.04063
 20
75.802755
 30
0.0
 11
157.94063
 21
77.802755
 31
0.0
  0
LINE
  5
7C8
100
AcDbEntity
  8
3
100
AcDbLine
 10
171.54063
 20
73.802755
 30
0.0
 11
171.54063
 21
67.802755
 31
0.0
  0
LINE
  5
7C9
100
AcDbEntity
  8
3
100
AcDbLine
 10
173.04063
 20
72.302755
 30
0.0
 11
173.04063
 21
67.802755
 31
0.0
  0
LINE
  5
7CA
100
AcDbEntity
  8
3
100
AcDbLine
 10
171.54063
 20
73.802755
 30
0.0
 11
173.04063
 21
72.302755
 31
0.0
  0
LINE
  5
7CB
100
AcDbEntity
  8
3
100
AcDbLine
 10
158.04063
 20
61.802755
 30
0.0
 11
171.54063
 21
61.802755
 31
0.0
  0
LINE
  5
7CC
100
AcDbEntity
  8
3
100
AcDbLine
 10
173.04063
 20
63.302755
 30
0.0
 11
159.54063
 21
63.302755
 31
0.0
  0
LINE
  5
7CD
100
AcDbEntity
  8
3
100
AcDbLine
 10
157.94063
 20
62.802755
 30
0.0
 11
145.04063
 21
62.802755
 31
0.0
  0
LINE
  5
7CE
100
AcDbEntity
  8
3
100
AcDbLine
 10
157.448101
 20
57.802755
 30
0.0
 11
145.04063
 21
57.802755
 31
0.0
  0
LINE
  5
7CF
100
AcDbEntity
  8
3
100
AcDbLine
 10
159.54063
 20
61.802755
 30
0.0
 11
159.54063
 21
67.802755
 31
0.0
  0
LINE
  5
7D0
100
AcDbEntity
  8
3
100
AcDbLine
 10
158.04063
 20
67.802755
 30
0.0
 11
158.04063
 21
59.802755
 31
0.0
  0
LINE
  5
7D1
100
AcDbEntity
  8
3
100
AcDbLine
 10
158.04063
 20
59.802755
 30
0.0
 11
157.448101
 21
57.802755
 31
0.0
  0
POINT
  5
7D2
100
AcDbEntity
  8
DEFPOINTS
  6
BYBLOCK
 62
     0
100
AcDbPoint
 10
157.448101
 20
57.802755
 30
0.0
  0
POINT
  5
7D3
100
AcDbEntity
  8
DEFPOINTS
  6
BYBLOCK
 62
     0
100
AcDbPoint
 10
158.04063
 20
57.802755
 30
0.0
  0
POINT
  5
7D4
100
AcDbEntity
  8
DEFPOINTS
  6
BYBLOCK
 62
     0
100
AcDbPoint
 10
158.04063
 20
57.802755
 30
0.0
  0
POINT
  5
7D5
100
AcDbEntity
  8
DEFPOINTS
  6
BYBLOCK
 62
     0
100
AcDbPoint
 10
158.04063
 20
59.802755
 30
0.0
  0
LINE
  5
7D6
100
AcDbEntity
  8
3
100
AcDbLine
 10
171.54063
 20
61.802755
 30
0.0
 11
173.04063
 21
63.302755
 31
0.0
  0
LINE
  5
7D7
100
AcDbEntity
  8
3
100
AcDbLine
 10
171.54063
 20
61.802755
 30
0.0
 11
171.54063
 21
67.802755
 31
0.0
  0
LINE
  5
7D8
100
AcDbEntity
  8
3
100
AcDbLine
 10
173.04063
 20
63.302755
 30
0.0
 11
173.04063
 21
67.802755
 31
0.0
  0
POINT
  5
7D9
100
AcDbEntity
  8
DEFPOINTS
  6
BYBLOCK
 62
     0
100
AcDbPoint
 10
173.04063
 20
63.302755
 30
0.0
  0
LINE
  5
7DA
100
AcDbEntity
  8
3
100
AcDbLine
 10
208.596882
 20
62.927755
 30
0.0
 11
217.04063
 21
58.052755
 31
0.0
  0
LINE
  5
7DB
100
AcDbEntity
  8
3
100
AcDbLine
 10
217.04063
 20
77.552755
 30
0.0
 11
208.596882
 21
72.677755
 31
0.0
  0
CIRCLE
  5
7DC
100
AcDbEntity
  8
0
100
AcDbCircle
 10
217.04063
 20
67.802755
 30
0.0
 40
8.0
  0
LINE
  5
7DD
100
AcDbEntity
  8
3
100
AcDbLine
 10
208.596882
 20
72.677755
 30
0.0
 11
208.596882
 21
62.927755
 31
0.0
  0
POINT
  5
7DE
100
AcDbEntity
  8
DEFPOINTS
  6
BYBLOCK
 62
     0
100
AcDbPoint
 10
208.596882
 20
72.677755
 30
0.0
  0
CIRCLE
  5
7DF
100
AcDbEntity
  8
3
100
AcDbCircle
 10
217.04063
 20
67.802755
 30
0.0
 40
4.5
  0
CIRCLE
  5
7E0
100
AcDbEntity
  8
3
100
AcDbCircle
 10
217.04063
 20
67.802755
 30
0.0
 40
6.0
  0
LINE
  5
7E1
100
AcDbEntity
  8
3
100
AcDbLine
 10
225.484377
 20
62.927755
 30
0.0
 11
225.484377
 21
72.677755
 31
0.0
  0
LINE
  5
7E2
100
AcDbEntity
  8
3
100
AcDbLine
 10
217.04063
 20
58.052755
 30
0.0
 11
225.484377
 21
62.927755
 31
0.0
  0
LINE
  5
7E3
100
AcDbEntity
  8
0
  6
BYBLOCK
 62
     0
100
AcDbLine
 10
217.04063
 20
67.892755
 30
0.0
 11
217.04063
 21
67.712755
 31
0.0
  0
LINE
  5
7E4
100
AcDbEntity
  8
0
  6
BYBLOCK
 62
     0
100
AcDbLine
 10
217.13063
 20
67.802755
 30
0.0
 11
216.95063
 21
67.802755
 31
0.0
  0
POINT
  5
7E5
100
AcDbEntity
  8
DEFPOINTS
  6
BYBLOCK
 62
     0
100
AcDbPoint
 10
221.466618
 20
61.138625
 30
0.0
  0
LINE
  5
7E6
100
AcDbEntity
  8
3
100
AcDbLine
 10
225.484377
 20
72.677755
 30
0.0
 11
217.04063
 21
77.552755
 31
0.0
  0
POINT
  5
7E7
100
AcDbEntity
  8
DEFPOINTS
  6
BYBLOCK
 62
     0
100
AcDbPoint
 10
212.614641
 20
74.466885
 30
0.0
  0
POINT
  5
7E8
100
AcDbEntity
  8
DEFPOINTS
  6
BYBLOCK
 62
     0
100
AcDbPoint
 10
225.484377
 20
72.677755
 30
0.0
  0
ENDSEC
  0
SECTION
  2
OBJECTS
  0
DICTIONARY
  5
124
100
AcDbDictionary
  3
ACAD_GROUP
350
125
  3
ACAD_MLINESTYLE
350
132
  3
ACDBVARIABLEDICTIONARY
350
149
  0
DICTIONARY
  5
125
102
{ACAD_REACTORS
330
124
102
}
100
AcDbDictionary
  0
DICTIONARY
  5
132
102
{ACAD_REACTORS
330
124
102
}
100
AcDbDictionary
  3
STANDARD
350
133
  0
DICTIONARY
  5
149
102
{ACAD_REACTORS
330
124
102
}
100
AcDbDictionary
  3
DIMADEC
350
14A
  0
MLINESTYLE
  5
133
102
{ACAD_REACTORS
330
132
102
}
100
AcDbMlineStyle
  2
STANDARD
 70
     0
  3

 62
   256
 51
90.0
 52
90.0
 71
     2
 49
0.5
 62
   256
  6
BYLAYER
 49
-0.5
 62
   256
  6
BYLAYER
  0
DICTIONARYVAR
  5
14A
102
{ACAD_REACTORS
330
149
102
}
100
DictionaryVariables
280
     0
  1
0
  0
ENDSEC
  0
EOF
