  0
SECTION
  2
HEADER
  9
$ACADVER
  1
AC1014
  9
$ACADMAINTVER
 70
     0
  9
$DWGCODEPAGE
  3
ANSI_932
  9
$INSBASE
 10
0.0
 20
0.0
 30
0.0
  9
$EXTMIN
 10
32.932137
 20
65.0
 30
0.0
  9
$EXTMAX
 10
220.209346
 20
173.817887
 30
0.0
  9
$LIMMIN
 10
0.0
 20
0.0
  9
$LIMMAX
 10
250.0
 20
160.0
  9
$ORTHOMODE
 70
     0
  9
$REGENMODE
 70
     1
  9
$FILLMODE
 70
     1
  9
$QTEXTMODE
 70
     0
  9
$MIRRTEXT
 70
     1
  9
$DRAGMODE
 70
     1
  9
$LTSCALE
 40
10.0
  9
$OSMODE
 70
    32
  9
$ATTMODE
 70
     1
  9
$TEXTSIZE
 40
5.5
  9
$TRACEWID
 40
0.05
  9
$TEXTSTYLE
  7
BIGFONT
  9
$CLAYER
  8
0
  9
$CELTYPE
  6
BYLAYER
  9
$CECOLOR
 62
   256
  9
$CELTSCALE
 40
1.0
  9
$DELOBJ
 70
     1
  9
$DISPSILH
 70
     0
  9
$DIMSCALE
 40
1.0
  9
$DIMASZ
 40
3.0
  9
$DIMEXO
 40
2.0
  9
$DIMDLI
 40
0.38
  9
$DIMRND
 40
0.0
  9
$DIMDLE
 40
0.0
  9
$DIMEXE
 40
2.0
  9
$DIMTP
 40
0.0
  9
$DIMTM
 40
0.0
  9
$DIMTXT
 40
3.2
  9
$DIMCEN
 40
0.0
  9
$DIMTSZ
 40
0.0
  9
$DIMTOL
 70
     0
  9
$DIMLIM
 70
     0
  9
$DIMTIH
 70
     0
  9
$DIMTOH
 70
     0
  9
$DIMSE1
 70
     0
  9
$DIMSE2
 70
     0
  9
$DIMTAD
 70
     1
  9
$DIMZIN
 70
     0
  9
$DIMBLK
  1

  9
$DIMASO
 70
     0
  9
$DIMSHO
 70
     0
  9
$DIMPOST
  1

  9
$DIMAPOST
  1

  9
$DIMALT
 70
     0
  9
$DIMALTD
 70
     2
  9
$DIMALTF
 40
25.4
  9
$DIMLFAC
 40
1.0
  9
$DIMTOFL
 70
     0
  9
$DIMTVP
 40
1.6
  9
$DIMTIX
 70
     1
  9
$DIMSOXD
 70
     0
  9
$DIMSAH
 70
     0
  9
$DIMBLK1
  1

  9
$DIMBLK2
  1

  9
$DIMSTYLE
  2
STANDARD
  9
$DIMCLRD
 70
     0
  9
$DIMCLRE
 70
     0
  9
$DIMCLRT
 70
     0
  9
$DIMTFAC
 40
1.0
  9
$DIMGAP
 40
0.09
  9
$DIMJUST
 70
     0
  9
$DIMSD1
 70
     0
  9
$DIMSD2
 70
     0
  9
$DIMTOLJ
 70
     1
  9
$DIMTZIN
 70
     0
  9
$DIMALTZ
 70
     0
  9
$DIMALTTZ
 70
     0
  9
$DIMFIT
 70
     5
  9
$DIMUPT
 70
     0
  9
$DIMUNIT
 70
     2
  9
$DIMDEC
 70
     4
  9
$DIMTDEC
 70
     4
  9
$DIMALTU
 70
     2
  9
$DIMALTTD
 70
     2
  9
$DIMTXSTY
  7
BIGFONT
  9
$DIMAUNIT
 70
     0
  9
$LUNITS
 70
     2
  9
$LUPREC
 70
     4
  9
$SKETCHINC
 40
0.1
  9
$FILLETRAD
 40
0.0
  9
$AUNITS
 70
     0
  9
$AUPREC
 70
     0
  9
$MENU
  1
ACAD
  9
$ELEVATION
 40
0.0
  9
$PELEVATION
 40
0.0
  9
$THICKNESS
 40
0.0
  9
$LIMCHECK
 70
     0
  9
$BLIPMODE
 70
     0
  9
$CHAMFERA
 40
0.0
  9
$CHAMFERB
 40
0.0
  9
$CHAMFERC
 40
0.0
  9
$CHAMFERD
 40
0.0
  9
$SKPOLY
 70
     0
  9
$TDCREATE
 40
2450868.914083449
  9
$TDUPDATE
 40
2453593.635568391
  9
$TDINDWG
 40
0.0022012500
  9
$TDUSRTIMER
 40
0.0022012500
  9
$USRTIMER
 70
     1
  9
$ANGBASE
 50
0.0
  9
$ANGDIR
 70
     0
  9
$PDMODE
 70
     0
  9
$PDSIZE
 40
0.0
  9
$PLINEWID
 40
0.0
  9
$COORDS
 70
     2
  9
$SPLFRAME
 70
     0
  9
$SPLINETYPE
 70
     6
  9
$SPLINESEGS
 70
     8
  9
$ATTDIA
 70
     0
  9
$ATTREQ
 70
     1
  9
$HANDLING
 70
     1
  9
$HANDSEED
  5
28E
  9
$SURFTAB1
 70
     6
  9
$SURFTAB2
 70
     6
  9
$SURFTYPE
 70
     6
  9
$SURFU
 70
     6
  9
$SURFV
 70
     6
  9
$UCSNAME
  2

  9
$UCSORG
 10
0.0
 20
0.0
 30
0.0
  9
$UCSXDIR
 10
1.0
 20
0.0
 30
0.0
  9
$UCSYDIR
 10
0.0
 20
1.0
 30
0.0
  9
$PUCSNAME
  2

  9
$PUCSORG
 10
0.0
 20
0.0
 30
0.0
  9
$PUCSXDIR
 10
1.0
 20
0.0
 30
0.0
  9
$PUCSYDIR
 10
0.0
 20
1.0
 30
0.0
  9
$USERI1
 70
     0
  9
$USERI2
 70
     0
  9
$USERI3
 70
     0
  9
$USERI4
 70
     0
  9
$USERI5
 70
     0
  9
$USERR1
 40
0.0
  9
$USERR2
 40
0.0
  9
$USERR3
 40
0.0
  9
$USERR4
 40
0.0
  9
$USERR5
 40
0.0
  9
$WORLDVIEW
 70
     1
  9
$SHADEDGE
 70
     3
  9
$SHADEDIF
 70
    70
  9
$TILEMODE
 70
     1
  9
$MAXACTVP
 70
    16
  9
$PINSBASE
 10
0.0
 20
0.0
 30
0.0
  9
$PLIMCHECK
 70
     0
  9
$PEXTMIN
 10
1.000000E+20
 20
1.000000E+20
 30
1.000000E+20
  9
$PEXTMAX
 10
-1.000000E+20
 20
-1.000000E+20
 30
-1.000000E+20
  9
$PLIMMIN
 10
0.0
 20
0.0
  9
$PLIMMAX
 10
12.0
 20
9.0
  9
$UNITMODE
 70
     0
  9
$VISRETAIN
 70
     0
  9
$PLINEGEN
 70
   152
  9
$PSLTSCALE
 70
     0
  9
$TREEDEPTH
 70
  3020
  9
$PICKSTYLE
 70
     1
  9
$CMLSTYLE
  2
STANDARD
  9
$CMLJUST
 70
     0
  9
$CMLSCALE
 40
1.0
  9
$PROXYGRAPHICS
 70
     1
  9
$MEASUREMENT
 70
     0
  0
ENDSEC
  0
SECTION
  2
CLASSES
  0
CLASS
  1
DICTIONARYVAR
  2
AcDbDictionaryVar
  3
"AutoCAD"
 90
        0
280
     0
281
     0
  0
CLASS
  1
LWPOLYLINE
  2
AcDbPolyline
  3
"AutoCAD"
 90
        0
280
     0
281
     1
  0
ENDSEC
  0
SECTION
  2
TABLES
  0
TABLE
  2
VPORT
  5
BD
100
AcDbSymbolTable
 70
     6
  0
VPORT
  5
28D
100
AcDbSymbolTableRecord
100
AcDbViewportTableRecord
  2
*ACTIVE
 70
     0
 10
0.0
 20
0.0
 11
1.0
 21
1.0
 12
141.889764
 22
98.881727
 13
0.0
 23
0.0
 14
5.0
 24
5.0
 15
10.0
 25
10.0
 16
0.0
 26
0.0
 36
1.0
 17
0.0
 27
0.0
 37
0.0
 40
197.763453
 41
1.434944
 42
50.0
 43
0.0
 44
0.0
 50
0.0
 51
0.0
 71
     0
 72
   500
 73
     1
 74
     1
 75
     0
 76
     0
 77
     0
 78
     1
  0
ENDTAB
  0
TABLE
  2
LTYPE
  5
BA
100
AcDbSymbolTable
 70
     3
  0
LTYPE
  5
C6
100
AcDbSymbolTableRecord
100
AcDbLinetypeTableRecord
  2
BYBLOCK
 70
     0
  3

 72
    65
 73
     0
 40
0.0
  0
LTYPE
  5
C7
100
AcDbSymbolTableRecord
100
AcDbLinetypeTableRecord
  2
BYLAYER
 70
     0
  3

 72
    65
 73
     0
 40
0.0
  0
LTYPE
  5
C8
100
AcDbSymbolTableRecord
100
AcDbLinetypeTableRecord
  2
CONTINUOUS
 70
     0
  3
実線
 72
    65
 73
     0
 40
0.0
  0
LTYPE
  5
D4
100
AcDbSymbolTableRecord
100
AcDbLinetypeTableRecord
  2
CENTER
 70
     0
  3
____ _ ____ _ ____ _ ____ _ ____ _ ____ _ ____
 72
    65
 73
     4
 40
2.0
 49
1.25
 74
     0
 49
-0.25
 74
     0
 49
0.25
 74
     0
 49
-0.25
 74
     0
  0
LTYPE
  5
ED
100
AcDbSymbolTableRecord
100
AcDbLinetypeTableRecord
  2
ITTEN1
 70
     0
  3

 72
    65
 73
     4
 40
8.2
 49
5.0
 74
     0
 49
-1.0
 74
     0
 49
1.2
 74
     0
 49
-1.0
 74
     0
  0
ENDTAB
  0
TABLE
  2
LAYER
  5
B7
100
AcDbSymbolTable
 70
     6
  0
LAYER
  5
C3
100
AcDbSymbolTableRecord
100
AcDbLayerTableRecord
  2
0
 70
     0
 62
     7
  6
CONTINUOUS
  0
LAYER
  5
D9
100
AcDbSymbolTableRecord
100
AcDbLayerTableRecord
  2
1
 70
     0
 62
     1
  6
CENTER
  0
LAYER
  5
DA
100
AcDbSymbolTableRecord
100
AcDbLayerTableRecord
  2
3
 70
     0
 62
     3
  6
CONTINUOUS
  0
LAYER
  5
DB
100
AcDbSymbolTableRecord
100
AcDbLayerTableRecord
  2
10
 70
     0
 62
     7
  6
CONTINUOUS
  0
LAYER
  5
DC
100
AcDbSymbolTableRecord
100
AcDbLayerTableRecord
  2
11
 70
     0
 62
     3
  6
CONTINUOUS
  0
LAYER
  5
185
100
AcDbSymbolTableRecord
100
AcDbLayerTableRecord
  2
DEFPOINTS
 70
     0
 62
     7
  6
CONTINUOUS
  0
ENDTAB
  0
TABLE
  2
STYLE
  5
B8
100
AcDbSymbolTable
 70
     4
  0
STYLE
  5
C4
100
AcDbSymbolTableRecord
100
AcDbTextStyleTableRecord
  2
STANDARD
 70
     0
 40
0.0
 41
1.0
 50
0.0
 71
     0
 42
0.2
  3
TXT
  4
BIGFONT
  0
STYLE
  5
D2
100
AcDbSymbolTableRecord
100
AcDbTextStyleTableRecord
  2
07500
 70
     0
 40
0.0
 41
0.75
 50
0.0
 71
     0
 42
6.0
  3
TXT
  4
BIGFONT
  0
STYLE
  5
D3
100
AcDbSymbolTableRecord
100
AcDbTextStyleTableRecord
  2
BIGFONT
 70
     0
 40
5.5
 41
0.8
 50
0.0
 71
     0
 42
5.5
  3

  4
bigfont
  0
STYLE
  5
EE
100
AcDbSymbolTableRecord
100
AcDbTextStyleTableRecord
  2
EXTFONT
 70
     0
 40
4.0
 41
0.75
 50
0.0
 71
     0
 42
4.0
  3
txt.shx
  4
extfont.shx
  0
ENDTAB
  0
TABLE
  2
VIEW
  5
BB
100
AcDbSymbolTable
 70
     1
  0
VIEW
  5
D5
100
AcDbSymbolTableRecord
100
AcDbViewTableRecord
  2
ALL
 70
     0
 40
270.0
 10
220.991597
 20
135.0
 41
0.0
 11
0.0
 21
0.0
 31
1.0
 12
0.0
 22
0.0
 32
0.0
 42
0.0
 43
0.0
 44
0.0
 50
0.0
 71
     0
  0
ENDTAB
  0
TABLE
  2
UCS
  5
BC
100
AcDbSymbolTable
 70
     0
  0
ENDTAB
  0
TABLE
  2
APPID
  5
BE
100
AcDbSymbolTable
 70
     1
  0
APPID
  5
C5
100
AcDbSymbolTableRecord
100
AcDbRegAppTableRecord
  2
ACAD
 70
     0
  0
ENDTAB
  0
TABLE
  2
DIMSTYLE
  5
BF
100
AcDbSymbolTable
 70
     1
  0
DIMSTYLE
105
D8
100
AcDbSymbolTableRecord
100
AcDbDimStyleTableRecord
  2
STANDARD
 70
     0
  3

  4

  5

  6

  7

 40
1.0
 41
0.18
 42
0.0625
 43
0.38
 44
0.18
 45
0.0
 46
0.0
 47
0.0
 48
0.0
140
0.18
141
0.09
142
0.0
143
25.4
144
1.0
145
0.0
146
1.0
147
0.09
 71
     0
 72
     0
 73
     1
 74
     1
 75
     0
 76
     0
 77
     0
 78
     0
170
     0
171
     2
172
     0
173
     0
174
     0
175
     0
176
     0
177
     0
178
     0
270
     2
271
     4
272
     4
273
     2
274
     2
340
D3
275
     0
280
     0
281
     0
282
     0
283
     1
284
     0
285
     0
286
     0
287
     5
288
     0
  0
ENDTAB
  0
TABLE
  2
BLOCK_RECORD
  5
B6
100
AcDbSymbolTable
 70
     8
  0
BLOCK_RECORD
  5
CC
100
AcDbSymbolTableRecord
100
AcDbBlockTableRecord
  2
*MODEL_SPACE
  0
BLOCK_RECORD
  5
C9
100
AcDbSymbolTableRecord
100
AcDbBlockTableRecord
  2
*PAPER_SPACE
  0
BLOCK_RECORD
  5
D1
100
AcDbSymbolTableRecord
100
AcDbBlockTableRecord
  2
QQ
  0
BLOCK_RECORD
  5
E7
100
AcDbSymbolTableRecord
100
AcDbBlockTableRecord
  2
A$C2DD26471
  0
BLOCK_RECORD
  5
EF
100
AcDbSymbolTableRecord
100
AcDbBlockTableRecord
  2
A$C5A656A21
  0
BLOCK_RECORD
  5
16B
100
AcDbSymbolTableRecord
100
AcDbBlockTableRecord
  2
*D3
  0
BLOCK_RECORD
  5
178
100
AcDbSymbolTableRecord
100
AcDbBlockTableRecord
  2
*D4
  0
BLOCK_RECORD
  5
186
100
AcDbSymbolTableRecord
100
AcDbBlockTableRecord
  2
A$C310B5463
  0
BLOCK_RECORD
  5
222
100
AcDbSymbolTableRecord
100
AcDbBlockTableRecord
  2
*D6
  0
BLOCK_RECORD
  5
23D
100
AcDbSymbolTableRecord
100
AcDbBlockTableRecord
  2
*D7
  0
ENDTAB
  0
ENDSEC
  0
SECTION
  2
BLOCKS
  0
BLOCK
  5
DF
100
AcDbEntity
  8
0
100
AcDbBlockBegin
  2
*MODEL_SPACE
 70
     0
 10
0.0
 20
0.0
 30
0.0
  3
*MODEL_SPACE
  1

  0
ENDBLK
  5
E0
100
AcDbEntity
  8
0
100
AcDbBlockEnd
  0
BLOCK
  5
DD
100
AcDbEntity
 67
     1
  8
0
100
AcDbBlockBegin
  2
*PAPER_SPACE
 70
     0
 10
0.0
 20
0.0
 30
0.0
  3
*PAPER_SPACE
  1

  0
ENDBLK
  5
DE
100
AcDbEntity
 67
     1
  8
0
100
AcDbBlockEnd
  0
BLOCK
  5
2B
100
AcDbEntity
  8
0
100
AcDbBlockBegin
  2
QQ
 70
     0
 10
270.0
 20
0.0
 30
0.0
  3
QQ
  1

  0
LINE
  5
2C
100
AcDbEntity
  8
11
100
AcDbLine
 10
173.0
 20
36.0
 30
0.0
 11
270.0
 21
36.0
 31
0.0
  0
TEXT
  5
2D
100
AcDbEntity
  8
11
100
AcDbText
 10
175.0
 20
32.5
 30
0.0
 40
2.5
  1
部品名称
100
AcDbText
  0
LINE
  5
2E
100
AcDbEntity
  8
11
100
AcDbLine
 10
173.0
 20
36.0
 30
0.0
 11
173.0
 21
0.0
 31
0.0
  0
LINE
  5
2F
100
AcDbEntity
  8
11
100
AcDbLine
 10
173.0
 20
24.0
 30
0.0
 11
270.0
 21
24.0
 31
0.0
  0
TEXT
  5
30
100
AcDbEntity
  8
11
100
AcDbText
 10
175.0
 20
20.5
 30
0.0
 40
2.5
  1
品番
100
AcDbText
  0
LINE
  5
31
100
AcDbEntity
  8
11
100
AcDbLine
 10
173.0
 20
12.0
 30
0.0
 11
270.0
 21
12.0
 31
0.0
  0
TEXT
  5
32
100
AcDbEntity
  8
11
100
AcDbText
 10
175.0
 20
8.5
 30
0.0
 40
2.5
  1
尺度
100
AcDbText
  0
TEXT
  5
33
100
AcDbEntity
  8
11
100
AcDbText
 10
200.0
 20
8.5
 30
0.0
 40
2.5
  1
図番
100
AcDbText
  0
LINE
  5
34
100
AcDbEntity
  8
11
100
AcDbLine
 10
198.0
 20
0.0
 30
0.0
 11
198.0
 21
12.0
 31
0.0
  0
ENDBLK
  5
35
100
AcDbEntity
  8
0
100
AcDbBlockEnd
  0
BLOCK
  5
EB
100
AcDbEntity
  8
0
100
AcDbBlockBegin
  2
A$C2DD26471
 70
     0
 10
0.0
 20
0.0
 30
0.0
  3
A$C2DD26471
  1

  0
ARC
  5
E8
100
AcDbEntity
  8
3
100
AcDbCircle
 10
2.863913
 20
20.616675
 30
0.0
 40
2.864087
100
AcDbArc
 50
123.680686
 51
236.319314
  0
ARC
  5
E9
100
AcDbEntity
  8
3
100
AcDbCircle
 10
9.512877
 20
11.5
 30
0.0
 40
9.487283
100
AcDbArc
 50
150.255297
 51
209.744703
  0
ARC
  5
EA
100
AcDbEntity
  8
3
100
AcDbCircle
 10
2.863913
 20
2.383325
 30
0.0
 40
2.864087
100
AcDbArc
 50
123.680686
 51
236.319314
  0
ENDBLK
  5
EC
100
AcDbEntity
  8
0
100
AcDbBlockEnd
  0
BLOCK
  5
12B
100
AcDbEntity
  8
0
100
AcDbBlockBegin
  2
A$C5A656A21
 70
     0
 10
0.0
 20
0.0
 30
0.0
  3
A$C5A656A21
  1

  0
LINE
  5
F0
100
AcDbEntity
  8
1
100
AcDbLine
 10
52.493663
 20
21.489254
 30
0.0
 11
187.27721
 21
21.489254
 31
0.0
  0
LINE
  5
F1
100
AcDbEntity
  8
3
100
AcDbLine
 10
87.544589
 20
34.226922
 30
0.0
 11
172.545189
 21
35.435412
 31
0.0
  0
LINE
  5
F2
100
AcDbEntity
  8
3
100
AcDbLine
 10
87.532136
 20
8.726925
 30
0.0
 11
172.531515
 21
7.435416
 31
0.0
  0
LINE
  5
F3
100
AcDbEntity
  8
1
100
AcDbLine
 10
23.489498
 20
0.0
 30
0.0
 11
23.50952
 21
40.999995
 31
0.0
  0
LINE
  5
F4
100
AcDbEntity
  8
3
100
AcDbLine
 10
55.038368
 20
25.989254
 30
0.0
 11
75.038368
 21
25.989254
 31
0.0
  0
LINE
  5
F5
100
AcDbEntity
  8
3
100
AcDbLine
 10
72.038368
 20
27.489254
 30
0.0
 11
56.538368
 21
27.489254
 31
0.0
  0
LINE
  5
F6
100
AcDbEntity
  8
3
100
AcDbLine
 10
72.038368
 20
15.489254
 30
0.0
 11
56.538368
 21
15.489254
 31
0.0
  0
LINE
  5
F7
100
AcDbEntity
  8
3
100
AcDbLine
 10
55.038368
 20
16.989254
 30
0.0
 11
75.038368
 21
16.989254
 31
0.0
  0
LWPOLYLINE
  5
F8
100
AcDbEntity
  8
3
100
AcDbPolyline
 90
        2
 70
     0
 43
0.0
 10
21.152664
 20
32.757885
 10
14.924048
 20
29.161791
  0
LWPOLYLINE
  5
F9
100
AcDbEntity
  8
3
100
AcDbPolyline
 90
        2
 70
     0
 43
0.0
 10
14.924048
 20
13.838204
 10
21.152664
 20
10.24211
  0
CIRCLE
  5
FA
100
AcDbEntity
  8
3
100
AcDbCircle
 10
23.499997
 20
21.499998
 30
0.0
 40
9.5
  0
CIRCLE
  5
FB
100
AcDbEntity
  8
3
100
AcDbCircle
 10
23.499997
 20
21.499998
 30
0.0
 40
12.75
  0
LINE
  5
FC
100
AcDbEntity
  8
1
100
AcDbLine
 10
45.499995
 20
21.489254
 30
0.0
 11
0.0
 21
21.511474
 31
0.0
  0
CIRCLE
  5
FD
100
AcDbEntity
  8
3
100
AcDbCircle
 10
23.499997
 20
21.499998
 30
0.0
 40
14.0
  0
LWPOLYLINE
  5
FE
100
AcDbEntity
  8
3
100
AcDbPolyline
 90
        2
 70
     0
 43
0.0
 10
12.576714
 20
25.096091
 10
12.576714
 20
17.903904
  0
ARC
  5
FF
100
AcDbEntity
  8
3
100
AcDbCircle
 10
23.499997
 20
21.499998
 30
0.0
 40
11.5
100
AcDbArc
 50
198.222249
 51
221.777751
  0
ARC
  5
100
100
AcDbEntity
  8
3
100
AcDbCircle
 10
23.499997
 20
21.499998
 30
0.0
 40
11.5
100
AcDbArc
 50
138.222249
 51
161.777751
  0
LWPOLYLINE
  5
101
100
AcDbEntity
  8
3
100
AcDbPolyline
 90
        2
 70
     0
 43
0.0
 10
34.42328
 20
17.903904
 10
34.42328
 20
25.096091
  0
CIRCLE
  5
102
100
AcDbEntity
  8
0
100
AcDbCircle
 10
23.499997
 20
21.499998
 30
0.0
 40
4.775901
  0
CIRCLE
  5
103
100
AcDbEntity
  8
3
100
AcDbCircle
 10
23.499997
 20
21.499998
 30
0.0
 40
6.0
  0
LWPOLYLINE
  5
104
100
AcDbEntity
  8
3
100
AcDbPolyline
 90
        2
 70
     0
 43
0.0
 10
25.847331
 20
10.24211
 10
32.075947
 20
13.838204
  0
ARC
  5
105
100
AcDbEntity
  8
3
100
AcDbCircle
 10
23.499997
 20
21.499998
 30
0.0
 40
11.5
100
AcDbArc
 50
258.222249
 51
281.777751
  0
ARC
  5
106
100
AcDbEntity
  8
3
100
AcDbCircle
 10
23.499997
 20
21.499998
 30
0.0
 40
11.5
100
AcDbArc
 50
318.222249
 51
341.777751
  0
LWPOLYLINE
  5
107
100
AcDbEntity
  8
3
100
AcDbPolyline
 90
        2
 70
     0
 43
0.0
 10
32.075947
 20
29.161791
 10
25.847331
 20
32.757885
  0
ARC
  5
108
100
AcDbEntity
  8
3
100
AcDbCircle
 10
23.499997
 20
21.499998
 30
0.0
 40
11.5
100
AcDbArc
 50
78.222249
 51
101.777751
  0
ARC
  5
109
100
AcDbEntity
  8
3
100
AcDbCircle
 10
23.499997
 20
21.499998
 30
0.0
 40
11.5
100
AcDbArc
 50
18.222249
 51
41.777751
  0
LINE
  5
10A
100
AcDbEntity
  8
3
100
AcDbLine
 10
55.038368
 20
16.989254
 30
0.0
 11
55.038368
 21
21.489254
 31
0.0
  0
LINE
  5
10B
100
AcDbEntity
  8
3
100
AcDbLine
 10
56.538368
 20
15.489254
 30
0.0
 11
56.538368
 21
21.489254
 31
0.0
  0
LINE
  5
10C
100
AcDbEntity
  8
3
100
AcDbLine
 10
55.038368
 20
16.989254
 30
0.0
 11
56.538368
 21
15.489254
 31
0.0
  0
LINE
  5
10D
100
AcDbEntity
  8
3
100
AcDbLine
 10
56.538368
 20
27.489254
 30
0.0
 11
56.538368
 21
21.489254
 31
0.0
  0
LINE
  5
10E
100
AcDbEntity
  8
3
100
AcDbLine
 10
55.038368
 20
25.989254
 30
0.0
 11
55.038368
 21
21.489254
 31
0.0
  0
LINE
  5
10F
100
AcDbEntity
  8
3
100
AcDbLine
 10
55.038368
 20
25.989254
 30
0.0
 11
56.538368
 21
27.489254
 31
0.0
  0
LINE
  5
110
100
AcDbEntity
  8
3
100
AcDbLine
 10
87.538362
 20
21.476923
 30
0.0
 11
87.544589
 21
34.226922
 31
0.0
  0
LINE
  5
111
100
AcDbEntity
  8
3
100
AcDbLine
 10
76.796255
 20
32.747141
 30
0.0
 11
87.538368
 21
32.747141
 31
0.0
  0
LINE
  5
112
100
AcDbEntity
  8
3
100
AcDbLine
 10
77.038368
 20
26.196239
 30
0.0
 11
87.538368
 21
26.196239
 31
0.0
  0
LINE
  5
113
100
AcDbEntity
  8
3
100
AcDbLine
 10
77.038368
 20
28.222605
 30
0.0
 11
87.538368
 21
28.222605
 31
0.0
  0
LINE
  5
114
100
AcDbEntity
  8
3
100
AcDbLine
 10
77.038368
 20
32.989254
 30
0.0
 11
87.538368
 21
32.989254
 31
0.0
  0
LINE
  5
115
100
AcDbEntity
  8
3
100
AcDbLine
 10
77.038368
 20
9.989254
 30
0.0
 11
87.538368
 21
9.989254
 31
0.0
  0
LINE
  5
116
100
AcDbEntity
  8
3
100
AcDbLine
 10
76.796255
 20
10.231367
 30
0.0
 11
87.538368
 21
10.231367
 31
0.0
  0
LINE
  5
117
100
AcDbEntity
  8
3
100
AcDbLine
 10
77.038368
 20
14.755903
 30
0.0
 11
87.538368
 21
14.755903
 31
0.0
  0
LINE
  5
118
100
AcDbEntity
  8
3
100
AcDbLine
 10
77.038368
 20
16.782269
 30
0.0
 11
87.538368
 21
16.782269
 31
0.0
  0
INSERT
  5
119
100
AcDbEntity
  8
0
100
AcDbBlockReference
  2
A$C2DD26471
 10
75.762775
 20
9.989254
 30
0.0
  0
LINE
  5
11A
100
AcDbEntity
  8
3
100
AcDbLine
 10
75.038368
 20
21.489254
 30
0.0
 11
75.038368
 21
11.989254
 31
0.0
  0
LINE
  5
11B
100
AcDbEntity
  8
3
100
AcDbLine
 10
72.038368
 20
15.489254
 30
0.0
 11
72.038368
 21
21.489254
 31
0.0
  0
LINE
  5
11C
100
AcDbEntity
  8
3
100
AcDbLine
 10
75.038368
 20
11.989254
 30
0.0
 11
77.038368
 21
9.989254
 31
0.0
  0
LINE
  5
11D
100
AcDbEntity
  8
3
100
AcDbLine
 10
77.038368
 20
14.755903
 30
0.0
 11
77.038368
 21
16.782269
 31
0.0
  0
LINE
  5
11E
100
AcDbEntity
  8
3
100
AcDbLine
 10
75.038368
 20
21.489254
 30
0.0
 11
75.038368
 21
30.989254
 31
0.0
  0
LINE
  5
11F
100
AcDbEntity
  8
3
100
AcDbLine
 10
72.038368
 20
27.489254
 30
0.0
 11
72.038368
 21
21.489254
 31
0.0
  0
LINE
  5
120
100
AcDbEntity
  8
3
100
AcDbLine
 10
75.038368
 20
30.989254
 30
0.0
 11
77.038368
 21
32.989254
 31
0.0
  0
LINE
  5
121
100
AcDbEntity
  8
3
100
AcDbLine
 10
77.038368
 20
28.222605
 30
0.0
 11
77.038368
 21
26.196239
 31
0.0
  0
LINE
  5
122
100
AcDbEntity
  8
3
100
AcDbLine
 10
87.538368
 20
9.989254
 30
0.0
 11
87.538368
 21
21.489254
 31
0.0
  0
LINE
  5
123
100
AcDbEntity
  8
3
100
AcDbLine
 10
87.538368
 20
9.989254
 30
0.0
 11
87.538368
 21
21.489254
 31
0.0
  0
LINE
  5
124
100
AcDbEntity
  8
3
100
AcDbLine
 10
87.538362
 20
21.476923
 30
0.0
 11
87.532136
 21
8.726925
 31
0.0
  0
LINE
  5
125
100
AcDbEntity
  8
3
100
AcDbLine
 10
87.538368
 20
32.989254
 30
0.0
 11
87.538368
 21
21.489254
 31
0.0
  0
ARC
  5
126
100
AcDbEntity
  8
3
100
AcDbCircle
 10
173.708757
 20
30.434843
 30
0.0
 40
5.0
100
AcDbArc
 50
23.007704
 51
89.97202
  0
ARC
  5
127
100
AcDbEntity
  8
3
100
AcDbCircle
 10
152.538354
 20
21.445181
 30
0.0
 40
28.0
100
AcDbArc
 50
335.347702
 51
23.007704
  0
ARC
  5
128
100
AcDbEntity
  8
3
100
AcDbCircle
 10
173.699967
 20
12.434846
 30
0.0
 40
5.0
100
AcDbArc
 50
269.97202
 51
336.936336
  0
LINE
  5
129
100
AcDbEntity
  8
3
100
AcDbLine
 10
173.697526
 20
7.434846
 30
0.0
 11
172.531515
 21
7.435416
 31
0.0
  0
LINE
  5
12A
100
AcDbEntity
  8
3
100
AcDbLine
 10
173.711199
 20
35.434843
 30
0.0
 11
172.545189
 21
35.435412
 31
0.0
  0
ENDBLK
  5
12C
100
AcDbEntity
  8
0
100
AcDbBlockEnd
  0
BLOCK
  5
176
100
AcDbEntity
  8
0
100
AcDbBlockBegin
  2
*D3
 70
     1
 10
0.0
 20
0.0
 30
0.0
  3
*D3
  1

  0
LINE
  5
16C
100
AcDbEntity
  8
0
  6
BYBLOCK
 62
     0
100
AcDbLine
 10
125.75
 20
121.5
 30
0.0
 11
125.75
 21
133.986477
 31
0.0
  0
LINE
  5
16D
100
AcDbEntity
  8
0
  6
BYBLOCK
 62
     0
100
AcDbLine
 10
128.75
 20
124.25
 30
0.0
 11
128.75
 21
133.986477
 31
0.0
  0
LINE
  5
16E
100
AcDbEntity
  8
0
  6
BYBLOCK
 62
     0
100
AcDbLine
 10
130.75
 20
133.486477
 30
0.0
 11
132.75
 21
133.486477
 31
0.0
  0
LINE
  5
16F
100
AcDbEntity
  8
0
  6
BYBLOCK
 62
     0
100
AcDbLine
 10
123.75
 20
133.486477
 30
0.0
 11
121.75
 21
133.486477
 31
0.0
  0
SOLID
  5
170
100
AcDbEntity
  8
0
  6
BYBLOCK
 62
     0
100
AcDbTrace
 10
130.75
 20
133.81981
 30
0.0
 11
130.75
 21
133.153144
 31
0.0
 12
128.75
 22
133.486477
 32
0.0
 13
128.75
 23
133.486477
 33
0.0
  0
SOLID
  5
171
100
AcDbEntity
  8
0
  6
BYBLOCK
 62
     0
100
AcDbTrace
 10
123.75
 20
133.81981
 30
0.0
 11
123.75
 21
133.153144
 31
0.0
 12
125.75
 22
133.486477
 32
0.0
 13
125.75
 23
133.486477
 33
0.0
  0
MTEXT
  5
172
100
AcDbEntity
  8
0
  6
BYBLOCK
 62
     0
100
AcDbMText
 10
120.66
 20
133.486477
 30
0.0
 40
4.0
 41
0.0
 71
     5
 72
     1
  1
\A1;3
  7
EXTFONT
  0
POINT
  5
173
100
AcDbEntity
  8
DEFPOINTS
  6
BYBLOCK
 62
     0
100
AcDbPoint
 10
125.75
 20
121.0
 30
0.0
  0
POINT
  5
174
100
AcDbEntity
  8
DEFPOINTS
  6
BYBLOCK
 62
     0
100
AcDbPoint
 10
128.75
 20
123.75
 30
0.0
  0
POINT
  5
175
100
AcDbEntity
  8
DEFPOINTS
  6
BYBLOCK
 62
     0
100
AcDbPoint
 10
128.75
 20
133.486477
 30
0.0
  0
ENDBLK
  5
177
100
AcDbEntity
  8
0
100
AcDbBlockEnd
  0
BLOCK
  5
183
100
AcDbEntity
  8
0
100
AcDbBlockBegin
  2
*D4
 70
     1
 10
0.0
 20
0.0
 30
0.0
  3
*D4
  1

  0
LINE
  5
179
100
AcDbEntity
  8
0
  6
BYBLOCK
 62
     0
100
AcDbLine
 10
141.75
 20
105.02
 30
0.0
 11
147.328042
 21
105.02
 31
0.0
  0
LINE
  5
17A
100
AcDbEntity
  8
0
  6
BYBLOCK
 62
     0
100
AcDbLine
 10
141.75
 20
124.98
 30
0.0
 11
147.328042
 21
124.98
 31
0.0
  0
LINE
  5
17B
100
AcDbEntity
  8
0
  6
BYBLOCK
 62
     0
100
AcDbLine
 10
146.828042
 20
107.02
 30
0.0
 11
146.828042
 21
122.98
 31
0.0
  0
LINE
  5
17C
100
AcDbEntity
  8
0
  6
BYBLOCK
 62
     0
100
AcDbLine
 10
146.828042
 20
124.98
 30
0.0
 11
146.828042
 21
129.688879
 31
0.0
  0
LINE
  5
17D
100
AcDbEntity
  8
0
  6
BYBLOCK
 62
     0
100
AcDbLine
 10
146.828042
 20
129.688879
 30
0.0
 11
146.918042
 21
129.688879
 31
0.0
  0
SOLID
  5
17E
100
AcDbEntity
  8
0
  6
BYBLOCK
 62
     0
100
AcDbTrace
 10
146.494708
 20
107.02
 30
0.0
 11
147.161375
 21
107.02
 31
0.0
 12
146.828042
 22
105.02
 32
0.0
 13
146.828042
 23
105.02
 33
0.0
  0
SOLID
  5
17F
100
AcDbEntity
  8
0
  6
BYBLOCK
 62
     0
100
AcDbTrace
 10
146.494708
 20
122.98
 30
0.0
 11
147.161375
 21
122.98
 31
0.0
 12
146.828042
 22
124.98
 32
0.0
 13
146.828042
 23
124.98
 33
0.0
  0
POINT
  5
180
100
AcDbEntity
  8
DEFPOINTS
  6
BYBLOCK
 62
     0
100
AcDbPoint
 10
141.25
 20
105.02
 30
0.0
  0
POINT
  5
181
100
AcDbEntity
  8
DEFPOINTS
  6
BYBLOCK
 62
     0
100
AcDbPoint
 10
141.25
 20
124.98
 30
0.0
  0
POINT
  5
182
100
AcDbEntity
  8
DEFPOINTS
  6
BYBLOCK
 62
     0
100
AcDbPoint
 10
146.828042
 20
124.98
 30
0.0
  0
ENDBLK
  5
184
100
AcDbEntity
  8
0
100
AcDbBlockEnd
  0
BLOCK
  5
1D3
100
AcDbEntity
  8
0
100
AcDbBlockBegin
  2
A$C310B5463
 70
     0
 10
0.0
 20
0.0
 30
0.0
  3
A$C310B5463
  1

  0
LINE
  5
187
100
AcDbEntity
  8
3
100
AcDbLine
 10
78.454607
 20
5.624279
 30
0.0
 11
88.954607
 21
5.624279
 31
0.0
  0
LINE
  5
188
100
AcDbEntity
  8
3
100
AcDbLine
 10
78.212494
 20
5.866392
 30
0.0
 11
88.954607
 21
5.866392
 31
0.0
  0
LINE
  5
189
100
AcDbEntity
  8
3
100
AcDbLine
 10
78.454607
 20
10.390928
 30
0.0
 11
88.954607
 21
10.390928
 31
0.0
  0
LINE
  5
18A
100
AcDbEntity
  8
3
100
AcDbLine
 10
78.454607
 20
12.417294
 30
0.0
 11
88.954607
 21
12.417294
 31
0.0
  0
LINE
  5
18B
100
AcDbEntity
  8
3
100
AcDbLine
 10
78.212494
 20
28.382166
 30
0.0
 11
88.954607
 21
28.382166
 31
0.0
  0
LINE
  5
18C
100
AcDbEntity
  8
3
100
AcDbLine
 10
78.454607
 20
21.831264
 30
0.0
 11
88.954607
 21
21.831264
 31
0.0
  0
LINE
  5
18D
100
AcDbEntity
  8
3
100
AcDbLine
 10
78.454607
 20
23.85763
 30
0.0
 11
88.954607
 21
23.85763
 31
0.0
  0
LINE
  5
18E
100
AcDbEntity
  8
3
100
AcDbLine
 10
78.454607
 20
28.624279
 30
0.0
 11
88.954607
 21
28.624279
 31
0.0
  0
LINE
  5
18F
100
AcDbEntity
  8
1
100
AcDbLine
 10
52.704607
 20
17.124279
 30
0.0
 11
128.454607
 21
17.124279
 31
0.0
  0
LINE
  5
190
100
AcDbEntity
  8
1
100
AcDbLine
 10
27.5
 20
17.124279
 30
0.0
 11
0.0
 21
17.124279
 31
0.0
  0
LINE
  5
191
100
AcDbEntity
  8
1
100
AcDbLine
 10
13.5
 20
2.124279
 30
0.0
 11
13.5
 21
33.374279
 31
0.0
  0
CIRCLE
  5
192
100
AcDbEntity
  8
3
100
AcDbCircle
 10
13.5
 20
17.124279
 30
0.0
 40
9.5
  0
ARC
  5
193
100
AcDbEntity
  8
3
100
AcDbCircle
 10
13.5
 20
17.124279
 30
0.0
 40
11.5
100
AcDbArc
 50
18.222249
 51
41.777751
  0
ARC
  5
194
100
AcDbEntity
  8
3
100
AcDbCircle
 10
13.5
 20
17.124279
 30
0.0
 40
11.5
100
AcDbArc
 50
318.222249
 51
341.777751
  0
CIRCLE
  5
195
100
AcDbEntity
  8
3
100
AcDbCircle
 10
13.5
 20
17.124279
 30
0.0
 40
8.0
  0
CIRCLE
  5
196
100
AcDbEntity
  8
0
100
AcDbCircle
 10
13.5
 20
17.124279
 30
0.0
 40
6.515878
  0
LWPOLYLINE
  5
197
100
AcDbEntity
  8
3
100
AcDbPolyline
 90
        2
 70
     0
 43
0.0
 10
2.576717
 20
20.720372
 10
2.576717
 20
13.528185
  0
ARC
  5
198
100
AcDbEntity
  8
0
100
AcDbCircle
 10
13.5
 20
17.124279
 30
0.0
 40
11.5
100
AcDbArc
 50
159.483355
 51
198.995675
  0
LWPOLYLINE
  5
199
100
AcDbEntity
  8
3
100
AcDbPolyline
 90
        2
 70
     0
 43
0.0
 10
4.92405
 20
9.462485
 10
11.152667
 20
5.866392
  0
ARC
  5
19A
100
AcDbEntity
  8
3
100
AcDbCircle
 10
13.5
 20
17.124279
 30
0.0
 40
11.5
100
AcDbArc
 50
198.222249
 51
221.777751
  0
LWPOLYLINE
  5
19B
100
AcDbEntity
  8
3
100
AcDbPolyline
 90
        2
 70
     0
 43
0.0
 10
15.847333
 20
5.866392
 10
22.07595
 20
9.462485
  0
ARC
  5
19C
100
AcDbEntity
  8
3
100
AcDbCircle
 10
13.5
 20
17.124279
 30
0.0
 40
11.5
100
AcDbArc
 50
258.222249
 51
281.777751
  0
LWPOLYLINE
  5
19D
100
AcDbEntity
  8
3
100
AcDbPolyline
 90
        2
 70
     0
 43
0.0
 10
11.152667
 20
28.382166
 10
4.92405
 20
24.786073
  0
ARC
  5
19E
100
AcDbEntity
  8
3
100
AcDbCircle
 10
13.5
 20
17.124279
 30
0.0
 40
11.5
100
AcDbArc
 50
138.222249
 51
161.777751
  0
LWPOLYLINE
  5
19F
100
AcDbEntity
  8
3
100
AcDbPolyline
 90
        2
 70
     0
 43
0.0
 10
22.07595
 20
24.786073
 10
15.847333
 20
28.382166
  0
ARC
  5
1A0
100
AcDbEntity
  8
3
100
AcDbCircle
 10
13.5
 20
17.124279
 30
0.0
 40
11.5
100
AcDbArc
 50
78.222249
 51
101.777751
  0
LWPOLYLINE
  5
1A1
100
AcDbEntity
  8
3
100
AcDbPolyline
 90
        2
 70
     0
 43
0.0
 10
24.423283
 20
13.528185
 10
24.423283
 20
20.720372
  0
ARC
  5
1A2
100
AcDbEntity
  8
0
100
AcDbCircle
 10
13.5
 20
17.124279
 30
0.0
 40
11.5
100
AcDbArc
 50
340.991832
 51
18.634788
  0
DIMENSION
  5
1A3
100
AcDbEntity
  8
0
100
AcDbDimension
  2
*D3
 10
76.454607
 20
35.610756
 30
0.0
 11
68.364607
 21
35.610756
 31
0.0
 12
-52.295393
 22
-97.875721
 32
0.0
 70
   128
  3
STANDARD
100
AcDbAlignedDimension
 13
73.454607
 23
23.124279
 33
0.0
 14
76.454607
 24
25.874279
 34
0.0
100
AcDbRotatedDimension
1001
ACAD
1000
DSTYLE
1002
{
1070
    78
1070
     8
1070
   288
1070
     1
1070
   284
1070
     8
1070
   140
1040
4.0
1070
   340
1005
EE
1070
    73
1070
     0
1070
   272
1070
     2
1070
    42
1040
0.5
1070
    44
1040
0.5
1070
   271
1070
     2
1070
    41
1040
2.0
1002
}
  0
LINE
  5
1A4
100
AcDbEntity
  8
3
100
AcDbLine
 10
73.454607
 20
9.124279
 30
0.0
 11
57.954607
 21
9.124279
 31
0.0
  0
LINE
  5
1A5
100
AcDbEntity
  8
3
100
AcDbLine
 10
56.454607
 20
10.624279
 30
0.0
 11
76.454607
 21
10.624279
 31
0.0
  0
LINE
  5
1A6
100
AcDbEntity
  8
3
100
AcDbLine
 10
56.454607
 20
23.624279
 30
0.0
 11
76.454607
 21
23.624279
 31
0.0
  0
LINE
  5
1A7
100
AcDbEntity
  8
3
100
AcDbLine
 10
73.454607
 20
25.124279
 30
0.0
 11
57.954607
 21
25.124279
 31
0.0
  0
LINE
  5
1A8
100
AcDbEntity
  8
3
100
AcDbLine
 10
56.454607
 20
10.624279
 30
0.0
 11
56.454607
 21
17.124279
 31
0.0
  0
LINE
  5
1A9
100
AcDbEntity
  8
3
100
AcDbLine
 10
57.954607
 20
9.124279
 30
0.0
 11
57.954607
 21
17.124279
 31
0.0
  0
LINE
  5
1AA
100
AcDbEntity
  8
3
100
AcDbLine
 10
56.454607
 20
10.624279
 30
0.0
 11
57.954607
 21
9.124279
 31
0.0
  0
LINE
  5
1AB
100
AcDbEntity
  8
3
100
AcDbLine
 10
57.954607
 20
25.124279
 30
0.0
 11
57.954607
 21
17.124279
 31
0.0
  0
LINE
  5
1AC
100
AcDbEntity
  8
3
100
AcDbLine
 10
56.454607
 20
23.624279
 30
0.0
 11
56.454607
 21
17.124279
 31
0.0
  0
LINE
  5
1AD
100
AcDbEntity
  8
3
100
AcDbLine
 10
56.454607
 20
23.624279
 30
0.0
 11
57.954607
 21
25.124279
 31
0.0
  0
INSERT
  5
1AE
100
AcDbEntity
  8
3
100
AcDbBlockReference
  2
A$C2DD26471
 10
77.179014
 20
5.624279
 30
0.0
  0
LINE
  5
1AF
100
AcDbEntity
  8
3
100
AcDbLine
 10
76.454607
 20
17.124279
 30
0.0
 11
76.454607
 21
7.624279
 31
0.0
  0
LINE
  5
1B0
100
AcDbEntity
  8
3
100
AcDbLine
 10
73.454607
 20
9.124279
 30
0.0
 11
73.454607
 21
17.124279
 31
0.0
  0
LINE
  5
1B1
100
AcDbEntity
  8
3
100
AcDbLine
 10
76.454607
 20
7.624279
 30
0.0
 11
78.454607
 21
5.624279
 31
0.0
  0
LINE
  5
1B2
100
AcDbEntity
  8
3
100
AcDbLine
 10
78.454607
 20
10.390928
 30
0.0
 11
78.454607
 21
12.417294
 31
0.0
  0
LINE
  5
1B3
100
AcDbEntity
  8
3
100
AcDbLine
 10
76.454607
 20
26.624279
 30
0.0
 11
78.454607
 21
28.624279
 31
0.0
  0
LINE
  5
1B4
100
AcDbEntity
  8
3
100
AcDbLine
 10
76.454607
 20
17.124279
 30
0.0
 11
76.454607
 21
26.624279
 31
0.0
  0
LINE
  5
1B5
100
AcDbEntity
  8
3
100
AcDbLine
 10
73.454607
 20
25.124279
 30
0.0
 11
73.454607
 21
17.124279
 31
0.0
  0
LINE
  5
1B6
100
AcDbEntity
  8
3
100
AcDbLine
 10
78.454607
 20
23.85763
 30
0.0
 11
78.454607
 21
21.831264
 31
0.0
  0
LWPOLYLINE
  5
1B7
100
AcDbEntity
  8
0
100
AcDbPolyline
 90
        3
 70
     1
 43
0.0
 10
56.399931
 20
35.292778
 10
54.837032
 20
36.195118
 10
54.837032
 20
34.390438
  0
LEADER
  5
1B8
100
AcDbEntity
  8
0
100
AcDbLeader
  3
STANDARD
 76
     3
 10
124.274877
 20
7.779941
 30
0.0
 10
129.137229
 20
0.837708
 30
0.0
 10
134.346894
 20
0.837708
 30
0.0
 77
   256
1001
ACAD
1000
DSTYLE
1002
{
1070
    78
1070
     8
1070
   288
1070
     1
1070
   284
1070
     8
1070
   140
1040
4.0
1070
   340
1005
EE
1070
    73
1070
     0
1070
   272
1070
     1
1070
    42
1040
0.5
1070
    44
1040
0.5
1070
   271
1070
     1
1070
    41
1040
2.0
1002
}
  0
LWPOLYLINE
  5
1B9
100
AcDbEntity
  8
0
100
AcDbPolyline
 90
        3
 70
     1
 43
0.0
 10
130.872688
 20
0.943894
 10
131.775029
 20
2.506794
 10
129.970348
 20
2.506794
  0
DIMENSION
  5
1BA
100
AcDbEntity
  8
0
100
AcDbDimension
  2
*D4
 10
94.532649
 20
27.104279
 30
0.0
 11
94.532649
 21
31.903158
 31
0.0
 12
-52.295393
 22
-97.875721
 32
0.0
 70
   128
  1
 
  3
STANDARD
100
AcDbAlignedDimension
 13
88.954607
 23
7.144279
 33
0.0
 14
88.954607
 24
27.104279
 34
0.0
 50
90.0
100
AcDbRotatedDimension
1001
ACAD
1000
DSTYLE
1002
{
1070
    78
1070
     8
1070
   288
1070
     1
1070
   284
1070
     8
1070
   140
1040
4.0
1070
   340
1005
EE
1070
    73
1070
     0
1070
   272
1070
     2
1070
    42
1040
0.5
1070
    44
1040
0.5
1070
   271
1070
     2
1070
    41
1040
2.0
1002
}
  0
LINE
  5
1BB
100
AcDbEntity
  8
3
100
AcDbLine
 10
118.754607
 20
27.104279
 30
0.0
 11
88.954607
 21
27.104279
 31
0.0
  0
LINE
  5
1BC
100
AcDbEntity
  8
3
100
AcDbLine
 10
118.754607
 20
7.144279
 30
0.0
 11
88.954607
 21
7.144279
 31
0.0
  0
TEXT
  5
1BD
100
AcDbEntity
  8
0
100
AcDbText
 10
106.578863
 20
0.0
 30
0.0
 40
2.4
  1
%%P0.1
 41
0.75
  7
EXTFONT
100
AcDbText
  0
LINE
  5
1BE
100
AcDbEntity
  8
3
100
AcDbLine
 10
88.954607
 20
5.624279
 30
0.0
 11
88.954607
 21
17.124279
 31
0.0
  0
LINE
  5
1BF
100
AcDbEntity
  8
3
100
AcDbLine
 10
88.954607
 20
5.624279
 30
0.0
 11
88.954607
 21
17.124279
 31
0.0
  0
LINE
  5
1C0
100
AcDbEntity
  8
3
100
AcDbLine
 10
88.954607
 20
28.624279
 30
0.0
 11
88.954607
 21
17.124279
 31
0.0
  0
LINE
  5
1C1
100
AcDbEntity
  8
3
100
AcDbLine
 10
118.754607
 20
17.124279
 30
0.0
 11
118.754607
 21
7.144279
 31
0.0
  0
LINE
  5
1C2
100
AcDbEntity
  8
3
100
AcDbLine
 10
125.754607
 20
17.124279
 30
0.0
 11
125.754607
 21
8.124279
 31
0.0
  0
LINE
  5
1C3
100
AcDbEntity
  8
3
100
AcDbLine
 10
122.254607
 20
7.324279
 30
0.0
 11
122.254607
 21
17.124279
 31
0.0
  0
LINE
  5
1C4
100
AcDbEntity
  8
3
100
AcDbLine
 10
121.754607
 20
17.124279
 30
0.0
 11
121.754607
 21
7.324279
 31
0.0
  0
LINE
  5
1C5
100
AcDbEntity
  8
3
100
AcDbLine
 10
118.754607
 20
8.124279
 30
0.0
 11
121.754607
 21
8.124279
 31
0.0
  0
LINE
  5
1C6
100
AcDbEntity
  8
3
100
AcDbLine
 10
125.754607
 20
8.124279
 30
0.0
 11
122.254607
 21
7.324279
 31
0.0
  0
LINE
  5
1C7
100
AcDbEntity
  8
3
100
AcDbLine
 10
121.754607
 20
7.324279
 30
0.0
 11
122.254607
 21
7.324279
 31
0.0
  0
LINE
  5
1C8
100
AcDbEntity
  8
3
100
AcDbLine
 10
118.754607
 20
26.124279
 30
0.0
 11
121.754607
 21
26.124279
 31
0.0
  0
LINE
  5
1C9
100
AcDbEntity
  8
3
100
AcDbLine
 10
118.754607
 20
17.124279
 30
0.0
 11
118.754607
 21
27.104279
 31
0.0
  0
LINE
  5
1CA
100
AcDbEntity
  8
3
100
AcDbLine
 10
125.754607
 20
17.124279
 30
0.0
 11
125.754607
 21
26.124279
 31
0.0
  0
LINE
  5
1CB
100
AcDbEntity
  8
3
100
AcDbLine
 10
122.254607
 20
26.924279
 30
0.0
 11
122.254607
 21
17.124279
 31
0.0
  0
LINE
  5
1CC
100
AcDbEntity
  8
3
100
AcDbLine
 10
121.754607
 20
17.124279
 30
0.0
 11
121.754607
 21
26.924279
 31
0.0
  0
LINE
  5
1CD
100
AcDbEntity
  8
3
100
AcDbLine
 10
125.754607
 20
26.124279
 30
0.0
 11
122.254607
 21
26.924279
 31
0.0
  0
LINE
  5
1CE
100
AcDbEntity
  8
3
100
AcDbLine
 10
121.754607
 20
26.924279
 30
0.0
 11
122.254607
 21
26.924279
 31
0.0
  0
LINE
  5
1CF
100
AcDbEntity
  8
0
100
AcDbLine
 10
94.622649
 20
31.813158
 30
0.0
 11
112.947068
 21
32.46943
 31
0.0
  0
TEXT
  5
1D0
100
AcDbEntity
  8
0
100
AcDbText
 10
94.369527
 20
33.058931
 30
0.0
 40
2.4
  1
19.92～19.96
 41
0.75
  7
EXTFONT
100
AcDbText
  0
LWPOLYLINE
  5
1D1
100
AcDbEntity
  8
0
100
AcDbPolyline
 90
        3
 70
     1
 43
0.0
 10
125.768314
 20
35.826561
 10
127.331213
 20
34.924221
 10
127.331213
 20
36.728902
  0
LWPOLYLINE
  5
1D2
100
AcDbEntity
  8
0
100
AcDbPolyline
 90
        3
 70
     1
 43
0.0
 10
132.677369
 20
0.943894
 10
133.579709
 20
2.506794
 10
131.775029
 20
2.506794
  0
ENDBLK
  5
1D4
100
AcDbEntity
  8
0
100
AcDbBlockEnd
  0
BLOCK
  5
248
100
AcDbEntity
  8
0
100
AcDbBlockBegin
  2
*D6
 70
     1
 10
0.0
 20
0.0
 30
0.0
  3
*D6
  1

  0
LINE
  5
249
100
AcDbEntity
  8
0
  6
BYBLOCK
 62
     0
100
AcDbLine
 10
124.995237
 20
159.83141
 30
0.0
 11
124.995237
 21
172.317887
 31
0.0
  0
LINE
  5
24A
100
AcDbEntity
  8
0
  6
BYBLOCK
 62
     0
100
AcDbLine
 10
127.995237
 20
162.58141
 30
0.0
 11
127.995237
 21
172.317887
 31
0.0
  0
LINE
  5
24B
100
AcDbEntity
  8
0
  6
BYBLOCK
 62
     0
100
AcDbLine
 10
122.995237
 20
171.817887
 30
0.0
 11
120.995237
 21
171.817887
 31
0.0
  0
LINE
  5
24C
100
AcDbEntity
  8
0
  6
BYBLOCK
 62
     0
100
AcDbLine
 10
129.995237
 20
171.817887
 30
0.0
 11
131.995237
 21
171.817887
 31
0.0
  0
MTEXT
  5
24D
100
AcDbEntity
  8
0
  6
BYBLOCK
 62
     0
100
AcDbMText
 10
119.905237
 20
171.817887
 30
0.0
 40
4.0
 41
0.0
 71
     5
 72
     1
  1
\A1;3
  7
EXTFONT
  0
LINE
  5
24E
100
AcDbEntity
  8
0
  6
BYBLOCK
 62
     0
100
AcDbLine
 10
124.995237
 20
171.817887
 30
0.0
 11
127.995237
 21
171.817887
 31
0.0
  0
SOLID
  5
24F
100
AcDbEntity
  8
0
  6
BYBLOCK
 62
     0
100
AcDbTrace
 10
122.995237
 20
172.15122
 30
0.0
 11
122.995237
 21
171.484554
 31
0.0
 12
124.995237
 22
171.817887
 32
0.0
 13
124.995237
 23
171.817887
 33
0.0
  0
SOLID
  5
250
100
AcDbEntity
  8
0
  6
BYBLOCK
 62
     0
100
AcDbTrace
 10
129.995237
 20
172.15122
 30
0.0
 11
129.995237
 21
171.484554
 31
0.0
 12
127.995237
 22
171.817887
 32
0.0
 13
127.995237
 23
171.817887
 33
0.0
  0
POINT
  5
251
100
AcDbEntity
  8
DEFPOINTS
  6
BYBLOCK
 62
     0
100
AcDbPoint
 10
124.995237
 20
159.33141
 30
0.0
  0
POINT
  5
252
100
AcDbEntity
  8
DEFPOINTS
  6
BYBLOCK
 62
     0
100
AcDbPoint
 10
127.995237
 20
162.08141
 30
0.0
  0
POINT
  5
253
100
AcDbEntity
  8
DEFPOINTS
  6
BYBLOCK
 62
     0
100
AcDbPoint
 10
127.995237
 20
171.817887
 30
0.0
  0
ENDBLK
  5
254
100
AcDbEntity
  8
0
100
AcDbBlockEnd
  0
BLOCK
  5
255
100
AcDbEntity
  8
0
100
AcDbBlockBegin
  2
*D7
 70
     1
 10
0.0
 20
0.0
 30
0.0
  3
*D7
  1

  0
LINE
  5
256
100
AcDbEntity
  8
0
  6
BYBLOCK
 62
     0
100
AcDbLine
 10
140.995237
 20
143.35141
 30
0.0
 11
146.573278
 21
143.35141
 31
0.0
  0
LINE
  5
257
100
AcDbEntity
  8
0
  6
BYBLOCK
 62
     0
100
AcDbLine
 10
140.995237
 20
163.31141
 30
0.0
 11
146.573278
 21
163.31141
 31
0.0
  0
LINE
  5
258
100
AcDbEntity
  8
0
  6
BYBLOCK
 62
     0
100
AcDbLine
 10
146.073278
 20
145.35141
 30
0.0
 11
146.073278
 21
161.31141
 31
0.0
  0
SOLID
  5
259
100
AcDbEntity
  8
0
  6
BYBLOCK
 62
     0
100
AcDbTrace
 10
145.739945
 20
145.35141
 30
0.0
 11
146.406612
 21
145.35141
 31
0.0
 12
146.073278
 22
143.35141
 32
0.0
 13
146.073278
 23
143.35141
 33
0.0
  0
SOLID
  5
25A
100
AcDbEntity
  8
0
  6
BYBLOCK
 62
     0
100
AcDbTrace
 10
145.739945
 20
161.31141
 30
0.0
 11
146.406612
 21
161.31141
 31
0.0
 12
146.073278
 22
163.31141
 32
0.0
 13
146.073278
 23
163.31141
 33
0.0
  0
POINT
  5
25B
100
AcDbEntity
  8
DEFPOINTS
  6
BYBLOCK
 62
     0
100
AcDbPoint
 10
140.495237
 20
143.35141
 30
0.0
  0
POINT
  5
25C
100
AcDbEntity
  8
DEFPOINTS
  6
BYBLOCK
 62
     0
100
AcDbPoint
 10
140.495237
 20
163.31141
 30
0.0
  0
POINT
  5
25D
100
AcDbEntity
  8
DEFPOINTS
  6
BYBLOCK
 62
     0
100
AcDbPoint
 10
146.073278
 20
163.31141
 30
0.0
  0
ENDBLK
  5
25E
100
AcDbEntity
  8
0
100
AcDbBlockEnd
  0
ENDSEC
  0
SECTION
  2
ENTITIES
  0
LINE
  5
12F
100
AcDbEntity
  8
1
100
AcDbLine
 10
85.425799
 20
90.143522
 30
0.0
 11
220.209346
 21
90.143522
 31
0.0
  0
LINE
  5
130
100
AcDbEntity
  8
3
100
AcDbLine
 10
120.476725
 20
102.88119
 30
0.0
 11
205.477325
 21
104.08968
 31
0.0
  0
LINE
  5
131
100
AcDbEntity
  8
3
100
AcDbLine
 10
120.464272
 20
77.381193
 30
0.0
 11
205.463651
 21
76.089684
 31
0.0
  0
LINE
  5
132
100
AcDbEntity
  8
1
100
AcDbLine
 10
56.421634
 20
68.654268
 30
0.0
 11
56.441656
 21
109.654263
 31
0.0
  0
CIRCLE
  5
13A
100
AcDbEntity
  8
3
100
AcDbCircle
 10
56.432134
 20
90.154266
 30
0.0
 40
12.75
  0
LINE
  5
13B
100
AcDbEntity
  8
1
100
AcDbLine
 10
78.432131
 20
90.143522
 30
0.0
 11
32.932137
 21
90.165742
 31
0.0
  0
CIRCLE
  5
13C
100
AcDbEntity
  8
3
100
AcDbCircle
 10
56.432134
 20
90.154266
 30
0.0
 40
14.0
  0
LINE
  5
14F
100
AcDbEntity
  8
3
100
AcDbLine
 10
120.470498
 20
90.131191
 30
0.0
 11
120.476725
 21
102.88119
 31
0.0
  0
LINE
  5
161
100
AcDbEntity
  8
3
100
AcDbLine
 10
120.470504
 20
78.643522
 30
0.0
 11
120.470504
 21
90.143522
 31
0.0
  0
LINE
  5
162
100
AcDbEntity
  8
3
100
AcDbLine
 10
120.470504
 20
78.643522
 30
0.0
 11
120.470504
 21
90.143522
 31
0.0
  0
LINE
  5
163
100
AcDbEntity
  8
3
100
AcDbLine
 10
120.470498
 20
90.131191
 30
0.0
 11
120.464272
 21
77.381193
 31
0.0
  0
LINE
  5
164
100
AcDbEntity
  8
3
100
AcDbLine
 10
120.470504
 20
101.643522
 30
0.0
 11
120.470504
 21
90.143522
 31
0.0
  0
ARC
  5
165
100
AcDbEntity
  8
3
100
AcDbCircle
 10
206.640894
 20
99.089112
 30
0.0
 40
5.0
100
AcDbArc
 50
23.007704
 51
89.97202
  0
ARC
  5
166
100
AcDbEntity
  8
3
100
AcDbCircle
 10
185.470491
 20
90.099449
 30
0.0
 40
28.0
100
AcDbArc
 50
335.347702
 51
23.007704
  0
ARC
  5
167
100
AcDbEntity
  8
3
100
AcDbCircle
 10
206.632104
 20
81.089114
 30
0.0
 40
5.0
100
AcDbArc
 50
269.97202
 51
336.936336
  0
LINE
  5
168
100
AcDbEntity
  8
3
100
AcDbLine
 10
206.629662
 20
76.089114
 30
0.0
 11
205.463651
 21
76.089684
 31
0.0
  0
LINE
  5
169
100
AcDbEntity
  8
3
100
AcDbLine
 10
206.643335
 20
104.089111
 30
0.0
 11
205.477325
 21
104.08968
 31
0.0
  0
LWPOLYLINE
  5
25F
100
AcDbEntity
  8
3
100
AcDbPolyline
 90
        2
 70
     0
 43
0.0
 10
67.355417
 20
86.558172
 10
67.355417
 20
93.750359
  0
LWPOLYLINE
  5
260
100
AcDbEntity
  8
3
100
AcDbPolyline
 90
        2
 70
     0
 43
0.0
 10
45.508851
 20
93.750359
 10
45.508851
 20
86.558172
  0
CIRCLE
  5
261
100
AcDbEntity
  8
0
100
AcDbCircle
 10
56.432134
 20
90.154266
 30
0.0
 40
6.515878
  0
CIRCLE
  5
262
100
AcDbEntity
  8
3
100
AcDbCircle
 10
56.432134
 20
90.154266
 30
0.0
 40
8.0
  0
CIRCLE
  5
263
100
AcDbEntity
  8
3
100
AcDbCircle
 10
56.432134
 20
90.154266
 30
0.0
 40
9.5
  0
ARC
  5
264
100
AcDbEntity
  8
3
100
AcDbCircle
 10
56.432134
 20
90.154266
 30
0.0
 40
11.5
100
AcDbArc
 50
258.222249
 51
281.777751
  0
LWPOLYLINE
  5
265
100
AcDbEntity
  8
3
100
AcDbPolyline
 90
        2
 70
     0
 43
0.0
 10
47.856184
 20
82.492472
 10
54.084801
 20
78.896378
  0
ARC
  5
266
100
AcDbEntity
  8
3
100
AcDbCircle
 10
56.432134
 20
90.154266
 30
0.0
 40
11.5
100
AcDbArc
 50
198.222249
 51
221.777751
  0
LWPOLYLINE
  5
267
100
AcDbEntity
  8
3
100
AcDbPolyline
 90
        2
 70
     0
 43
0.0
 10
58.779467
 20
78.896378
 10
65.008084
 20
82.492472
  0
ARC
  5
268
100
AcDbEntity
  8
3
100
AcDbCircle
 10
56.432134
 20
90.154266
 30
0.0
 40
11.5
100
AcDbArc
 50
318.222249
 51
341.777751
  0
ARC
  5
269
100
AcDbEntity
  8
3
100
AcDbCircle
 10
56.432134
 20
90.154266
 30
0.0
 40
11.5
100
AcDbArc
 50
78.222249
 51
101.777751
  0
LWPOLYLINE
  5
26A
100
AcDbEntity
  8
3
100
AcDbPolyline
 90
        2
 70
     0
 43
0.0
 10
54.084801
 20
101.412153
 10
47.856184
 20
97.816059
  0
ARC
  5
26B
100
AcDbEntity
  8
3
100
AcDbCircle
 10
56.432134
 20
90.154266
 30
0.0
 40
11.5
100
AcDbArc
 50
138.222249
 51
161.777751
  0
ARC
  5
26C
100
AcDbEntity
  8
3
100
AcDbCircle
 10
56.432134
 20
90.154266
 30
0.0
 40
11.5
100
AcDbArc
 50
18.222249
 51
41.777751
  0
LWPOLYLINE
  5
26D
100
AcDbEntity
  8
3
100
AcDbPolyline
 90
        2
 70
     0
 43
0.0
 10
65.008084
 20
97.816059
 10
58.779467
 20
101.412153
  0
LINE
  5
26E
100
AcDbEntity
  8
3
100
AcDbLine
 10
87.970504
 20
96.643522
 30
0.0
 11
107.970504
 21
96.643522
 31
0.0
  0
LINE
  5
26F
100
AcDbEntity
  8
3
100
AcDbLine
 10
87.970504
 20
83.643522
 30
0.0
 11
107.970504
 21
83.643522
 31
0.0
  0
LINE
  5
270
100
AcDbEntity
  8
3
100
AcDbLine
 10
104.970504
 20
98.143522
 30
0.0
 11
104.970504
 21
90.143522
 31
0.0
  0
LINE
  5
271
100
AcDbEntity
  8
3
100
AcDbLine
 10
87.970504
 20
96.643522
 30
0.0
 11
87.970504
 21
90.143522
 31
0.0
  0
LINE
  5
272
100
AcDbEntity
  8
3
100
AcDbLine
 10
89.470504
 20
98.143522
 30
0.0
 11
89.470504
 21
90.143522
 31
0.0
  0
LINE
  5
273
100
AcDbEntity
  8
3
100
AcDbLine
 10
104.970504
 20
82.143522
 30
0.0
 11
89.470504
 21
82.143522
 31
0.0
  0
LINE
  5
274
100
AcDbEntity
  8
3
100
AcDbLine
 10
89.470504
 20
82.143522
 30
0.0
 11
89.470504
 21
90.143522
 31
0.0
  0
LINE
  5
275
100
AcDbEntity
  8
3
100
AcDbLine
 10
87.970504
 20
83.643522
 30
0.0
 11
87.970504
 21
90.143522
 31
0.0
  0
LINE
  5
276
100
AcDbEntity
  8
3
100
AcDbLine
 10
87.970504
 20
83.643522
 30
0.0
 11
89.470504
 21
82.143522
 31
0.0
  0
LINE
  5
277
100
AcDbEntity
  8
3
100
AcDbLine
 10
104.970504
 20
82.143522
 30
0.0
 11
104.970504
 21
90.143522
 31
0.0
  0
LINE
  5
278
100
AcDbEntity
  8
3
100
AcDbLine
 10
104.970504
 20
98.143522
 30
0.0
 11
89.470504
 21
98.143522
 31
0.0
  0
LINE
  5
279
100
AcDbEntity
  8
3
100
AcDbLine
 10
87.970504
 20
96.643522
 30
0.0
 11
89.470504
 21
98.143522
 31
0.0
  0
LINE
  5
27A
100
AcDbEntity
  8
3
100
AcDbLine
 10
120.470504
 20
101.643522
 30
0.0
 11
120.470504
 21
90.143522
 31
0.0
  0
LINE
  5
27B
100
AcDbEntity
  8
3
100
AcDbLine
 10
107.970504
 20
90.143522
 30
0.0
 11
107.970504
 21
99.643522
 31
0.0
  0
INSERT
  5
27C
100
AcDbEntity
  8
3
100
AcDbBlockReference
  2
A$C2DD26471
 10
108.694911
 20
78.643522
 30
0.0
  0
LINE
  5
27D
100
AcDbEntity
  8
3
100
AcDbLine
 10
120.470504
 20
78.643522
 30
0.0
 11
120.470504
 21
90.143522
 31
0.0
  0
LINE
  5
27E
100
AcDbEntity
  8
3
100
AcDbLine
 10
120.470504
 20
78.643522
 30
0.0
 11
120.470504
 21
90.143522
 31
0.0
  0
LINE
  5
27F
100
AcDbEntity
  8
3
100
AcDbLine
 10
107.970504
 20
80.643522
 30
0.0
 11
109.970504
 21
78.643522
 31
0.0
  0
LINE
  5
280
100
AcDbEntity
  8
3
100
AcDbLine
 10
109.728392
 20
78.885635
 30
0.0
 11
120.470504
 21
78.885635
 31
0.0
  0
LINE
  5
281
100
AcDbEntity
  8
3
100
AcDbLine
 10
109.970504
 20
78.643522
 30
0.0
 11
120.470504
 21
78.643522
 31
0.0
  0
LINE
  5
282
100
AcDbEntity
  8
3
100
AcDbLine
 10
109.970504
 20
85.436537
 30
0.0
 11
120.470504
 21
85.436537
 31
0.0
  0
LINE
  5
283
100
AcDbEntity
  8
3
100
AcDbLine
 10
109.970504
 20
83.410171
 30
0.0
 11
120.470504
 21
83.410171
 31
0.0
  0
LINE
  5
284
100
AcDbEntity
  8
3
100
AcDbLine
 10
107.970504
 20
90.143522
 30
0.0
 11
107.970504
 21
80.643522
 31
0.0
  0
LINE
  5
285
100
AcDbEntity
  8
3
100
AcDbLine
 10
109.970504
 20
83.410171
 30
0.0
 11
109.970504
 21
85.436537
 31
0.0
  0
LINE
  5
286
100
AcDbEntity
  8
3
100
AcDbLine
 10
109.970504
 20
101.643522
 30
0.0
 11
120.470504
 21
101.643522
 31
0.0
  0
LINE
  5
287
100
AcDbEntity
  8
3
100
AcDbLine
 10
109.970504
 20
96.876873
 30
0.0
 11
120.470504
 21
96.876873
 31
0.0
  0
LINE
  5
288
100
AcDbEntity
  8
3
100
AcDbLine
 10
109.970504
 20
94.850507
 30
0.0
 11
120.470504
 21
94.850507
 31
0.0
  0
LINE
  5
289
100
AcDbEntity
  8
3
100
AcDbLine
 10
109.728392
 20
101.401409
 30
0.0
 11
120.470504
 21
101.401409
 31
0.0
  0
LINE
  5
28A
100
AcDbEntity
  8
3
100
AcDbLine
 10
109.970504
 20
96.876873
 30
0.0
 11
109.970504
 21
94.850507
 31
0.0
  0
LINE
  5
28B
100
AcDbEntity
  8
3
100
AcDbLine
 10
107.970504
 20
99.643522
 30
0.0
 11
109.970504
 21
101.643522
 31
0.0
  0
ENDSEC
  0
SECTION
  2
OBJECTS
  0
DICTIONARY
  5
C1
100
AcDbDictionary
  3
ACAD_GROUP
350
C2
  3
ACAD_MLINESTYLE
350
CF
  3
ACDBVARIABLEDICTIONARY
350
E1
  0
DICTIONARY
  5
C2
102
{ACAD_REACTORS
330
C1
102
}
100
AcDbDictionary
  0
DICTIONARY
  5
CF
102
{ACAD_REACTORS
330
C1
102
}
100
AcDbDictionary
  3
STANDARD
350
D0
  0
DICTIONARY
  5
E1
102
{ACAD_REACTORS
330
C1
102
}
100
AcDbDictionary
  3
DIMADEC
350
E2
  0
MLINESTYLE
  5
D0
102
{ACAD_REACTORS
330
CF
102
}
100
AcDbMlineStyle
  2
STANDARD
 70
     0
  3

 62
   256
 51
90.0
 52
90.0
 71
     2
 49
0.5
 62
   256
  6
BYLAYER
 49
-0.5
 62
   256
  6
BYLAYER
  0
DICTIONARYVAR
  5
E2
102
{ACAD_REACTORS
330
E1
102
}
100
DictionaryVariables
280
     0
  1
0
  0
ENDSEC
  0
EOF
