  0
SECTION
  2
HEADER
  9
$ACADVER
  1
AC1014
  9
$ACADMAINTVER
 70
     0
  9
$DWGCODEPAGE
  3
ANSI_932
  9
$INSBASE
 10
0.0
 20
0.0
 30
0.0
  9
$EXTMIN
 10
-61.823513
 20
-31.759241
 30
0.0
  9
$EXTMAX
 10
293.340253
 20
238.529369
 30
0.0
  9
$LIMMIN
 10
0.0
 20
0.0
  9
$LIMMAX
 10
250.0
 20
160.0
  9
$ORTHOMODE
 70
     0
  9
$REGENMODE
 70
     1
  9
$FILLMODE
 70
     1
  9
$QTEXTMODE
 70
     0
  9
$MIRRTEXT
 70
     1
  9
$DRAGMODE
 70
     1
  9
$LTSCALE
 40
30.0
  9
$OSMODE
 70
    33
  9
$ATTMODE
 70
     1
  9
$TEXTSIZE
 40
15.0
  9
$TRACEWID
 40
0.05
  9
$TEXTSTYLE
  7
BIGFONT
  9
$CLAYER
  8
3
  9
$CELTYPE
  6
BYLAYER
  9
$CECOLOR
 62
   256
  9
$CELTSCALE
 40
1.0
  9
$DELOBJ
 70
     1
  9
$DISPSILH
 70
     0
  9
$DIMSCALE
 40
3.0
  9
$DIMASZ
 40
3.0
  9
$DIMEXO
 40
2.0
  9
$DIMDLI
 40
0.38
  9
$DIMRND
 40
0.0
  9
$DIMDLE
 40
0.0
  9
$DIMEXE
 40
2.0
  9
$DIMTP
 40
0.0
  9
$DIMTM
 40
0.0
  9
$DIMTXT
 40
3.2
  9
$DIMCEN
 40
0.09
  9
$DIMTSZ
 40
0.0
  9
$DIMTOL
 70
     0
  9
$DIMLIM
 70
     0
  9
$DIMTIH
 70
     0
  9
$DIMTOH
 70
     0
  9
$DIMSE1
 70
     0
  9
$DIMSE2
 70
     0
  9
$DIMTAD
 70
     1
  9
$DIMZIN
 70
     0
  9
$DIMBLK
  1

  9
$DIMASO
 70
     0
  9
$DIMSHO
 70
     0
  9
$DIMPOST
  1

  9
$DIMAPOST
  1

  9
$DIMALT
 70
     0
  9
$DIMALTD
 70
     2
  9
$DIMALTF
 40
25.4
  9
$DIMLFAC
 40
1.0
  9
$DIMTOFL
 70
     0
  9
$DIMTVP
 40
1.6
  9
$DIMTIX
 70
     1
  9
$DIMSOXD
 70
     0
  9
$DIMSAH
 70
     0
  9
$DIMBLK1
  1

  9
$DIMBLK2
  1

  9
$DIMSTYLE
  2
STANDARD
  9
$DIMCLRD
 70
     0
  9
$DIMCLRE
 70
     0
  9
$DIMCLRT
 70
     0
  9
$DIMTFAC
 40
1.0
  9
$DIMGAP
 40
0.09
  9
$DIMJUST
 70
     0
  9
$DIMSD1
 70
     0
  9
$DIMSD2
 70
     0
  9
$DIMTOLJ
 70
     1
  9
$DIMTZIN
 70
     0
  9
$DIMALTZ
 70
     0
  9
$DIMALTTZ
 70
     0
  9
$DIMFIT
 70
     5
  9
$DIMUPT
 70
     0
  9
$DIMUNIT
 70
     2
  9
$DIMDEC
 70
     4
  9
$DIMTDEC
 70
     4
  9
$DIMALTU
 70
     2
  9
$DIMALTTD
 70
     2
  9
$DIMTXSTY
  7
BIGFONT
  9
$DIMAUNIT
 70
     0
  9
$LUNITS
 70
     2
  9
$LUPREC
 70
     4
  9
$SKETCHINC
 40
0.1
  9
$FILLETRAD
 40
0.0
  9
$AUNITS
 70
     0
  9
$AUPREC
 70
     0
  9
$MENU
  1
ACAD
  9
$ELEVATION
 40
0.0
  9
$PELEVATION
 40
0.0
  9
$THICKNESS
 40
0.0
  9
$LIMCHECK
 70
     0
  9
$BLIPMODE
 70
     0
  9
$CHAMFERA
 40
0.0
  9
$CHAMFERB
 40
0.0
  9
$CHAMFERC
 40
0.0
  9
$CHAMFERD
 40
0.0
  9
$SKPOLY
 70
     0
  9
$TDCREATE
 40
2450868.949313078
  9
$TDUPDATE
 40
2453594.496987303
  9
$TDINDWG
 40
0.0100430440
  9
$TDUSRTIMER
 40
0.0100430440
  9
$USRTIMER
 70
     1
  9
$ANGBASE
 50
0.0
  9
$ANGDIR
 70
     0
  9
$PDMODE
 70
     0
  9
$PDSIZE
 40
0.0
  9
$PLINEWID
 40
0.0
  9
$COORDS
 70
     2
  9
$SPLFRAME
 70
     0
  9
$SPLINETYPE
 70
     6
  9
$SPLINESEGS
 70
     8
  9
$ATTDIA
 70
     0
  9
$ATTREQ
 70
     1
  9
$HANDLING
 70
     1
  9
$HANDSEED
  5
405
  9
$SURFTAB1
 70
     6
  9
$SURFTAB2
 70
     6
  9
$SURFTYPE
 70
     6
  9
$SURFU
 70
     6
  9
$SURFV
 70
     6
  9
$UCSNAME
  2

  9
$UCSORG
 10
0.0
 20
0.0
 30
0.0
  9
$UCSXDIR
 10
1.0
 20
0.0
 30
0.0
  9
$UCSYDIR
 10
0.0
 20
1.0
 30
0.0
  9
$PUCSNAME
  2

  9
$PUCSORG
 10
0.0
 20
0.0
 30
0.0
  9
$PUCSXDIR
 10
1.0
 20
0.0
 30
0.0
  9
$PUCSYDIR
 10
0.0
 20
1.0
 30
0.0
  9
$USERI1
 70
     0
  9
$USERI2
 70
     0
  9
$USERI3
 70
     0
  9
$USERI4
 70
     0
  9
$USERI5
 70
     0
  9
$USERR1
 40
0.0
  9
$USERR2
 40
0.0
  9
$USERR3
 40
0.0
  9
$USERR4
 40
0.0
  9
$USERR5
 40
0.0
  9
$WORLDVIEW
 70
     1
  9
$SHADEDGE
 70
     3
  9
$SHADEDIF
 70
    70
  9
$TILEMODE
 70
     1
  9
$MAXACTVP
 70
    16
  9
$PINSBASE
 10
0.0
 20
0.0
 30
0.0
  9
$PLIMCHECK
 70
     0
  9
$PEXTMIN
 10
1.000000E+20
 20
1.000000E+20
 30
1.000000E+20
  9
$PEXTMAX
 10
-1.000000E+20
 20
-1.000000E+20
 30
-1.000000E+20
  9
$PLIMMIN
 10
0.0
 20
0.0
  9
$PLIMMAX
 10
12.0
 20
9.0
  9
$UNITMODE
 70
     0
  9
$VISRETAIN
 70
     0
  9
$PLINEGEN
 70
   351
  9
$PSLTSCALE
 70
     0
  9
$TREEDEPTH
 70
  3020
  9
$PICKSTYLE
 70
     1
  9
$CMLSTYLE
  2
STANDARD
  9
$CMLJUST
 70
     0
  9
$CMLSCALE
 40
1.0
  9
$PROXYGRAPHICS
 70
     1
  9
$MEASUREMENT
 70
     0
  0
ENDSEC
  0
SECTION
  2
CLASSES
  0
CLASS
  1
DICTIONARYVAR
  2
AcDbDictionaryVar
  3
"AutoCAD"
 90
        0
280
     0
281
     0
  0
ENDSEC
  0
SECTION
  2
TABLES
  0
TABLE
  2
VPORT
  5
1B4
100
AcDbSymbolTable
 70
     9
  0
VPORT
  5
404
100
AcDbSymbolTableRecord
100
AcDbViewportTableRecord
  2
*ACTIVE
 70
     0
 10
0.0
 20
0.0
 11
1.0
 21
1.0
 12
141.889764
 22
98.881727
 13
0.0
 23
0.0
 14
5.0
 24
5.0
 15
10.0
 25
10.0
 16
0.0
 26
0.0
 36
1.0
 17
0.0
 27
0.0
 37
0.0
 40
395.526906
 41
1.434944
 42
50.0
 43
0.0
 44
0.0
 50
0.0
 51
0.0
 71
     0
 72
   500
 73
     1
 74
     1
 75
     0
 76
     0
 77
     0
 78
     2
  0
ENDTAB
  0
TABLE
  2
LTYPE
  5
1B1
100
AcDbSymbolTable
 70
     5
  0
LTYPE
  5
1BD
100
AcDbSymbolTableRecord
100
AcDbLinetypeTableRecord
  2
BYBLOCK
 70
     0
  3

 72
    65
 73
     0
 40
0.0
  0
LTYPE
  5
1BE
100
AcDbSymbolTableRecord
100
AcDbLinetypeTableRecord
  2
BYLAYER
 70
     0
  3

 72
    65
 73
     0
 40
0.0
  0
LTYPE
  5
1BF
100
AcDbSymbolTableRecord
100
AcDbLinetypeTableRecord
  2
CONTINUOUS
 70
     0
  3
実線
 72
    65
 73
     0
 40
0.0
  0
LTYPE
  5
1CE
100
AcDbSymbolTableRecord
100
AcDbLinetypeTableRecord
  2
CENTER
 70
     0
  3
____ _ ____ _ ____ _ ____ _ ____ _ ____ _ ____
 72
    65
 73
     4
 40
2.0
 49
1.25
 74
     0
 49
-0.25
 74
     0
 49
0.25
 74
     0
 49
-0.25
 74
     0
  0
LTYPE
  5
1CF
100
AcDbSymbolTableRecord
100
AcDbLinetypeTableRecord
  2
HIDDEN
 70
     0
  3
_ _ _ _ _ _ _ _ _ _ _ _ _ _ _ _ _ _ _ _ _ _ _
 72
    65
 73
     2
 40
0.375
 49
0.25
 74
     0
 49
-0.125
 74
     0
  0
LTYPE
  5
202
100
AcDbSymbolTableRecord
100
AcDbLinetypeTableRecord
  2
TENSEN
 70
     0
  3

 72
    65
 73
     2
 40
3.0
 49
2.0
 74
     0
 49
-1.0
 74
     0
  0
LTYPE
  5
203
100
AcDbSymbolTableRecord
100
AcDbLinetypeTableRecord
  2
ITTEN
 70
     0
  3

 72
    65
 73
     4
 40
5.5
 49
2.5
 74
     0
 49
-1.0
 74
     0
 49
1.0
 74
     0
 49
-1.0
 74
     0
  0
ENDTAB
  0
TABLE
  2
LAYER
  5
1AE
100
AcDbSymbolTable
 70
     8
  0
LAYER
  5
1BA
100
AcDbSymbolTableRecord
100
AcDbLayerTableRecord
  2
0
 70
     0
 62
     7
  6
CONTINUOUS
  0
LAYER
  5
1D4
100
AcDbSymbolTableRecord
100
AcDbLayerTableRecord
  2
1
 70
     0
 62
     1
  6
CENTER
  0
LAYER
  5
1D5
100
AcDbSymbolTableRecord
100
AcDbLayerTableRecord
  2
3
 70
     0
 62
     3
  6
CONTINUOUS
  0
LAYER
  5
1D6
100
AcDbSymbolTableRecord
100
AcDbLayerTableRecord
  2
4
 70
     0
 62
     4
  6
CONTINUOUS
  0
LAYER
  5
1D7
100
AcDbSymbolTableRecord
100
AcDbLayerTableRecord
  2
10
 70
     0
 62
     7
  6
CONTINUOUS
  0
LAYER
  5
1D8
100
AcDbSymbolTableRecord
100
AcDbLayerTableRecord
  2
11
 70
     0
 62
     3
  6
CONTINUOUS
  0
LAYER
  5
1D9
100
AcDbSymbolTableRecord
100
AcDbLayerTableRecord
  2
2
 70
     0
 62
     2
  6
HIDDEN
  0
LAYER
  5
204
100
AcDbSymbolTableRecord
100
AcDbLayerTableRecord
  2
DEFPOINTS
 70
     0
 62
     7
  6
CONTINUOUS
  0
ENDTAB
  0
TABLE
  2
STYLE
  5
1AF
100
AcDbSymbolTable
 70
     4
  0
STYLE
  5
1BB
100
AcDbSymbolTableRecord
100
AcDbTextStyleTableRecord
  2
STANDARD
 70
     0
 40
0.0
 41
1.0
 50
0.0
 71
     0
 42
0.2
  3
TXT
  4
BIGFONT
  0
STYLE
  5
1CB
100
AcDbSymbolTableRecord
100
AcDbTextStyleTableRecord
  2
K80
 70
     0
 40
0.0
 41
0.8
 50
0.0
 71
     0
 42
0.2
  3
TXT
  4
BIGFONT
  0
STYLE
  5
1CC
100
AcDbSymbolTableRecord
100
AcDbTextStyleTableRecord
  2
07500
 70
     0
 40
0.0
 41
0.75
 50
0.0
 71
     0
 42
0.2
  3
TXT
  4
BIGFONT
  0
STYLE
  5
1CD
100
AcDbSymbolTableRecord
100
AcDbTextStyleTableRecord
  2
BIGFONT
 70
     0
 40
15.0
 41
0.8
 50
0.0
 71
     0
 42
15.0
  3

  4
bigfont
  0
ENDTAB
  0
TABLE
  2
VIEW
  5
1B2
100
AcDbSymbolTable
 70
     1
  0
VIEW
  5
1D0
100
AcDbSymbolTableRecord
100
AcDbViewTableRecord
  2
ALL
 70
     0
 40
810.0
 10
662.97479
 20
405.0
 41
0.0
 11
0.0
 21
0.0
 31
1.0
 12
0.0
 22
0.0
 32
0.0
 42
0.0
 43
0.0
 44
0.0
 50
0.0
 71
     0
  0
ENDTAB
  0
TABLE
  2
UCS
  5
1B3
100
AcDbSymbolTable
 70
     0
  0
ENDTAB
  0
TABLE
  2
APPID
  5
1B5
100
AcDbSymbolTable
 70
     1
  0
APPID
  5
1BC
100
AcDbSymbolTableRecord
100
AcDbRegAppTableRecord
  2
ACAD
 70
     0
  0
ENDTAB
  0
TABLE
  2
DIMSTYLE
  5
1B6
100
AcDbSymbolTable
 70
     1
  0
DIMSTYLE
105
1D3
100
AcDbSymbolTableRecord
100
AcDbDimStyleTableRecord
  2
STANDARD
 70
     0
  3

  4

  5

  6

  7

 40
1.0
 41
0.18
 42
0.0625
 43
0.38
 44
0.18
 45
0.0
 46
0.0
 47
0.0
 48
0.0
140
0.18
141
0.09
142
0.0
143
25.4
144
1.0
145
0.0
146
1.0
147
0.09
 71
     0
 72
     0
 73
     1
 74
     1
 75
     0
 76
     0
 77
     0
 78
     0
170
     0
171
     2
172
     0
173
     0
174
     0
175
     0
176
     0
177
     0
178
     0
270
     2
271
     4
272
     4
273
     2
274
     2
340
1CD
275
     0
280
     0
281
     0
282
     0
283
     1
284
     0
285
     0
286
     0
287
     5
288
     0
  0
ENDTAB
  0
TABLE
  2
BLOCK_RECORD
  5
1AD
100
AcDbSymbolTable
 70
     8
  0
BLOCK_RECORD
  5
1C3
100
AcDbSymbolTableRecord
100
AcDbBlockTableRecord
  2
*MODEL_SPACE
  0
BLOCK_RECORD
  5
1C0
100
AcDbSymbolTableRecord
100
AcDbBlockTableRecord
  2
*PAPER_SPACE
  0
BLOCK_RECORD
  5
1C8
100
AcDbSymbolTableRecord
100
AcDbBlockTableRecord
  2
WAKU
  0
BLOCK_RECORD
  5
1C9
100
AcDbSymbolTableRecord
100
AcDbBlockTableRecord
  2
Z
  0
BLOCK_RECORD
  5
1CA
100
AcDbSymbolTableRecord
100
AcDbBlockTableRecord
  2
QQ
  0
BLOCK_RECORD
  5
1E8
100
AcDbSymbolTableRecord
100
AcDbBlockTableRecord
  2
*D3
  0
BLOCK_RECORD
  5
1F5
100
AcDbSymbolTableRecord
100
AcDbBlockTableRecord
  2
*D4
  0
BLOCK_RECORD
  5
205
100
AcDbSymbolTableRecord
100
AcDbBlockTableRecord
  2
A$C6E216FFA
  0
BLOCK_RECORD
  5
2F5
100
AcDbSymbolTableRecord
100
AcDbBlockTableRecord
  2
*D6
  0
BLOCK_RECORD
  5
30C
100
AcDbSymbolTableRecord
100
AcDbBlockTableRecord
  2
*D7
  0
ENDTAB
  0
ENDSEC
  0
SECTION
  2
BLOCKS
  0
BLOCK
  5
1DC
100
AcDbEntity
  8
0
100
AcDbBlockBegin
  2
*MODEL_SPACE
 70
     0
 10
0.0
 20
0.0
 30
0.0
  3
*MODEL_SPACE
  1

  0
ENDBLK
  5
1DD
100
AcDbEntity
  8
0
100
AcDbBlockEnd
  0
BLOCK
  5
1DA
100
AcDbEntity
 67
     1
  8
0
100
AcDbBlockBegin
  2
*PAPER_SPACE
 70
     0
 10
0.0
 20
0.0
 30
0.0
  3
*PAPER_SPACE
  1

  0
ENDBLK
  5
1DB
100
AcDbEntity
 67
     1
  8
0
100
AcDbBlockEnd
  0
BLOCK
  5
31
100
AcDbEntity
  8
0
100
AcDbBlockBegin
  2
WAKU
 70
     0
 10
549.0
 20
0.0
 30
0.0
  3
WAKU
  1

  0
LINE
  5
32
100
AcDbEntity
  8
11
100
AcDbLine
 10
452.0
 20
12.0
 30
0.0
 11
549.0
 21
12.0
 31
0.0
  0
LINE
  5
33
100
AcDbEntity
  8
11
100
AcDbLine
 10
477.0
 20
0.0
 30
0.0
 11
477.0
 21
12.0
 31
0.0
  0
LINE
  5
34
100
AcDbEntity
  8
11
100
AcDbLine
 10
452.0
 20
12.0
 30
0.0
 11
452.0
 21
0.0
 31
0.0
  0
TEXT
  5
35
100
AcDbEntity
  8
11
100
AcDbText
 10
454.0
 20
8.5
 30
0.0
 40
2.5
  1
尺度
100
AcDbText
  0
TEXT
  5
36
100
AcDbEntity
  8
11
100
AcDbText
 10
479.0
 20
8.5
 30
0.0
 40
2.5
  1
図番
100
AcDbText
  0
ENDBLK
  5
37
100
AcDbEntity
  8
0
100
AcDbBlockEnd
  0
BLOCK
  5
38
100
AcDbEntity
  8
0
100
AcDbBlockBegin
  2
Z
 70
     0
 10
481.110778
 20
136.78702
 30
0.0
  3
Z
  1

  0
TEXT
  5
39
100
AcDbEntity
  8
0
100
AcDbText
 10
478.150683
 20
140.067934
 30
0.0
 40
5.5
  1
１
 50
360.0
 41
0.8
  7
K80
 72
     1
 11
480.05735
 21
140.067934
 31
0.0
100
AcDbText
  0
TEXT
  5
3A
100
AcDbEntity
  8
0
100
AcDbText
 10
470.108991
 20
139.534665
 30
0.0
 40
6.0
  1
Ｖ
 50
360.0
 41
0.8
  7
K80
 72
     1
 11
472.348991
 21
139.534665
 31
0.0
100
AcDbText
  0
TEXT
  5
3B
100
AcDbEntity
  8
0
100
AcDbText
 10
482.885325
 20
140.047863
 30
0.0
 40
5.5
  1
６
 50
360.0
 41
0.8
  7
K80
 72
     1
 11
484.938658
 21
140.047863
 31
0.0
100
AcDbText
  0
LINE
  5
3C
100
AcDbEntity
  8
0
100
AcDbLine
 10
474.860778
 20
142.78702
 30
0.0
 11
477.360778
 21
142.78702
 31
0.0
  0
TEXT
  5
3D
100
AcDbEntity
  8
0
100
AcDbText
 10
488.000475
 20
140.013502
 30
0.0
 40
5.5
  1
０
 50
360.0
 41
0.8
  7
K80
 72
     1
 11
489.907142
 21
140.013502
 31
0.0
100
AcDbText
  0
ENDBLK
  5
3E
100
AcDbEntity
  8
0
100
AcDbBlockEnd
  0
BLOCK
  5
3F
100
AcDbEntity
  8
0
100
AcDbBlockBegin
  2
QQ
 70
     0
 10
270.0
 20
0.0
 30
0.0
  3
QQ
  1

  0
LINE
  5
40
100
AcDbEntity
  8
11
100
AcDbLine
 10
173.0
 20
36.0
 30
0.0
 11
270.0
 21
36.0
 31
0.0
  0
TEXT
  5
41
100
AcDbEntity
  8
11
100
AcDbText
 10
175.0
 20
32.5
 30
0.0
 40
2.5
  1
部品名称
100
AcDbText
  0
LINE
  5
42
100
AcDbEntity
  8
11
100
AcDbLine
 10
173.0
 20
36.0
 30
0.0
 11
173.0
 21
0.0
 31
0.0
  0
LINE
  5
43
100
AcDbEntity
  8
11
100
AcDbLine
 10
173.0
 20
24.0
 30
0.0
 11
270.0
 21
24.0
 31
0.0
  0
TEXT
  5
44
100
AcDbEntity
  8
11
100
AcDbText
 10
175.0
 20
20.5
 30
0.0
 40
2.5
  1
品番
100
AcDbText
  0
LINE
  5
45
100
AcDbEntity
  8
11
100
AcDbLine
 10
173.0
 20
12.0
 30
0.0
 11
270.0
 21
12.0
 31
0.0
  0
TEXT
  5
46
100
AcDbEntity
  8
11
100
AcDbText
 10
175.0
 20
8.5
 30
0.0
 40
2.5
  1
尺度
100
AcDbText
  0
TEXT
  5
47
100
AcDbEntity
  8
11
100
AcDbText
 10
200.0
 20
8.5
 30
0.0
 40
2.5
  1
図番
100
AcDbText
  0
LINE
  5
48
100
AcDbEntity
  8
11
100
AcDbLine
 10
198.0
 20
0.0
 30
0.0
 11
198.0
 21
12.0
 31
0.0
  0
ENDBLK
  5
49
100
AcDbEntity
  8
0
100
AcDbBlockEnd
  0
BLOCK
  5
1F3
100
AcDbEntity
  8
0
100
AcDbBlockBegin
  2
*D3
 70
     1
 10
0.0
 20
0.0
 30
0.0
  3
*D3
  1

  0
LINE
  5
1E9
100
AcDbEntity
  8
0
  6
BYBLOCK
 62
     0
100
AcDbLine
 10
123.9
 20
124.5
 30
0.0
 11
94.3
 21
124.5
 31
0.0
  0
LINE
  5
1EA
100
AcDbEntity
  8
0
  6
BYBLOCK
 62
     0
100
AcDbLine
 10
123.9
 20
101.5
 30
0.0
 11
94.3
 21
101.5
 31
0.0
  0
LINE
  5
1EB
100
AcDbEntity
  8
0
  6
BYBLOCK
 62
     0
100
AcDbLine
 10
94.5
 20
122.5
 30
0.0
 11
94.5
 21
114.8
 31
0.0
  0
LINE
  5
1EC
100
AcDbEntity
  8
0
  6
BYBLOCK
 62
     0
100
AcDbLine
 10
94.5
 20
103.5
 30
0.0
 11
94.5
 21
111.2
 31
0.0
  0
SOLID
  5
1ED
100
AcDbEntity
  8
0
  6
BYBLOCK
 62
     0
100
AcDbTrace
 10
94.166667
 20
122.5
 30
0.0
 11
94.833333
 21
122.5
 31
0.0
 12
94.5
 22
124.5
 32
0.0
 13
94.5
 23
124.5
 33
0.0
  0
SOLID
  5
1EE
100
AcDbEntity
  8
0
  6
BYBLOCK
 62
     0
100
AcDbTrace
 10
94.166667
 20
103.5
 30
0.0
 11
94.833333
 21
103.5
 31
0.0
 12
94.5
 22
101.5
 32
0.0
 13
94.5
 23
101.5
 33
0.0
  0
MTEXT
  5
1EF
100
AcDbEntity
  8
0
  6
BYBLOCK
 62
     0
100
AcDbMText
 10
94.5
 20
113.0
 30
0.0
 40
3.5
 41
0.0
 71
     5
 72
     1
  1
\A1;23
 11
0.0
 21
1.0
 31
0.0
  0
POINT
  5
1F0
100
AcDbEntity
  8
DEFPOINTS
  6
BYBLOCK
 62
     0
100
AcDbPoint
 10
124.0
 20
124.5
 30
0.0
  0
POINT
  5
1F1
100
AcDbEntity
  8
DEFPOINTS
  6
BYBLOCK
 62
     0
100
AcDbPoint
 10
124.0
 20
101.5
 30
0.0
  0
POINT
  5
1F2
100
AcDbEntity
  8
DEFPOINTS
  6
BYBLOCK
 62
     0
100
AcDbPoint
 10
94.5
 20
101.5
 30
0.0
  0
ENDBLK
  5
1F4
100
AcDbEntity
  8
0
100
AcDbBlockEnd
  0
BLOCK
  5
200
100
AcDbEntity
  8
0
100
AcDbBlockBegin
  2
*D4
 70
     1
 10
0.0
 20
0.0
 30
0.0
  3
*D4
  1

  0
LINE
  5
1F6
100
AcDbEntity
  8
0
  6
BYBLOCK
 62
     0
100
AcDbLine
 10
127.9
 20
121.0
 30
0.0
 11
99.3
 21
121.0
 31
0.0
  0
LINE
  5
1F7
100
AcDbEntity
  8
0
  6
BYBLOCK
 62
     0
100
AcDbLine
 10
123.9
 20
101.5
 30
0.0
 11
99.3
 21
101.5
 31
0.0
  0
LINE
  5
1F8
100
AcDbEntity
  8
0
  6
BYBLOCK
 62
     0
100
AcDbLine
 10
99.5
 20
119.0
 30
0.0
 11
99.5
 21
113.65
 31
0.0
  0
LINE
  5
1F9
100
AcDbEntity
  8
0
  6
BYBLOCK
 62
     0
100
AcDbLine
 10
99.5
 20
103.5
 30
0.0
 11
99.5
 21
107.35
 31
0.0
  0
SOLID
  5
1FA
100
AcDbEntity
  8
0
  6
BYBLOCK
 62
     0
100
AcDbTrace
 10
99.166667
 20
119.0
 30
0.0
 11
99.833333
 21
119.0
 31
0.0
 12
99.5
 22
121.0
 32
0.0
 13
99.5
 23
121.0
 33
0.0
  0
SOLID
  5
1FB
100
AcDbEntity
  8
0
  6
BYBLOCK
 62
     0
100
AcDbTrace
 10
99.166667
 20
103.5
 30
0.0
 11
99.833333
 21
103.5
 31
0.0
 12
99.5
 22
101.5
 32
0.0
 13
99.5
 23
101.5
 33
0.0
  0
MTEXT
  5
1FC
100
AcDbEntity
  8
0
  6
BYBLOCK
 62
     0
100
AcDbMText
 10
99.5
 20
110.5
 30
0.0
 40
3.5
 41
0.0
 71
     5
 72
     1
  1
\A1;19.5
 11
0.0
 21
1.0
 31
0.0
  0
POINT
  5
1FD
100
AcDbEntity
  8
DEFPOINTS
  6
BYBLOCK
 62
     0
100
AcDbPoint
 10
128.0
 20
121.0
 30
0.0
  0
POINT
  5
1FE
100
AcDbEntity
  8
DEFPOINTS
  6
BYBLOCK
 62
     0
100
AcDbPoint
 10
124.0
 20
101.5
 30
0.0
  0
POINT
  5
1FF
100
AcDbEntity
  8
DEFPOINTS
  6
BYBLOCK
 62
     0
100
AcDbPoint
 10
99.5
 20
101.5
 30
0.0
  0
ENDBLK
  5
201
100
AcDbEntity
  8
0
100
AcDbBlockEnd
  0
BLOCK
  5
27C
100
AcDbEntity
  8
0
100
AcDbBlockBegin
  2
A$C6E216FFA
 70
     0
 10
0.0
 20
0.0
 30
0.0
  3
A$C6E216FFA
  1

  0
LINE
  5
206
100
AcDbEntity
  8
3
100
AcDbLine
 10
88.5
 20
8.0
 30
0.0
 11
115.0
 21
8.0
 31
0.0
  0
LINE
  5
207
100
AcDbEntity
  8
2
100
AcDbLine
 10
114.5
 20
18.5
 30
0.0
 11
104.5
 21
18.5
 31
0.0
  0
ARC
  5
208
100
AcDbEntity
  8
3
100
AcDbCircle
 10
105.0
 20
27.76
 30
0.0
 40
6.76
100
AcDbArc
 50
224.76027
 51
315.23973
  0
LINE
  5
209
100
AcDbEntity
  8
2
100
AcDbLine
 10
105.0
 20
9.5
 30
0.0
 11
109.8
 21
12.0
 31
0.0
  0
LINE
  5
20A
100
AcDbEntity
  8
2
100
AcDbLine
 10
109.8
 20
12.0
 30
0.0
 11
100.2
 21
12.0
 31
0.0
  0
LINE
  5
20B
100
AcDbEntity
  8
3
100
AcDbLine
 10
88.5
 20
7.0
 30
0.0
 11
115.0
 21
7.0
 31
0.0
  0
LINE
  5
20C
100
AcDbEntity
  8
3
100
AcDbLine
 10
88.5
 20
23.0
 30
0.0
 11
115.0
 21
23.0
 31
0.0
  0
LINE
  5
20D
100
AcDbEntity
  8
1
100
AcDbLine
 10
65.0
 20
15.0
 30
0.0
 11
214.5
 21
15.0
 31
0.0
  0
ARC
  5
20E
100
AcDbEntity
  8
0
100
AcDbCircle
 10
105.0
 20
15.0
 30
0.0
 40
4.5
100
AcDbArc
 50
32.230953
 51
109.471221
  0
ARC
  5
20F
100
AcDbEntity
  8
0
100
AcDbCircle
 10
105.0
 20
15.0
 30
0.0
 40
4.5
100
AcDbArc
 50
250.528779
 51
327.769047
  0
LINE
  5
210
100
AcDbEntity
  8
3
100
AcDbLine
 10
91.5
 20
26.5
 30
0.0
 11
114.5
 21
26.5
 31
0.0
  0
LINE
  5
211
100
AcDbEntity
  8
3
100
AcDbLine
 10
114.5
 20
3.5
 30
0.0
 11
91.5
 21
3.5
 31
0.0
  0
LINE
  5
212
100
AcDbEntity
  8
2
100
AcDbLine
 10
18.0
 20
15.5
 30
0.0
 11
18.0
 21
7.583801
 31
0.0
  0
LINE
  5
213
100
AcDbEntity
  8
2
100
AcDbLine
 10
24.0
 20
7.583801
 30
0.0
 11
24.0
 21
15.5
 31
0.0
  0
DIMENSION
  5
214
100
AcDbEntity
  8
0
100
AcDbDimension
  2
*D4
 10
57.5
 20
3.5
 30
0.0
 11
57.5
 21
12.5
 31
0.0
 12
-42.0
 22
-98.0
 32
0.0
 70
   128
  3
STANDARD
100
AcDbAlignedDimension
 13
86.0
 23
23.0
 33
0.0
 14
82.0
 24
3.5
 34
0.0
 50
90.0
100
AcDbRotatedDimension
1001
ACAD
1000
DSTYLE
1002
{
1070
    78
1070
     8
1070
   288
1070
     1
1070
   284
1070
     8
1070
   140
1040
2.0
1070
    73
1070
     0
1070
   272
1070
     2
1070
   147
1040
0.1
1070
    42
1040
0.1
1070
    44
1040
0.2
1070
    43
1040
0.4
1070
   271
1070
     2
1070
   141
1040
0.1
1070
    41
1040
2.0
1002
}
  0
DIMENSION
  5
215
100
AcDbEntity
  8
0
100
AcDbDimension
  2
*D3
 10
52.5
 20
3.5
 30
0.0
 11
52.5
 21
15.0
 31
0.0
 12
-42.0
 22
-98.0
 32
0.0
 70
   128
  3
STANDARD
100
AcDbAlignedDimension
 13
82.0
 23
26.5
 33
0.0
 14
82.0
 24
3.5
 34
0.0
 50
90.0
100
AcDbRotatedDimension
1001
ACAD
1000
DSTYLE
1002
{
1070
    78
1070
     8
1070
   288
1070
     1
1070
   284
1070
     8
1070
   140
1040
2.0
1070
    73
1070
     0
1070
   272
1070
     2
1070
   147
1040
0.1
1070
    42
1040
0.1
1070
    44
1040
0.2
1070
    43
1040
0.4
1070
   271
1070
     2
1070
   141
1040
0.1
1070
    41
1040
2.0
1002
}
  0
LINE
  5
216
100
AcDbEntity
  8
2
100
AcDbLine
 10
101.5
 20
15.5
 30
0.0
 11
101.5
 21
7.0
 31
0.0
  0
LINE
  5
217
100
AcDbEntity
  8
2
100
AcDbLine
 10
100.2
 20
12.0
 30
0.0
 11
105.0
 21
9.5
 31
0.0
  0
CIRCLE
  5
218
100
AcDbEntity
  8
3
100
AcDbCircle
 10
21.0
 20
15.0
 30
0.0
 40
14.0
  0
CIRCLE
  5
219
100
AcDbEntity
  8
0
100
AcDbCircle
 10
21.0
 20
15.0
 30
0.0
 40
5.0
  0
CIRCLE
  5
21A
100
AcDbEntity
  8
3
100
AcDbCircle
 10
21.0
 20
15.0
 30
0.0
 40
6.0
  0
CIRCLE
  5
21B
100
AcDbEntity
  8
3
100
AcDbCircle
 10
21.0
 20
15.0
 30
0.0
 40
8.0
  0
CIRCLE
  5
21C
100
AcDbEntity
  8
3
100
AcDbCircle
 10
21.0
 20
15.0
 30
0.0
 40
11.5
  0
LINE
  5
21D
100
AcDbEntity
  8
1
100
AcDbLine
 10
21.0
 20
30.5
 30
0.0
 11
21.0
 21
0.0
 31
0.0
  0
LINE
  5
21E
100
AcDbEntity
  8
2
100
AcDbLine
 10
84.5
 20
26.5
 30
0.0
 11
84.5
 21
3.5
 31
0.0
  0
LINE
  5
21F
100
AcDbEntity
  8
3
100
AcDbLine
 10
88.5
 20
9.0
 30
0.0
 11
88.5
 21
15.0
 31
0.0
  0
LINE
  5
220
100
AcDbEntity
  8
0
100
AcDbLine
 10
87.5
 20
9.0
 30
0.0
 11
87.5
 21
15.0
 31
0.0
  0
LINE
  5
221
100
AcDbEntity
  8
3
100
AcDbLine
 10
88.5
 20
15.0
 30
0.0
 11
88.5
 21
7.0
 31
0.0
  0
LINE
  5
222
100
AcDbEntity
  8
0
100
AcDbLine
 10
69.5
 20
9.0
 30
0.0
 11
69.5
 21
15.0
 31
0.0
  0
LINE
  5
223
100
AcDbEntity
  8
3
100
AcDbLine
 10
69.5
 20
9.0
 30
0.0
 11
67.5
 21
11.0
 31
0.0
  0
LINE
  5
224
100
AcDbEntity
  8
1
100
AcDbLine
 10
105.0
 20
29.0
 30
0.0
 11
105.0
 21
0.0
 31
0.0
  0
LINE
  5
225
100
AcDbEntity
  8
3
100
AcDbLine
 10
91.5
 20
3.5
 30
0.0
 11
91.5
 21
26.5
 31
0.0
  0
LINE
  5
226
100
AcDbEntity
  8
3
100
AcDbLine
 10
69.5
 20
9.0
 30
0.0
 11
88.5
 21
9.0
 31
0.0
  0
LINE
  5
227
100
AcDbEntity
  8
2
100
AcDbLine
 10
84.5
 20
3.5
 30
0.0
 11
91.5
 21
3.5
 31
0.0
  0
LINE
  5
228
100
AcDbEntity
  8
1
100
AcDbLine
 10
0.0
 20
15.0
 30
0.0
 11
41.0
 21
15.0
 31
0.0
  0
ARC
  5
229
100
AcDbEntity
  8
2
100
AcDbCircle
 10
21.0
 20
15.5
 30
0.0
 40
3.0
100
AcDbArc
 50
0.0
 51
180.0
  0
LINE
  5
22A
100
AcDbEntity
  8
0
100
AcDbLine
 10
87.5
 20
10.5
 30
0.0
 11
68.0
 21
10.5
 31
0.0
  0
LINE
  5
22B
100
AcDbEntity
  8
0
100
AcDbLine
 10
87.5
 20
19.5
 30
0.0
 11
68.0
 21
19.5
 31
0.0
  0
LINE
  5
22C
100
AcDbEntity
  8
3
100
AcDbLine
 10
69.5
 20
21.0
 30
0.0
 11
88.5
 21
21.0
 31
0.0
  0
LINE
  5
22D
100
AcDbEntity
  8
0
100
AcDbLine
 10
69.5
 20
21.0
 30
0.0
 11
69.5
 21
15.0
 31
0.0
  0
LINE
  5
22E
100
AcDbEntity
  8
3
100
AcDbLine
 10
67.5
 20
15.0
 30
0.0
 11
67.5
 21
19.0
 31
0.0
  0
LINE
  5
22F
100
AcDbEntity
  8
3
100
AcDbLine
 10
67.5
 20
15.0
 30
0.0
 11
67.5
 21
11.0
 31
0.0
  0
LINE
  5
230
100
AcDbEntity
  8
3
100
AcDbLine
 10
69.5
 20
21.0
 30
0.0
 11
67.5
 21
19.0
 31
0.0
  0
LINE
  5
231
100
AcDbEntity
  8
0
100
AcDbLine
 10
87.5
 20
21.0
 30
0.0
 11
87.5
 21
15.0
 31
0.0
  0
LINE
  5
232
100
AcDbEntity
  8
3
100
AcDbLine
 10
88.5
 20
15.0
 30
0.0
 11
88.5
 21
23.0
 31
0.0
  0
LINE
  5
233
100
AcDbEntity
  8
3
100
AcDbLine
 10
88.5
 20
21.0
 30
0.0
 11
88.5
 21
15.0
 31
0.0
  0
LINE
  5
234
100
AcDbEntity
  8
2
100
AcDbLine
 10
91.5
 20
26.5
 30
0.0
 11
84.5
 21
26.5
 31
0.0
  0
ARC
  5
235
100
AcDbEntity
  8
2
100
AcDbCircle
 10
104.5
 20
15.5
 30
0.0
 40
3.0
100
AcDbArc
 50
90.0
 51
180.0
  0
LINE
  5
236
100
AcDbEntity
  8
2
100
AcDbLine
 10
100.2
 20
12.0
 30
0.0
 11
100.2
 21
23.0
 31
0.0
  0
LINE
  5
237
100
AcDbEntity
  8
0
100
AcDbLine
 10
103.5
 20
19.242641
 30
0.0
 11
103.5
 21
10.757359
 31
0.0
  0
LINE
  5
238
100
AcDbEntity
  8
0
100
AcDbLine
 10
199.5
 20
5.02
 30
0.0
 11
199.5
 21
15.0
 31
0.0
  0
LINE
  5
239
100
AcDbEntity
  8
0
100
AcDbLine
 10
189.5
 20
5.0
 30
0.0
 11
189.5
 21
15.0
 31
0.0
  0
LINE
  5
23A
100
AcDbEntity
  8
3
100
AcDbLine
 10
120.0
 20
9.0
 30
0.0
 11
120.0
 21
15.0
 31
0.0
  0
LINE
  5
23B
100
AcDbEntity
  8
3
100
AcDbLine
 10
120.0
 20
9.0
 30
0.0
 11
118.5
 21
12.0
 31
0.0
  0
LINE
  5
23C
100
AcDbEntity
  8
3
100
AcDbLine
 10
115.0
 20
7.0
 30
0.0
 11
115.0
 21
15.0
 31
0.0
  0
LINE
  5
23D
100
AcDbEntity
  8
3
100
AcDbLine
 10
115.0
 20
7.0
 30
0.0
 11
116.875
 21
12.0
 31
0.0
  0
LINE
  5
23E
100
AcDbEntity
  8
3
100
AcDbLine
 10
115.0
 20
8.0
 30
0.0
 11
115.0
 21
15.0
 31
0.0
  0
LINE
  5
23F
100
AcDbEntity
  8
3
100
AcDbLine
 10
144.3
 20
15.0
 30
0.0
 11
144.3
 21
5.02
 31
0.0
  0
LINE
  5
240
100
AcDbEntity
  8
3
100
AcDbLine
 10
151.3
 20
15.0
 30
0.0
 11
151.3
 21
6.0
 31
0.0
  0
LINE
  5
241
100
AcDbEntity
  8
3
100
AcDbLine
 10
147.8
 20
5.2
 30
0.0
 11
147.8
 21
15.0
 31
0.0
  0
LINE
  5
242
100
AcDbEntity
  8
3
100
AcDbLine
 10
147.3
 20
15.0
 30
0.0
 11
147.3
 21
5.2
 31
0.0
  0
LINE
  5
243
100
AcDbEntity
  8
3
100
AcDbLine
 10
114.5
 20
15.0
 30
0.0
 11
114.5
 21
3.5
 31
0.0
  0
LINE
  5
244
100
AcDbEntity
  8
3
100
AcDbLine
 10
115.0
 20
15.0
 30
0.0
 11
115.0
 21
2.75
 31
0.0
  0
ARC
  5
245
100
AcDbEntity
  8
3
100
AcDbCircle
 10
183.972222
 20
15.0
 30
0.0
 40
24.027778
100
AcDbArc
 50
328.560547
 51
31.439453
  0
LINE
  5
246
100
AcDbEntity
  8
0
100
AcDbLine
 10
144.3
 20
5.02
 30
0.0
 11
199.5
 21
5.02
 31
0.0
  0
LINE
  5
247
100
AcDbEntity
  8
3
100
AcDbLine
 10
201.85364
 20
1.032555
 30
0.0
 11
115.0
 21
2.75
 31
0.0
  0
LINE
  5
248
100
AcDbEntity
  8
3
100
AcDbLine
 10
151.3
 20
9.0
 30
0.0
 11
120.0
 21
9.0
 31
0.0
  0
LINE
  5
249
100
AcDbEntity
  8
3
100
AcDbLine
 10
151.3
 20
6.0
 30
0.0
 11
147.8
 21
5.2
 31
0.0
  0
LINE
  5
24A
100
AcDbEntity
  8
3
100
AcDbLine
 10
144.3
 20
5.02
 30
0.0
 11
114.5
 21
5.02
 31
0.0
  0
LINE
  5
24B
100
AcDbEntity
  8
3
100
AcDbLine
 10
114.0
 20
7.0
 30
0.0
 11
115.0
 21
7.0
 31
0.0
  0
LINE
  5
24C
100
AcDbEntity
  8
0
100
AcDbLine
 10
147.0
 20
5.75
 30
0.0
 11
145.5
 21
5.75
 31
0.0
  0
LINE
  5
24D
100
AcDbEntity
  8
3
100
AcDbLine
 10
144.3
 20
6.0
 30
0.0
 11
147.3
 21
6.0
 31
0.0
  0
LINE
  5
24E
100
AcDbEntity
  8
0
100
AcDbLine
 10
144.5
 20
5.0
 30
0.0
 11
145.5
 21
5.75
 31
0.0
  0
LINE
  5
24F
100
AcDbEntity
  8
0
100
AcDbLine
 10
147.0
 20
5.0
 30
0.0
 11
147.0
 21
5.75
 31
0.0
  0
LINE
  5
250
100
AcDbEntity
  8
3
100
AcDbLine
 10
147.3
 20
5.2
 30
0.0
 11
147.8
 21
5.2
 31
0.0
  0
ARC
  5
251
100
AcDbEntity
  8
3
100
AcDbCircle
 10
201.912951
 20
4.031969
 30
0.0
 40
3.0
100
AcDbArc
 50
268.86718
 51
328.560547
  0
LINE
  5
252
100
AcDbEntity
  8
0
100
AcDbLine
 10
144.3
 20
24.98
 30
0.0
 11
199.5
 21
24.98
 31
0.0
  0
LINE
  5
253
100
AcDbEntity
  8
3
100
AcDbLine
 10
201.85364
 20
28.967445
 30
0.0
 11
115.0
 21
27.25
 31
0.0
  0
LINE
  5
254
100
AcDbEntity
  8
0
100
AcDbLine
 10
108.806573
 20
12.6
 30
0.0
 11
171.806573
 21
12.6
 31
0.0
  0
LINE
  5
255
100
AcDbEntity
  8
0
100
AcDbLine
 10
108.806573
 20
17.4
 30
0.0
 11
171.806573
 21
17.4
 31
0.0
  0
LINE
  5
256
100
AcDbEntity
  8
3
100
AcDbLine
 10
151.3
 20
21.0
 30
0.0
 11
120.0
 21
21.0
 31
0.0
  0
LINE
  5
257
100
AcDbEntity
  8
3
100
AcDbLine
 10
151.3
 20
24.0
 30
0.0
 11
147.8
 21
24.8
 31
0.0
  0
LINE
  5
258
100
AcDbEntity
  8
3
100
AcDbLine
 10
144.3
 20
24.98
 30
0.0
 11
114.5
 21
24.98
 31
0.0
  0
LINE
  5
259
100
AcDbEntity
  8
3
100
AcDbLine
 10
115.0
 20
23.0
 30
0.0
 11
116.875
 21
18.0
 31
0.0
  0
LINE
  5
25A
100
AcDbEntity
  8
2
100
AcDbLine
 10
109.8
 20
23.0
 30
0.0
 11
109.8
 21
12.0
 31
0.0
  0
LINE
  5
25B
100
AcDbEntity
  8
3
100
AcDbLine
 10
115.0
 20
23.0
 30
0.0
 11
115.0
 21
15.0
 31
0.0
  0
LINE
  5
25C
100
AcDbEntity
  8
3
100
AcDbLine
 10
114.5
 20
26.5
 30
0.0
 11
114.5
 21
15.0
 31
0.0
  0
LINE
  5
25D
100
AcDbEntity
  8
3
100
AcDbLine
 10
115.0
 20
22.0
 30
0.0
 11
115.0
 21
15.0
 31
0.0
  0
LINE
  5
25E
100
AcDbEntity
  8
3
100
AcDbLine
 10
115.0
 20
15.0
 30
0.0
 11
115.0
 21
27.25
 31
0.0
  0
LINE
  5
25F
100
AcDbEntity
  8
0
100
AcDbLine
 10
108.806573
 20
17.4
 30
0.0
 11
108.806573
 21
12.6
 31
0.0
  0
LINE
  5
260
100
AcDbEntity
  8
3
100
AcDbLine
 10
114.0
 20
23.0
 30
0.0
 11
115.0
 21
22.0
 31
0.0
  0
LINE
  5
261
100
AcDbEntity
  8
3
100
AcDbLine
 10
120.0
 20
21.0
 30
0.0
 11
118.5
 21
18.0
 31
0.0
  0
LINE
  5
262
100
AcDbEntity
  8
3
100
AcDbLine
 10
120.0
 20
21.0
 30
0.0
 11
120.0
 21
15.0
 31
0.0
  0
LINE
  5
263
100
AcDbEntity
  8
3
100
AcDbLine
 10
118.5
 20
12.0
 30
0.0
 11
118.5
 21
15.0
 31
0.0
  0
LINE
  5
264
100
AcDbEntity
  8
3
100
AcDbLine
 10
116.875
 20
12.0
 30
0.0
 11
116.875
 21
15.0
 31
0.0
  0
LINE
  5
265
100
AcDbEntity
  8
3
100
AcDbLine
 10
116.875
 20
12.0
 30
0.0
 11
118.5
 21
12.0
 31
0.0
  0
LINE
  5
266
100
AcDbEntity
  8
3
100
AcDbLine
 10
116.875
 20
18.0
 30
0.0
 11
116.875
 21
15.0
 31
0.0
  0
LINE
  5
267
100
AcDbEntity
  8
3
100
AcDbLine
 10
118.5
 20
18.0
 30
0.0
 11
118.5
 21
15.0
 31
0.0
  0
LINE
  5
268
100
AcDbEntity
  8
3
100
AcDbLine
 10
116.875
 20
18.0
 30
0.0
 11
118.5
 21
18.0
 31
0.0
  0
LINE
  5
269
100
AcDbEntity
  8
3
100
AcDbLine
 10
144.3
 20
15.0
 30
0.0
 11
144.3
 21
24.98
 31
0.0
  0
LINE
  5
26A
100
AcDbEntity
  8
3
100
AcDbLine
 10
147.8
 20
24.8
 30
0.0
 11
147.8
 21
15.0
 31
0.0
  0
LINE
  5
26B
100
AcDbEntity
  8
3
100
AcDbLine
 10
147.3
 20
15.0
 30
0.0
 11
147.3
 21
24.8
 31
0.0
  0
LINE
  5
26C
100
AcDbEntity
  8
0
100
AcDbLine
 10
147.0
 20
24.25
 30
0.0
 11
145.5
 21
24.25
 31
0.0
  0
LINE
  5
26D
100
AcDbEntity
  8
3
100
AcDbLine
 10
144.3
 20
24.0
 30
0.0
 11
147.3
 21
24.0
 31
0.0
  0
LINE
  5
26E
100
AcDbEntity
  8
0
100
AcDbLine
 10
144.5
 20
25.0
 30
0.0
 11
145.5
 21
24.25
 31
0.0
  0
LINE
  5
26F
100
AcDbEntity
  8
0
100
AcDbLine
 10
147.0
 20
25.0
 30
0.0
 11
147.0
 21
24.25
 31
0.0
  0
LINE
  5
270
100
AcDbEntity
  8
3
100
AcDbLine
 10
147.3
 20
24.8
 30
0.0
 11
147.8
 21
24.8
 31
0.0
  0
LINE
  5
271
100
AcDbEntity
  8
3
100
AcDbLine
 10
151.3
 20
15.0
 30
0.0
 11
151.3
 21
24.0
 31
0.0
  0
LINE
  5
272
100
AcDbEntity
  8
0
100
AcDbLine
 10
171.806573
 20
17.4
 30
0.0
 11
171.806573
 21
12.6
 31
0.0
  0
LINE
  5
273
100
AcDbEntity
  8
0
100
AcDbLine
 10
173.306573
 20
17.4
 30
0.0
 11
173.306573
 21
12.6
 31
0.0
  0
LINE
  5
274
100
AcDbEntity
  8
0
100
AcDbLine
 10
174.806573
 20
16.935453
 30
0.0
 11
174.806573
 21
13.064547
 31
0.0
  0
LINE
  5
275
100
AcDbEntity
  8
0
100
AcDbLine
 10
173.306573
 20
12.6
 30
0.0
 11
174.806573
 21
13.064547
 31
0.0
  0
LINE
  5
276
100
AcDbEntity
  8
0
100
AcDbLine
 10
171.806573
 20
12.6
 30
0.0
 11
173.306573
 21
13.0
 31
0.0
  0
LINE
  5
277
100
AcDbEntity
  8
0
100
AcDbLine
 10
173.306573
 20
17.4
 30
0.0
 11
174.806573
 21
16.935453
 31
0.0
  0
LINE
  5
278
100
AcDbEntity
  8
0
100
AcDbLine
 10
171.806573
 20
17.4
 30
0.0
 11
173.306573
 21
17.0
 31
0.0
  0
LINE
  5
279
100
AcDbEntity
  8
0
100
AcDbLine
 10
189.5
 20
25.0
 30
0.0
 11
189.5
 21
15.0
 31
0.0
  0
LINE
  5
27A
100
AcDbEntity
  8
0
100
AcDbLine
 10
199.5
 20
24.98
 30
0.0
 11
199.5
 21
15.0
 31
0.0
  0
ARC
  5
27B
100
AcDbEntity
  8
3
100
AcDbCircle
 10
201.912951
 20
25.968031
 30
0.0
 40
3.0
100
AcDbArc
 50
31.439453
 51
91.13282
  0
ENDBLK
  5
27D
100
AcDbEntity
  8
0
100
AcDbBlockEnd
  0
BLOCK
  5
319
100
AcDbEntity
  8
0
100
AcDbBlockBegin
  2
*D6
 70
     1
 10
0.0
 20
0.0
 30
0.0
  3
*D6
  1

  0
LINE
  5
31A
100
AcDbEntity
  8
0
  6
BYBLOCK
 62
     0
100
AcDbLine
 10
63.251505
 20
174.014914
 30
0.0
 11
34.651505
 21
174.014914
 31
0.0
  0
LINE
  5
31B
100
AcDbEntity
  8
0
  6
BYBLOCK
 62
     0
100
AcDbLine
 10
59.251505
 20
154.514914
 30
0.0
 11
34.651505
 21
154.514914
 31
0.0
  0
LINE
  5
31C
100
AcDbEntity
  8
0
  6
BYBLOCK
 62
     0
100
AcDbLine
 10
34.851505
 20
172.014914
 30
0.0
 11
34.851505
 21
156.514914
 31
0.0
  0
MTEXT
  5
31D
100
AcDbEntity
  8
0
  6
BYBLOCK
 62
     0
100
AcDbMText
 10
34.851505
 20
163.514914
 30
0.0
 40
15.0
 41
0.0
 71
     5
 72
     1
  1
\A1;19.5
  7
BIGFONT
 11
0.0
 21
1.0
 31
0.0
  0
SOLID
  5
31E
100
AcDbEntity
  8
0
  6
BYBLOCK
 62
     0
100
AcDbTrace
 10
34.518171
 20
172.014914
 30
0.0
 11
35.184838
 21
172.014914
 31
0.0
 12
34.851505
 22
174.014914
 32
0.0
 13
34.851505
 23
174.014914
 33
0.0
  0
SOLID
  5
31F
100
AcDbEntity
  8
0
  6
BYBLOCK
 62
     0
100
AcDbTrace
 10
34.518171
 20
156.514914
 30
0.0
 11
35.184838
 21
156.514914
 31
0.0
 12
34.851505
 22
154.514914
 32
0.0
 13
34.851505
 23
154.514914
 33
0.0
  0
POINT
  5
320
100
AcDbEntity
  8
DEFPOINTS
  6
BYBLOCK
 62
     0
100
AcDbPoint
 10
63.351505
 20
174.014914
 30
0.0
  0
POINT
  5
321
100
AcDbEntity
  8
DEFPOINTS
  6
BYBLOCK
 62
     0
100
AcDbPoint
 10
59.351505
 20
154.514914
 30
0.0
  0
POINT
  5
322
100
AcDbEntity
  8
DEFPOINTS
  6
BYBLOCK
 62
     0
100
AcDbPoint
 10
34.851505
 20
154.514914
 30
0.0
  0
ENDBLK
  5
323
100
AcDbEntity
  8
0
100
AcDbBlockEnd
  0
BLOCK
  5
324
100
AcDbEntity
  8
0
100
AcDbBlockBegin
  2
*D7
 70
     1
 10
0.0
 20
0.0
 30
0.0
  3
*D7
  1

  0
LINE
  5
325
100
AcDbEntity
  8
0
  6
BYBLOCK
 62
     0
100
AcDbLine
 10
59.251505
 20
177.514914
 30
0.0
 11
29.651505
 21
177.514914
 31
0.0
  0
LINE
  5
326
100
AcDbEntity
  8
0
  6
BYBLOCK
 62
     0
100
AcDbLine
 10
59.251505
 20
154.514914
 30
0.0
 11
29.651505
 21
154.514914
 31
0.0
  0
LINE
  5
327
100
AcDbEntity
  8
0
  6
BYBLOCK
 62
     0
100
AcDbLine
 10
29.851505
 20
175.514914
 30
0.0
 11
29.851505
 21
175.414914
 31
0.0
  0
LINE
  5
328
100
AcDbEntity
  8
0
  6
BYBLOCK
 62
     0
100
AcDbLine
 10
29.851505
 20
156.514914
 30
0.0
 11
29.851505
 21
156.614914
 31
0.0
  0
MTEXT
  5
329
100
AcDbEntity
  8
0
  6
BYBLOCK
 62
     0
100
AcDbMText
 10
29.851505
 20
166.014914
 30
0.0
 40
15.0
 41
0.0
 71
     5
 72
     1
  1
\A1;23
  7
BIGFONT
 11
0.0
 21
1.0
 31
0.0
  0
SOLID
  5
32A
100
AcDbEntity
  8
0
  6
BYBLOCK
 62
     0
100
AcDbTrace
 10
29.518171
 20
175.514914
 30
0.0
 11
30.184838
 21
175.514914
 31
0.0
 12
29.851505
 22
177.514914
 32
0.0
 13
29.851505
 23
177.514914
 33
0.0
  0
SOLID
  5
32B
100
AcDbEntity
  8
0
  6
BYBLOCK
 62
     0
100
AcDbTrace
 10
29.518171
 20
156.514914
 30
0.0
 11
30.184838
 21
156.514914
 31
0.0
 12
29.851505
 22
154.514914
 32
0.0
 13
29.851505
 23
154.514914
 33
0.0
  0
POINT
  5
32C
100
AcDbEntity
  8
DEFPOINTS
  6
BYBLOCK
 62
     0
100
AcDbPoint
 10
59.351505
 20
177.514914
 30
0.0
  0
POINT
  5
32D
100
AcDbEntity
  8
DEFPOINTS
  6
BYBLOCK
 62
     0
100
AcDbPoint
 10
59.351505
 20
154.514914
 30
0.0
  0
POINT
  5
32E
100
AcDbEntity
  8
DEFPOINTS
  6
BYBLOCK
 62
     0
100
AcDbPoint
 10
29.851505
 20
154.514914
 30
0.0
  0
ENDBLK
  5
32F
100
AcDbEntity
  8
0
100
AcDbBlockEnd
  0
ENDSEC
  0
SECTION
  2
ENTITIES
  0
ARC
  5
281
100
AcDbEntity
  8
3
100
AcDbCircle
 10
-1.444654
 20
21.971616
 30
0.0
 40
6.76
100
AcDbArc
 50
314.76027
 51
45.23973
  0
LINE
  5
284
100
AcDbEntity
  8
3
100
AcDbLine
 10
19.315346
 20
8.471616
 30
0.0
 11
19.315346
 21
31.971616
 31
0.0
  0
LINE
  5
285
100
AcDbEntity
  8
3
100
AcDbLine
 10
3.315346
 20
8.471616
 30
0.0
 11
3.315346
 21
17.171616
 31
0.0
  0
LINE
  5
286
100
AcDbEntity
  8
1
100
AcDbLine
 10
11.315346
 20
-18.028384
 30
0.0
 11
11.315346
 21
66.818592
 31
0.0
  0
LINE
  5
289
100
AcDbEntity
  8
3
100
AcDbLine
 10
19.315346
 20
33.471616
 30
0.0
 11
42.315346
 21
33.471616
 31
0.0
  0
LINE
  5
28A
100
AcDbEntity
  8
3
100
AcDbLine
 10
42.315346
 20
10.471616
 30
0.0
 11
19.315346
 21
10.471616
 31
0.0
  0
LINE
  5
29B
100
AcDbEntity
  8
0
100
AcDbLine
 10
17.315346
 20
-13.528384
 30
0.0
 11
11.315346
 21
-13.528384
 31
0.0
  0
LINE
  5
29C
100
AcDbEntity
  8
3
100
AcDbLine
 10
17.315346
 20
-13.528384
 30
0.0
 11
15.315346
 21
-15.528384
 31
0.0
  0
LINE
  5
29D
100
AcDbEntity
  8
1
100
AcDbLine
 10
-2.684654
 20
21.971616
 30
0.0
 11
26.315346
 21
21.971616
 31
0.0
  0
LINE
  5
29E
100
AcDbEntity
  8
3
100
AcDbLine
 10
19.315346
 20
10.471616
 30
0.0
 11
19.315346
 21
33.471616
 31
0.0
  0
LINE
  5
29F
100
AcDbEntity
  8
3
100
AcDbLine
 10
17.315346
 20
-13.528384
 30
0.0
 11
17.315346
 21
1.471616
 31
0.0
  0
LINE
  5
2A3
100
AcDbEntity
  8
0
100
AcDbLine
 10
15.815346
 20
1.471616
 30
0.0
 11
15.815346
 21
-15.028384
 31
0.0
  0
LINE
  5
2A4
100
AcDbEntity
  8
0
100
AcDbLine
 10
6.815346
 20
1.471616
 30
0.0
 11
6.815346
 21
-15.028384
 31
0.0
  0
LINE
  5
2A5
100
AcDbEntity
  8
3
100
AcDbLine
 10
5.315346
 20
-13.528384
 30
0.0
 11
5.315346
 21
1.471616
 31
0.0
  0
LINE
  5
2A6
100
AcDbEntity
  8
0
100
AcDbLine
 10
5.315346
 20
-13.528384
 30
0.0
 11
11.315346
 21
-13.528384
 31
0.0
  0
LINE
  5
2A7
100
AcDbEntity
  8
3
100
AcDbLine
 10
11.315346
 20
-15.528384
 30
0.0
 11
7.315346
 21
-15.528384
 31
0.0
  0
LINE
  5
2A8
100
AcDbEntity
  8
3
100
AcDbLine
 10
11.315346
 20
-15.528384
 30
0.0
 11
15.315346
 21
-15.528384
 31
0.0
  0
LINE
  5
2A9
100
AcDbEntity
  8
3
100
AcDbLine
 10
5.315346
 20
-13.528384
 30
0.0
 11
7.315346
 21
-15.528384
 31
0.0
  0
LINE
  5
2BC
100
AcDbEntity
  8
3
100
AcDbLine
 10
42.315346
 20
21.971616
 30
0.0
 11
42.315346
 21
10.471616
 31
0.0
  0
LINE
  5
2BD
100
AcDbEntity
  8
3
100
AcDbLine
 10
42.815346
 20
21.971616
 30
0.0
 11
42.815346
 21
9.721616
 31
0.0
  0
ARC
  5
2BE
100
AcDbEntity
  8
3
100
AcDbCircle
 10
111.787569
 20
21.971616
 30
0.0
 40
24.027778
100
AcDbArc
 50
328.560547
 51
31.439453
  0
LINE
  5
2C0
100
AcDbEntity
  8
3
100
AcDbLine
 10
129.668986
 20
8.004172
 30
0.0
 11
42.815346
 21
9.721616
 31
0.0
  0
LINE
  5
2C4
100
AcDbEntity
  8
3
100
AcDbLine
 10
19.315346
 20
30.971616
 30
0.0
 11
19.315346
 21
31.971616
 31
0.0
  0
ARC
  5
2CA
100
AcDbEntity
  8
3
100
AcDbCircle
 10
129.728297
 20
11.003585
 30
0.0
 40
3.0
100
AcDbArc
 50
268.86718
 51
328.560547
  0
LINE
  5
2CC
100
AcDbEntity
  8
3
100
AcDbLine
 10
129.668986
 20
35.939061
 30
0.0
 11
42.815346
 21
34.221616
 31
0.0
  0
LINE
  5
2D4
100
AcDbEntity
  8
3
100
AcDbLine
 10
3.315346
 20
31.971616
 30
0.0
 11
11.315346
 21
31.971616
 31
0.0
  0
LINE
  5
2D5
100
AcDbEntity
  8
3
100
AcDbLine
 10
42.315346
 20
33.471616
 30
0.0
 11
42.315346
 21
21.971616
 31
0.0
  0
LINE
  5
2D6
100
AcDbEntity
  8
3
100
AcDbLine
 10
4.315346
 20
31.971616
 30
0.0
 11
11.315346
 21
31.971616
 31
0.0
  0
LINE
  5
2D7
100
AcDbEntity
  8
3
100
AcDbLine
 10
42.815346
 20
21.971616
 30
0.0
 11
42.815346
 21
34.221616
 31
0.0
  0
ARC
  5
2F4
100
AcDbEntity
  8
3
100
AcDbCircle
 10
129.728297
 20
32.939648
 30
0.0
 40
3.0
100
AcDbArc
 50
31.439453
 51
91.13282
  0
LINE
  5
39A
100
AcDbEntity
  8
1
100
AcDbLine
 10
26.315346
 20
21.971616
 30
0.0
 11
163.455282
 21
21.971616
 31
0.0
  0
LINE
  5
39B
100
AcDbEntity
  8
3
100
AcDbLine
 10
3.315346
 20
26.771616
 30
0.0
 11
3.315346
 21
31.971616
 31
0.0
  0
LINE
  5
39D
100
AcDbEntity
  8
3
100
AcDbLine
 10
11.315346
 20
31.971616
 30
0.0
 11
19.315346
 21
31.971616
 31
0.0
  0
LINE
  5
39E
100
AcDbEntity
  8
3
100
AcDbLine
 10
11.315346
 20
1.471616
 30
0.0
 11
22.815346
 21
1.471616
 31
0.0
  0
LINE
  5
39F
100
AcDbEntity
  8
3
100
AcDbLine
 10
22.815346
 20
1.471616
 30
0.0
 11
22.815346
 21
8.471616
 31
0.0
  0
LINE
  5
3A0
100
AcDbEntity
  8
3
100
AcDbLine
 10
22.815346
 20
8.471616
 30
0.0
 11
-0.184654
 21
8.471616
 31
0.0
  0
LINE
  5
3A1
100
AcDbEntity
  8
3
100
AcDbLine
 10
-0.184654
 20
8.471616
 30
0.0
 11
-0.184654
 21
1.471616
 31
0.0
  0
LINE
  5
3A2
100
AcDbEntity
  8
3
100
AcDbLine
 10
-0.184654
 20
1.471616
 30
0.0
 11
11.315346
 21
1.471616
 31
0.0
  0
LINE
  5
3A5
100
AcDbEntity
  8
3
100
AcDbLine
 10
0.982789
 20
8.471616
 30
0.0
 11
0.982789
 21
1.471616
 31
0.0
  0
LINE
  5
3B4
100
AcDbEntity
  8
3
100
AcDbLine
 10
1.982789
 20
8.471616
 30
0.0
 11
1.982789
 21
1.471616
 31
0.0
  0
LINE
  5
3B5
100
AcDbEntity
  8
3
100
AcDbLine
 10
2.982789
 20
8.471616
 30
0.0
 11
2.982789
 21
1.471616
 31
0.0
  0
LINE
  5
3B6
100
AcDbEntity
  8
3
100
AcDbLine
 10
3.982789
 20
8.471616
 30
0.0
 11
3.982789
 21
1.471616
 31
0.0
  0
LINE
  5
3B7
100
AcDbEntity
  8
3
100
AcDbLine
 10
4.982789
 20
8.471616
 30
0.0
 11
4.982789
 21
1.471616
 31
0.0
  0
LINE
  5
3B8
100
AcDbEntity
  8
3
100
AcDbLine
 10
5.982789
 20
8.471616
 30
0.0
 11
5.982789
 21
1.471616
 31
0.0
  0
LINE
  5
3B9
100
AcDbEntity
  8
3
100
AcDbLine
 10
6.982789
 20
8.471616
 30
0.0
 11
6.982789
 21
1.471616
 31
0.0
  0
LINE
  5
3BA
100
AcDbEntity
  8
3
100
AcDbLine
 10
7.982789
 20
8.471616
 30
0.0
 11
7.982789
 21
1.471616
 31
0.0
  0
LINE
  5
3BB
100
AcDbEntity
  8
3
100
AcDbLine
 10
8.982789
 20
8.471616
 30
0.0
 11
8.982789
 21
1.471616
 31
0.0
  0
LINE
  5
3BC
100
AcDbEntity
  8
3
100
AcDbLine
 10
9.982789
 20
8.471616
 30
0.0
 11
9.982789
 21
1.471616
 31
0.0
  0
LINE
  5
3BD
100
AcDbEntity
  8
3
100
AcDbLine
 10
10.982789
 20
8.471616
 30
0.0
 11
10.982789
 21
1.471616
 31
0.0
  0
LINE
  5
3BE
100
AcDbEntity
  8
3
100
AcDbLine
 10
11.982789
 20
8.471616
 30
0.0
 11
11.982789
 21
1.471616
 31
0.0
  0
LINE
  5
3BF
100
AcDbEntity
  8
3
100
AcDbLine
 10
12.982789
 20
8.471616
 30
0.0
 11
12.982789
 21
1.471616
 31
0.0
  0
LINE
  5
3C0
100
AcDbEntity
  8
3
100
AcDbLine
 10
13.982789
 20
8.471616
 30
0.0
 11
13.982789
 21
1.471616
 31
0.0
  0
LINE
  5
3C1
100
AcDbEntity
  8
3
100
AcDbLine
 10
14.982789
 20
8.471616
 30
0.0
 11
14.982789
 21
1.471616
 31
0.0
  0
LINE
  5
3C2
100
AcDbEntity
  8
3
100
AcDbLine
 10
22.215916
 20
8.471616
 30
0.0
 11
22.215916
 21
1.471616
 31
0.0
  0
LINE
  5
3C3
100
AcDbEntity
  8
3
100
AcDbLine
 10
21.215916
 20
8.471616
 30
0.0
 11
21.215916
 21
1.471616
 31
0.0
  0
LINE
  5
3C4
100
AcDbEntity
  8
3
100
AcDbLine
 10
20.215916
 20
8.471616
 30
0.0
 11
20.215916
 21
1.471616
 31
0.0
  0
LINE
  5
3C5
100
AcDbEntity
  8
3
100
AcDbLine
 10
19.215916
 20
8.471616
 30
0.0
 11
19.215916
 21
1.471616
 31
0.0
  0
LINE
  5
3C6
100
AcDbEntity
  8
3
100
AcDbLine
 10
18.334726
 20
8.471616
 30
0.0
 11
18.334726
 21
1.471616
 31
0.0
  0
LINE
  5
3C7
100
AcDbEntity
  8
3
100
AcDbLine
 10
17.334726
 20
8.471616
 30
0.0
 11
17.334726
 21
1.471616
 31
0.0
  0
LINE
  5
3C8
100
AcDbEntity
  8
3
100
AcDbLine
 10
16.334726
 20
8.471616
 30
0.0
 11
16.334726
 21
1.471616
 31
0.0
  0
LINE
  5
3C9
100
AcDbEntity
  8
3
100
AcDbLine
 10
-59.323513
 20
1.471616
 30
0.0
 11
-47.823513
 21
1.471616
 31
0.0
  0
LINE
  5
3CA
100
AcDbEntity
  8
3
100
AcDbLine
 10
-36.323513
 20
8.471616
 30
0.0
 11
-59.323513
 21
8.471616
 31
0.0
  0
LINE
  5
3CB
100
AcDbEntity
  8
3
100
AcDbLine
 10
-55.823513
 20
31.971616
 30
0.0
 11
-47.823513
 21
31.971616
 31
0.0
  0
LINE
  5
3CC
100
AcDbEntity
  8
3
100
AcDbLine
 10
-54.823513
 20
31.971616
 30
0.0
 11
-47.823513
 21
31.971616
 31
0.0
  0
LINE
  5
3CD
100
AcDbEntity
  8
0
100
AcDbLine
 10
-53.823513
 20
-13.528384
 30
0.0
 11
-47.823513
 21
-13.528384
 31
0.0
  0
LINE
  5
3CE
100
AcDbEntity
  8
3
100
AcDbLine
 10
-47.823513
 20
-15.528384
 30
0.0
 11
-51.823513
 21
-15.528384
 31
0.0
  0
LINE
  5
3CF
100
AcDbEntity
  8
1
100
AcDbLine
 10
-61.823513
 20
21.971616
 30
0.0
 11
-32.823513
 21
21.971616
 31
0.0
  0
LINE
  5
3D1
100
AcDbEntity
  8
3
100
AcDbLine
 10
-50.15607
 20
8.471616
 30
0.0
 11
-50.15607
 21
1.471616
 31
0.0
  0
LINE
  5
3D2
100
AcDbEntity
  8
3
100
AcDbLine
 10
-51.15607
 20
8.471616
 30
0.0
 11
-51.15607
 21
1.471616
 31
0.0
  0
LINE
  5
3D3
100
AcDbEntity
  8
3
100
AcDbLine
 10
-52.15607
 20
8.471616
 30
0.0
 11
-52.15607
 21
1.471616
 31
0.0
  0
LINE
  5
3D4
100
AcDbEntity
  8
3
100
AcDbLine
 10
-53.15607
 20
8.471616
 30
0.0
 11
-53.15607
 21
1.471616
 31
0.0
  0
LINE
  5
3D5
100
AcDbEntity
  8
3
100
AcDbLine
 10
-54.15607
 20
8.471616
 30
0.0
 11
-54.15607
 21
1.471616
 31
0.0
  0
LINE
  5
3D6
100
AcDbEntity
  8
3
100
AcDbLine
 10
-55.15607
 20
8.471616
 30
0.0
 11
-55.15607
 21
1.471616
 31
0.0
  0
LINE
  5
3D7
100
AcDbEntity
  8
3
100
AcDbLine
 10
-56.15607
 20
8.471616
 30
0.0
 11
-56.15607
 21
1.471616
 31
0.0
  0
LINE
  5
3D8
100
AcDbEntity
  8
3
100
AcDbLine
 10
-57.15607
 20
8.471616
 30
0.0
 11
-57.15607
 21
1.471616
 31
0.0
  0
LINE
  5
3D9
100
AcDbEntity
  8
3
100
AcDbLine
 10
-58.15607
 20
8.471616
 30
0.0
 11
-58.15607
 21
1.471616
 31
0.0
  0
LINE
  5
3DA
100
AcDbEntity
  8
3
100
AcDbLine
 10
-59.323513
 20
8.471616
 30
0.0
 11
-59.323513
 21
1.471616
 31
0.0
  0
LINE
  5
3DB
100
AcDbEntity
  8
0
100
AcDbLine
 10
-52.323513
 20
1.471616
 30
0.0
 11
-52.323513
 21
-15.028384
 31
0.0
  0
LINE
  5
3DC
100
AcDbEntity
  8
3
100
AcDbLine
 10
-53.823513
 20
-13.528384
 30
0.0
 11
-53.823513
 21
1.471616
 31
0.0
  0
LINE
  5
3DD
100
AcDbEntity
  8
3
100
AcDbLine
 10
-53.823513
 20
-13.528384
 30
0.0
 11
-51.823513
 21
-15.528384
 31
0.0
  0
LINE
  5
3E0
100
AcDbEntity
  8
1
100
AcDbLine
 10
-47.823513
 20
-18.028384
 30
0.0
 11
-47.823513
 21
66.818592
 31
0.0
  0
LINE
  5
3E1
100
AcDbEntity
  8
3
100
AcDbLine
 10
-39.823513
 20
8.471616
 30
0.0
 11
-39.823513
 21
31.971616
 31
0.0
  0
LINE
  5
3E3
100
AcDbEntity
  8
3
100
AcDbLine
 10
-42.804133
 20
8.471616
 30
0.0
 11
-42.804133
 21
1.471616
 31
0.0
  0
LINE
  5
3E4
100
AcDbEntity
  8
3
100
AcDbLine
 10
-41.804133
 20
8.471616
 30
0.0
 11
-41.804133
 21
1.471616
 31
0.0
  0
LINE
  5
3E5
100
AcDbEntity
  8
3
100
AcDbLine
 10
-40.804133
 20
8.471616
 30
0.0
 11
-40.804133
 21
1.471616
 31
0.0
  0
LINE
  5
3E6
100
AcDbEntity
  8
3
100
AcDbLine
 10
-39.922943
 20
8.471616
 30
0.0
 11
-39.922943
 21
1.471616
 31
0.0
  0
LINE
  5
3E7
100
AcDbEntity
  8
3
100
AcDbLine
 10
-38.922943
 20
8.471616
 30
0.0
 11
-38.922943
 21
1.471616
 31
0.0
  0
LINE
  5
3E8
100
AcDbEntity
  8
3
100
AcDbLine
 10
-37.922943
 20
8.471616
 30
0.0
 11
-37.922943
 21
1.471616
 31
0.0
  0
LINE
  5
3E9
100
AcDbEntity
  8
3
100
AcDbLine
 10
-36.922943
 20
8.471616
 30
0.0
 11
-36.922943
 21
1.471616
 31
0.0
  0
LINE
  5
3EA
100
AcDbEntity
  8
3
100
AcDbLine
 10
-44.15607
 20
8.471616
 30
0.0
 11
-44.15607
 21
1.471616
 31
0.0
  0
LINE
  5
3EB
100
AcDbEntity
  8
3
100
AcDbLine
 10
-45.15607
 20
8.471616
 30
0.0
 11
-45.15607
 21
1.471616
 31
0.0
  0
LINE
  5
3EC
100
AcDbEntity
  8
3
100
AcDbLine
 10
-46.15607
 20
8.471616
 30
0.0
 11
-46.15607
 21
1.471616
 31
0.0
  0
LINE
  5
3ED
100
AcDbEntity
  8
3
100
AcDbLine
 10
-47.15607
 20
8.471616
 30
0.0
 11
-47.15607
 21
1.471616
 31
0.0
  0
LINE
  5
3EE
100
AcDbEntity
  8
3
100
AcDbLine
 10
-48.15607
 20
8.471616
 30
0.0
 11
-48.15607
 21
1.471616
 31
0.0
  0
LINE
  5
3EF
100
AcDbEntity
  8
3
100
AcDbLine
 10
-49.15607
 20
8.471616
 30
0.0
 11
-49.15607
 21
1.471616
 31
0.0
  0
LINE
  5
3F0
100
AcDbEntity
  8
3
100
AcDbLine
 10
-36.323513
 20
1.471616
 30
0.0
 11
-36.323513
 21
8.471616
 31
0.0
  0
LINE
  5
3F1
100
AcDbEntity
  8
3
100
AcDbLine
 10
-41.823513
 20
-13.528384
 30
0.0
 11
-41.823513
 21
1.471616
 31
0.0
  0
LINE
  5
3F2
100
AcDbEntity
  8
0
100
AcDbLine
 10
-43.323513
 20
1.471616
 30
0.0
 11
-43.323513
 21
-15.028384
 31
0.0
  0
LINE
  5
3F3
100
AcDbEntity
  8
3
100
AcDbLine
 10
-41.823513
 20
-13.528384
 30
0.0
 11
-43.823513
 21
-15.528384
 31
0.0
  0
LINE
  5
3F4
100
AcDbEntity
  8
3
100
AcDbLine
 10
-47.823513
 20
-15.528384
 30
0.0
 11
-43.823513
 21
-15.528384
 31
0.0
  0
LINE
  5
3F5
100
AcDbEntity
  8
0
100
AcDbLine
 10
-41.823513
 20
-13.528384
 30
0.0
 11
-47.823513
 21
-13.528384
 31
0.0
  0
LINE
  5
3F6
100
AcDbEntity
  8
3
100
AcDbLine
 10
-47.823513
 20
1.471616
 30
0.0
 11
-36.323513
 21
1.471616
 31
0.0
  0
LINE
  5
3F7
100
AcDbEntity
  8
3
100
AcDbLine
 10
-47.823513
 20
31.971616
 30
0.0
 11
-39.823513
 21
31.971616
 31
0.0
  0
LINE
  5
3F8
100
AcDbEntity
  8
3
100
AcDbLine
 10
-39.823513
 20
30.971616
 30
0.0
 11
-39.823513
 21
31.971616
 31
0.0
  0
LINE
  5
3FA
100
AcDbEntity
  8
3
100
AcDbLine
 10
-55.823513
 20
8.471616
 30
0.0
 11
-55.823513
 21
31.971616
 31
0.0
  0
CIRCLE
  5
3FC
100
AcDbEntity
  8
3
100
AcDbCircle
 10
-47.823513
 20
21.971616
 30
0.0
 40
4.5
  0
ARC
  5
400
100
AcDbEntity
  8
3
100
AcDbCircle
 10
-47.823513
 20
21.971616
 30
0.0
 40
13.967445
100
AcDbArc
 50
304.942946
 51
235.057054
  0
ARC
  5
401
100
AcDbEntity
  8
3
100
AcDbCircle
 10
-47.823513
 20
21.971616
 30
0.0
 40
12.25
100
AcDbArc
 50
130.772805
 51
229.227195
  0
ARC
  5
402
100
AcDbEntity
  8
3
100
AcDbCircle
 10
-47.823513
 20
21.971616
 30
0.0
 40
12.25
100
AcDbArc
 50
310.772805
 51
49.227195
  0
ENDSEC
  0
SECTION
  2
OBJECTS
  0
DICTIONARY
  5
1B8
100
AcDbDictionary
  3
ACAD_GROUP
350
1B9
  3
ACAD_MLINESTYLE
350
1C6
  3
ACDBVARIABLEDICTIONARY
350
1DE
  0
DICTIONARY
  5
1B9
102
{ACAD_REACTORS
330
1B8
102
}
100
AcDbDictionary
  0
DICTIONARY
  5
1C6
102
{ACAD_REACTORS
330
1B8
102
}
100
AcDbDictionary
  3
STANDARD
350
1C7
  0
DICTIONARY
  5
1DE
102
{ACAD_REACTORS
330
1B8
102
}
100
AcDbDictionary
  3
DIMADEC
350
1DF
  0
MLINESTYLE
  5
1C7
102
{ACAD_REACTORS
330
1C6
102
}
100
AcDbMlineStyle
  2
STANDARD
 70
     0
  3

 62
   256
 51
90.0
 52
90.0
 71
     2
 49
0.5
 62
   256
  6
BYLAYER
 49
-0.5
 62
   256
  6
BYLAYER
  0
DICTIONARYVAR
  5
1DF
102
{ACAD_REACTORS
330
1DE
102
}
100
DictionaryVariables
280
     0
  1
0
  0
ENDSEC
  0
EOF
