  0
SECTION
  2
HEADER
  9
$ACADVER
  1
AC1014
  9
$ACADMAINTVER
 70
     0
  9
$DWGCODEPAGE
  3
ANSI_932
  9
$INSBASE
 10
0.0
 20
0.0
 30
0.0
  9
$EXTMIN
 10
13.886453
 20
24.026217
 30
-0.001526
  9
$EXTMAX
 10
162.646485
 20
92.188096
 30
0.0
  9
$LIMMIN
 10
0.0
 20
0.0
  9
$LIMMAX
 10
250.0
 20
150.0
  9
$ORTHOMODE
 70
     1
  9
$REGENMODE
 70
     1
  9
$FILLMODE
 70
     1
  9
$QTEXTMODE
 70
     0
  9
$MIRRTEXT
 70
     1
  9
$DRAGMODE
 70
     2
  9
$LTSCALE
 40
1.0
  9
$OSMODE
 70
    32
  9
$ATTMODE
 70
     1
  9
$TEXTSIZE
 40
10.0
  9
$TRACEWID
 40
0.05
  9
$TEXTSTYLE
  7
BIGFONT
  9
$CLAYER
  8
3
  9
$CELTYPE
  6
BYLAYER
  9
$CECOLOR
 62
   256
  9
$CELTSCALE
 40
1.0
  9
$DELOBJ
 70
     1
  9
$DISPSILH
 70
     0
  9
$DIMSCALE
 40
1.0
  9
$DIMASZ
 40
0.18
  9
$DIMEXO
 40
0.0625
  9
$DIMDLI
 40
0.38
  9
$DIMRND
 40
0.0
  9
$DIMDLE
 40
0.0
  9
$DIMEXE
 40
0.18
  9
$DIMTP
 40
0.0
  9
$DIMTM
 40
0.0
  9
$DIMTXT
 40
0.18
  9
$DIMCEN
 40
0.09
  9
$DIMTSZ
 40
0.0
  9
$DIMTOL
 70
     0
  9
$DIMLIM
 70
     0
  9
$DIMTIH
 70
     1
  9
$DIMTOH
 70
     1
  9
$DIMSE1
 70
     0
  9
$DIMSE2
 70
     0
  9
$DIMTAD
 70
     0
  9
$DIMZIN
 70
     0
  9
$DIMBLK
  1

  9
$DIMASO
 70
     1
  9
$DIMSHO
 70
     1
  9
$DIMPOST
  1

  9
$DIMAPOST
  1

  9
$DIMALT
 70
     0
  9
$DIMALTD
 70
     2
  9
$DIMALTF
 40
25.4
  9
$DIMLFAC
 40
1.0
  9
$DIMTOFL
 70
     0
  9
$DIMTVP
 40
0.0
  9
$DIMTIX
 70
     0
  9
$DIMSOXD
 70
     0
  9
$DIMSAH
 70
     0
  9
$DIMBLK1
  1

  9
$DIMBLK2
  1

  9
$DIMSTYLE
  2
STANDARD
  9
$DIMCLRD
 70
     0
  9
$DIMCLRE
 70
     0
  9
$DIMCLRT
 70
     0
  9
$DIMTFAC
 40
1.0
  9
$DIMGAP
 40
0.09
  9
$DIMJUST
 70
     0
  9
$DIMSD1
 70
     0
  9
$DIMSD2
 70
     0
  9
$DIMTOLJ
 70
     1
  9
$DIMTZIN
 70
     0
  9
$DIMALTZ
 70
     0
  9
$DIMALTTZ
 70
     0
  9
$DIMFIT
 70
     5
  9
$DIMUPT
 70
     0
  9
$DIMUNIT
 70
     2
  9
$DIMDEC
 70
     4
  9
$DIMTDEC
 70
     4
  9
$DIMALTU
 70
     2
  9
$DIMALTTD
 70
     2
  9
$DIMTXSTY
  7
BIGFONT
  9
$DIMAUNIT
 70
     0
  9
$LUNITS
 70
     2
  9
$LUPREC
 70
     4
  9
$SKETCHINC
 40
0.1
  9
$FILLETRAD
 40
0.0
  9
$AUNITS
 70
     0
  9
$AUPREC
 70
     0
  9
$MENU
  1
acad
  9
$ELEVATION
 40
0.0
  9
$PELEVATION
 40
0.0
  9
$THICKNESS
 40
0.0
  9
$LIMCHECK
 70
     0
  9
$BLIPMODE
 70
     0
  9
$CHAMFERA
 40
0.0
  9
$CHAMFERB
 40
0.0
  9
$CHAMFERC
 40
0.0
  9
$CHAMFERD
 40
0.0
  9
$SKPOLY
 70
     0
  9
$TDCREATE
 40
2450870.978377083
  9
$TDUPDATE
 40
2453593.688127349
  9
$TDINDWG
 40
0.0150567824
  9
$TDUSRTIMER
 40
0.0150567824
  9
$USRTIMER
 70
     1
  9
$ANGBASE
 50
0.0
  9
$ANGDIR
 70
     0
  9
$PDMODE
 70
     0
  9
$PDSIZE
 40
0.0
  9
$PLINEWID
 40
0.0
  9
$COORDS
 70
     2
  9
$SPLFRAME
 70
     0
  9
$SPLINETYPE
 70
     6
  9
$SPLINESEGS
 70
     8
  9
$ATTDIA
 70
     0
  9
$ATTREQ
 70
     1
  9
$HANDLING
 70
     1
  9
$HANDSEED
  5
7D6
  9
$SURFTAB1
 70
     6
  9
$SURFTAB2
 70
     6
  9
$SURFTYPE
 70
     6
  9
$SURFU
 70
     6
  9
$SURFV
 70
     6
  9
$UCSNAME
  2

  9
$UCSORG
 10
0.0
 20
0.0
 30
0.0
  9
$UCSXDIR
 10
1.0
 20
0.0
 30
0.0
  9
$UCSYDIR
 10
0.0
 20
1.0
 30
0.0
  9
$PUCSNAME
  2

  9
$PUCSORG
 10
0.0
 20
0.0
 30
0.0
  9
$PUCSXDIR
 10
1.0
 20
0.0
 30
0.0
  9
$PUCSYDIR
 10
0.0
 20
1.0
 30
0.0
  9
$USERI1
 70
     0
  9
$USERI2
 70
     0
  9
$USERI3
 70
     0
  9
$USERI4
 70
     0
  9
$USERI5
 70
     0
  9
$USERR1
 40
0.0
  9
$USERR2
 40
0.0
  9
$USERR3
 40
0.0
  9
$USERR4
 40
0.0
  9
$USERR5
 40
0.0
  9
$WORLDVIEW
 70
     1
  9
$SHADEDGE
 70
     3
  9
$SHADEDIF
 70
    70
  9
$TILEMODE
 70
     1
  9
$MAXACTVP
 70
    16
  9
$PINSBASE
 10
0.0
 20
0.0
 30
0.0
  9
$PLIMCHECK
 70
     0
  9
$PEXTMIN
 10
1.000000E+20
 20
1.000000E+20
 30
1.000000E+20
  9
$PEXTMAX
 10
-1.000000E+20
 20
-1.000000E+20
 30
-1.000000E+20
  9
$PLIMMIN
 10
0.0
 20
0.0
  9
$PLIMMAX
 10
12.0
 20
9.0
  9
$UNITMODE
 70
     0
  9
$VISRETAIN
 70
     0
  9
$PLINEGEN
 70
     0
  9
$PSLTSCALE
 70
     1
  9
$TREEDEPTH
 70
  3020
  9
$PICKSTYLE
 70
     1
  9
$CMLSTYLE
  2
STANDARD
  9
$CMLJUST
 70
     0
  9
$CMLSCALE
 40
1.0
  9
$PROXYGRAPHICS
 70
     1
  9
$MEASUREMENT
 70
     0
  0
ENDSEC
  0
SECTION
  2
CLASSES
  0
CLASS
  1
DICTIONARYVAR
  2
AcDbDictionaryVar
  3
"AutoCAD"
 90
        0
280
     0
281
     0
  0
CLASS
  1
XRECORD
  2
AcDbXrecord
  3
"<Built In>"
 90
        0
280
     0
281
     0
  0
CLASS
  1
HATCH
  2
AcDbHatch
  3
"ACAD_SEDONA"
 90
        0
280
     0
281
     1
  0
ENDSEC
  0
SECTION
  2
TABLES
  0
TABLE
  2
VPORT
  5
207
100
AcDbSymbolTable
 70
    10
  0
VPORT
  5
7D5
100
AcDbSymbolTableRecord
100
AcDbViewportTableRecord
  2
*ACTIVE
 70
     0
 10
0.0
 20
0.0
 11
1.0
 21
1.0
 12
101.272649
 22
61.560159
 13
0.0
 23
0.0
 14
10.0
 24
10.0
 15
20.0
 25
20.0
 16
0.0
 26
0.0
 36
1.0
 17
0.0
 27
0.0
 37
0.0
 40
98.310363
 41
1.434944
 42
50.0
 43
0.0
 44
0.0
 50
0.0
 51
0.0
 71
     0
 72
 20000
 73
     1
 74
     1
 75
     0
 76
     0
 77
     0
 78
     0
  0
ENDTAB
  0
TABLE
  2
LTYPE
  5
204
100
AcDbSymbolTable
 70
     5
  0
LTYPE
  5
210
100
AcDbSymbolTableRecord
100
AcDbLinetypeTableRecord
  2
BYBLOCK
 70
     0
  3

 72
    65
 73
     0
 40
0.0
  0
LTYPE
  5
211
100
AcDbSymbolTableRecord
100
AcDbLinetypeTableRecord
  2
BYLAYER
 70
     0
  3

 72
    65
 73
     0
 40
0.0
  0
LTYPE
  5
212
100
AcDbSymbolTableRecord
100
AcDbLinetypeTableRecord
  2
CONTINUOUS
 70
     0
  3
Solid line
 72
    65
 73
     0
 40
0.0
  0
LTYPE
  5
21C
100
AcDbSymbolTableRecord
100
AcDbLinetypeTableRecord
  2
TENSEN1
 70
     0
  3

 72
    65
 73
     2
 40
0.4
 49
0.3
 74
     0
 49
-0.1
 74
     0
  0
LTYPE
  5
21D
100
AcDbSymbolTableRecord
100
AcDbLinetypeTableRecord
  2
ITTEN1
 70
     0
  3

 72
    65
 73
     4
 40
8.2
 49
5.0
 74
     0
 49
-1.0
 74
     0
 49
1.2
 74
     0
 49
-1.0
 74
     0
  0
LTYPE
  5
21E
100
AcDbSymbolTableRecord
100
AcDbLinetypeTableRecord
  2
TENSEN2
 70
     0
  3

 72
    65
 73
     2
 40
2.1
 49
1.5
 74
     0
 49
-0.6
 74
     0
  0
LTYPE
  5
2C5
100
AcDbSymbolTableRecord
100
AcDbLinetypeTableRecord
  2
ITTEN
 70
     0
  3

 72
    65
 73
     4
 40
5.5
 49
2.5
 74
     0
 49
-1.0
 74
     0
 49
1.0
 74
     0
 49
-1.0
 74
     0
  0
ENDTAB
  0
TABLE
  2
LAYER
  5
201
100
AcDbSymbolTable
 70
     5
  0
LAYER
  5
20D
100
AcDbSymbolTableRecord
100
AcDbLayerTableRecord
  2
0
 70
     0
 62
     7
  6
CONTINUOUS
  0
LAYER
  5
221
100
AcDbSymbolTableRecord
100
AcDbLayerTableRecord
  2
1
 70
     0
 62
     1
  6
ITTEN1
  0
LAYER
  5
222
100
AcDbSymbolTableRecord
100
AcDbLayerTableRecord
  2
2
 70
     0
 62
     2
  6
TENSEN2
  0
LAYER
  5
223
100
AcDbSymbolTableRecord
100
AcDbLayerTableRecord
  2
3
 70
     0
 62
     3
  6
CONTINUOUS
  0
LAYER
  5
2C6
102
{ACAD_XDICTIONARY
360
2C7
102
}
100
AcDbSymbolTableRecord
100
AcDbLayerTableRecord
  2
DEFPOINTS
 70
     0
 62
     7
  6
CONTINUOUS
  0
ENDTAB
  0
TABLE
  2
STYLE
  5
202
100
AcDbSymbolTable
 70
     2
  0
STYLE
  5
20E
100
AcDbSymbolTableRecord
100
AcDbTextStyleTableRecord
  2
STANDARD
 70
     0
 40
0.0
 41
1.0
 50
0.0
 71
     0
 42
0.2
  3
txt
  4

  0
STYLE
  5
21B
100
AcDbSymbolTableRecord
100
AcDbTextStyleTableRecord
  2
BIGFONT
 70
     0
 40
10.0
 41
1.0
 50
0.0
 71
     0
 42
10.0
  3
txt.shx
  4
bigfont
  0
ENDTAB
  0
TABLE
  2
VIEW
  5
205
100
AcDbSymbolTable
 70
     0
  0
ENDTAB
  0
TABLE
  2
UCS
  5
206
100
AcDbSymbolTable
 70
     0
  0
ENDTAB
  0
TABLE
  2
APPID
  5
208
100
AcDbSymbolTable
 70
     1
  0
APPID
  5
20F
100
AcDbSymbolTableRecord
100
AcDbRegAppTableRecord
  2
ACAD
 70
     0
  0
ENDTAB
  0
TABLE
  2
DIMSTYLE
  5
209
100
AcDbSymbolTable
 70
     1
  0
DIMSTYLE
105
220
100
AcDbSymbolTableRecord
100
AcDbDimStyleTableRecord
  2
STANDARD
 70
     0
  3

  4

  5

  6

  7

 40
1.0
 41
0.18
 42
0.0625
 43
0.38
 44
0.18
 45
0.0
 46
0.0
 47
0.0
 48
0.0
140
0.18
141
0.09
142
0.0
143
25.4
144
1.0
145
0.0
146
1.0
147
0.09
 71
     0
 72
     0
 73
     1
 74
     1
 75
     0
 76
     0
 77
     0
 78
     0
170
     0
171
     2
172
     0
173
     0
174
     0
175
     0
176
     0
177
     0
178
     0
270
     2
271
     4
272
     4
273
     2
274
     2
340
21B
275
     0
280
     0
281
     0
282
     0
283
     1
284
     0
285
     0
286
     0
287
     5
288
     0
  0
ENDTAB
  0
TABLE
  2
BLOCK_RECORD
  5
200
100
AcDbSymbolTable
 70
    61
  0
BLOCK_RECORD
  5
216
100
AcDbSymbolTableRecord
100
AcDbBlockTableRecord
  2
*MODEL_SPACE
  0
BLOCK_RECORD
  5
213
100
AcDbSymbolTableRecord
100
AcDbBlockTableRecord
  2
*PAPER_SPACE
  0
BLOCK_RECORD
  5
238
100
AcDbSymbolTableRecord
100
AcDbBlockTableRecord
  2
*D0
  0
BLOCK_RECORD
  5
243
100
AcDbSymbolTableRecord
100
AcDbBlockTableRecord
  2
*D1
  0
BLOCK_RECORD
  5
24E
100
AcDbSymbolTableRecord
100
AcDbBlockTableRecord
  2
*D2
  0
BLOCK_RECORD
  5
259
100
AcDbSymbolTableRecord
100
AcDbBlockTableRecord
  2
*D3
  0
BLOCK_RECORD
  5
266
100
AcDbSymbolTableRecord
100
AcDbBlockTableRecord
  2
*D4
  0
BLOCK_RECORD
  5
273
100
AcDbSymbolTableRecord
100
AcDbBlockTableRecord
  2
*D5
  0
BLOCK_RECORD
  5
280
100
AcDbSymbolTableRecord
100
AcDbBlockTableRecord
  2
*D6
  0
BLOCK_RECORD
  5
28B
100
AcDbSymbolTableRecord
100
AcDbBlockTableRecord
  2
*D7
  0
BLOCK_RECORD
  5
296
100
AcDbSymbolTableRecord
100
AcDbBlockTableRecord
  2
*D8
  0
BLOCK_RECORD
  5
2A1
100
AcDbSymbolTableRecord
100
AcDbBlockTableRecord
  2
*D9
  0
BLOCK_RECORD
  5
2AC
100
AcDbSymbolTableRecord
100
AcDbBlockTableRecord
  2
*D10
  0
BLOCK_RECORD
  5
2BA
100
AcDbSymbolTableRecord
100
AcDbBlockTableRecord
  2
*D11
  0
BLOCK_RECORD
  5
2C9
100
AcDbSymbolTableRecord
100
AcDbBlockTableRecord
  2
A$C502C4094
  0
BLOCK_RECORD
  5
371
100
AcDbSymbolTableRecord
100
AcDbBlockTableRecord
  2
*D13
  0
BLOCK_RECORD
  5
37E
100
AcDbSymbolTableRecord
100
AcDbBlockTableRecord
  2
*D14
  0
BLOCK_RECORD
  5
38B
100
AcDbSymbolTableRecord
100
AcDbBlockTableRecord
  2
*D15
  0
BLOCK_RECORD
  5
399
100
AcDbSymbolTableRecord
100
AcDbBlockTableRecord
  2
*D16
  0
BLOCK_RECORD
  5
3A2
100
AcDbSymbolTableRecord
100
AcDbBlockTableRecord
  2
*D17
  0
BLOCK_RECORD
  5
3AB
100
AcDbSymbolTableRecord
100
AcDbBlockTableRecord
  2
*D18
  0
BLOCK_RECORD
  5
3B4
100
AcDbSymbolTableRecord
100
AcDbBlockTableRecord
  2
*D19
  0
BLOCK_RECORD
  5
3C2
100
AcDbSymbolTableRecord
100
AcDbBlockTableRecord
  2
*D20
  0
BLOCK_RECORD
  5
3CC
100
AcDbSymbolTableRecord
100
AcDbBlockTableRecord
  2
*D21
  0
BLOCK_RECORD
  5
3D6
100
AcDbSymbolTableRecord
100
AcDbBlockTableRecord
  2
*D22
  0
BLOCK_RECORD
  5
3DF
100
AcDbSymbolTableRecord
100
AcDbBlockTableRecord
  2
*D23
  0
BLOCK_RECORD
  5
3E8
100
AcDbSymbolTableRecord
100
AcDbBlockTableRecord
  2
*D24
  0
BLOCK_RECORD
  5
46F
100
AcDbSymbolTableRecord
100
AcDbBlockTableRecord
  2
*D25
  0
BLOCK_RECORD
  5
47A
100
AcDbSymbolTableRecord
100
AcDbBlockTableRecord
  2
*D26
  0
BLOCK_RECORD
  5
485
100
AcDbSymbolTableRecord
100
AcDbBlockTableRecord
  2
*D27
  0
BLOCK_RECORD
  5
492
100
AcDbSymbolTableRecord
100
AcDbBlockTableRecord
  2
A$C12173F50
  0
BLOCK_RECORD
  5
4DA
100
AcDbSymbolTableRecord
100
AcDbBlockTableRecord
  2
*D29
  0
BLOCK_RECORD
  5
4E3
100
AcDbSymbolTableRecord
100
AcDbBlockTableRecord
  2
*D30
  0
BLOCK_RECORD
  5
4EC
100
AcDbSymbolTableRecord
100
AcDbBlockTableRecord
  2
*D31
  0
BLOCK_RECORD
  5
517
100
AcDbSymbolTableRecord
100
AcDbBlockTableRecord
  2
*D32
  0
BLOCK_RECORD
  5
525
100
AcDbSymbolTableRecord
100
AcDbBlockTableRecord
  2
*D33
  0
BLOCK_RECORD
  5
530
100
AcDbSymbolTableRecord
100
AcDbBlockTableRecord
  2
A$C748B7793
  0
BLOCK_RECORD
  5
584
100
AcDbSymbolTableRecord
100
AcDbBlockTableRecord
  2
*D35
  0
BLOCK_RECORD
  5
592
100
AcDbSymbolTableRecord
100
AcDbBlockTableRecord
  2
*D36
  0
BLOCK_RECORD
  5
5BF
100
AcDbSymbolTableRecord
100
AcDbBlockTableRecord
  2
*D37
  0
BLOCK_RECORD
  5
5CA
100
AcDbSymbolTableRecord
100
AcDbBlockTableRecord
  2
*D38
  0
BLOCK_RECORD
  5
5D5
100
AcDbSymbolTableRecord
100
AcDbBlockTableRecord
  2
*D39
  0
BLOCK_RECORD
  5
5E0
100
AcDbSymbolTableRecord
100
AcDbBlockTableRecord
  2
*D40
  0
BLOCK_RECORD
  5
5EB
100
AcDbSymbolTableRecord
100
AcDbBlockTableRecord
  2
*D41
  0
BLOCK_RECORD
  5
5F6
100
AcDbSymbolTableRecord
100
AcDbBlockTableRecord
  2
*D42
  0
BLOCK_RECORD
  5
603
100
AcDbSymbolTableRecord
100
AcDbBlockTableRecord
  2
*D43
  0
BLOCK_RECORD
  5
610
100
AcDbSymbolTableRecord
100
AcDbBlockTableRecord
  2
*D44
  0
BLOCK_RECORD
  5
61D
100
AcDbSymbolTableRecord
100
AcDbBlockTableRecord
  2
*D45
  0
BLOCK_RECORD
  5
628
100
AcDbSymbolTableRecord
100
AcDbBlockTableRecord
  2
*D46
  0
BLOCK_RECORD
  5
633
100
AcDbSymbolTableRecord
100
AcDbBlockTableRecord
  2
A$C3A00351B
  0
BLOCK_RECORD
  5
689
100
AcDbSymbolTableRecord
100
AcDbBlockTableRecord
  2
*D48
  0
BLOCK_RECORD
  5
693
100
AcDbSymbolTableRecord
100
AcDbBlockTableRecord
  2
*D49
  0
BLOCK_RECORD
  5
69C
100
AcDbSymbolTableRecord
100
AcDbBlockTableRecord
  2
*D50
  0
BLOCK_RECORD
  5
6A5
100
AcDbSymbolTableRecord
100
AcDbBlockTableRecord
  2
*D51
  0
BLOCK_RECORD
  5
6AE
100
AcDbSymbolTableRecord
100
AcDbBlockTableRecord
  2
*D52
  0
BLOCK_RECORD
  5
6B8
100
AcDbSymbolTableRecord
100
AcDbBlockTableRecord
  2
*D53
  0
BLOCK_RECORD
  5
6C1
100
AcDbSymbolTableRecord
100
AcDbBlockTableRecord
  2
*D54
  0
BLOCK_RECORD
  5
6CA
100
AcDbSymbolTableRecord
100
AcDbBlockTableRecord
  2
*D55
  0
BLOCK_RECORD
  5
6D7
100
AcDbSymbolTableRecord
100
AcDbBlockTableRecord
  2
*D56
  0
BLOCK_RECORD
  5
6E3
100
AcDbSymbolTableRecord
100
AcDbBlockTableRecord
  2
*D57
  0
BLOCK_RECORD
  5
74D
100
AcDbSymbolTableRecord
100
AcDbBlockTableRecord
  2
*D58
  0
BLOCK_RECORD
  5
75B
100
AcDbSymbolTableRecord
100
AcDbBlockTableRecord
  2
A$C549C4216
  0
BLOCK_RECORD
  5
7AF
100
AcDbSymbolTableRecord
100
AcDbBlockTableRecord
  2
*D60
  0
ENDTAB
  0
ENDSEC
  0
SECTION
  2
BLOCKS
  0
BLOCK
  5
226
100
AcDbEntity
  8
0
100
AcDbBlockBegin
  2
*MODEL_SPACE
 70
     0
 10
0.0
 20
0.0
 30
0.0
  3
*MODEL_SPACE
  1

  0
ENDBLK
  5
227
100
AcDbEntity
  8
0
100
AcDbBlockEnd
  0
BLOCK
  5
224
100
AcDbEntity
 67
     1
  8
0
100
AcDbBlockBegin
  2
*PAPER_SPACE
 70
     0
 10
0.0
 20
0.0
 30
0.0
  3
*PAPER_SPACE
  1

  0
ENDBLK
  5
225
100
AcDbEntity
 67
     1
  8
0
100
AcDbBlockEnd
  0
BLOCK
  5
241
100
AcDbEntity
  8
0
100
AcDbBlockBegin
  2
*D0
 70
     1
 10
0.0
 20
0.0
 30
0.0
  3
*D0
  1

  0
LINE
  5
239
100
AcDbEntity
  8
0
  6
BYBLOCK
 62
     0
100
AcDbLine
 10
79.0
 20
129.0
 30
0.0
 11
81.0
 21
129.0
 31
0.0
  0
LINE
  5
23A
100
AcDbEntity
  8
0
  6
BYBLOCK
 62
     0
100
AcDbLine
 10
81.0
 20
129.0
 30
0.0
 11
86.588475
 21
121.814818
 31
0.0
  0
MTEXT
  5
23B
100
AcDbEntity
  8
0
  6
BYBLOCK
 62
     0
100
AcDbMText
 10
76.25
 20
129.0
 30
0.0
 40
3.5
 41
0.0
 71
     5
 72
     1
  1
\A1;\U+220512
  0
SOLID
  5
23C
100
AcDbEntity
  8
0
  6
BYBLOCK
 62
     0
100
AcDbTrace
 10
86.851593
 20
122.019465
 30
0.0
 11
86.325358
 21
121.610171
 31
0.0
 12
87.816356
 22
120.236113
 32
0.0
 13
87.816356
 23
120.236113
 33
0.0
  0
LINE
  5
23D
100
AcDbEntity
  8
0
  6
BYBLOCK
 62
     0
100
AcDbLine
 10
91.4
 20
115.5
 30
0.0
 11
91.6
 21
115.5
 31
0.0
  0
LINE
  5
23E
100
AcDbEntity
  8
0
  6
BYBLOCK
 62
     0
100
AcDbLine
 10
91.5
 20
115.4
 30
0.0
 11
91.5
 21
115.6
 31
0.0
  0
POINT
  5
23F
100
AcDbEntity
  8
DEFPOINTS
  6
BYBLOCK
 62
     0
100
AcDbPoint
 10
87.816356
 20
120.236113
 30
0.0
  0
POINT
  5
240
100
AcDbEntity
  8
DEFPOINTS
  6
BYBLOCK
 62
     0
100
AcDbPoint
 10
95.183644
 20
110.763887
 30
0.0
  0
ENDBLK
  5
242
100
AcDbEntity
  8
0
100
AcDbBlockEnd
  0
BLOCK
  5
24C
100
AcDbEntity
  8
0
100
AcDbBlockBegin
  2
*D1
 70
     1
 10
0.0
 20
0.0
 30
0.0
  3
*D1
  1

  0
LINE
  5
244
100
AcDbEntity
  8
0
  6
BYBLOCK
 62
     0
100
AcDbLine
 10
79.25
 20
124.0
 30
0.0
 11
81.25
 21
124.0
 31
0.0
  0
LINE
  5
245
100
AcDbEntity
  8
0
  6
BYBLOCK
 62
     0
100
AcDbLine
 10
81.25
 20
124.0
 30
0.0
 11
86.727501
 21
119.457683
 31
0.0
  0
MTEXT
  5
246
100
AcDbEntity
  8
0
  6
BYBLOCK
 62
     0
100
AcDbMText
 10
75.95
 20
124.0
 30
0.0
 40
3.5
 41
0.0
 71
     5
 72
     1
  1
\A1;\U+22058.4
  0
SOLID
  5
247
100
AcDbEntity
  8
0
  6
BYBLOCK
 62
     0
100
AcDbTrace
 10
86.940279
 20
119.714269
 30
0.0
 11
86.514722
 21
119.201097
 31
0.0
 12
88.267017
 22
118.181011
 32
0.0
 13
88.267017
 23
118.181011
 33
0.0
  0
LINE
  5
248
100
AcDbEntity
  8
0
  6
BYBLOCK
 62
     0
100
AcDbLine
 10
91.4
 20
115.5
 30
0.0
 11
91.6
 21
115.5
 31
0.0
  0
LINE
  5
249
100
AcDbEntity
  8
0
  6
BYBLOCK
 62
     0
100
AcDbLine
 10
91.5
 20
115.4
 30
0.0
 11
91.5
 21
115.6
 31
0.0
  0
POINT
  5
24A
100
AcDbEntity
  8
DEFPOINTS
  6
BYBLOCK
 62
     0
100
AcDbPoint
 10
88.267017
 20
118.181011
 30
0.0
  0
POINT
  5
24B
100
AcDbEntity
  8
DEFPOINTS
  6
BYBLOCK
 62
     0
100
AcDbPoint
 10
94.732983
 20
112.81899
 30
0.0
  0
ENDBLK
  5
24D
100
AcDbEntity
  8
0
100
AcDbBlockEnd
  0
BLOCK
  5
257
100
AcDbEntity
  8
0
100
AcDbBlockBegin
  2
*D2
 70
     1
 10
0.0
 20
0.0
 30
0.0
  3
*D2
  1

  0
LINE
  5
24F
100
AcDbEntity
  8
0
  6
BYBLOCK
 62
     0
100
AcDbLine
 10
79.75
 20
110.0
 30
0.0
 11
81.75
 21
110.0
 31
0.0
  0
LINE
  5
250
100
AcDbEntity
  8
0
  6
BYBLOCK
 62
     0
100
AcDbLine
 10
81.75
 20
110.0
 30
0.0
 11
87.05801
 21
112.994262
 31
0.0
  0
MTEXT
  5
251
100
AcDbEntity
  8
0
  6
BYBLOCK
 62
     0
100
AcDbMText
 10
76.5
 20
110.0
 30
0.0
 40
3.5
 41
0.0
 71
     5
 72
     1
  1
\A1;\U+22056.2
  0
SOLID
  5
252
100
AcDbEntity
  8
0
  6
BYBLOCK
 62
     0
100
AcDbTrace
 10
86.894236
 20
113.284588
 30
0.0
 11
87.221784
 21
112.703936
 31
0.0
 12
88.799967
 22
113.976905
 32
0.0
 13
88.799967
 23
113.976905
 33
0.0
  0
LINE
  5
253
100
AcDbEntity
  8
0
  6
BYBLOCK
 62
     0
100
AcDbLine
 10
91.4
 20
115.5
 30
0.0
 11
91.6
 21
115.5
 31
0.0
  0
LINE
  5
254
100
AcDbEntity
  8
0
  6
BYBLOCK
 62
     0
100
AcDbLine
 10
91.5
 20
115.4
 30
0.0
 11
91.5
 21
115.6
 31
0.0
  0
POINT
  5
255
100
AcDbEntity
  8
DEFPOINTS
  6
BYBLOCK
 62
     0
100
AcDbPoint
 10
88.799967
 20
113.976905
 30
0.0
  0
POINT
  5
256
100
AcDbEntity
  8
DEFPOINTS
  6
BYBLOCK
 62
     0
100
AcDbPoint
 10
94.200033
 20
117.023096
 30
0.0
  0
ENDBLK
  5
258
100
AcDbEntity
  8
0
100
AcDbBlockEnd
  0
BLOCK
  5
264
100
AcDbEntity
  8
0
100
AcDbBlockBegin
  2
*D3
 70
     1
 10
0.0
 20
0.0
 30
0.0
  3
*D3
  1

  0
LINE
  5
25A
100
AcDbEntity
  8
0
  6
BYBLOCK
 62
     0
100
AcDbLine
 10
128.25
 20
120.6
 30
0.0
 11
128.25
 21
143.95
 31
0.0
  0
LINE
  5
25B
100
AcDbEntity
  8
0
  6
BYBLOCK
 62
     0
100
AcDbLine
 10
146.25
 20
120.6
 30
0.0
 11
146.25
 21
143.95
 31
0.0
  0
LINE
  5
25C
100
AcDbEntity
  8
0
  6
BYBLOCK
 62
     0
100
AcDbLine
 10
130.25
 20
143.75
 30
0.0
 11
135.35
 21
143.75
 31
0.0
  0
LINE
  5
25D
100
AcDbEntity
  8
0
  6
BYBLOCK
 62
     0
100
AcDbLine
 10
144.25
 20
143.75
 30
0.0
 11
138.65
 21
143.75
 31
0.0
  0
SOLID
  5
25E
100
AcDbEntity
  8
0
  6
BYBLOCK
 62
     0
100
AcDbTrace
 10
130.25
 20
144.083333
 30
0.0
 11
130.25
 21
143.416667
 31
0.0
 12
128.25
 22
143.75
 32
0.0
 13
128.25
 23
143.75
 33
0.0
  0
SOLID
  5
25F
100
AcDbEntity
  8
0
  6
BYBLOCK
 62
     0
100
AcDbTrace
 10
144.25
 20
144.083333
 30
0.0
 11
144.25
 21
143.416667
 31
0.0
 12
146.25
 22
143.75
 32
0.0
 13
146.25
 23
143.75
 33
0.0
  0
MTEXT
  5
260
100
AcDbEntity
  8
0
  6
BYBLOCK
 62
     0
100
AcDbMText
 10
137.0
 20
143.75
 30
0.0
 40
3.5
 41
0.0
 71
     5
 72
     1
  1
\A1;18
  0
POINT
  5
261
100
AcDbEntity
  8
DEFPOINTS
  6
BYBLOCK
 62
     0
100
AcDbPoint
 10
128.25
 20
120.5
 30
0.0
  0
POINT
  5
262
100
AcDbEntity
  8
DEFPOINTS
  6
BYBLOCK
 62
     0
100
AcDbPoint
 10
146.25
 20
120.5
 30
0.0
  0
POINT
  5
263
100
AcDbEntity
  8
DEFPOINTS
  6
BYBLOCK
 62
     0
100
AcDbPoint
 10
146.25
 20
143.75
 30
0.0
  0
ENDBLK
  5
265
100
AcDbEntity
  8
0
100
AcDbBlockEnd
  0
BLOCK
  5
271
100
AcDbEntity
  8
0
100
AcDbBlockBegin
  2
*D4
 70
     1
 10
0.0
 20
0.0
 30
0.0
  3
*D4
  1

  0
LINE
  5
267
100
AcDbEntity
  8
0
  6
BYBLOCK
 62
     0
100
AcDbLine
 10
128.25
 20
120.6
 30
0.0
 11
128.25
 21
137.7
 31
0.0
  0
LINE
  5
268
100
AcDbEntity
  8
0
  6
BYBLOCK
 62
     0
100
AcDbLine
 10
131.25
 20
119.8
 30
0.0
 11
131.25
 21
137.7
 31
0.0
  0
LINE
  5
269
100
AcDbEntity
  8
0
  6
BYBLOCK
 62
     0
100
AcDbLine
 10
126.25
 20
137.5
 30
0.0
 11
124.25
 21
137.5
 31
0.0
  0
LINE
  5
26A
100
AcDbEntity
  8
0
  6
BYBLOCK
 62
     0
100
AcDbLine
 10
133.25
 20
137.5
 30
0.0
 11
135.25
 21
137.5
 31
0.0
  0
SOLID
  5
26B
100
AcDbEntity
  8
0
  6
BYBLOCK
 62
     0
100
AcDbTrace
 10
126.25
 20
137.833333
 30
0.0
 11
126.25
 21
137.166667
 31
0.0
 12
128.25
 22
137.5
 32
0.0
 13
128.25
 23
137.5
 33
0.0
  0
SOLID
  5
26C
100
AcDbEntity
  8
0
  6
BYBLOCK
 62
     0
100
AcDbTrace
 10
133.25
 20
137.833333
 30
0.0
 11
133.25
 21
137.166667
 31
0.0
 12
131.25
 22
137.5
 32
0.0
 13
131.25
 23
137.5
 33
0.0
  0
MTEXT
  5
26D
100
AcDbEntity
  8
0
  6
BYBLOCK
 62
     0
100
AcDbMText
 10
129.75
 20
137.5
 30
0.0
 40
3.5
 41
0.0
 71
     5
 72
     1
  1
\A1;3
  0
POINT
  5
26E
100
AcDbEntity
  8
DEFPOINTS
  6
BYBLOCK
 62
     0
100
AcDbPoint
 10
128.25
 20
120.5
 30
0.0
  0
POINT
  5
26F
100
AcDbEntity
  8
DEFPOINTS
  6
BYBLOCK
 62
     0
100
AcDbPoint
 10
131.25
 20
119.7
 30
0.0
  0
POINT
  5
270
100
AcDbEntity
  8
DEFPOINTS
  6
BYBLOCK
 62
     0
100
AcDbPoint
 10
131.25
 20
137.5
 30
0.0
  0
ENDBLK
  5
272
100
AcDbEntity
  8
0
100
AcDbBlockEnd
  0
BLOCK
  5
27E
100
AcDbEntity
  8
0
100
AcDbBlockBegin
  2
*D5
 70
     1
 10
0.0
 20
0.0
 30
0.0
  3
*D5
  1

  0
LINE
  5
274
100
AcDbEntity
  8
0
  6
BYBLOCK
 62
     0
100
AcDbLine
 10
131.25
 20
119.8
 30
0.0
 11
131.25
 21
134.7
 31
0.0
  0
LINE
  5
275
100
AcDbEntity
  8
0
  6
BYBLOCK
 62
     0
100
AcDbLine
 10
146.25
 20
120.6
 30
0.0
 11
146.25
 21
134.7
 31
0.0
  0
LINE
  5
276
100
AcDbEntity
  8
0
  6
BYBLOCK
 62
     0
100
AcDbLine
 10
133.25
 20
134.5
 30
0.0
 11
137.1
 21
134.5
 31
0.0
  0
LINE
  5
277
100
AcDbEntity
  8
0
  6
BYBLOCK
 62
     0
100
AcDbLine
 10
144.25
 20
134.5
 30
0.0
 11
140.4
 21
134.5
 31
0.0
  0
SOLID
  5
278
100
AcDbEntity
  8
0
  6
BYBLOCK
 62
     0
100
AcDbTrace
 10
133.25
 20
134.833333
 30
0.0
 11
133.25
 21
134.166667
 31
0.0
 12
131.25
 22
134.5
 32
0.0
 13
131.25
 23
134.5
 33
0.0
  0
SOLID
  5
279
100
AcDbEntity
  8
0
  6
BYBLOCK
 62
     0
100
AcDbTrace
 10
144.25
 20
134.833333
 30
0.0
 11
144.25
 21
134.166667
 31
0.0
 12
146.25
 22
134.5
 32
0.0
 13
146.25
 23
134.5
 33
0.0
  0
MTEXT
  5
27A
100
AcDbEntity
  8
0
  6
BYBLOCK
 62
     0
100
AcDbMText
 10
138.75
 20
134.5
 30
0.0
 40
3.5
 41
0.0
 71
     5
 72
     1
  1
\A1;15
  0
POINT
  5
27B
100
AcDbEntity
  8
DEFPOINTS
  6
BYBLOCK
 62
     0
100
AcDbPoint
 10
131.25
 20
119.7
 30
0.0
  0
POINT
  5
27C
100
AcDbEntity
  8
DEFPOINTS
  6
BYBLOCK
 62
     0
100
AcDbPoint
 10
146.25
 20
120.5
 30
0.0
  0
POINT
  5
27D
100
AcDbEntity
  8
DEFPOINTS
  6
BYBLOCK
 62
     0
100
AcDbPoint
 10
146.25
 20
134.5
 30
0.0
  0
ENDBLK
  5
27F
100
AcDbEntity
  8
0
100
AcDbBlockEnd
  0
BLOCK
  5
289
100
AcDbEntity
  8
0
100
AcDbBlockBegin
  2
*D6
 70
     1
 10
0.0
 20
0.0
 30
0.0
  3
*D6
  1

  0
LINE
  5
281
100
AcDbEntity
  8
0
  6
BYBLOCK
 62
     0
100
AcDbLine
 10
119.75
 20
104.0
 30
0.0
 11
121.75
 21
104.0
 31
0.0
  0
LINE
  5
282
100
AcDbEntity
  8
0
  6
BYBLOCK
 62
     0
100
AcDbLine
 10
121.75
 20
104.0
 30
0.0
 11
128.494311
 21
109.845069
 31
0.0
  0
MTEXT
  5
283
100
AcDbEntity
  8
0
  6
BYBLOCK
 62
     0
100
AcDbMText
 10
118.25
 20
104.0
 30
0.0
 40
3.5
 41
0.0
 71
     5
 72
     1
  1
\A1;R1
  0
SOLID
  5
284
100
AcDbEntity
  8
0
  6
BYBLOCK
 62
     0
100
AcDbTrace
 10
126.764623
 20
108.787105
 30
0.0
 11
127.201243
 21
108.283312
 31
0.0
 12
128.494311
 22
109.845069
 32
0.0
 13
128.494311
 23
109.845069
 33
0.0
  0
LINE
  5
285
100
AcDbEntity
  8
0
  6
BYBLOCK
 62
     0
100
AcDbLine
 10
129.15
 20
110.5
 30
0.0
 11
129.35
 21
110.5
 31
0.0
  0
LINE
  5
286
100
AcDbEntity
  8
0
  6
BYBLOCK
 62
     0
100
AcDbLine
 10
129.25
 20
110.4
 30
0.0
 11
129.25
 21
110.6
 31
0.0
  0
POINT
  5
287
100
AcDbEntity
  8
DEFPOINTS
  6
BYBLOCK
 62
     0
100
AcDbPoint
 10
128.494311
 20
109.845069
 30
0.0
  0
POINT
  5
288
100
AcDbEntity
  8
DEFPOINTS
  6
BYBLOCK
 62
     0
100
AcDbPoint
 10
129.25
 20
110.5
 30
0.0
  0
ENDBLK
  5
28A
100
AcDbEntity
  8
0
100
AcDbBlockEnd
  0
BLOCK
  5
294
100
AcDbEntity
  8
0
100
AcDbBlockBegin
  2
*D7
 70
     1
 10
0.0
 20
0.0
 30
0.0
  3
*D7
  1

  0
LINE
  5
28C
100
AcDbEntity
  8
0
  6
BYBLOCK
 62
     0
100
AcDbLine
 10
154.5
 20
96.75
 30
0.0
 11
152.5
 21
96.75
 31
0.0
  0
LINE
  5
28D
100
AcDbEntity
  8
0
  6
BYBLOCK
 62
     0
100
AcDbLine
 10
152.5
 20
96.75
 30
0.0
 11
145.716409
 21
109.615431
 31
0.0
  0
MTEXT
  5
28E
100
AcDbEntity
  8
0
  6
BYBLOCK
 62
     0
100
AcDbMText
 10
156.0
 20
96.75
 30
0.0
 40
3.5
 41
0.0
 71
     5
 72
     1
  1
\A1;R1
  0
SOLID
  5
28F
100
AcDbEntity
  8
0
  6
BYBLOCK
 62
     0
100
AcDbTrace
 10
146.944084
 20
108.001762
 30
0.0
 11
146.354371
 21
107.690823
 31
0.0
 12
145.716409
 22
109.615431
 32
0.0
 13
145.716409
 23
109.615431
 33
0.0
  0
LINE
  5
290
100
AcDbEntity
  8
0
  6
BYBLOCK
 62
     0
100
AcDbLine
 10
145.15
 20
110.5
 30
0.0
 11
145.35
 21
110.5
 31
0.0
  0
LINE
  5
291
100
AcDbEntity
  8
0
  6
BYBLOCK
 62
     0
100
AcDbLine
 10
145.25
 20
110.4
 30
0.0
 11
145.25
 21
110.6
 31
0.0
  0
POINT
  5
292
100
AcDbEntity
  8
DEFPOINTS
  6
BYBLOCK
 62
     0
100
AcDbPoint
 10
145.716409
 20
109.615431
 30
0.0
  0
POINT
  5
293
100
AcDbEntity
  8
DEFPOINTS
  6
BYBLOCK
 62
     0
100
AcDbPoint
 10
145.25
 20
110.5
 30
0.0
  0
ENDBLK
  5
295
100
AcDbEntity
  8
0
100
AcDbBlockEnd
  0
BLOCK
  5
29F
100
AcDbEntity
  8
0
100
AcDbBlockBegin
  2
*D8
 70
     1
 10
0.0
 20
0.0
 30
0.0
  3
*D8
  1

  0
LINE
  5
297
100
AcDbEntity
  8
0
  6
BYBLOCK
 62
     0
100
AcDbLine
 10
169.75
 20
129.75
 30
0.0
 11
171.75
 21
129.75
 31
0.0
  0
LINE
  5
298
100
AcDbEntity
  8
0
  6
BYBLOCK
 62
     0
100
AcDbLine
 10
171.75
 20
129.75
 30
0.0
 11
176.982529
 21
122.102458
 31
0.0
  0
MTEXT
  5
299
100
AcDbEntity
  8
0
  6
BYBLOCK
 62
     0
100
AcDbMText
 10
167.0
 20
129.75
 30
0.0
 40
3.5
 41
0.0
 71
     5
 72
     1
  1
\A1;\U+220512
  0
SOLID
  5
29A
100
AcDbEntity
  8
0
  6
BYBLOCK
 62
     0
100
AcDbTrace
 10
177.257631
 20
122.290686
 30
0.0
 11
176.707426
 21
121.91423
 31
0.0
 12
178.111897
 22
120.451844
 32
0.0
 13
178.111897
 23
120.451844
 33
0.0
  0
LINE
  5
29B
100
AcDbEntity
  8
0
  6
BYBLOCK
 62
     0
100
AcDbLine
 10
181.4
 20
115.5
 30
0.0
 11
181.6
 21
115.5
 31
0.0
  0
LINE
  5
29C
100
AcDbEntity
  8
0
  6
BYBLOCK
 62
     0
100
AcDbLine
 10
181.5
 20
115.4
 30
0.0
 11
181.5
 21
115.6
 31
0.0
  0
POINT
  5
29D
100
AcDbEntity
  8
DEFPOINTS
  6
BYBLOCK
 62
     0
100
AcDbPoint
 10
178.111897
 20
120.451844
 30
0.0
  0
POINT
  5
29E
100
AcDbEntity
  8
DEFPOINTS
  6
BYBLOCK
 62
     0
100
AcDbPoint
 10
184.888103
 20
110.548157
 30
0.0
  0
ENDBLK
  5
2A0
100
AcDbEntity
  8
0
100
AcDbBlockEnd
  0
BLOCK
  5
2AA
100
AcDbEntity
  8
0
100
AcDbBlockBegin
  2
*D9
 70
     1
 10
0.0
 20
0.0
 30
0.0
  3
*D9
  1

  0
LINE
  5
2A2
100
AcDbEntity
  8
0
  6
BYBLOCK
 62
     0
100
AcDbLine
 10
169.0
 20
121.25
 30
0.0
 11
171.0
 21
121.25
 31
0.0
  0
LINE
  5
2A3
100
AcDbEntity
  8
0
  6
BYBLOCK
 62
     0
100
AcDbLine
 10
171.0
 20
121.25
 30
0.0
 11
177.026809
 21
117.949605
 31
0.0
  0
MTEXT
  5
2A4
100
AcDbEntity
  8
0
  6
BYBLOCK
 62
     0
100
AcDbMText
 10
165.75
 20
121.25
 30
0.0
 40
3.5
 41
0.0
 71
     5
 72
     1
  1
\A1;\U+22056.2
  0
SOLID
  5
2A5
100
AcDbEntity
  8
0
  6
BYBLOCK
 62
     0
100
AcDbTrace
 10
177.186914
 20
118.24197
 30
0.0
 11
176.866704
 21
117.657239
 31
0.0
 12
178.781002
 22
116.988976
 32
0.0
 13
178.781002
 23
116.988976
 33
0.0
  0
LINE
  5
2A6
100
AcDbEntity
  8
0
  6
BYBLOCK
 62
     0
100
AcDbLine
 10
181.4
 20
115.5
 30
0.0
 11
181.6
 21
115.5
 31
0.0
  0
LINE
  5
2A7
100
AcDbEntity
  8
0
  6
BYBLOCK
 62
     0
100
AcDbLine
 10
181.5
 20
115.4
 30
0.0
 11
181.5
 21
115.6
 31
0.0
  0
POINT
  5
2A8
100
AcDbEntity
  8
DEFPOINTS
  6
BYBLOCK
 62
     0
100
AcDbPoint
 10
178.781002
 20
116.988976
 30
0.0
  0
POINT
  5
2A9
100
AcDbEntity
  8
DEFPOINTS
  6
BYBLOCK
 62
     0
100
AcDbPoint
 10
184.218998
 20
114.011025
 30
0.0
  0
ENDBLK
  5
2AB
100
AcDbEntity
  8
0
100
AcDbBlockEnd
  0
BLOCK
  5
2B8
100
AcDbEntity
  8
0
100
AcDbBlockBegin
  2
*D10
 70
     1
 10
0.0
 20
0.0
 30
0.0
  3
*D10
  1

  0
LINE
  5
2AD
100
AcDbEntity
  8
0
  6
BYBLOCK
 62
     0
100
AcDbLine
 10
129.15
 20
79.25
 30
0.0
 11
109.9
 21
79.25
 31
0.0
  0
LINE
  5
2AE
100
AcDbEntity
  8
0
  6
BYBLOCK
 62
     0
100
AcDbLine
 10
129.15
 20
77.75
 30
0.0
 11
109.9
 21
77.75
 31
0.0
  0
LINE
  5
2AF
100
AcDbEntity
  8
0
  6
BYBLOCK
 62
     0
100
AcDbLine
 10
110.1
 20
75.75
 30
0.0
 11
110.1
 21
73.75
 31
0.0
  0
LINE
  5
2B0
100
AcDbEntity
  8
0
  6
BYBLOCK
 62
     0
100
AcDbLine
 10
110.1
 20
81.25
 30
0.0
 11
110.1
 21
84.0
 31
0.0
  0
LINE
  5
2B1
100
AcDbEntity
  8
0
  6
BYBLOCK
 62
     0
100
AcDbLine
 10
110.1
 20
84.0
 30
0.0
 11
112.1
 21
84.0
 31
0.0
  0
SOLID
  5
2B2
100
AcDbEntity
  8
0
  6
BYBLOCK
 62
     0
100
AcDbTrace
 10
109.766667
 20
75.75
 30
0.0
 11
110.433333
 21
75.75
 31
0.0
 12
110.1
 22
77.75
 32
0.0
 13
110.1
 23
77.75
 33
0.0
  0
SOLID
  5
2B3
100
AcDbEntity
  8
0
  6
BYBLOCK
 62
     0
100
AcDbTrace
 10
109.766667
 20
81.25
 30
0.0
 11
110.433333
 21
81.25
 31
0.0
 12
110.1
 22
79.25
 32
0.0
 13
110.1
 23
79.25
 33
0.0
  0
MTEXT
  5
2B4
100
AcDbEntity
  8
0
  6
BYBLOCK
 62
     0
100
AcDbMText
 10
114.25
 20
84.0
 30
0.0
 40
3.5
 41
0.0
 71
     5
 72
     1
  1
\A1;1.5
  0
POINT
  5
2B5
100
AcDbEntity
  8
DEFPOINTS
  6
BYBLOCK
 62
     0
100
AcDbPoint
 10
129.25
 20
79.25
 30
0.0
  0
POINT
  5
2B6
100
AcDbEntity
  8
DEFPOINTS
  6
BYBLOCK
 62
     0
100
AcDbPoint
 10
129.25
 20
77.75
 30
0.0
  0
POINT
  5
2B7
100
AcDbEntity
  8
DEFPOINTS
  6
BYBLOCK
 62
     0
100
AcDbPoint
 10
110.1
 20
77.75
 30
0.0
  0
ENDBLK
  5
2B9
100
AcDbEntity
  8
0
100
AcDbBlockEnd
  0
BLOCK
  5
2C3
100
AcDbEntity
  8
0
100
AcDbBlockBegin
  2
*D11
 70
     1
 10
0.0
 20
0.0
 30
0.0
  3
*D11
  1

  0
LINE
  5
2BB
100
AcDbEntity
  8
0
  6
BYBLOCK
 62
     0
100
AcDbLine
 10
183.5
 20
86.25
 30
0.0
 11
185.5
 21
86.25
 31
0.0
  0
LINE
  5
2BC
100
AcDbEntity
  8
0
  6
BYBLOCK
 62
     0
100
AcDbLine
 10
185.5
 20
86.25
 30
0.0
 11
190.917398
 21
81.711099
 31
0.0
  0
MTEXT
  5
2BD
100
AcDbEntity
  8
0
  6
BYBLOCK
 62
     0
100
AcDbMText
 10
181.75
 20
86.25
 30
0.0
 40
3.5
 41
0.0
 71
     5
 72
     1
  1
\A1;\U+22056
  0
SOLID
  5
2BE
100
AcDbEntity
  8
0
  6
BYBLOCK
 62
     0
100
AcDbTrace
 10
191.131471
 20
81.966606
 30
0.0
 11
190.703324
 21
81.455592
 31
0.0
 12
192.450439
 22
80.426659
 32
0.0
 13
192.450439
 23
80.426659
 33
0.0
  0
LINE
  5
2BF
100
AcDbEntity
  8
0
  6
BYBLOCK
 62
     0
100
AcDbLine
 10
194.65
 20
78.5
 30
0.0
 11
194.85
 21
78.5
 31
0.0
  0
LINE
  5
2C0
100
AcDbEntity
  8
0
  6
BYBLOCK
 62
     0
100
AcDbLine
 10
194.75
 20
78.4
 30
0.0
 11
194.75
 21
78.6
 31
0.0
  0
POINT
  5
2C1
100
AcDbEntity
  8
DEFPOINTS
  6
BYBLOCK
 62
     0
100
AcDbPoint
 10
192.450439
 20
80.426659
 30
0.0
  0
POINT
  5
2C2
100
AcDbEntity
  8
DEFPOINTS
  6
BYBLOCK
 62
     0
100
AcDbPoint
 10
197.049562
 20
76.57334
 30
0.0
  0
ENDBLK
  5
2C4
100
AcDbEntity
  8
0
100
AcDbBlockEnd
  0
BLOCK
  5
31C
100
AcDbEntity
  8
0
100
AcDbBlockBegin
  2
A$C502C4094
 70
     0
 10
0.0
 20
0.0
 30
0.0
  3
A$C502C4094
  1

  0
LINE
  5
2CA
100
AcDbEntity
  8
1
100
AcDbLine
 10
53.15
 20
5.25
 30
0.0
 11
77.4
 21
5.25
 31
0.0
  0
LINE
  5
2CB
100
AcDbEntity
  8
3
100
AcDbLine
 10
75.4
 20
2.25
 30
0.0
 11
59.4
 21
2.25
 31
0.0
  0
LINE
  5
2CC
100
AcDbEntity
  8
3
100
AcDbLine
 10
75.4
 20
8.25
 30
0.0
 11
59.4
 21
8.25
 31
0.0
  0
HATCH
  5
2CD
100
AcDbEntity
  8
0
100
AcDbHatch
 10
0.0
 20
0.0
 30
0.0
210
0.0
220
0.0
230
1.0
  2
ANSI31
 70
     0
 71
     1
 91
        1
 92
        7
 72
     1
 73
     1
 93
        8
 10
73.40000004562319
 20
37.25000032117286
 42
0.0
 10
73.40000004562319
 20
39.15000032117287
 42
0.0
 10
58.40000004562321
 20
39.15000032117285
 42
0.0
 10
58.40000004562319
 20
38.05000032117286
 42
0.0
 10
55.40000004562319
 20
38.05000032117287
 42
0.0
 10
55.40000004562319
 20
37.25000032117286
 42
0.4142135623730951
 10
56.40000004562319
 20
36.25000032117286
 42
0.0
 10
72.40000004562318
 20
36.25000032117286
 42
0.4142135623730951
 97
        8
330
317
330
2D0
330
2F3
330
2F1
330
2F0
330
2F2
330
2D1
330
316
 75
     0
 76
     1
 52
0.0
 41
3.0
 77
     0
 78
     1
 53
45.0
 43
-72.85
 44
-73.25
 45
-0.2651650429449553
 46
0.2651650429449553
 79
     0
 47
0.136474
 98
        1
 10
65.4
 20
37.25
  0
DIMENSION
  5
2CE
100
AcDbEntity
  8
0
100
AcDbDimension
  2
*D5
 10
73.4
 20
61.25
 30
0.0
 11
65.9
 21
61.25
 31
0.0
 12
-72.85
 22
-73.25
 32
0.0
 70
   128
  3
STANDARD
100
AcDbAlignedDimension
 13
58.4
 23
46.45
 33
0.0
 14
73.4
 24
47.25
 34
0.0
100
AcDbRotatedDimension
1001
ACAD
1000
DSTYLE
1002
{
1070
    78
1070
     8
1070
   288
1070
     1
1070
   284
1070
     8
1070
   140
1040
2.0
1070
    73
1070
     0
1070
   272
1070
     2
1070
   147
1040
0.1
1070
    42
1040
0.1
1070
    44
1040
0.2
1070
    43
1040
0.4
1070
   271
1070
     2
1070
   141
1040
0.1
1070
    41
1040
2.0
1002
}
  0
DIMENSION
  5
2CF
100
AcDbEntity
  8
0
100
AcDbDimension
  2
*D3
 10
73.4
 20
70.5
 30
0.0
 11
64.15
 21
70.5
 31
0.0
 12
-72.85
 22
-73.25
 32
0.0
 70
   128
  3
STANDARD
100
AcDbAlignedDimension
 13
55.4
 23
47.25
 33
0.0
 14
73.4
 24
47.25
 34
0.0
100
AcDbRotatedDimension
1001
ACAD
1000
DSTYLE
1002
{
1070
    78
1070
     8
1070
   288
1070
     1
1070
   284
1070
     8
1070
   140
1040
2.0
1070
    73
1070
     0
1070
   272
1070
     2
1070
   147
1040
0.1
1070
    42
1040
0.1
1070
    44
1040
0.2
1070
    43
1040
0.4
1070
   271
1070
     2
1070
   141
1040
0.1
1070
    41
1040
2.0
1002
}
  0
LINE
  5
2D0
102
{ACAD_REACTORS
330
2CD
102
}
100
AcDbEntity
  8
3
100
AcDbLine
 10
73.4
 20
39.15
 30
0.0
 11
58.4
 21
39.15
 31
0.0
  0
LINE
  5
2D1
102
{ACAD_REACTORS
330
2CD
102
}
100
AcDbEntity
  8
3
100
AcDbLine
 10
56.4
 20
36.25
 30
0.0
 11
72.4
 21
36.25
 31
0.0
  0
LINE
  5
2D2
100
AcDbEntity
  8
3
100
AcDbLine
 10
73.4
 20
45.35
 30
0.0
 11
58.4
 21
45.35
 31
0.0
  0
LINE
  5
2D3
100
AcDbEntity
  8
3
100
AcDbLine
 10
56.4
 20
48.25
 30
0.0
 11
72.4
 21
48.25
 31
0.0
  0
LINE
  5
2D4
100
AcDbEntity
  8
1
100
AcDbLine
 10
52.15
 20
42.250001
 30
0.0
 11
76.4
 21
42.250001
 31
0.0
  0
CIRCLE
  5
2D5
100
AcDbEntity
  8
3
100
AcDbCircle
 10
16.9
 20
5.25
 30
0.0
 40
4.0
  0
LINE
  5
2D6
100
AcDbEntity
  8
1
100
AcDbLine
 10
16.9
 20
10.25
 30
0.0
 11
16.9
 21
0.0
 31
0.0
  0
LINE
  5
2D7
100
AcDbEntity
  8
1
100
AcDbLine
 10
11.4
 20
5.25
 30
0.0
 11
22.65
 21
5.25
 31
0.0
  0
LINE
  5
2D8
100
AcDbEntity
  8
3
100
AcDbLine
 10
20.829059
 20
6.0
 30
0.0
 11
12.970942
 21
6.0
 31
0.0
  0
LINE
  5
2D9
100
AcDbEntity
  8
3
100
AcDbLine
 10
20.829059
 20
4.5
 30
0.0
 11
12.970942
 21
4.5
 31
0.0
  0
DIMENSION
  5
2DA
100
AcDbEntity
  8
0
100
AcDbDimension
  2
*D10
 10
37.25
 20
4.5
 30
0.0
 11
41.4
 21
10.75
 31
0.0
 12
-72.85
 22
-73.25
 32
0.0
 70
   128
  3
STANDARD
100
AcDbAlignedDimension
 13
56.4
 23
6.0
 33
0.0
 14
56.4
 24
4.5
 34
0.0
 50
90.0
100
AcDbRotatedDimension
1001
ACAD
1000
DSTYLE
1002
{
1070
    78
1070
     8
1070
   288
1070
     1
1070
   284
1070
     8
1070
   140
1040
2.0
1070
    73
1070
     0
1070
   272
1070
     2
1070
   147
1040
0.1
1070
    42
1040
0.1
1070
    44
1040
0.2
1070
    43
1040
0.4
1070
   271
1070
     2
1070
   141
1040
0.1
1070
    41
1040
2.0
1002
}
  0
LINE
  5
2DB
100
AcDbEntity
  8
3
100
AcDbLine
 10
59.4
 20
5.25
 30
0.0
 11
59.4
 21
9.25
 31
0.0
  0
LINE
  5
2DC
100
AcDbEntity
  8
3
100
AcDbLine
 10
56.4
 20
9.25
 30
0.0
 11
56.4
 21
6.0
 31
0.0
  0
LINE
  5
2DD
100
AcDbEntity
  8
3
100
AcDbLine
 10
59.4
 20
5.25
 30
0.0
 11
59.4
 21
1.25
 31
0.0
  0
LINE
  5
2DE
100
AcDbEntity
  8
3
100
AcDbLine
 10
56.4
 20
1.25
 30
0.0
 11
56.4
 21
4.5
 31
0.0
  0
LINE
  5
2DF
100
AcDbEntity
  8
3
100
AcDbLine
 10
59.4
 20
1.25
 30
0.0
 11
56.4
 21
1.25
 31
0.0
  0
LINE
  5
2E0
100
AcDbEntity
  8
3
100
AcDbLine
 10
57.4
 20
4.5
 30
0.0
 11
57.4
 21
5.25
 31
0.0
  0
LINE
  5
2E1
100
AcDbEntity
  8
3
100
AcDbLine
 10
56.4
 20
4.5
 30
0.0
 11
57.4
 21
4.5
 31
0.0
  0
LINE
  5
2E2
100
AcDbEntity
  8
3
100
AcDbLine
 10
57.4
 20
6.0
 30
0.0
 11
57.4
 21
5.25
 31
0.0
  0
LINE
  5
2E3
100
AcDbEntity
  8
3
100
AcDbLine
 10
56.4
 20
6.0
 30
0.0
 11
57.4
 21
6.0
 31
0.0
  0
LINE
  5
2E4
100
AcDbEntity
  8
3
100
AcDbLine
 10
59.4
 20
9.25
 30
0.0
 11
56.4
 21
9.25
 31
0.0
  0
CIRCLE
  5
2E5
100
AcDbEntity
  8
3
100
AcDbCircle
 10
18.65
 20
42.250001
 30
0.0
 40
6.0
  0
LINE
  5
2E6
100
AcDbEntity
  8
1
100
AcDbLine
 10
27.65
 20
42.250001
 30
0.0
 11
8.65
 21
42.250001
 31
0.0
  0
DIMENSION
  5
2E7
100
AcDbEntity
  8
0
100
AcDbDimension
  2
*D0
 10
22.333644
 20
37.513888
 30
0.0
 11
3.4
 21
55.75
 31
0.0
 12
-72.85
 22
-73.25
 32
0.0
 70
   131
  3
STANDARD
100
AcDbDiametricDimension
 15
14.966356
 25
46.986114
 35
0.0
 40
0.0
1001
ACAD
1000
DSTYLE
1002
{
1070
    78
1070
     8
1070
   288
1070
     1
1070
   284
1070
     8
1070
   140
1040
2.0
1070
    73
1070
     0
1070
   272
1070
     2
1070
   147
1040
0.1
1070
    42
1040
0.1
1070
    44
1040
0.2
1070
    43
1040
0.4
1070
   271
1070
     2
1070
   141
1040
0.1
1070
    41
1040
2.0
1002
}
  0
DIMENSION
  5
2E8
100
AcDbEntity
  8
0
100
AcDbDimension
  2
*D2
 10
21.350033
 20
43.773096
 30
0.0
 11
3.65
 21
36.75
 31
0.0
 12
-72.85
 22
-73.25
 32
0.0
 70
   131
  3
STANDARD
100
AcDbDiametricDimension
 15
15.949967
 25
40.726905
 35
0.0
 40
0.0
1001
ACAD
1000
DSTYLE
1002
{
1070
    78
1070
     8
1070
   288
1070
     1
1070
   284
1070
     8
1070
   140
1040
2.0
1070
    73
1070
     0
1070
   272
1070
     2
1070
   147
1040
0.1
1070
    42
1040
0.1
1070
    44
1040
0.2
1070
    43
1040
0.4
1070
   271
1070
     2
1070
   141
1040
0.1
1070
    41
1040
2.0
1002
}
  0
DIMENSION
  5
2E9
100
AcDbEntity
  8
0
100
AcDbDimension
  2
*D1
 10
21.882984
 20
39.56899
 30
0.0
 11
3.1
 21
50.75
 31
0.0
 12
-72.85
 22
-73.25
 32
0.0
 70
   131
  3
STANDARD
100
AcDbDiametricDimension
 15
15.417017
 25
44.931011
 35
0.0
 40
0.0
1001
ACAD
1000
DSTYLE
1002
{
1070
    78
1070
     8
1070
   288
1070
     1
1070
   284
1070
     8
1070
   140
1040
2.0
1070
    73
1070
     0
1070
   272
1070
     2
1070
   147
1040
0.1
1070
    42
1040
0.1
1070
    44
1040
0.2
1070
    43
1040
0.4
1070
   271
1070
     2
1070
   141
1040
0.1
1070
    41
1040
2.0
1002
}
  0
CIRCLE
  5
2EA
100
AcDbEntity
  8
3
100
AcDbCircle
 10
18.65
 20
42.250001
 30
0.0
 40
3.1
  0
CIRCLE
  5
2EB
100
AcDbEntity
  8
3
100
AcDbCircle
 10
18.65
 20
42.250001
 30
0.0
 40
4.2
  0
LINE
  5
2EC
100
AcDbEntity
  8
1
100
AcDbLine
 10
18.65
 20
51.5
 30
0.0
 11
18.65
 21
33.0
 31
0.0
  0
DIMENSION
  5
2ED
100
AcDbEntity
  8
0
100
AcDbDimension
  2
*D4
 10
58.4
 20
64.25
 30
0.0
 11
56.9
 21
64.25
 31
0.0
 12
-72.85
 22
-73.25
 32
0.0
 70
   128
  3
STANDARD
100
AcDbAlignedDimension
 13
55.4
 23
47.25
 33
0.0
 14
58.4
 24
46.45
 34
0.0
100
AcDbRotatedDimension
1001
ACAD
1000
DSTYLE
1002
{
1070
    78
1070
     8
1070
   288
1070
     1
1070
   284
1070
     8
1070
   140
1040
2.0
1070
    73
1070
     0
1070
   272
1070
     2
1070
   147
1040
0.1
1070
    42
1040
0.1
1070
    44
1040
0.2
1070
    43
1040
0.4
1070
   271
1070
     2
1070
   141
1040
0.1
1070
    41
1040
2.0
1002
}
  0
DIMENSION
  5
2EE
100
AcDbEntity
  8
0
100
AcDbDimension
  2
*D6
 10
56.4
 20
37.25
 30
0.0
 11
45.4
 21
30.75
 31
0.0
 12
-72.85
 22
-73.25
 32
0.0
 70
   132
  3
STANDARD
100
AcDbRadialDimension
 15
55.644311
 25
36.59507
 35
0.0
 40
0.0
1001
ACAD
1000
DSTYLE
1002
{
1070
    78
1070
     8
1070
   288
1070
     1
1070
   284
1070
     8
1070
   140
1040
2.0
1070
    73
1070
     0
1070
   272
1070
     2
1070
   147
1040
0.1
1070
    42
1040
0.1
1070
    44
1040
0.2
1070
    43
1040
0.4
1070
   271
1070
     2
1070
   141
1040
0.1
1070
    41
1040
2.0
1002
}
  0
LINE
  5
2EF
100
AcDbEntity
  8
3
100
AcDbLine
 10
58.4
 20
39.15
 30
0.0
 11
58.4
 21
42.25
 31
0.0
  0
LINE
  5
2F0
102
{ACAD_REACTORS
330
2CD
102
}
100
AcDbEntity
  8
3
100
AcDbLine
 10
55.4
 20
37.25
 30
0.0
 11
55.4
 21
42.25
 31
0.0
  0
LINE
  5
2F1
102
{ACAD_REACTORS
330
2CD
102
}
100
AcDbEntity
  8
3
100
AcDbLine
 10
58.4
 20
38.05
 30
0.0
 11
55.4
 21
38.05
 31
0.0
  0
ARC
  5
2F2
102
{ACAD_REACTORS
330
2CD
102
}
100
AcDbEntity
  8
3
100
AcDbCircle
 10
56.4
 20
37.25
 30
0.0
 40
1.0
100
AcDbArc
 50
180.0
 51
270.0
  0
LINE
  5
2F3
102
{ACAD_REACTORS
330
2CD
102
}
100
AcDbEntity
  8
3
100
AcDbLine
 10
58.4
 20
39.15
 30
0.0
 11
58.4
 21
38.05
 31
0.0
  0
ARC
  5
2F4
100
AcDbEntity
  8
3
100
AcDbCircle
 10
56.4
 20
47.25
 30
0.0
 40
1.0
100
AcDbArc
 50
90.0
 51
180.0
  0
LINE
  5
2F5
100
AcDbEntity
  8
3
100
AcDbLine
 10
58.4
 20
46.45
 30
0.0
 11
55.4
 21
46.45
 31
0.0
  0
LINE
  5
2F6
100
AcDbEntity
  8
3
100
AcDbLine
 10
55.4
 20
47.25
 30
0.0
 11
55.4
 21
42.25
 31
0.0
  0
LINE
  5
2F7
100
AcDbEntity
  8
3
100
AcDbLine
 10
58.4
 20
45.35
 30
0.0
 11
58.4
 21
42.25
 31
0.0
  0
LINE
  5
2F8
100
AcDbEntity
  8
3
100
AcDbLine
 10
58.4
 20
45.35
 30
0.0
 11
58.4
 21
46.45
 31
0.0
  0
DIMENSION
  5
2F9
100
AcDbEntity
  8
0
100
AcDbDimension
  2
*D7
 10
72.4
 20
37.25
 30
0.0
 11
83.15
 21
23.5
 31
0.0
 12
-72.85
 22
-73.25
 32
0.0
 70
   132
  3
STANDARD
100
AcDbRadialDimension
 15
72.866409
 25
36.365431
 35
0.0
 40
0.0
1001
ACAD
1000
DSTYLE
1002
{
1070
    78
1070
     8
1070
   288
1070
     1
1070
   284
1070
     8
1070
   140
1040
2.0
1070
    73
1070
     0
1070
   272
1070
     2
1070
   147
1040
0.1
1070
    42
1040
0.1
1070
    44
1040
0.2
1070
    43
1040
0.4
1070
   271
1070
     2
1070
   141
1040
0.1
1070
    41
1040
2.0
1002
}
  0
DIMENSION
  5
2FA
100
AcDbEntity
  8
0
100
AcDbDimension
  2
*D11
 10
124.199562
 20
3.32334
 30
0.0
 11
108.9
 21
13.0
 31
0.0
 12
-72.85
 22
-73.25
 32
0.0
 70
   131
  3
STANDARD
100
AcDbDiametricDimension
 15
119.600439
 25
7.17666
 35
0.0
 40
0.0
1001
ACAD
1000
DSTYLE
1002
{
1070
    78
1070
     8
1070
   288
1070
     1
1070
   284
1070
     8
1070
   140
1040
2.0
1070
    73
1070
     0
1070
   272
1070
     2
1070
   147
1040
0.1
1070
    42
1040
0.1
1070
    44
1040
0.2
1070
    43
1040
0.4
1070
   271
1070
     2
1070
   141
1040
0.1
1070
    41
1040
2.0
1002
}
  0
LINE
  5
2FB
100
AcDbEntity
  8
1
100
AcDbLine
 10
77.65
 20
5.25
 30
0.0
 11
85.9
 21
5.25
 31
0.0
  0
LINE
  5
2FC
100
AcDbEntity
  8
3
100
AcDbLine
 10
83.4
 20
2.75
 30
0.0
 11
75.4
 21
2.75
 31
0.0
  0
LINE
  5
2FD
100
AcDbEntity
  8
3
100
AcDbLine
 10
84.15
 20
3.5
 30
0.0
 11
76.15
 21
3.5
 31
0.0
  0
LINE
  5
2FE
100
AcDbEntity
  8
3
100
AcDbLine
 10
84.15
 20
7.0
 30
0.0
 11
76.15
 21
7.0
 31
0.0
  0
LINE
  5
2FF
100
AcDbEntity
  8
3
100
AcDbLine
 10
83.4
 20
7.75
 30
0.0
 11
75.4
 21
7.75
 31
0.0
  0
LINE
  5
300
100
AcDbEntity
  8
3
100
AcDbLine
 10
76.15
 20
5.25
 30
0.0
 11
76.15
 21
2.75
 31
0.0
  0
LINE
  5
301
100
AcDbEntity
  8
3
100
AcDbLine
 10
75.4
 20
5.25
 30
0.0
 11
75.4
 21
2.25
 31
0.0
  0
LINE
  5
302
100
AcDbEntity
  8
3
100
AcDbLine
 10
75.4
 20
5.25
 30
0.0
 11
75.4
 21
8.25
 31
0.0
  0
LINE
  5
303
100
AcDbEntity
  8
3
100
AcDbLine
 10
76.15
 20
5.25
 30
0.0
 11
76.15
 21
7.75
 31
0.0
  0
LINE
  5
304
100
AcDbEntity
  8
3
100
AcDbLine
 10
84.4
 20
6.75
 30
0.0
 11
83.4
 21
7.75
 31
0.0
  0
LINE
  5
305
100
AcDbEntity
  8
3
100
AcDbLine
 10
84.4
 20
3.75
 30
0.0
 11
83.4
 21
2.75
 31
0.0
  0
LINE
  5
306
100
AcDbEntity
  8
3
100
AcDbLine
 10
83.4
 20
5.25
 30
0.0
 11
83.4
 21
2.75
 31
0.0
  0
LINE
  5
307
100
AcDbEntity
  8
3
100
AcDbLine
 10
83.4
 20
5.25
 30
0.0
 11
83.4
 21
7.75
 31
0.0
  0
LINE
  5
308
100
AcDbEntity
  8
3
100
AcDbLine
 10
84.4
 20
5.25
 30
0.0
 11
84.4
 21
3.75
 31
0.0
  0
LINE
  5
309
100
AcDbEntity
  8
3
100
AcDbLine
 10
84.4
 20
5.25
 30
0.0
 11
84.4
 21
6.75
 31
0.0
  0
LINE
  5
30A
100
AcDbEntity
  8
1
100
AcDbLine
 10
121.9
 20
10.25
 30
0.0
 11
121.9
 21
0.0
 31
0.0
  0
CIRCLE
  5
30B
100
AcDbEntity
  8
3
100
AcDbCircle
 10
121.9
 20
5.25
 30
0.0
 40
4.0
  0
LINE
  5
30C
100
AcDbEntity
  8
1
100
AcDbLine
 10
116.4
 20
5.25
 30
0.0
 11
127.65
 21
5.25
 31
0.0
  0
CIRCLE
  5
30D
100
AcDbEntity
  8
3
100
AcDbCircle
 10
121.9
 20
5.25
 30
0.0
 40
2.5
  0
CIRCLE
  5
30E
100
AcDbEntity
  8
3
100
AcDbCircle
 10
121.9
 20
5.25
 30
0.0
 40
1.75
  0
CIRCLE
  5
30F
100
AcDbEntity
  8
3
100
AcDbCircle
 10
121.9
 20
5.25
 30
0.0
 40
3.0
  0
DIMENSION
  5
310
100
AcDbEntity
  8
0
100
AcDbDimension
  2
*D9
 10
111.368999
 20
40.761025
 30
0.0
 11
92.9
 21
48.0
 31
0.0
 12
-72.85
 22
-73.25
 32
0.0
 70
   131
  3
STANDARD
100
AcDbDiametricDimension
 15
105.931002
 25
43.738976
 35
0.0
 40
0.0
1001
ACAD
1000
DSTYLE
1002
{
1070
    78
1070
     8
1070
   288
1070
     1
1070
   284
1070
     8
1070
   140
1040
2.0
1070
    73
1070
     0
1070
   272
1070
     2
1070
   147
1040
0.1
1070
    42
1040
0.1
1070
    44
1040
0.2
1070
    43
1040
0.4
1070
   271
1070
     2
1070
   141
1040
0.1
1070
    41
1040
2.0
1002
}
  0
DIMENSION
  5
311
100
AcDbEntity
  8
0
100
AcDbDimension
  2
*D8
 10
112.038103
 20
37.298157
 30
0.0
 11
94.15
 21
56.5
 31
0.0
 12
-72.85
 22
-73.25
 32
0.0
 70
   131
  3
STANDARD
100
AcDbDiametricDimension
 15
105.261897
 25
47.201844
 35
0.0
 40
0.0
1001
ACAD
1000
DSTYLE
1002
{
1070
    78
1070
     8
1070
   288
1070
     1
1070
   284
1070
     8
1070
   140
1040
2.0
1070
    73
1070
     0
1070
   272
1070
     2
1070
   147
1040
0.1
1070
    42
1040
0.1
1070
    44
1040
0.2
1070
    43
1040
0.4
1070
   271
1070
     2
1070
   141
1040
0.1
1070
    41
1040
2.0
1002
}
  0
LINE
  5
312
100
AcDbEntity
  8
1
100
AcDbLine
 10
117.65
 20
42.250001
 30
0.0
 11
98.65
 21
42.250001
 31
0.0
  0
CIRCLE
  5
313
100
AcDbEntity
  8
3
100
AcDbCircle
 10
108.65
 20
42.250001
 30
0.0
 40
6.0
  0
CIRCLE
  5
314
100
AcDbEntity
  8
3
100
AcDbCircle
 10
108.65
 20
42.250001
 30
0.0
 40
3.1
  0
LINE
  5
315
100
AcDbEntity
  8
3
100
AcDbLine
 10
73.4
 20
39.15
 30
0.0
 11
73.4
 21
42.25
 31
0.0
  0
ARC
  5
316
102
{ACAD_REACTORS
330
2CD
102
}
100
AcDbEntity
  8
3
100
AcDbCircle
 10
72.4
 20
37.25
 30
0.0
 40
1.0
100
AcDbArc
 50
270.0
 51
0.0
  0
LINE
  5
317
102
{ACAD_REACTORS
330
2CD
102
}
100
AcDbEntity
  8
3
100
AcDbLine
 10
73.4
 20
37.25
 30
0.0
 11
73.4
 21
39.15
 31
0.0
  0
LINE
  5
318
100
AcDbEntity
  8
3
100
AcDbLine
 10
73.4
 20
47.25
 30
0.0
 11
73.4
 21
45.35
 31
0.0
  0
LINE
  5
319
100
AcDbEntity
  8
3
100
AcDbLine
 10
73.4
 20
45.35
 30
0.0
 11
73.4
 21
42.25
 31
0.0
  0
ARC
  5
31A
100
AcDbEntity
  8
3
100
AcDbCircle
 10
72.4
 20
47.25
 30
0.0
 40
1.0
100
AcDbArc
 50
0.0
 51
90.0
  0
LINE
  5
31B
100
AcDbEntity
  8
1
100
AcDbLine
 10
108.65
 20
51.5
 30
0.0
 11
108.65
 21
33.0
 31
0.0
  0
ENDBLK
  5
31D
100
AcDbEntity
  8
0
100
AcDbBlockEnd
  0
BLOCK
  5
3F1
100
AcDbEntity
  8
0
100
AcDbBlockBegin
  2
*D13
 70
     1
 10
0.0
 20
0.0
 30
0.0
  3
*D13
  1

  0
LINE
  5
3F2
100
AcDbEntity
  8
0
  6
BYBLOCK
 62
     0
100
AcDbLine
 10
114.3173
 20
82.315081
 30
0.0
 11
114.3173
 21
97.215081
 31
0.0
  0
LINE
  5
3F3
100
AcDbEntity
  8
0
  6
BYBLOCK
 62
     0
100
AcDbLine
 10
129.3173
 20
83.115081
 30
0.0
 11
129.3173
 21
97.215081
 31
0.0
  0
LINE
  5
3F4
100
AcDbEntity
  8
0
  6
BYBLOCK
 62
     0
100
AcDbLine
 10
116.3173
 20
97.015081
 30
0.0
 11
116.4173
 21
97.015081
 31
0.0
  0
LINE
  5
3F5
100
AcDbEntity
  8
0
  6
BYBLOCK
 62
     0
100
AcDbLine
 10
127.3173
 20
97.015081
 30
0.0
 11
127.2173
 21
97.015081
 31
0.0
  0
MTEXT
  5
3F6
100
AcDbEntity
  8
0
  6
BYBLOCK
 62
     0
100
AcDbMText
 10
121.8173
 20
97.015081
 30
0.0
 40
10.0
 41
0.0
 71
     5
 72
     1
  1
\A1;15
  7
BIGFONT
  0
SOLID
  5
3F7
100
AcDbEntity
  8
0
  6
BYBLOCK
 62
     0
100
AcDbTrace
 10
116.3173
 20
97.348414
 30
0.0
 11
116.3173
 21
96.681748
 31
0.0
 12
114.3173
 22
97.015081
 32
0.0
 13
114.3173
 23
97.015081
 33
0.0
  0
SOLID
  5
3F8
100
AcDbEntity
  8
0
  6
BYBLOCK
 62
     0
100
AcDbTrace
 10
127.3173
 20
97.348414
 30
0.0
 11
127.3173
 21
96.681748
 31
0.0
 12
129.3173
 22
97.015081
 32
0.0
 13
129.3173
 23
97.015081
 33
0.0
  0
POINT
  5
3F9
100
AcDbEntity
  8
DEFPOINTS
  6
BYBLOCK
 62
     0
100
AcDbPoint
 10
114.3173
 20
82.215081
 30
0.0
  0
POINT
  5
3FA
100
AcDbEntity
  8
DEFPOINTS
  6
BYBLOCK
 62
     0
100
AcDbPoint
 10
129.3173
 20
83.015081
 30
0.0
  0
POINT
  5
3FB
100
AcDbEntity
  8
DEFPOINTS
  6
BYBLOCK
 62
     0
100
AcDbPoint
 10
129.3173
 20
97.015081
 30
0.0
  0
ENDBLK
  5
3FC
100
AcDbEntity
  8
0
100
AcDbBlockEnd
  0
BLOCK
  5
3FD
100
AcDbEntity
  8
0
100
AcDbBlockBegin
  2
*D14
 70
     1
 10
0.0
 20
0.0
 30
0.0
  3
*D14
  1

  0
LINE
  5
3FE
100
AcDbEntity
  8
0
  6
BYBLOCK
 62
     0
100
AcDbLine
 10
111.3173
 20
83.115081
 30
0.0
 11
111.3173
 21
106.465081
 31
0.0
  0
LINE
  5
3FF
100
AcDbEntity
  8
0
  6
BYBLOCK
 62
     0
100
AcDbLine
 10
129.3173
 20
83.115081
 30
0.0
 11
129.3173
 21
106.465081
 31
0.0
  0
LINE
  5
400
100
AcDbEntity
  8
0
  6
BYBLOCK
 62
     0
100
AcDbLine
 10
113.3173
 20
106.265081
 30
0.0
 11
113.4173
 21
106.265081
 31
0.0
  0
LINE
  5
401
100
AcDbEntity
  8
0
  6
BYBLOCK
 62
     0
100
AcDbLine
 10
127.3173
 20
106.265081
 30
0.0
 11
126.833966
 21
106.265081
 31
0.0
  0
MTEXT
  5
402
100
AcDbEntity
  8
0
  6
BYBLOCK
 62
     0
100
AcDbMText
 10
120.0673
 20
106.265081
 30
0.0
 40
10.0
 41
0.0
 71
     5
 72
     1
  1
\A1;18
  7
BIGFONT
  0
SOLID
  5
403
100
AcDbEntity
  8
0
  6
BYBLOCK
 62
     0
100
AcDbTrace
 10
113.3173
 20
106.598414
 30
0.0
 11
113.3173
 21
105.931748
 31
0.0
 12
111.3173
 22
106.265081
 32
0.0
 13
111.3173
 23
106.265081
 33
0.0
  0
SOLID
  5
404
100
AcDbEntity
  8
0
  6
BYBLOCK
 62
     0
100
AcDbTrace
 10
127.3173
 20
106.598414
 30
0.0
 11
127.3173
 21
105.931748
 31
0.0
 12
129.3173
 22
106.265081
 32
0.0
 13
129.3173
 23
106.265081
 33
0.0
  0
POINT
  5
405
100
AcDbEntity
  8
DEFPOINTS
  6
BYBLOCK
 62
     0
100
AcDbPoint
 10
111.3173
 20
83.015081
 30
0.0
  0
POINT
  5
406
100
AcDbEntity
  8
DEFPOINTS
  6
BYBLOCK
 62
     0
100
AcDbPoint
 10
129.3173
 20
83.015081
 30
0.0
  0
POINT
  5
407
100
AcDbEntity
  8
DEFPOINTS
  6
BYBLOCK
 62
     0
100
AcDbPoint
 10
129.3173
 20
106.265081
 30
0.0
  0
ENDBLK
  5
408
100
AcDbEntity
  8
0
100
AcDbBlockEnd
  0
BLOCK
  5
409
100
AcDbEntity
  8
0
100
AcDbBlockBegin
  2
*D15
 70
     1
 10
0.0
 20
0.0
 30
0.0
  3
*D15
  1

  0
LINE
  5
40A
100
AcDbEntity
  8
0
  6
BYBLOCK
 62
     0
100
AcDbLine
 10
112.2173
 20
41.765081
 30
0.0
 11
92.9673
 21
41.765081
 31
0.0
  0
LINE
  5
40B
100
AcDbEntity
  8
0
  6
BYBLOCK
 62
     0
100
AcDbLine
 10
112.2173
 20
40.265081
 30
0.0
 11
92.9673
 21
40.265081
 31
0.0
  0
LINE
  5
40C
100
AcDbEntity
  8
0
  6
BYBLOCK
 62
     0
100
AcDbLine
 10
93.1673
 20
43.765081
 30
0.0
 11
93.1673
 21
45.765081
 31
0.0
  0
LINE
  5
40D
100
AcDbEntity
  8
0
  6
BYBLOCK
 62
     0
100
AcDbLine
 10
93.1673
 20
38.265081
 30
0.0
 11
93.1673
 21
36.265081
 31
0.0
  0
MTEXT
  5
40E
100
AcDbEntity
  8
0
  6
BYBLOCK
 62
     0
100
AcDbMText
 10
97.3173
 20
46.515081
 30
0.0
 40
10.0
 41
0.0
 71
     5
 72
     1
  1
\A1;1.5
  7
BIGFONT
  0
LINE
  5
40F
100
AcDbEntity
  8
0
  6
BYBLOCK
 62
     0
100
AcDbLine
 10
93.1673
 20
41.765081
 30
0.0
 11
93.1673
 21
40.265081
 31
0.0
  0
SOLID
  5
410
100
AcDbEntity
  8
0
  6
BYBLOCK
 62
     0
100
AcDbTrace
 10
92.833966
 20
43.765081
 30
0.0
 11
93.500633
 21
43.765081
 31
0.0
 12
93.1673
 22
41.765081
 32
0.0
 13
93.1673
 23
41.765081
 33
0.0
  0
SOLID
  5
411
100
AcDbEntity
  8
0
  6
BYBLOCK
 62
     0
100
AcDbTrace
 10
92.833966
 20
38.265081
 30
0.0
 11
93.500633
 21
38.265081
 31
0.0
 12
93.1673
 22
40.265081
 32
0.0
 13
93.1673
 23
40.265081
 33
0.0
  0
POINT
  5
412
100
AcDbEntity
  8
DEFPOINTS
  6
BYBLOCK
 62
     0
100
AcDbPoint
 10
112.3173
 20
41.765081
 30
0.0
  0
POINT
  5
413
100
AcDbEntity
  8
DEFPOINTS
  6
BYBLOCK
 62
     0
100
AcDbPoint
 10
112.3173
 20
40.265081
 30
0.0
  0
POINT
  5
414
100
AcDbEntity
  8
DEFPOINTS
  6
BYBLOCK
 62
     0
100
AcDbPoint
 10
93.1673
 20
40.265081
 30
0.0
  0
ENDBLK
  5
415
100
AcDbEntity
  8
0
100
AcDbBlockEnd
  0
BLOCK
  5
416
100
AcDbEntity
  8
0
100
AcDbBlockBegin
  2
*D16
 70
     1
 10
0.0
 20
0.0
 30
0.0
  3
*D16
  1

  0
LINE
  5
417
100
AcDbEntity
  8
0
  6
BYBLOCK
 62
     0
100
AcDbLine
 10
77.023062
 20
74.857673
 30
0.0
 11
72.111537
 21
81.17249
 31
0.0
  0
MTEXT
  5
418
100
AcDbEntity
  8
0
  6
BYBLOCK
 62
     0
100
AcDbMText
 10
59.3173
 20
91.515081
 30
0.0
 40
10.0
 41
0.0
 71
     5
 72
     1
  1
\A1;\U+220512
  7
BIGFONT
  0
SOLID
  5
419
100
AcDbEntity
  8
0
  6
BYBLOCK
 62
     0
100
AcDbTrace
 10
77.286179
 20
75.062319
 30
0.0
 11
76.759944
 21
74.653026
 31
0.0
 12
78.250943
 22
73.278968
 32
0.0
 13
78.250943
 23
73.278968
 33
0.0
  0
SOLID
  5
41A
100
AcDbEntity
  8
0
  6
BYBLOCK
 62
     0
100
AcDbTrace
 10
72.374655
 20
81.377137
 30
0.0
 11
71.84842
 21
80.967843
 31
0.0
 12
70.883656
 22
82.751194
 32
0.0
 13
70.883656
 23
82.751194
 33
0.0
  0
POINT
  5
41B
100
AcDbEntity
  8
DEFPOINTS
  6
BYBLOCK
 62
     0
100
AcDbPoint
 10
70.883656
 20
82.751194
 30
0.0
  0
POINT
  5
41C
100
AcDbEntity
  8
DEFPOINTS
  6
BYBLOCK
 62
     0
100
AcDbPoint
 10
78.250943
 20
73.278968
 30
0.0
  0
ENDBLK
  5
41D
100
AcDbEntity
  8
0
100
AcDbBlockEnd
  0
BLOCK
  5
41E
100
AcDbEntity
  8
0
100
AcDbBlockBegin
  2
*D17
 70
     1
 10
0.0
 20
0.0
 30
0.0
  3
*D17
  1

  0
LINE
  5
41F
100
AcDbEntity
  8
0
  6
BYBLOCK
 62
     0
100
AcDbLine
 10
75.525376
 20
78.555534
 30
0.0
 11
73.609223
 21
77.474628
 31
0.0
  0
MTEXT
  5
420
100
AcDbEntity
  8
0
  6
BYBLOCK
 62
     0
100
AcDbMText
 10
59.5673
 20
72.515081
 30
0.0
 40
10.0
 41
0.0
 71
     5
 72
     1
  1
\A1;\U+22056.2
  7
BIGFONT
  0
SOLID
  5
421
100
AcDbEntity
  8
0
  6
BYBLOCK
 62
     0
100
AcDbTrace
 10
75.361602
 20
78.845861
 30
0.0
 11
75.68915
 21
78.265208
 31
0.0
 12
77.267333
 22
79.538177
 32
0.0
 13
77.267333
 23
79.538177
 33
0.0
  0
SOLID
  5
422
100
AcDbEntity
  8
0
  6
BYBLOCK
 62
     0
100
AcDbTrace
 10
73.445449
 20
77.764954
 30
0.0
 11
73.772997
 21
77.184302
 31
0.0
 12
71.867266
 22
76.491985
 32
0.0
 13
71.867266
 23
76.491985
 33
0.0
  0
POINT
  5
423
100
AcDbEntity
  8
DEFPOINTS
  6
BYBLOCK
 62
     0
100
AcDbPoint
 10
71.867266
 20
76.491985
 30
0.0
  0
POINT
  5
424
100
AcDbEntity
  8
DEFPOINTS
  6
BYBLOCK
 62
     0
100
AcDbPoint
 10
77.267333
 20
79.538177
 30
0.0
  0
ENDBLK
  5
425
100
AcDbEntity
  8
0
100
AcDbBlockEnd
  0
BLOCK
  5
426
100
AcDbEntity
  8
0
100
AcDbBlockBegin
  2
*D18
 70
     1
 10
0.0
 20
0.0
 30
0.0
  3
*D18
  1

  0
LINE
  5
427
100
AcDbEntity
  8
0
  6
BYBLOCK
 62
     0
100
AcDbLine
 10
76.260767
 20
76.610742
 30
0.0
 11
72.873832
 21
79.41942
 31
0.0
  0
MTEXT
  5
428
100
AcDbEntity
  8
0
  6
BYBLOCK
 62
     0
100
AcDbMText
 10
59.0173
 20
86.515081
 30
0.0
 40
10.0
 41
0.0
 71
     5
 72
     1
  1
\A1;\U+22058.4
  7
BIGFONT
  0
SOLID
  5
429
100
AcDbEntity
  8
0
  6
BYBLOCK
 62
     0
100
AcDbTrace
 10
76.473546
 20
76.867328
 30
0.0
 11
76.047988
 21
76.354156
 31
0.0
 12
77.800283
 22
75.334071
 32
0.0
 13
77.800283
 23
75.334071
 33
0.0
  0
SOLID
  5
42A
100
AcDbEntity
  8
0
  6
BYBLOCK
 62
     0
100
AcDbTrace
 10
73.086611
 20
79.676006
 30
0.0
 11
72.661053
 21
79.162834
 31
0.0
 12
71.334316
 22
80.696092
 32
0.0
 13
71.334316
 23
80.696092
 33
0.0
  0
POINT
  5
42B
100
AcDbEntity
  8
DEFPOINTS
  6
BYBLOCK
 62
     0
100
AcDbPoint
 10
71.334316
 20
80.696092
 30
0.0
  0
POINT
  5
42C
100
AcDbEntity
  8
DEFPOINTS
  6
BYBLOCK
 62
     0
100
AcDbPoint
 10
77.800283
 20
75.334071
 30
0.0
  0
ENDBLK
  5
42D
100
AcDbEntity
  8
0
100
AcDbBlockEnd
  0
BLOCK
  5
42E
100
AcDbEntity
  8
0
100
AcDbBlockBegin
  2
*D19
 70
     1
 10
0.0
 20
0.0
 30
0.0
  3
*D19
  1

  0
LINE
  5
42F
100
AcDbEntity
  8
0
  6
BYBLOCK
 62
     0
100
AcDbLine
 10
111.3173
 20
83.115081
 30
0.0
 11
111.3173
 21
100.215081
 31
0.0
  0
LINE
  5
430
100
AcDbEntity
  8
0
  6
BYBLOCK
 62
     0
100
AcDbLine
 10
114.3173
 20
82.315081
 30
0.0
 11
114.3173
 21
100.215081
 31
0.0
  0
LINE
  5
431
100
AcDbEntity
  8
0
  6
BYBLOCK
 62
     0
100
AcDbLine
 10
109.3173
 20
100.015081
 30
0.0
 11
107.3173
 21
100.015081
 31
0.0
  0
LINE
  5
432
100
AcDbEntity
  8
0
  6
BYBLOCK
 62
     0
100
AcDbLine
 10
116.3173
 20
100.015081
 30
0.0
 11
118.3173
 21
100.015081
 31
0.0
  0
MTEXT
  5
433
100
AcDbEntity
  8
0
  6
BYBLOCK
 62
     0
100
AcDbMText
 10
112.8173
 20
100.015081
 30
0.0
 40
10.0
 41
0.0
 71
     5
 72
     1
  1
\A1;3
  7
BIGFONT
  0
LINE
  5
434
100
AcDbEntity
  8
0
  6
BYBLOCK
 62
     0
100
AcDbLine
 10
111.3173
 20
100.015081
 30
0.0
 11
114.3173
 21
100.015081
 31
0.0
  0
SOLID
  5
435
100
AcDbEntity
  8
0
  6
BYBLOCK
 62
     0
100
AcDbTrace
 10
109.3173
 20
100.348414
 30
0.0
 11
109.3173
 21
99.681748
 31
0.0
 12
111.3173
 22
100.015081
 32
0.0
 13
111.3173
 23
100.015081
 33
0.0
  0
SOLID
  5
436
100
AcDbEntity
  8
0
  6
BYBLOCK
 62
     0
100
AcDbTrace
 10
116.3173
 20
100.348414
 30
0.0
 11
116.3173
 21
99.681748
 31
0.0
 12
114.3173
 22
100.015081
 32
0.0
 13
114.3173
 23
100.015081
 33
0.0
  0
POINT
  5
437
100
AcDbEntity
  8
DEFPOINTS
  6
BYBLOCK
 62
     0
100
AcDbPoint
 10
111.3173
 20
83.015081
 30
0.0
  0
POINT
  5
438
100
AcDbEntity
  8
DEFPOINTS
  6
BYBLOCK
 62
     0
100
AcDbPoint
 10
114.3173
 20
82.215081
 30
0.0
  0
POINT
  5
439
100
AcDbEntity
  8
DEFPOINTS
  6
BYBLOCK
 62
     0
100
AcDbPoint
 10
114.3173
 20
100.015081
 30
0.0
  0
ENDBLK
  5
43A
100
AcDbEntity
  8
0
100
AcDbBlockEnd
  0
BLOCK
  5
43B
100
AcDbEntity
  8
0
100
AcDbBlockBegin
  2
*D20
 70
     1
 10
0.0
 20
0.0
 30
0.0
  3
*D20
  1

  0
LINE
  5
43C
100
AcDbEntity
  8
0
  6
BYBLOCK
 62
     0
100
AcDbLine
 10
110.050232
 20
71.050289
 30
0.0
 11
108.538854
 21
69.740428
 31
0.0
  0
MTEXT
  5
43D
100
AcDbEntity
  8
0
  6
BYBLOCK
 62
     0
100
AcDbMText
 10
101.3173
 20
66.515081
 30
0.0
 40
10.0
 41
0.0
 71
     5
 72
     1
  1
\A1;R1
  7
BIGFONT
  0
SOLID
  5
43E
100
AcDbEntity
  8
0
  6
BYBLOCK
 62
     0
100
AcDbTrace
 10
109.831922
 20
71.302186
 30
0.0
 11
110.268542
 21
70.798393
 31
0.0
 12
111.56161
 22
72.36015
 32
0.0
 13
111.56161
 23
72.36015
 33
0.0
  0
LINE
  5
43F
100
AcDbEntity
  8
0
  6
BYBLOCK
 62
     0
100
AcDbLine
 10
112.2173
 20
73.015081
 30
0.0
 11
112.4173
 21
73.015081
 31
0.0
  0
LINE
  5
440
100
AcDbEntity
  8
0
  6
BYBLOCK
 62
     0
100
AcDbLine
 10
112.3173
 20
72.915081
 30
0.0
 11
112.3173
 21
73.115081
 31
0.0
  0
POINT
  5
441
100
AcDbEntity
  8
DEFPOINTS
  6
BYBLOCK
 62
     0
100
AcDbPoint
 10
111.56161
 20
72.36015
 30
0.0
  0
POINT
  5
442
100
AcDbEntity
  8
DEFPOINTS
  6
BYBLOCK
 62
     0
100
AcDbPoint
 10
112.3173
 20
73.015081
 30
0.0
  0
ENDBLK
  5
443
100
AcDbEntity
  8
0
100
AcDbBlockEnd
  0
BLOCK
  5
444
100
AcDbEntity
  8
0
100
AcDbBlockBegin
  2
*D21
 70
     1
 10
0.0
 20
0.0
 30
0.0
  3
*D21
  1

  0
LINE
  5
445
100
AcDbEntity
  8
0
  6
BYBLOCK
 62
     0
100
AcDbLine
 10
129.716527
 20
70.361374
 30
0.0
 11
130.649345
 21
68.592235
 31
0.0
  0
MTEXT
  5
446
100
AcDbEntity
  8
0
  6
BYBLOCK
 62
     0
100
AcDbMText
 10
139.0673
 20
59.265081
 30
0.0
 40
10.0
 41
0.0
 71
     5
 72
     1
  1
\A1;R1
  7
BIGFONT
  0
SOLID
  5
447
100
AcDbEntity
  8
0
  6
BYBLOCK
 62
     0
100
AcDbTrace
 10
130.011383
 20
70.516843
 30
0.0
 11
129.421671
 21
70.205904
 31
0.0
 12
128.783709
 22
72.130512
 32
0.0
 13
128.783709
 23
72.130512
 33
0.0
  0
LINE
  5
448
100
AcDbEntity
  8
0
  6
BYBLOCK
 62
     0
100
AcDbLine
 10
128.2173
 20
73.015081
 30
0.0
 11
128.4173
 21
73.015081
 31
0.0
  0
LINE
  5
449
100
AcDbEntity
  8
0
  6
BYBLOCK
 62
     0
100
AcDbLine
 10
128.3173
 20
72.915081
 30
0.0
 11
128.3173
 21
73.115081
 31
0.0
  0
POINT
  5
44A
100
AcDbEntity
  8
DEFPOINTS
  6
BYBLOCK
 62
     0
100
AcDbPoint
 10
128.783709
 20
72.130512
 30
0.0
  0
POINT
  5
44B
100
AcDbEntity
  8
DEFPOINTS
  6
BYBLOCK
 62
     0
100
AcDbPoint
 10
128.3173
 20
73.015081
 30
0.0
  0
ENDBLK
  5
44C
100
AcDbEntity
  8
0
100
AcDbBlockEnd
  0
BLOCK
  5
44D
100
AcDbEntity
  8
0
100
AcDbBlockBegin
  2
*D22
 70
     1
 10
0.0
 20
0.0
 30
0.0
  3
*D22
  1

  0
LINE
  5
44E
100
AcDbEntity
  8
0
  6
BYBLOCK
 62
     0
100
AcDbLine
 10
178.58382
 20
40.372861
 30
0.0
 11
177.050779
 21
41.6573
 31
0.0
  0
MTEXT
  5
44F
100
AcDbEntity
  8
0
  6
BYBLOCK
 62
     0
100
AcDbMText
 10
164.8173
 20
48.765081
 30
0.0
 40
10.0
 41
0.0
 71
     5
 72
     1
  1
\A1;\U+22056
  7
BIGFONT
  0
SOLID
  5
450
100
AcDbEntity
  8
0
  6
BYBLOCK
 62
     0
100
AcDbTrace
 10
178.797893
 20
40.628368
 30
0.0
 11
178.369747
 21
40.117354
 31
0.0
 12
180.116861
 22
39.088421
 32
0.0
 13
180.116861
 23
39.088421
 33
0.0
  0
SOLID
  5
451
100
AcDbEntity
  8
0
  6
BYBLOCK
 62
     0
100
AcDbTrace
 10
177.264852
 20
41.912807
 30
0.0
 11
176.836706
 21
41.401794
 31
0.0
 12
175.517738
 22
42.94174
 32
0.0
 13
175.517738
 23
42.94174
 33
0.0
  0
POINT
  5
452
100
AcDbEntity
  8
DEFPOINTS
  6
BYBLOCK
 62
     0
100
AcDbPoint
 10
175.517738
 20
42.94174
 30
0.0
  0
POINT
  5
453
100
AcDbEntity
  8
DEFPOINTS
  6
BYBLOCK
 62
     0
100
AcDbPoint
 10
180.116861
 20
39.088421
 30
0.0
  0
ENDBLK
  5
454
100
AcDbEntity
  8
0
100
AcDbBlockEnd
  0
BLOCK
  5
455
100
AcDbEntity
  8
0
100
AcDbBlockBegin
  2
*D23
 70
     1
 10
0.0
 20
0.0
 30
0.0
  3
*D23
  1

  0
LINE
  5
456
100
AcDbEntity
  8
0
  6
BYBLOCK
 62
     0
100
AcDbLine
 10
165.532105
 20
77.486735
 30
0.0
 11
163.602494
 21
78.543427
 31
0.0
  0
MTEXT
  5
457
100
AcDbEntity
  8
0
  6
BYBLOCK
 62
     0
100
AcDbMText
 10
148.8173
 20
83.765081
 30
0.0
 40
10.0
 41
0.0
 71
     5
 72
     1
  1
\A1;\U+22056.2
  7
BIGFONT
  0
SOLID
  5
458
100
AcDbEntity
  8
0
  6
BYBLOCK
 62
     0
100
AcDbTrace
 10
165.69221
 20
77.7791
 30
0.0
 11
165.372001
 21
77.19437
 31
0.0
 12
167.286298
 22
76.526106
 32
0.0
 13
167.286298
 23
76.526106
 33
0.0
  0
SOLID
  5
459
100
AcDbEntity
  8
0
  6
BYBLOCK
 62
     0
100
AcDbTrace
 10
163.762598
 20
78.835793
 30
0.0
 11
163.442389
 21
78.251062
 31
0.0
 12
161.848301
 22
79.504056
 32
0.0
 13
161.848301
 23
79.504056
 33
0.0
  0
POINT
  5
45A
100
AcDbEntity
  8
DEFPOINTS
  6
BYBLOCK
 62
     0
100
AcDbPoint
 10
161.848301
 20
79.504056
 30
0.0
  0
POINT
  5
45B
100
AcDbEntity
  8
DEFPOINTS
  6
BYBLOCK
 62
     0
100
AcDbPoint
 10
167.286298
 20
76.526106
 30
0.0
  0
ENDBLK
  5
45C
100
AcDbEntity
  8
0
100
AcDbBlockEnd
  0
BLOCK
  5
45D
100
AcDbEntity
  8
0
100
AcDbBlockBegin
  2
*D24
 70
     1
 10
0.0
 20
0.0
 30
0.0
  3
*D24
  1

  0
LINE
  5
45E
100
AcDbEntity
  8
0
  6
BYBLOCK
 62
     0
100
AcDbLine
 10
166.826035
 20
74.713852
 30
0.0
 11
162.308564
 21
81.31631
 31
0.0
  0
MTEXT
  5
45F
100
AcDbEntity
  8
0
  6
BYBLOCK
 62
     0
100
AcDbMText
 10
150.0673
 20
92.265081
 30
0.0
 40
10.0
 41
0.0
 71
     5
 72
     1
  1
\A1;\U+220512
  7
BIGFONT
  0
SOLID
  5
460
100
AcDbEntity
  8
0
  6
BYBLOCK
 62
     0
100
AcDbTrace
 10
167.101137
 20
74.90208
 30
0.0
 11
166.550933
 21
74.525624
 31
0.0
 12
167.955403
 22
73.063238
 32
0.0
 13
167.955403
 23
73.063238
 33
0.0
  0
SOLID
  5
461
100
AcDbEntity
  8
0
  6
BYBLOCK
 62
     0
100
AcDbTrace
 10
162.583666
 20
81.504538
 30
0.0
 11
162.033462
 21
81.128082
 31
0.0
 12
161.179196
 22
82.966924
 32
0.0
 13
161.179196
 23
82.966924
 33
0.0
  0
POINT
  5
462
100
AcDbEntity
  8
DEFPOINTS
  6
BYBLOCK
 62
     0
100
AcDbPoint
 10
161.179196
 20
82.966924
 30
0.0
  0
POINT
  5
463
100
AcDbEntity
  8
DEFPOINTS
  6
BYBLOCK
 62
     0
100
AcDbPoint
 10
167.955403
 20
73.063238
 30
0.0
  0
ENDBLK
  5
464
100
AcDbEntity
  8
0
100
AcDbBlockEnd
  0
BLOCK
  5
478
100
AcDbEntity
  8
0
100
AcDbBlockBegin
  2
*D25
 70
     1
 10
0.0
 20
0.0
 30
0.0
  3
*D25
  1

  0
LINE
  5
470
100
AcDbEntity
  8
0
  6
BYBLOCK
 62
     0
100
AcDbLine
 10
184.5
 20
123.0
 30
0.0
 11
186.5
 21
123.0
 31
0.0
  0
LINE
  5
471
100
AcDbEntity
  8
0
  6
BYBLOCK
 62
     0
100
AcDbLine
 10
186.5
 20
123.0
 30
0.0
 11
189.151686
 21
116.812733
 31
0.0
  0
MTEXT
  5
472
100
AcDbEntity
  8
0
  6
BYBLOCK
 62
     0
100
AcDbMText
 10
181.75
 20
123.0
 30
0.0
 40
3.5
 41
0.0
 71
     5
 72
     1
  1
\A1;\U+220513
  0
SOLID
  5
473
100
AcDbEntity
  8
0
  6
BYBLOCK
 62
     0
100
AcDbTrace
 10
189.458068
 20
116.944039
 30
0.0
 11
188.845304
 21
116.681426
 31
0.0
 12
189.939525
 22
114.974443
 32
0.0
 13
189.939525
 23
114.974443
 33
0.0
  0
LINE
  5
474
100
AcDbEntity
  8
0
  6
BYBLOCK
 62
     0
100
AcDbLine
 10
192.4
 20
109.0
 30
0.0
 11
192.6
 21
109.0
 31
0.0
  0
LINE
  5
475
100
AcDbEntity
  8
0
  6
BYBLOCK
 62
     0
100
AcDbLine
 10
192.5
 20
108.9
 30
0.0
 11
192.5
 21
109.1
 31
0.0
  0
POINT
  5
476
100
AcDbEntity
  8
DEFPOINTS
  6
BYBLOCK
 62
     0
100
AcDbPoint
 10
189.939525
 20
114.974443
 30
0.0
  0
POINT
  5
477
100
AcDbEntity
  8
DEFPOINTS
  6
BYBLOCK
 62
     0
100
AcDbPoint
 10
195.060475
 20
103.025557
 30
0.0
  0
ENDBLK
  5
479
100
AcDbEntity
  8
0
100
AcDbBlockEnd
  0
BLOCK
  5
483
100
AcDbEntity
  8
0
100
AcDbBlockBegin
  2
*D26
 70
     1
 10
0.0
 20
0.0
 30
0.0
  3
*D26
  1

  0
LINE
  5
47B
100
AcDbEntity
  8
0
  6
BYBLOCK
 62
     0
100
AcDbLine
 10
183.75
 20
117.5
 30
0.0
 11
185.75
 21
117.5
 31
0.0
  0
LINE
  5
47C
100
AcDbEntity
  8
0
  6
BYBLOCK
 62
     0
100
AcDbLine
 10
185.75
 20
117.5
 30
0.0
 11
188.706519
 21
113.776976
 31
0.0
  0
MTEXT
  5
47D
100
AcDbEntity
  8
0
  6
BYBLOCK
 62
     0
100
AcDbMText
 10
180.5
 20
117.5
 30
0.0
 40
3.5
 41
0.0
 71
     5
 72
     1
  1
\A1;\U+22058.2
  0
SOLID
  5
47E
100
AcDbEntity
  8
0
  6
BYBLOCK
 62
     0
100
AcDbTrace
 10
188.967556
 20
113.98427
 30
0.0
 11
188.445482
 21
113.569682
 31
0.0
 12
189.950283
 22
112.210754
 32
0.0
 13
189.950283
 23
112.210754
 33
0.0
  0
LINE
  5
47F
100
AcDbEntity
  8
0
  6
BYBLOCK
 62
     0
100
AcDbLine
 10
192.4
 20
109.0
 30
0.0
 11
192.6
 21
109.0
 31
0.0
  0
LINE
  5
480
100
AcDbEntity
  8
0
  6
BYBLOCK
 62
     0
100
AcDbLine
 10
192.5
 20
108.9
 30
0.0
 11
192.5
 21
109.1
 31
0.0
  0
POINT
  5
481
100
AcDbEntity
  8
DEFPOINTS
  6
BYBLOCK
 62
     0
100
AcDbPoint
 10
189.950283
 20
112.210754
 30
0.0
  0
POINT
  5
482
100
AcDbEntity
  8
DEFPOINTS
  6
BYBLOCK
 62
     0
100
AcDbPoint
 10
195.049717
 20
105.789246
 30
0.0
  0
ENDBLK
  5
484
100
AcDbEntity
  8
0
100
AcDbBlockEnd
  0
BLOCK
  5
490
100
AcDbEntity
  8
0
100
AcDbBlockBegin
  2
*D27
 70
     1
 10
0.0
 20
0.0
 30
0.0
  3
*D27
  1

  0
LINE
  5
486
100
AcDbEntity
  8
0
  6
BYBLOCK
 62
     0
100
AcDbLine
 10
145.0
 20
114.6
 30
0.0
 11
145.0
 21
128.45
 31
0.0
  0
LINE
  5
487
100
AcDbEntity
  8
0
  6
BYBLOCK
 62
     0
100
AcDbLine
 10
148.0
 20
114.3
 30
0.0
 11
148.0
 21
128.45
 31
0.0
  0
LINE
  5
488
100
AcDbEntity
  8
0
  6
BYBLOCK
 62
     0
100
AcDbLine
 10
143.0
 20
128.25
 30
0.0
 11
141.0
 21
128.25
 31
0.0
  0
LINE
  5
489
100
AcDbEntity
  8
0
  6
BYBLOCK
 62
     0
100
AcDbLine
 10
150.0
 20
128.25
 30
0.0
 11
152.0
 21
128.25
 31
0.0
  0
SOLID
  5
48A
100
AcDbEntity
  8
0
  6
BYBLOCK
 62
     0
100
AcDbTrace
 10
143.0
 20
128.583333
 30
0.0
 11
143.0
 21
127.916667
 31
0.0
 12
145.0
 22
128.25
 32
0.0
 13
145.0
 23
128.25
 33
0.0
  0
SOLID
  5
48B
100
AcDbEntity
  8
0
  6
BYBLOCK
 62
     0
100
AcDbTrace
 10
150.0
 20
128.583333
 30
0.0
 11
150.0
 21
127.916667
 31
0.0
 12
148.0
 22
128.25
 32
0.0
 13
148.0
 23
128.25
 33
0.0
  0
MTEXT
  5
48C
100
AcDbEntity
  8
0
  6
BYBLOCK
 62
     0
100
AcDbMText
 10
146.5
 20
128.25
 30
0.0
 40
3.5
 41
0.0
 71
     5
 72
     1
  1
\A1;3
  0
POINT
  5
48D
100
AcDbEntity
  8
DEFPOINTS
  6
BYBLOCK
 62
     0
100
AcDbPoint
 10
145.0
 20
114.5
 30
0.0
  0
POINT
  5
48E
100
AcDbEntity
  8
DEFPOINTS
  6
BYBLOCK
 62
     0
100
AcDbPoint
 10
148.0
 20
114.2
 30
0.0
  0
POINT
  5
48F
100
AcDbEntity
  8
DEFPOINTS
  6
BYBLOCK
 62
     0
100
AcDbPoint
 10
148.0
 20
128.25
 30
0.0
  0
ENDBLK
  5
491
100
AcDbEntity
  8
0
100
AcDbBlockEnd
  0
BLOCK
  5
4B5
100
AcDbEntity
  8
0
100
AcDbBlockBegin
  2
A$C12173F50
 70
     0
 10
0.0
 20
0.0
 30
0.0
  3
A$C12173F50
  1

  0
CIRCLE
  5
493
100
AcDbEntity
  8
3
100
AcDbCircle
 10
11.75
 20
9.25
 30
0.0
 40
5.2
  0
CIRCLE
  5
494
100
AcDbEntity
  8
3
100
AcDbCircle
 10
11.75
 20
9.25
 30
0.0
 40
6.5
  0
LINE
  5
495
100
AcDbEntity
  8
1
100
AcDbLine
 10
23.75
 20
9.25
 30
0.0
 11
0.0
 21
9.25
 31
0.0
  0
CIRCLE
  5
496
100
AcDbEntity
  8
3
100
AcDbCircle
 10
11.75
 20
9.25
 30
0.0
 40
4.1
  0
LINE
  5
497
100
AcDbEntity
  8
1
100
AcDbLine
 10
11.75
 20
18.75
 30
0.0
 11
11.75
 21
0.0
 31
0.0
  0
DIMENSION
  5
498
100
AcDbEntity
  8
0
100
AcDbDimension
  2
*D26
 10
93.549717
 20
6.039245
 30
0.0
 11
79.0
 21
17.75
 31
0.0
 12
-101.5
 22
-99.75
 32
0.0
 70
   131
  3
STANDARD
100
AcDbDiametricDimension
 15
88.450283
 25
12.460754
 35
0.0
 40
0.0
1001
ACAD
1000
DSTYLE
1002
{
1070
    78
1070
     8
1070
   288
1070
     1
1070
   284
1070
     8
1070
   140
1040
2.0
1070
    73
1070
     0
1070
   272
1070
     2
1070
   147
1040
0.1
1070
    42
1040
0.1
1070
    44
1040
0.2
1070
    43
1040
0.4
1070
   271
1070
     2
1070
   141
1040
0.1
1070
    41
1040
2.0
1002
}
  0
DIMENSION
  5
499
100
AcDbEntity
  8
0
100
AcDbDimension
  2
*D25
 10
93.560476
 20
3.275557
 30
0.0
 11
80.25
 21
23.25
 31
0.0
 12
-101.5
 22
-99.75
 32
0.0
 70
   131
  3
STANDARD
100
AcDbDiametricDimension
 15
88.439525
 25
15.224442
 35
0.0
 40
0.0
1001
ACAD
1000
DSTYLE
1002
{
1070
    78
1070
     8
1070
   288
1070
     1
1070
   284
1070
     8
1070
   140
1040
2.0
1070
    73
1070
     0
1070
   272
1070
     2
1070
   147
1040
0.1
1070
    42
1040
0.1
1070
    44
1040
0.2
1070
    43
1040
0.4
1070
   271
1070
     2
1070
   141
1040
0.1
1070
    41
1040
2.0
1002
}
  0
LINE
  5
49A
100
AcDbEntity
  8
1
100
AcDbLine
 10
103.0
 20
9.25
 30
0.0
 11
79.25
 21
9.25
 31
0.0
  0
DIMENSION
  5
49B
100
AcDbEntity
  8
0
100
AcDbDimension
  2
*D27
 10
46.5
 20
28.5
 30
0.0
 11
45.0
 21
28.5
 31
0.0
 12
-101.5
 22
-99.75
 32
0.0
 70
   128
  3
STANDARD
100
AcDbAlignedDimension
 13
43.5
 23
14.75
 33
0.0
 14
46.5
 24
14.45
 34
0.0
100
AcDbRotatedDimension
1001
ACAD
1000
DSTYLE
1002
{
1070
    78
1070
     8
1070
   288
1070
     1
1070
   284
1070
     8
1070
   140
1040
2.0
1070
    73
1070
     0
1070
   272
1070
     2
1070
   147
1040
0.1
1070
    42
1040
0.1
1070
    44
1040
0.2
1070
    43
1040
0.4
1070
   271
1070
     2
1070
   141
1040
0.1
1070
    41
1040
2.0
1002
}
  0
HATCH
  5
49C
100
AcDbEntity
  8
0
100
AcDbHatch
 10
0.0
 20
0.0
 30
0.0
210
0.0
220
0.0
230
1.0
  2
ANSI31
 70
     0
 71
     1
 91
        1
 92
        7
 72
     1
 73
     1
 93
        8
 10
61.50000016412926
 20
5.149999796013005
 42
0.0
 10
46.5000001641292
 20
5.149999796012991
 42
0.0
 10
46.50000016412923
 20
4.049999796013011
 42
0.0
 10
43.50000016412923
 20
4.049999796013011
 42
0.0
 10
43.50000016412923
 20
3.749999796013
 42
0.4142135623730951
 10
44.50000016412923
 20
2.749999796013
 42
0.0
 10
60.50000016412923
 20
2.749999796012986
 42
0.4142135623730951
 10
61.50000016412923
 20
3.749999796012986
 42
0.0
 97
        8
330
49D
330
4A8
330
4A6
330
4A5
330
4A7
330
49E
330
4AF
330
4AE
 75
     0
 76
     1
 52
0.0
 41
3.0
 77
     0
 78
     1
 53
45.0
 43
-101.5
 44
-99.75
 45
-0.2651650429449553
 46
0.2651650429449553
 79
     0
 47
0.119472
 98
        1
 10
51.75
 20
4.0
  0
LINE
  5
49D
102
{ACAD_REACTORS
330
49C
102
}
100
AcDbEntity
  8
3
100
AcDbLine
 10
61.5
 20
5.15
 30
0.0
 11
46.5
 21
5.15
 31
0.0
  0
LINE
  5
49E
102
{ACAD_REACTORS
330
49C
102
}
100
AcDbEntity
  8
3
100
AcDbLine
 10
44.5
 20
2.75
 30
0.0
 11
60.5
 21
2.75
 31
0.0
  0
LINE
  5
49F
100
AcDbEntity
  8
3
100
AcDbLine
 10
61.5
 20
13.35
 30
0.0
 11
46.5
 21
13.35
 31
0.0
  0
LINE
  5
4A0
100
AcDbEntity
  8
3
100
AcDbLine
 10
44.5
 20
15.75
 30
0.0
 11
60.5
 21
15.75
 31
0.0
  0
LINE
  5
4A1
100
AcDbEntity
  8
1
100
AcDbLine
 10
40.75
 20
9.25
 30
0.0
 11
64.5
 21
9.25
 31
0.0
  0
LINE
  5
4A2
100
AcDbEntity
  8
3
100
AcDbLine
 10
46.5
 20
13.35
 30
0.0
 11
46.5
 21
9.25
 31
0.0
  0
LINE
  5
4A3
100
AcDbEntity
  8
3
100
AcDbLine
 10
43.5
 20
14.75
 30
0.0
 11
43.5
 21
9.25
 31
0.0
  0
LINE
  5
4A4
100
AcDbEntity
  8
3
100
AcDbLine
 10
46.5
 20
5.15
 30
0.0
 11
46.5
 21
9.25
 31
0.0
  0
LINE
  5
4A5
102
{ACAD_REACTORS
330
49C
102
}
100
AcDbEntity
  8
3
100
AcDbLine
 10
43.5
 20
3.75
 30
0.0
 11
43.5
 21
9.25
 31
0.0
  0
LINE
  5
4A6
102
{ACAD_REACTORS
330
49C
102
}
100
AcDbEntity
  8
3
100
AcDbLine
 10
46.5
 20
4.05
 30
0.0
 11
43.5
 21
4.05
 31
0.0
  0
ARC
  5
4A7
102
{ACAD_REACTORS
330
49C
102
}
100
AcDbEntity
  8
3
100
AcDbCircle
 10
44.5
 20
3.75
 30
0.0
 40
1.0
100
AcDbArc
 50
180.0
 51
270.0
  0
LINE
  5
4A8
102
{ACAD_REACTORS
330
49C
102
}
100
AcDbEntity
  8
3
100
AcDbLine
 10
46.5
 20
5.15
 30
0.0
 11
46.5
 21
4.05
 31
0.0
  0
ARC
  5
4A9
100
AcDbEntity
  8
3
100
AcDbCircle
 10
44.5
 20
14.75
 30
0.0
 40
1.0
100
AcDbArc
 50
90.0
 51
180.0
  0
LINE
  5
4AA
100
AcDbEntity
  8
3
100
AcDbLine
 10
46.5
 20
14.45
 30
0.0
 11
43.5
 21
14.45
 31
0.0
  0
LINE
  5
4AB
100
AcDbEntity
  8
3
100
AcDbLine
 10
46.5
 20
13.35
 30
0.0
 11
46.5
 21
14.45
 31
0.0
  0
LINE
  5
4AC
100
AcDbEntity
  8
3
100
AcDbLine
 10
61.5
 20
13.35
 30
0.0
 11
61.5
 21
9.25
 31
0.0
  0
LINE
  5
4AD
100
AcDbEntity
  8
3
100
AcDbLine
 10
61.5
 20
5.15
 30
0.0
 11
61.5
 21
9.25
 31
0.0
  0
LINE
  5
4AE
102
{ACAD_REACTORS
330
49C
102
}
100
AcDbEntity
  8
3
100
AcDbLine
 10
61.5
 20
3.75
 30
0.0
 11
61.5
 21
5.15
 31
0.0
  0
ARC
  5
4AF
102
{ACAD_REACTORS
330
49C
102
}
100
AcDbEntity
  8
3
100
AcDbCircle
 10
60.5
 20
3.75
 30
0.0
 40
1.0
100
AcDbArc
 50
270.0
 51
0.0
  0
ARC
  5
4B0
100
AcDbEntity
  8
3
100
AcDbCircle
 10
60.5
 20
14.75
 30
0.0
 40
1.0
100
AcDbArc
 50
0.0
 51
90.0
  0
LINE
  5
4B1
100
AcDbEntity
  8
3
100
AcDbLine
 10
61.5
 20
14.75
 30
0.0
 11
61.5
 21
13.35
 31
0.0
  0
LINE
  5
4B2
100
AcDbEntity
  8
1
100
AcDbLine
 10
91.0
 20
18.75
 30
0.0
 11
91.0
 21
0.0
 31
0.0
  0
CIRCLE
  5
4B3
100
AcDbEntity
  8
3
100
AcDbCircle
 10
91.0
 20
9.25
 30
0.0
 40
6.5
  0
CIRCLE
  5
4B4
100
AcDbEntity
  8
3
100
AcDbCircle
 10
91.0
 20
9.25
 30
0.0
 40
4.1
  0
ENDBLK
  5
4B6
100
AcDbEntity
  8
0
100
AcDbBlockEnd
  0
BLOCK
  5
4FA
100
AcDbEntity
  8
0
100
AcDbBlockBegin
  2
*D29
 70
     1
 10
0.0
 20
0.0
 30
0.0
  3
*D29
  1

  0
LINE
  5
4FB
100
AcDbEntity
  8
0
  6
BYBLOCK
 62
     0
100
AcDbLine
 10
151.947886
 20
60.325113
 30
0.0
 11
149.335981
 21
63.614178
 31
0.0
  0
MTEXT
  5
4FC
100
AcDbEntity
  8
0
  6
BYBLOCK
 62
     0
100
AcDbMText
 10
138.641933
 20
70.469646
 30
0.0
 40
10.0
 41
0.0
 71
     5
 72
     1
  1
\A1;\U+22058.2
  7
BIGFONT
  0
SOLID
  5
4FD
100
AcDbEntity
  8
0
  6
BYBLOCK
 62
     0
100
AcDbTrace
 10
152.208923
 20
60.532407
 30
0.0
 11
151.686849
 21
60.117819
 31
0.0
 12
153.19165
 22
58.758891
 32
0.0
 13
153.19165
 23
58.758891
 33
0.0
  0
SOLID
  5
4FE
100
AcDbEntity
  8
0
  6
BYBLOCK
 62
     0
100
AcDbTrace
 10
149.597018
 20
63.821472
 30
0.0
 11
149.074944
 21
63.406884
 31
0.0
 12
148.092216
 22
65.1804
 32
0.0
 13
148.092216
 23
65.1804
 33
0.0
  0
POINT
  5
4FF
100
AcDbEntity
  8
DEFPOINTS
  6
BYBLOCK
 62
     0
100
AcDbPoint
 10
148.092216
 20
65.1804
 30
0.0
  0
POINT
  5
500
100
AcDbEntity
  8
DEFPOINTS
  6
BYBLOCK
 62
     0
100
AcDbPoint
 10
153.19165
 20
58.758891
 30
0.0
  0
ENDBLK
  5
501
100
AcDbEntity
  8
0
100
AcDbBlockEnd
  0
BLOCK
  5
502
100
AcDbEntity
  8
0
100
AcDbBlockBegin
  2
*D30
 70
     1
 10
0.0
 20
0.0
 30
0.0
  3
*D30
  1

  0
LINE
  5
503
100
AcDbEntity
  8
0
  6
BYBLOCK
 62
     0
100
AcDbLine
 10
152.41457
 20
57.833493
 30
0.0
 11
148.869296
 21
66.105798
 31
0.0
  0
MTEXT
  5
504
100
AcDbEntity
  8
0
  6
BYBLOCK
 62
     0
100
AcDbMText
 10
139.891933
 20
75.969646
 30
0.0
 40
10.0
 41
0.0
 71
     5
 72
     1
  1
\A1;\U+220513
  7
BIGFONT
  0
SOLID
  5
505
100
AcDbEntity
  8
0
  6
BYBLOCK
 62
     0
100
AcDbTrace
 10
152.720952
 20
57.964799
 30
0.0
 11
152.108188
 21
57.702187
 31
0.0
 12
153.202409
 22
55.995203
 32
0.0
 13
153.202409
 23
55.995203
 33
0.0
  0
SOLID
  5
506
100
AcDbEntity
  8
0
  6
BYBLOCK
 62
     0
100
AcDbTrace
 10
149.175678
 20
66.237105
 30
0.0
 11
148.562915
 21
65.974492
 31
0.0
 12
148.081458
 22
67.944088
 32
0.0
 13
148.081458
 23
67.944088
 33
0.0
  0
POINT
  5
507
100
AcDbEntity
  8
DEFPOINTS
  6
BYBLOCK
 62
     0
100
AcDbPoint
 10
148.081458
 20
67.944088
 30
0.0
  0
POINT
  5
508
100
AcDbEntity
  8
DEFPOINTS
  6
BYBLOCK
 62
     0
100
AcDbPoint
 10
153.202409
 20
55.995203
 30
0.0
  0
ENDBLK
  5
509
100
AcDbEntity
  8
0
100
AcDbBlockEnd
  0
BLOCK
  5
50A
100
AcDbEntity
  8
0
100
AcDbBlockBegin
  2
*D31
 70
     1
 10
0.0
 20
0.0
 30
0.0
  3
*D31
  1

  0
LINE
  5
50B
100
AcDbEntity
  8
0
  6
BYBLOCK
 62
     0
100
AcDbLine
 10
103.141933
 20
67.569646
 30
0.0
 11
103.141933
 21
81.419646
 31
0.0
  0
LINE
  5
50C
100
AcDbEntity
  8
0
  6
BYBLOCK
 62
     0
100
AcDbLine
 10
106.141933
 20
67.269646
 30
0.0
 11
106.141933
 21
81.419646
 31
0.0
  0
LINE
  5
50D
100
AcDbEntity
  8
0
  6
BYBLOCK
 62
     0
100
AcDbLine
 10
101.141933
 20
81.219646
 30
0.0
 11
99.141933
 21
81.219646
 31
0.0
  0
LINE
  5
50E
100
AcDbEntity
  8
0
  6
BYBLOCK
 62
     0
100
AcDbLine
 10
108.141933
 20
81.219646
 30
0.0
 11
110.141933
 21
81.219646
 31
0.0
  0
MTEXT
  5
50F
100
AcDbEntity
  8
0
  6
BYBLOCK
 62
     0
100
AcDbMText
 10
104.641933
 20
81.219646
 30
0.0
 40
10.0
 41
0.0
 71
     5
 72
     1
  1
\A1;3
  7
BIGFONT
  0
LINE
  5
510
100
AcDbEntity
  8
0
  6
BYBLOCK
 62
     0
100
AcDbLine
 10
103.141933
 20
81.219646
 30
0.0
 11
106.141933
 21
81.219646
 31
0.0
  0
SOLID
  5
511
100
AcDbEntity
  8
0
  6
BYBLOCK
 62
     0
100
AcDbTrace
 10
101.141933
 20
81.552979
 30
0.0
 11
101.141933
 21
80.886312
 31
0.0
 12
103.141933
 22
81.219646
 32
0.0
 13
103.141933
 23
81.219646
 33
0.0
  0
SOLID
  5
512
100
AcDbEntity
  8
0
  6
BYBLOCK
 62
     0
100
AcDbTrace
 10
108.141933
 20
81.552979
 30
0.0
 11
108.141933
 21
80.886312
 31
0.0
 12
106.141933
 22
81.219646
 32
0.0
 13
106.141933
 23
81.219646
 33
0.0
  0
POINT
  5
513
100
AcDbEntity
  8
DEFPOINTS
  6
BYBLOCK
 62
     0
100
AcDbPoint
 10
103.141933
 20
67.469646
 30
0.0
  0
POINT
  5
514
100
AcDbEntity
  8
DEFPOINTS
  6
BYBLOCK
 62
     0
100
AcDbPoint
 10
106.141933
 20
67.169646
 30
0.0
  0
POINT
  5
515
100
AcDbEntity
  8
DEFPOINTS
  6
BYBLOCK
 62
     0
100
AcDbPoint
 10
106.141933
 20
81.219646
 30
0.0
  0
ENDBLK
  5
516
100
AcDbEntity
  8
0
100
AcDbBlockEnd
  0
BLOCK
  5
523
100
AcDbEntity
  8
0
100
AcDbBlockBegin
  2
*D32
 70
     1
 10
0.0
 20
0.0
 30
0.0
  3
*D32
  1

  0
LINE
  5
518
100
AcDbEntity
  8
0
  6
BYBLOCK
 62
     0
100
AcDbLine
 10
144.9
 20
109.75
 30
0.0
 11
126.15
 21
109.75
 31
0.0
  0
LINE
  5
519
100
AcDbEntity
  8
0
  6
BYBLOCK
 62
     0
100
AcDbLine
 10
144.9
 20
108.25
 30
0.0
 11
126.15
 21
108.25
 31
0.0
  0
LINE
  5
51A
100
AcDbEntity
  8
0
  6
BYBLOCK
 62
     0
100
AcDbLine
 10
126.35
 20
106.25
 30
0.0
 11
126.35
 21
104.25
 31
0.0
  0
LINE
  5
51B
100
AcDbEntity
  8
0
  6
BYBLOCK
 62
     0
100
AcDbLine
 10
126.35
 20
111.75
 30
0.0
 11
126.35
 21
115.0
 31
0.0
  0
LINE
  5
51C
100
AcDbEntity
  8
0
  6
BYBLOCK
 62
     0
100
AcDbLine
 10
126.35
 20
115.0
 30
0.0
 11
128.35
 21
115.0
 31
0.0
  0
SOLID
  5
51D
100
AcDbEntity
  8
0
  6
BYBLOCK
 62
     0
100
AcDbTrace
 10
126.016667
 20
106.25
 30
0.0
 11
126.683333
 21
106.25
 31
0.0
 12
126.35
 22
108.25
 32
0.0
 13
126.35
 23
108.25
 33
0.0
  0
SOLID
  5
51E
100
AcDbEntity
  8
0
  6
BYBLOCK
 62
     0
100
AcDbTrace
 10
126.016667
 20
111.75
 30
0.0
 11
126.683333
 21
111.75
 31
0.0
 12
126.35
 22
109.75
 32
0.0
 13
126.35
 23
109.75
 33
0.0
  0
MTEXT
  5
51F
100
AcDbEntity
  8
0
  6
BYBLOCK
 62
     0
100
AcDbMText
 10
130.5
 20
115.0
 30
0.0
 40
3.5
 41
0.0
 71
     5
 72
     1
  1
\A1;1.5
  0
POINT
  5
520
100
AcDbEntity
  8
DEFPOINTS
  6
BYBLOCK
 62
     0
100
AcDbPoint
 10
145.0
 20
109.75
 30
0.0
  0
POINT
  5
521
100
AcDbEntity
  8
DEFPOINTS
  6
BYBLOCK
 62
     0
100
AcDbPoint
 10
145.0
 20
108.25
 30
0.0
  0
POINT
  5
522
100
AcDbEntity
  8
DEFPOINTS
  6
BYBLOCK
 62
     0
100
AcDbPoint
 10
126.35
 20
108.25
 30
0.0
  0
ENDBLK
  5
524
100
AcDbEntity
  8
0
100
AcDbBlockEnd
  0
BLOCK
  5
52E
100
AcDbEntity
  8
0
100
AcDbBlockBegin
  2
*D33
 70
     1
 10
0.0
 20
0.0
 30
0.0
  3
*D33
  1

  0
LINE
  5
526
100
AcDbEntity
  8
0
  6
BYBLOCK
 62
     0
100
AcDbLine
 10
182.75
 20
115.25
 30
0.0
 11
184.75
 21
115.25
 31
0.0
  0
LINE
  5
527
100
AcDbEntity
  8
0
  6
BYBLOCK
 62
     0
100
AcDbLine
 10
184.75
 20
115.25
 30
0.0
 11
187.45554
 21
112.917638
 31
0.0
  0
MTEXT
  5
528
100
AcDbEntity
  8
0
  6
BYBLOCK
 62
     0
100
AcDbMText
 10
181.0
 20
115.25
 30
0.0
 40
3.5
 41
0.0
 71
     5
 72
     1
  1
\A1;\U+22058
  0
SOLID
  5
529
100
AcDbEntity
  8
0
  6
BYBLOCK
 62
     0
100
AcDbTrace
 10
187.673187
 20
113.170108
 30
0.0
 11
187.237894
 21
112.665168
 31
0.0
 12
188.97036
 22
111.611758
 32
0.0
 13
188.97036
 23
111.611758
 33
0.0
  0
LINE
  5
52A
100
AcDbEntity
  8
0
  6
BYBLOCK
 62
     0
100
AcDbLine
 10
191.9
 20
109.0
 30
0.0
 11
192.1
 21
109.0
 31
0.0
  0
LINE
  5
52B
100
AcDbEntity
  8
0
  6
BYBLOCK
 62
     0
100
AcDbLine
 10
192.0
 20
108.9
 30
0.0
 11
192.0
 21
109.1
 31
0.0
  0
POINT
  5
52C
100
AcDbEntity
  8
DEFPOINTS
  6
BYBLOCK
 62
     0
100
AcDbPoint
 10
188.97036
 20
111.611758
 30
0.0
  0
POINT
  5
52D
100
AcDbEntity
  8
DEFPOINTS
  6
BYBLOCK
 62
     0
100
AcDbPoint
 10
195.02964
 20
106.388242
 30
0.0
  0
ENDBLK
  5
52F
100
AcDbEntity
  8
0
100
AcDbBlockEnd
  0
BLOCK
  5
559
100
AcDbEntity
  8
0
100
AcDbBlockBegin
  2
A$C748B7793
 70
     0
 10
0.0
 20
0.0
 30
0.0
  3
A$C748B7793
  1

  0
DIMENSION
  5
531
100
AcDbEntity
  8
0
100
AcDbDimension
  2
*D32
 10
23.6
 20
7.75
 30
0.0
 11
27.75
 21
14.5
 31
0.0
 12
-102.75
 22
-100.5
 32
0.0
 70
   128
  3
STANDARD
100
AcDbAlignedDimension
 13
42.25
 23
9.25
 33
0.0
 14
42.25
 24
7.75
 34
0.0
 50
90.0
100
AcDbRotatedDimension
1001
ACAD
1000
DSTYLE
1002
{
1070
    78
1070
     8
1070
   288
1070
     1
1070
   284
1070
     8
1070
   140
1040
2.0
1070
    73
1070
     0
1070
   272
1070
     2
1070
   147
1040
0.1
1070
    42
1040
0.1
1070
    44
1040
0.2
1070
    43
1040
0.4
1070
   271
1070
     2
1070
   141
1040
0.1
1070
    41
1040
2.0
1002
}
  0
LINE
  5
532
100
AcDbEntity
  8
1
100
AcDbLine
 10
0.0
 20
8.5
 30
0.0
 11
16.5
 21
8.5
 31
0.0
  0
LINE
  5
533
100
AcDbEntity
  8
1
100
AcDbLine
 10
8.5
 20
16.25
 30
0.0
 11
8.5
 21
0.0
 31
0.0
  0
CIRCLE
  5
534
100
AcDbEntity
  8
3
100
AcDbCircle
 10
8.5
 20
8.5
 30
0.0
 40
5.0
  0
LINE
  5
535
100
AcDbEntity
  8
3
100
AcDbLine
 10
3.55657
 20
7.75
 30
0.0
 11
13.44343
 21
7.75
 31
0.0
  0
LINE
  5
536
100
AcDbEntity
  8
3
100
AcDbLine
 10
3.55657
 20
9.25
 30
0.0
 11
13.44343
 21
9.25
 31
0.0
  0
DIMENSION
  5
537
100
AcDbEntity
  8
0
100
AcDbDimension
  2
*D33
 10
92.27964
 20
5.888241
 30
0.0
 11
78.25
 21
14.75
 31
0.0
 12
-102.75
 22
-100.5
 32
0.0
 70
   131
  3
STANDARD
100
AcDbDiametricDimension
 15
86.22036
 25
11.111758
 35
0.0
 40
0.0
1001
ACAD
1000
DSTYLE
1002
{
1070
    78
1070
     8
1070
   288
1070
     1
1070
   284
1070
     8
1070
   140
1040
2.0
1070
    73
1070
     0
1070
   272
1070
     2
1070
   147
1040
0.1
1070
    42
1040
0.1
1070
    44
1040
0.2
1070
    43
1040
0.4
1070
   271
1070
     2
1070
   141
1040
0.1
1070
    41
1040
2.0
1002
}
  0
LINE
  5
538
100
AcDbEntity
  8
1
100
AcDbLine
 10
80.75
 20
8.5
 30
0.0
 11
97.25
 21
8.5
 31
0.0
  0
LINE
  5
539
100
AcDbEntity
  8
3
100
AcDbLine
 10
61.25
 20
12.499999
 30
0.0
 11
45.25
 21
12.499999
 31
0.0
  0
LINE
  5
53A
100
AcDbEntity
  8
1
100
AcDbLine
 10
39.5
 20
8.5
 30
0.0
 11
74.5
 21
8.5
 31
0.0
  0
LINE
  5
53B
100
AcDbEntity
  8
3
100
AcDbLine
 10
61.25
 20
4.5
 30
0.0
 11
45.25
 21
4.5
 31
0.0
  0
LINE
  5
53C
100
AcDbEntity
  8
3
100
AcDbLine
 10
45.25
 20
8.5
 30
0.0
 11
45.25
 21
13.5
 31
0.0
  0
LINE
  5
53D
100
AcDbEntity
  8
3
100
AcDbLine
 10
42.25
 20
13.5
 30
0.0
 11
42.25
 21
9.25
 31
0.0
  0
LINE
  5
53E
100
AcDbEntity
  8
3
100
AcDbLine
 10
42.25
 20
3.5
 30
0.0
 11
42.25
 21
7.75
 31
0.0
  0
LINE
  5
53F
100
AcDbEntity
  8
3
100
AcDbLine
 10
45.25
 20
8.5
 30
0.0
 11
45.25
 21
3.5
 31
0.0
  0
LINE
  5
540
100
AcDbEntity
  8
3
100
AcDbLine
 10
45.25
 20
3.5
 30
0.0
 11
42.25
 21
3.5
 31
0.0
  0
LINE
  5
541
100
AcDbEntity
  8
3
100
AcDbLine
 10
42.25
 20
9.25
 30
0.0
 11
43.25
 21
9.25
 31
0.0
  0
LINE
  5
542
100
AcDbEntity
  8
3
100
AcDbLine
 10
42.25
 20
7.75
 30
0.0
 11
43.25
 21
7.75
 31
0.0
  0
LINE
  5
543
100
AcDbEntity
  8
3
100
AcDbLine
 10
43.25
 20
7.75
 30
0.0
 11
43.25
 21
8.5
 31
0.0
  0
LINE
  5
544
100
AcDbEntity
  8
3
100
AcDbLine
 10
43.25
 20
9.25
 30
0.0
 11
43.25
 21
8.5
 31
0.0
  0
LINE
  5
545
100
AcDbEntity
  8
3
100
AcDbLine
 10
45.25
 20
13.5
 30
0.0
 11
42.25
 21
13.5
 31
0.0
  0
LINE
  5
546
100
AcDbEntity
  8
3
100
AcDbLine
 10
61.25
 20
8.499999
 30
0.0
 11
61.25
 21
12.499999
 31
0.0
  0
LINE
  5
547
100
AcDbEntity
  8
3
100
AcDbLine
 10
61.25
 20
5.5
 30
0.0
 11
72.25
 21
5.5
 31
0.0
  0
LINE
  5
548
100
AcDbEntity
  8
3
100
AcDbLine
 10
62.0
 20
6.25
 30
0.0
 11
73.0
 21
6.25
 31
0.0
  0
LINE
  5
549
100
AcDbEntity
  8
3
100
AcDbLine
 10
62.0
 20
10.75
 30
0.0
 11
73.0
 21
10.75
 31
0.0
  0
LINE
  5
54A
100
AcDbEntity
  8
3
100
AcDbLine
 10
61.25
 20
11.5
 30
0.0
 11
72.25
 21
11.5
 31
0.0
  0
LINE
  5
54B
100
AcDbEntity
  8
3
100
AcDbLine
 10
61.25
 20
8.5
 30
0.0
 11
61.25
 21
4.5
 31
0.0
  0
LINE
  5
54C
100
AcDbEntity
  8
3
100
AcDbLine
 10
62.0
 20
5.5
 30
0.0
 11
62.0
 21
8.5
 31
0.0
  0
LINE
  5
54D
100
AcDbEntity
  8
3
100
AcDbLine
 10
62.0
 20
11.5
 30
0.0
 11
62.0
 21
8.5
 31
0.0
  0
LINE
  5
54E
100
AcDbEntity
  8
3
100
AcDbLine
 10
72.25
 20
5.5
 30
0.0
 11
72.25
 21
8.5
 31
0.0
  0
LINE
  5
54F
100
AcDbEntity
  8
3
100
AcDbLine
 10
73.25
 20
6.5
 30
0.0
 11
73.25
 21
8.5
 31
0.0
  0
LINE
  5
550
100
AcDbEntity
  8
3
100
AcDbLine
 10
72.25
 20
5.5
 30
0.0
 11
73.25
 21
6.5
 31
0.0
  0
LINE
  5
551
100
AcDbEntity
  8
3
100
AcDbLine
 10
72.25
 20
11.5
 30
0.0
 11
73.25
 21
10.5
 31
0.0
  0
LINE
  5
552
100
AcDbEntity
  8
3
100
AcDbLine
 10
72.25
 20
11.5
 30
0.0
 11
72.25
 21
8.5
 31
0.0
  0
LINE
  5
553
100
AcDbEntity
  8
3
100
AcDbLine
 10
73.25
 20
10.5
 30
0.0
 11
73.25
 21
8.5
 31
0.0
  0
CIRCLE
  5
554
100
AcDbEntity
  8
3
100
AcDbCircle
 10
89.25
 20
8.5
 30
0.0
 40
4.0
  0
CIRCLE
  5
555
100
AcDbEntity
  8
3
100
AcDbCircle
 10
89.25
 20
8.5
 30
0.0
 40
5.0
  0
LINE
  5
556
100
AcDbEntity
  8
1
100
AcDbLine
 10
89.25
 20
16.25
 30
0.0
 11
89.25
 21
0.0
 31
0.0
  0
CIRCLE
  5
557
100
AcDbEntity
  8
3
100
AcDbCircle
 10
89.25
 20
8.5
 30
0.0
 40
3.0
  0
CIRCLE
  5
558
100
AcDbEntity
  8
3
100
AcDbCircle
 10
89.25
 20
8.5
 30
0.0
 40
2.25
  0
ENDBLK
  5
55A
100
AcDbEntity
  8
0
100
AcDbBlockEnd
  0
BLOCK
  5
59B
100
AcDbEntity
  8
0
100
AcDbBlockBegin
  2
*D35
 70
     1
 10
0.0
 20
0.0
 30
0.0
  3
*D35
  1

  0
LINE
  5
59C
100
AcDbEntity
  8
0
  6
BYBLOCK
 62
     0
100
AcDbLine
 10
104.380371
 20
91.509897
 30
0.0
 11
85.630371
 21
91.509897
 31
0.0
  0
LINE
  5
59D
100
AcDbEntity
  8
0
  6
BYBLOCK
 62
     0
100
AcDbLine
 10
104.380371
 20
90.009898
 30
0.0
 11
85.630371
 21
90.009898
 31
0.0
  0
LINE
  5
59E
100
AcDbEntity
  8
0
  6
BYBLOCK
 62
     0
100
AcDbLine
 10
85.830371
 20
93.509897
 30
0.0
 11
85.830371
 21
95.509897
 31
0.0
  0
LINE
  5
59F
100
AcDbEntity
  8
0
  6
BYBLOCK
 62
     0
100
AcDbLine
 10
85.830371
 20
88.009898
 30
0.0
 11
85.830371
 21
86.009898
 31
0.0
  0
MTEXT
  5
5A0
100
AcDbEntity
  8
0
  6
BYBLOCK
 62
     0
100
AcDbMText
 10
89.980371
 20
96.759898
 30
0.0
 40
10.0
 41
0.0
 71
     5
 72
     1
  1
\A1;1.5
  7
BIGFONT
  0
LINE
  5
5A1
100
AcDbEntity
  8
0
  6
BYBLOCK
 62
     0
100
AcDbLine
 10
85.830371
 20
91.509897
 30
0.0
 11
85.830371
 21
90.009898
 31
0.0
  0
SOLID
  5
5A2
100
AcDbEntity
  8
0
  6
BYBLOCK
 62
     0
100
AcDbTrace
 10
85.497037
 20
93.509897
 30
0.0
 11
86.163704
 21
93.509897
 31
0.0
 12
85.830371
 22
91.509897
 32
0.0
 13
85.830371
 23
91.509897
 33
0.0
  0
SOLID
  5
5A3
100
AcDbEntity
  8
0
  6
BYBLOCK
 62
     0
100
AcDbTrace
 10
85.497037
 20
88.009898
 30
0.0
 11
86.163704
 21
88.009898
 31
0.0
 12
85.830371
 22
90.009898
 32
0.0
 13
85.830371
 23
90.009898
 33
0.0
  0
POINT
  5
5A4
100
AcDbEntity
  8
DEFPOINTS
  6
BYBLOCK
 62
     0
100
AcDbPoint
 10
104.480371
 20
91.509897
 30
0.0
  0
POINT
  5
5A5
100
AcDbEntity
  8
DEFPOINTS
  6
BYBLOCK
 62
     0
100
AcDbPoint
 10
104.480371
 20
90.009898
 30
0.0
  0
POINT
  5
5A6
100
AcDbEntity
  8
DEFPOINTS
  6
BYBLOCK
 62
     0
100
AcDbPoint
 10
85.830371
 20
90.009898
 30
0.0
  0
ENDBLK
  5
5A7
100
AcDbEntity
  8
0
100
AcDbBlockEnd
  0
BLOCK
  5
5A8
100
AcDbEntity
  8
0
100
AcDbBlockBegin
  2
*D36
 70
     1
 10
0.0
 20
0.0
 30
0.0
  3
*D36
  1

  0
LINE
  5
5A9
100
AcDbEntity
  8
0
  6
BYBLOCK
 62
     0
100
AcDbLine
 10
152.99519
 20
89.454019
 30
0.0
 11
149.965551
 21
92.065777
 31
0.0
  0
MTEXT
  5
5AA
100
AcDbEntity
  8
0
  6
BYBLOCK
 62
     0
100
AcDbMText
 10
140.480371
 20
97.009898
 30
0.0
 40
10.0
 41
0.0
 71
     5
 72
     1
  1
\A1;\U+22058
  7
BIGFONT
  0
SOLID
  5
5AB
100
AcDbEntity
  8
0
  6
BYBLOCK
 62
     0
100
AcDbTrace
 10
153.212837
 20
89.706489
 30
0.0
 11
152.777544
 21
89.201549
 31
0.0
 12
154.51001
 22
88.148139
 32
0.0
 13
154.51001
 23
88.148139
 33
0.0
  0
SOLID
  5
5AC
100
AcDbEntity
  8
0
  6
BYBLOCK
 62
     0
100
AcDbTrace
 10
150.183197
 20
92.318247
 30
0.0
 11
149.747904
 21
91.813307
 31
0.0
 12
148.450731
 22
93.371656
 32
0.0
 13
148.450731
 23
93.371656
 33
0.0
  0
POINT
  5
5AD
100
AcDbEntity
  8
DEFPOINTS
  6
BYBLOCK
 62
     0
100
AcDbPoint
 10
148.450731
 20
93.371656
 30
0.0
  0
POINT
  5
5AE
100
AcDbEntity
  8
DEFPOINTS
  6
BYBLOCK
 62
     0
100
AcDbPoint
 10
154.51001
 20
88.148139
 30
0.0
  0
ENDBLK
  5
5AF
100
AcDbEntity
  8
0
100
AcDbBlockEnd
  0
BLOCK
  5
5C8
100
AcDbEntity
  8
0
100
AcDbBlockBegin
  2
*D37
 70
     1
 10
0.0
 20
0.0
 30
0.0
  3
*D37
  1

  0
LINE
  5
5C0
100
AcDbEntity
  8
0
  6
BYBLOCK
 62
     0
100
AcDbLine
 10
99.5
 20
120.5
 30
0.0
 11
101.5
 21
120.5
 31
0.0
  0
LINE
  5
5C1
100
AcDbEntity
  8
0
  6
BYBLOCK
 62
     0
100
AcDbLine
 10
101.5
 20
120.5
 30
0.0
 11
108.104385
 21
114.036134
 31
0.0
  0
MTEXT
  5
5C2
100
AcDbEntity
  8
0
  6
BYBLOCK
 62
     0
100
AcDbMText
 10
95.2
 20
120.5
 30
0.0
 40
3.5
 41
0.0
 71
     5
 72
     1
  1
\A1;\U+220510.4
  0
SOLID
  5
5C3
100
AcDbEntity
  8
0
  6
BYBLOCK
 62
     0
100
AcDbTrace
 10
108.337539
 20
114.274357
 30
0.0
 11
107.871231
 21
113.797911
 31
0.0
 12
109.533722
 22
112.637208
 32
0.0
 13
109.533722
 23
112.637208
 33
0.0
  0
LINE
  5
5C4
100
AcDbEntity
  8
0
  6
BYBLOCK
 62
     0
100
AcDbLine
 10
113.15
 20
109.0
 30
0.0
 11
113.35
 21
109.0
 31
0.0
  0
LINE
  5
5C5
100
AcDbEntity
  8
0
  6
BYBLOCK
 62
     0
100
AcDbLine
 10
113.25
 20
108.9
 30
0.0
 11
113.25
 21
109.1
 31
0.0
  0
POINT
  5
5C6
100
AcDbEntity
  8
DEFPOINTS
  6
BYBLOCK
 62
     0
100
AcDbPoint
 10
109.533722
 20
112.637208
 30
0.0
  0
POINT
  5
5C7
100
AcDbEntity
  8
DEFPOINTS
  6
BYBLOCK
 62
     0
100
AcDbPoint
 10
116.966278
 20
105.362792
 30
0.0
  0
ENDBLK
  5
5C9
100
AcDbEntity
  8
0
100
AcDbBlockEnd
  0
BLOCK
  5
5D3
100
AcDbEntity
  8
0
100
AcDbBlockBegin
  2
*D38
 70
     1
 10
0.0
 20
0.0
 30
0.0
  3
*D38
  1

  0
LINE
  5
5CB
100
AcDbEntity
  8
0
  6
BYBLOCK
 62
     0
100
AcDbLine
 10
98.75
 20
113.25
 30
0.0
 11
100.75
 21
113.25
 31
0.0
  0
LINE
  5
5CC
100
AcDbEntity
  8
0
  6
BYBLOCK
 62
     0
100
AcDbLine
 10
100.75
 20
113.25
 30
0.0
 11
107.474686
 21
110.963607
 31
0.0
  0
MTEXT
  5
5CD
100
AcDbEntity
  8
0
  6
BYBLOCK
 62
     0
100
AcDbMText
 10
95.5
 20
113.25
 30
0.0
 40
3.5
 41
0.0
 71
     5
 72
     1
  1
\A1;\U+22058.2
  0
SOLID
  5
5CE
100
AcDbEntity
  8
0
  6
BYBLOCK
 62
     0
100
AcDbTrace
 10
107.581987
 20
111.279198
 30
0.0
 11
107.367385
 21
110.648016
 31
0.0
 12
109.368232
 22
110.319801
 32
0.0
 13
109.368232
 23
110.319801
 33
0.0
  0
LINE
  5
5CF
100
AcDbEntity
  8
0
  6
BYBLOCK
 62
     0
100
AcDbLine
 10
113.15
 20
109.0
 30
0.0
 11
113.35
 21
109.0
 31
0.0
  0
LINE
  5
5D0
100
AcDbEntity
  8
0
  6
BYBLOCK
 62
     0
100
AcDbLine
 10
113.25
 20
108.9
 30
0.0
 11
113.25
 21
109.1
 31
0.0
  0
POINT
  5
5D1
100
AcDbEntity
  8
DEFPOINTS
  6
BYBLOCK
 62
     0
100
AcDbPoint
 10
109.368232
 20
110.319801
 30
0.0
  0
POINT
  5
5D2
100
AcDbEntity
  8
DEFPOINTS
  6
BYBLOCK
 62
     0
100
AcDbPoint
 10
117.131768
 20
107.680199
 30
0.0
  0
ENDBLK
  5
5D4
100
AcDbEntity
  8
0
100
AcDbBlockEnd
  0
BLOCK
  5
5DE
100
AcDbEntity
  8
0
100
AcDbBlockBegin
  2
*D39
 70
     1
 10
0.0
 20
0.0
 30
0.0
  3
*D39
  1

  0
LINE
  5
5D6
100
AcDbEntity
  8
0
  6
BYBLOCK
 62
     0
100
AcDbLine
 10
183.75
 20
117.5
 30
0.0
 11
185.75
 21
117.5
 31
0.0
  0
LINE
  5
5D7
100
AcDbEntity
  8
0
  6
BYBLOCK
 62
     0
100
AcDbLine
 10
185.75
 20
117.5
 30
0.0
 11
188.706519
 21
113.776976
 31
0.0
  0
MTEXT
  5
5D8
100
AcDbEntity
  8
0
  6
BYBLOCK
 62
     0
100
AcDbMText
 10
180.5
 20
117.5
 30
0.0
 40
3.5
 41
0.0
 71
     5
 72
     1
  1
\A1;\U+22058.2
  0
SOLID
  5
5D9
100
AcDbEntity
  8
0
  6
BYBLOCK
 62
     0
100
AcDbTrace
 10
188.967556
 20
113.98427
 30
0.0
 11
188.445482
 21
113.569682
 31
0.0
 12
189.950283
 22
112.210754
 32
0.0
 13
189.950283
 23
112.210754
 33
0.0
  0
LINE
  5
5DA
100
AcDbEntity
  8
0
  6
BYBLOCK
 62
     0
100
AcDbLine
 10
192.4
 20
109.0
 30
0.0
 11
192.6
 21
109.0
 31
0.0
  0
LINE
  5
5DB
100
AcDbEntity
  8
0
  6
BYBLOCK
 62
     0
100
AcDbLine
 10
192.5
 20
108.9
 30
0.0
 11
192.5
 21
109.1
 31
0.0
  0
POINT
  5
5DC
100
AcDbEntity
  8
DEFPOINTS
  6
BYBLOCK
 62
     0
100
AcDbPoint
 10
189.950283
 20
112.210754
 30
0.0
  0
POINT
  5
5DD
100
AcDbEntity
  8
DEFPOINTS
  6
BYBLOCK
 62
     0
100
AcDbPoint
 10
195.049717
 20
105.789246
 30
0.0
  0
ENDBLK
  5
5DF
100
AcDbEntity
  8
0
100
AcDbBlockEnd
  0
BLOCK
  5
5E9
100
AcDbEntity
  8
0
100
AcDbBlockBegin
  2
*D40
 70
     1
 10
0.0
 20
0.0
 30
0.0
  3
*D40
  1

  0
LINE
  5
5E1
100
AcDbEntity
  8
0
  6
BYBLOCK
 62
     0
100
AcDbLine
 10
134.0
 20
92.75
 30
0.0
 11
136.0
 21
92.75
 31
0.0
  0
LINE
  5
5E2
100
AcDbEntity
  8
0
  6
BYBLOCK
 62
     0
100
AcDbLine
 10
136.0
 20
92.75
 30
0.0
 11
145.318896
 21
102.767813
 31
0.0
  0
MTEXT
  5
5E3
100
AcDbEntity
  8
0
  6
BYBLOCK
 62
     0
100
AcDbMText
 10
132.5
 20
92.75
 30
0.0
 40
3.5
 41
0.0
 71
     5
 72
     1
  1
\A1;R1
  0
SOLID
  5
5E4
100
AcDbEntity
  8
0
  6
BYBLOCK
 62
     0
100
AcDbTrace
 10
143.712626
 20
101.530474
 30
0.0
 11
144.20075
 21
101.076405
 31
0.0
 12
145.318896
 22
102.767813
 32
0.0
 13
145.318896
 23
102.767813
 33
0.0
  0
LINE
  5
5E5
100
AcDbEntity
  8
0
  6
BYBLOCK
 62
     0
100
AcDbLine
 10
145.9
 20
103.5
 30
0.0
 11
146.1
 21
103.5
 31
0.0
  0
LINE
  5
5E6
100
AcDbEntity
  8
0
  6
BYBLOCK
 62
     0
100
AcDbLine
 10
146.0
 20
103.4
 30
0.0
 11
146.0
 21
103.6
 31
0.0
  0
POINT
  5
5E7
100
AcDbEntity
  8
DEFPOINTS
  6
BYBLOCK
 62
     0
100
AcDbPoint
 10
145.318896
 20
102.767813
 30
0.0
  0
POINT
  5
5E8
100
AcDbEntity
  8
DEFPOINTS
  6
BYBLOCK
 62
     0
100
AcDbPoint
 10
146.0
 20
103.5
 30
0.0
  0
ENDBLK
  5
5EA
100
AcDbEntity
  8
0
100
AcDbBlockEnd
  0
BLOCK
  5
5F4
100
AcDbEntity
  8
0
100
AcDbBlockBegin
  2
*D41
 70
     1
 10
0.0
 20
0.0
 30
0.0
  3
*D41
  1

  0
LINE
  5
5EC
100
AcDbEntity
  8
0
  6
BYBLOCK
 62
     0
100
AcDbLine
 10
172.5
 20
91.5
 30
0.0
 11
170.5
 21
91.5
 31
0.0
  0
LINE
  5
5ED
100
AcDbEntity
  8
0
  6
BYBLOCK
 62
     0
100
AcDbLine
 10
170.5
 20
91.5
 30
0.0
 11
162.578017
 21
102.683976
 31
0.0
  0
MTEXT
  5
5EE
100
AcDbEntity
  8
0
  6
BYBLOCK
 62
     0
100
AcDbMText
 10
174.0
 20
91.5
 30
0.0
 40
3.5
 41
0.0
 71
     5
 72
     1
  1
\A1;R1
  0
SOLID
  5
5EF
100
AcDbEntity
  8
0
  6
BYBLOCK
 62
     0
100
AcDbTrace
 10
164.00606
 20
101.244599
 30
0.0
 11
163.462044
 21
100.859254
 31
0.0
 12
162.578017
 22
102.683976
 32
0.0
 13
162.578017
 23
102.683976
 33
0.0
  0
LINE
  5
5F0
100
AcDbEntity
  8
0
  6
BYBLOCK
 62
     0
100
AcDbLine
 10
161.9
 20
103.5
 30
0.0
 11
162.1
 21
103.5
 31
0.0
  0
LINE
  5
5F1
100
AcDbEntity
  8
0
  6
BYBLOCK
 62
     0
100
AcDbLine
 10
162.0
 20
103.4
 30
0.0
 11
162.0
 21
103.6
 31
0.0
  0
POINT
  5
5F2
100
AcDbEntity
  8
DEFPOINTS
  6
BYBLOCK
 62
     0
100
AcDbPoint
 10
162.578017
 20
102.683976
 30
0.0
  0
POINT
  5
5F3
100
AcDbEntity
  8
DEFPOINTS
  6
BYBLOCK
 62
     0
100
AcDbPoint
 10
162.0
 20
103.5
 30
0.0
  0
ENDBLK
  5
5F5
100
AcDbEntity
  8
0
100
AcDbBlockEnd
  0
BLOCK
  5
601
100
AcDbEntity
  8
0
100
AcDbBlockBegin
  2
*D42
 70
     1
 10
0.0
 20
0.0
 30
0.0
  3
*D42
  1

  0
LINE
  5
5F7
100
AcDbEntity
  8
0
  6
BYBLOCK
 62
     0
100
AcDbLine
 10
148.0
 20
114.3
 30
0.0
 11
148.0
 21
132.7
 31
0.0
  0
LINE
  5
5F8
100
AcDbEntity
  8
0
  6
BYBLOCK
 62
     0
100
AcDbLine
 10
163.0
 20
114.6
 30
0.0
 11
163.0
 21
132.7
 31
0.0
  0
LINE
  5
5F9
100
AcDbEntity
  8
0
  6
BYBLOCK
 62
     0
100
AcDbLine
 10
150.0
 20
132.5
 30
0.0
 11
154.35
 21
132.5
 31
0.0
  0
LINE
  5
5FA
100
AcDbEntity
  8
0
  6
BYBLOCK
 62
     0
100
AcDbLine
 10
161.0
 20
132.5
 30
0.0
 11
157.65
 21
132.5
 31
0.0
  0
SOLID
  5
5FB
100
AcDbEntity
  8
0
  6
BYBLOCK
 62
     0
100
AcDbTrace
 10
150.0
 20
132.833333
 30
0.0
 11
150.0
 21
132.166667
 31
0.0
 12
148.0
 22
132.5
 32
0.0
 13
148.0
 23
132.5
 33
0.0
  0
SOLID
  5
5FC
100
AcDbEntity
  8
0
  6
BYBLOCK
 62
     0
100
AcDbTrace
 10
161.0
 20
132.833333
 30
0.0
 11
161.0
 21
132.166667
 31
0.0
 12
163.0
 22
132.5
 32
0.0
 13
163.0
 23
132.5
 33
0.0
  0
MTEXT
  5
5FD
100
AcDbEntity
  8
0
  6
BYBLOCK
 62
     0
100
AcDbMText
 10
156.0
 20
132.5
 30
0.0
 40
3.5
 41
0.0
 71
     5
 72
     1
  1
\A1;15
  0
POINT
  5
5FE
100
AcDbEntity
  8
DEFPOINTS
  6
BYBLOCK
 62
     0
100
AcDbPoint
 10
148.0
 20
114.2
 30
0.0
  0
POINT
  5
5FF
100
AcDbEntity
  8
DEFPOINTS
  6
BYBLOCK
 62
     0
100
AcDbPoint
 10
163.0
 20
114.5
 30
0.0
  0
POINT
  5
600
100
AcDbEntity
  8
DEFPOINTS
  6
BYBLOCK
 62
     0
100
AcDbPoint
 10
163.0
 20
132.5
 30
0.0
  0
ENDBLK
  5
602
100
AcDbEntity
  8
0
100
AcDbBlockEnd
  0
BLOCK
  5
60E
100
AcDbEntity
  8
0
100
AcDbBlockBegin
  2
*D43
 70
     1
 10
0.0
 20
0.0
 30
0.0
  3
*D43
  1

  0
LINE
  5
604
100
AcDbEntity
  8
0
  6
BYBLOCK
 62
     0
100
AcDbLine
 10
143.0
 20
115.1
 30
0.0
 11
143.0
 21
126.45
 31
0.0
  0
LINE
  5
605
100
AcDbEntity
  8
0
  6
BYBLOCK
 62
     0
100
AcDbLine
 10
148.0
 20
114.3
 30
0.0
 11
148.0
 21
126.45
 31
0.0
  0
LINE
  5
606
100
AcDbEntity
  8
0
  6
BYBLOCK
 62
     0
100
AcDbLine
 10
145.0
 20
126.25
 30
0.0
 11
145.1
 21
126.25
 31
0.0
  0
LINE
  5
607
100
AcDbEntity
  8
0
  6
BYBLOCK
 62
     0
100
AcDbLine
 10
146.0
 20
126.25
 30
0.0
 11
145.9
 21
126.25
 31
0.0
  0
SOLID
  5
608
100
AcDbEntity
  8
0
  6
BYBLOCK
 62
     0
100
AcDbTrace
 10
145.0
 20
126.583333
 30
0.0
 11
145.0
 21
125.916667
 31
0.0
 12
143.0
 22
126.25
 32
0.0
 13
143.0
 23
126.25
 33
0.0
  0
SOLID
  5
609
100
AcDbEntity
  8
0
  6
BYBLOCK
 62
     0
100
AcDbTrace
 10
146.0
 20
126.583333
 30
0.0
 11
146.0
 21
125.916667
 31
0.0
 12
148.0
 22
126.25
 32
0.0
 13
148.0
 23
126.25
 33
0.0
  0
MTEXT
  5
60A
100
AcDbEntity
  8
0
  6
BYBLOCK
 62
     0
100
AcDbMText
 10
145.25
 20
126.25
 30
0.0
 40
3.5
 41
0.0
 71
     5
 72
     1
  1
\A1;5
  0
POINT
  5
60B
100
AcDbEntity
  8
DEFPOINTS
  6
BYBLOCK
 62
     0
100
AcDbPoint
 10
143.0
 20
115.0
 30
0.0
  0
POINT
  5
60C
100
AcDbEntity
  8
DEFPOINTS
  6
BYBLOCK
 62
     0
100
AcDbPoint
 10
148.0
 20
114.2
 30
0.0
  0
POINT
  5
60D
100
AcDbEntity
  8
DEFPOINTS
  6
BYBLOCK
 62
     0
100
AcDbPoint
 10
148.0
 20
126.25
 30
0.0
  0
ENDBLK
  5
60F
100
AcDbEntity
  8
0
100
AcDbBlockEnd
  0
BLOCK
  5
61B
100
AcDbEntity
  8
0
100
AcDbBlockBegin
  2
*D44
 70
     1
 10
0.0
 20
0.0
 30
0.0
  3
*D44
  1

  0
LINE
  5
611
100
AcDbEntity
  8
0
  6
BYBLOCK
 62
     0
100
AcDbLine
 10
143.0
 20
115.1
 30
0.0
 11
143.0
 21
138.95
 31
0.0
  0
LINE
  5
612
100
AcDbEntity
  8
0
  6
BYBLOCK
 62
     0
100
AcDbLine
 10
163.0
 20
115.1
 30
0.0
 11
163.0
 21
138.95
 31
0.0
  0
LINE
  5
613
100
AcDbEntity
  8
0
  6
BYBLOCK
 62
     0
100
AcDbLine
 10
145.0
 20
138.75
 30
0.0
 11
150.95
 21
138.75
 31
0.0
  0
LINE
  5
614
100
AcDbEntity
  8
0
  6
BYBLOCK
 62
     0
100
AcDbLine
 10
161.0
 20
138.75
 30
0.0
 11
154.55
 21
138.75
 31
0.0
  0
SOLID
  5
615
100
AcDbEntity
  8
0
  6
BYBLOCK
 62
     0
100
AcDbTrace
 10
145.0
 20
139.083333
 30
0.0
 11
145.0
 21
138.416667
 31
0.0
 12
143.0
 22
138.75
 32
0.0
 13
143.0
 23
138.75
 33
0.0
  0
SOLID
  5
616
100
AcDbEntity
  8
0
  6
BYBLOCK
 62
     0
100
AcDbTrace
 10
161.0
 20
139.083333
 30
0.0
 11
161.0
 21
138.416667
 31
0.0
 12
163.0
 22
138.75
 32
0.0
 13
163.0
 23
138.75
 33
0.0
  0
MTEXT
  5
617
100
AcDbEntity
  8
0
  6
BYBLOCK
 62
     0
100
AcDbMText
 10
152.75
 20
138.75
 30
0.0
 40
3.5
 41
0.0
 71
     5
 72
     1
  1
\A1;20
  0
POINT
  5
618
100
AcDbEntity
  8
DEFPOINTS
  6
BYBLOCK
 62
     0
100
AcDbPoint
 10
143.0
 20
115.0
 30
0.0
  0
POINT
  5
619
100
AcDbEntity
  8
DEFPOINTS
  6
BYBLOCK
 62
     0
100
AcDbPoint
 10
163.0
 20
115.0
 30
0.0
  0
POINT
  5
61A
100
AcDbEntity
  8
DEFPOINTS
  6
BYBLOCK
 62
     0
100
AcDbPoint
 10
163.0
 20
138.75
 30
0.0
  0
ENDBLK
  5
61C
100
AcDbEntity
  8
0
100
AcDbBlockEnd
  0
BLOCK
  5
626
100
AcDbEntity
  8
0
100
AcDbBlockBegin
  2
*D45
 70
     1
 10
0.0
 20
0.0
 30
0.0
  3
*D45
  1

  0
LINE
  5
61E
100
AcDbEntity
  8
0
  6
BYBLOCK
 62
     0
100
AcDbLine
 10
99.0
 20
128.25
 30
0.0
 11
101.0
 21
128.25
 31
0.0
  0
LINE
  5
61F
100
AcDbEntity
  8
0
  6
BYBLOCK
 62
     0
100
AcDbLine
 10
101.0
 20
128.25
 30
0.0
 11
108.418121
 21
116.592953
 31
0.0
  0
MTEXT
  5
620
100
AcDbEntity
  8
0
  6
BYBLOCK
 62
     0
100
AcDbMText
 10
96.2
 20
128.25
 30
0.0
 40
3.5
 41
0.0
 71
     5
 72
     1
  1
\A1;\U+220514
  0
SOLID
  5
621
100
AcDbEntity
  8
0
  6
BYBLOCK
 62
     0
100
AcDbTrace
 10
108.699341
 20
116.771912
 30
0.0
 11
108.1369
 21
116.413995
 31
0.0
 12
109.491872
 22
114.90563
 32
0.0
 13
109.491872
 23
114.90563
 33
0.0
  0
LINE
  5
622
100
AcDbEntity
  8
0
  6
BYBLOCK
 62
     0
100
AcDbLine
 10
113.15
 20
109.0
 30
0.0
 11
113.35
 21
109.0
 31
0.0
  0
LINE
  5
623
100
AcDbEntity
  8
0
  6
BYBLOCK
 62
     0
100
AcDbLine
 10
113.25
 20
108.9
 30
0.0
 11
113.25
 21
109.1
 31
0.0
  0
POINT
  5
624
100
AcDbEntity
  8
DEFPOINTS
  6
BYBLOCK
 62
     0
100
AcDbPoint
 10
109.491872
 20
114.90563
 30
0.0
  0
POINT
  5
625
100
AcDbEntity
  8
DEFPOINTS
  6
BYBLOCK
 62
     0
100
AcDbPoint
 10
117.008128
 20
103.09437
 30
0.0
  0
ENDBLK
  5
627
100
AcDbEntity
  8
0
100
AcDbBlockEnd
  0
BLOCK
  5
631
100
AcDbEntity
  8
0
100
AcDbBlockBegin
  2
*D46
 70
     1
 10
0.0
 20
0.0
 30
0.0
  3
*D46
  1

  0
LINE
  5
629
100
AcDbEntity
  8
0
  6
BYBLOCK
 62
     0
100
AcDbLine
 10
181.75
 20
124.0
 30
0.0
 11
183.75
 21
124.0
 31
0.0
  0
LINE
  5
62A
100
AcDbEntity
  8
0
  6
BYBLOCK
 62
     0
100
AcDbLine
 10
183.75
 20
124.0
 30
0.0
 11
187.965161
 21
116.77401
 31
0.0
  0
MTEXT
  5
62B
100
AcDbEntity
  8
0
  6
BYBLOCK
 62
     0
100
AcDbMText
 10
178.95
 20
124.0
 30
0.0
 40
3.5
 41
0.0
 71
     5
 72
     1
  1
\A1;\U+220514
  0
SOLID
  5
62C
100
AcDbEntity
  8
0
  6
BYBLOCK
 62
     0
100
AcDbTrace
 10
188.253087
 20
116.941967
 30
0.0
 11
187.677234
 21
116.606053
 31
0.0
 12
188.972903
 22
115.046452
 32
0.0
 13
188.972903
 23
115.046452
 33
0.0
  0
LINE
  5
62D
100
AcDbEntity
  8
0
  6
BYBLOCK
 62
     0
100
AcDbLine
 10
192.4
 20
109.0
 30
0.0
 11
192.6
 21
109.0
 31
0.0
  0
LINE
  5
62E
100
AcDbEntity
  8
0
  6
BYBLOCK
 62
     0
100
AcDbLine
 10
192.5
 20
108.9
 30
0.0
 11
192.5
 21
109.1
 31
0.0
  0
POINT
  5
62F
100
AcDbEntity
  8
DEFPOINTS
  6
BYBLOCK
 62
     0
100
AcDbPoint
 10
188.972903
 20
115.046452
 30
0.0
  0
POINT
  5
630
100
AcDbEntity
  8
DEFPOINTS
  6
BYBLOCK
 62
     0
100
AcDbPoint
 10
196.027097
 20
102.953548
 30
0.0
  0
ENDBLK
  5
632
100
AcDbEntity
  8
0
100
AcDbBlockEnd
  0
BLOCK
  5
65D
100
AcDbEntity
  8
0
100
AcDbBlockBegin
  2
A$C3A00351B
 70
     0
 10
0.0
 20
0.0
 30
0.0
  3
A$C3A00351B
  1

  0
DIMENSION
  5
634
100
AcDbEntity
  8
0
100
AcDbDimension
  2
*D40
 10
52.9
 20
13.75
 30
0.0
 11
39.4
 21
3.0
 31
0.0
 12
-93.1
 22
-89.75
 32
0.0
 70
   132
  3
STANDARD
100
AcDbRadialDimension
 15
52.218896
 25
13.017813
 35
0.0
 40
0.0
1001
ACAD
1000
DSTYLE
1002
{
1070
    78
1070
     8
1070
   288
1070
     1
1070
   284
1070
     8
1070
   140
1040
2.0
1070
    73
1070
     0
1070
   272
1070
     2
1070
   147
1040
0.1
1070
    42
1040
0.1
1070
    44
1040
0.2
1070
    43
1040
0.4
1070
   271
1070
     2
1070
   141
1040
0.1
1070
    41
1040
2.0
1002
}
  0
DIMENSION
  5
635
100
AcDbEntity
  8
0
100
AcDbDimension
  2
*D45
 10
25.908128
 20
14.34437
 30
0.0
 11
5.1
 21
39.5
 31
0.0
 12
-91.1
 22
-88.75
 32
0.0
 70
   131
  3
STANDARD
100
AcDbDiametricDimension
 15
18.391871
 25
26.15563
 35
0.0
 40
0.0
1001
ACAD
1000
DSTYLE
1002
{
1070
    78
1070
     8
1070
   288
1070
     1
1070
   284
1070
     8
1070
   140
1040
2.0
1070
    73
1070
     0
1070
   272
1070
     2
1070
   147
1040
0.1
1070
    42
1040
0.1
1070
    44
1040
0.2
1070
    43
1040
0.4
1070
   271
1070
     2
1070
   141
1040
0.1
1070
    41
1040
2.0
1002
}
  0
DIMENSION
  5
636
100
AcDbEntity
  8
0
100
AcDbDimension
  2
*D38
 10
26.031768
 20
18.930199
 30
0.0
 11
4.4
 21
24.5
 31
0.0
 12
-91.1
 22
-88.75
 32
0.0
 70
   131
  3
STANDARD
100
AcDbDiametricDimension
 15
18.268231
 25
21.569801
 35
0.0
 40
0.0
1001
ACAD
1000
DSTYLE
1002
{
1070
    78
1070
     8
1070
   288
1070
     1
1070
   284
1070
     8
1070
   140
1040
2.0
1070
    73
1070
     0
1070
   272
1070
     2
1070
   147
1040
0.1
1070
    42
1040
0.1
1070
    44
1040
0.2
1070
    43
1040
0.4
1070
   271
1070
     2
1070
   141
1040
0.1
1070
    41
1040
2.0
1002
}
  0
DIMENSION
  5
637
100
AcDbEntity
  8
0
100
AcDbDimension
  2
*D37
 10
25.866277
 20
16.612792
 30
0.0
 11
4.1
 21
31.75
 31
0.0
 12
-91.1
 22
-88.75
 32
0.0
 70
   131
  3
STANDARD
100
AcDbDiametricDimension
 15
18.433722
 25
23.887208
 35
0.0
 40
0.0
1001
ACAD
1000
DSTYLE
1002
{
1070
    78
1070
     8
1070
   288
1070
     1
1070
   284
1070
     8
1070
   140
1040
2.0
1070
    73
1070
     0
1070
   272
1070
     2
1070
   147
1040
0.1
1070
    42
1040
0.1
1070
    44
1040
0.2
1070
    43
1040
0.4
1070
   271
1070
     2
1070
   141
1040
0.1
1070
    41
1040
2.0
1002
}
  0
CIRCLE
  5
638
100
AcDbEntity
  8
3
100
AcDbCircle
 10
22.15
 20
20.25
 30
0.0
 40
7.0
  0
CIRCLE
  5
639
100
AcDbEntity
  8
3
100
AcDbCircle
 10
22.15
 20
20.25
 30
0.0
 40
5.2
  0
LINE
  5
63A
100
AcDbEntity
  8
1
100
AcDbLine
 10
34.15
 20
20.25
 30
0.0
 11
10.4
 21
20.25
 31
0.0
  0
CIRCLE
  5
63B
100
AcDbEntity
  8
3
100
AcDbCircle
 10
22.15
 20
20.25
 30
0.0
 40
4.1
  0
LINE
  5
63C
100
AcDbEntity
  8
1
100
AcDbLine
 10
22.15
 20
29.75
 30
0.0
 11
22.15
 21
11.0
 31
0.0
  0
DIMENSION
  5
63D
100
AcDbEntity
  8
0
100
AcDbDimension
  2
*D41
 10
70.9
 20
13.75
 30
0.0
 11
82.9
 21
1.75
 31
0.0
 12
-91.1
 22
-89.75
 32
0.0
 70
   132
  3
STANDARD
100
AcDbRadialDimension
 15
71.478017
 25
12.933976
 35
0.0
 40
0.0
1001
ACAD
1000
DSTYLE
1002
{
1070
    78
1070
     8
1070
   288
1070
     1
1070
   284
1070
     8
1070
   140
1040
2.0
1070
    73
1070
     0
1070
   272
1070
     2
1070
   147
1040
0.1
1070
    42
1040
0.1
1070
    44
1040
0.2
1070
    43
1040
0.4
1070
   271
1070
     2
1070
   141
1040
0.1
1070
    41
1040
2.0
1002
}
  0
DIMENSION
  5
63E
100
AcDbEntity
  8
0
100
AcDbDimension
  2
*D46
 10
104.927097
 20
14.203548
 30
0.0
 11
87.85
 21
35.25
 31
0.0
 12
-91.1
 22
-88.75
 32
0.0
 70
   131
  3
STANDARD
100
AcDbDiametricDimension
 15
97.872902
 25
26.296452
 35
0.0
 40
0.0
1001
ACAD
1000
DSTYLE
1002
{
1070
    78
1070
     8
1070
   288
1070
     1
1070
   284
1070
     8
1070
   140
1040
2.0
1070
    73
1070
     0
1070
   272
1070
     2
1070
   147
1040
0.1
1070
    42
1040
0.1
1070
    44
1040
0.2
1070
    43
1040
0.4
1070
   271
1070
     2
1070
   141
1040
0.1
1070
    41
1040
2.0
1002
}
  0
DIMENSION
  5
63F
100
AcDbEntity
  8
0
100
AcDbDimension
  2
*D39
 10
103.949716
 20
17.039246
 30
0.0
 11
89.4
 21
28.75
 31
0.0
 12
-91.1
 22
-88.75
 32
0.0
 70
   131
  3
STANDARD
100
AcDbDiametricDimension
 15
98.850283
 25
23.460754
 35
0.0
 40
0.0
1001
ACAD
1000
DSTYLE
1002
{
1070
    78
1070
     8
1070
   288
1070
     1
1070
   284
1070
     8
1070
   140
1040
2.0
1070
    73
1070
     0
1070
   272
1070
     2
1070
   147
1040
0.1
1070
    42
1040
0.1
1070
    44
1040
0.2
1070
    43
1040
0.4
1070
   271
1070
     2
1070
   141
1040
0.1
1070
    41
1040
2.0
1002
}
  0
LINE
  5
640
100
AcDbEntity
  8
1
100
AcDbLine
 10
113.4
 20
20.25
 30
0.0
 11
89.65
 21
20.25
 31
0.0
  0
DIMENSION
  5
641
100
AcDbEntity
  8
0
100
AcDbDimension
  2
*D44
 10
71.9
 20
50.0
 30
0.0
 11
61.65
 21
50.0
 31
0.0
 12
-91.1
 22
-88.75
 32
0.0
 70
   128
  3
STANDARD
100
AcDbAlignedDimension
 13
51.9
 23
26.25
 33
0.0
 14
71.9
 24
26.25
 34
0.0
100
AcDbRotatedDimension
1001
ACAD
1000
DSTYLE
1002
{
1070
    78
1070
     8
1070
   288
1070
     1
1070
   284
1070
     8
1070
   140
1040
2.0
1070
    73
1070
     0
1070
   272
1070
     2
1070
   147
1040
0.1
1070
    42
1040
0.1
1070
    44
1040
0.2
1070
    43
1040
0.4
1070
   271
1070
     2
1070
   141
1040
0.1
1070
    41
1040
2.0
1002
}
  0
DIMENSION
  5
642
100
AcDbEntity
  8
0
100
AcDbDimension
  2
*D43
 10
56.9
 20
37.5
 30
0.0
 11
54.15
 21
37.5
 31
0.0
 12
-91.1
 22
-88.75
 32
0.0
 70
   128
  3
STANDARD
100
AcDbAlignedDimension
 13
51.9
 23
26.25
 33
0.0
 14
56.9
 24
25.45
 34
0.0
100
AcDbRotatedDimension
1001
ACAD
1000
DSTYLE
1002
{
1070
    78
1070
     8
1070
   288
1070
     1
1070
   284
1070
     8
1070
   140
1040
2.0
1070
    73
1070
     0
1070
   272
1070
     2
1070
   147
1040
0.1
1070
    42
1040
0.1
1070
    44
1040
0.2
1070
    43
1040
0.4
1070
   271
1070
     2
1070
   141
1040
0.1
1070
    41
1040
2.0
1002
}
  0
DIMENSION
  5
643
100
AcDbEntity
  8
0
100
AcDbDimension
  2
*D42
 10
71.9
 20
43.75
 30
0.0
 11
64.9
 21
43.75
 31
0.0
 12
-91.1
 22
-88.75
 32
0.0
 70
   128
  3
STANDARD
100
AcDbAlignedDimension
 13
56.9
 23
25.45
 33
0.0
 14
71.9
 24
25.75
 34
0.0
100
AcDbRotatedDimension
1001
ACAD
1000
DSTYLE
1002
{
1070
    78
1070
     8
1070
   288
1070
     1
1070
   284
1070
     8
1070
   140
1040
2.0
1070
    73
1070
     0
1070
   272
1070
     2
1070
   147
1040
0.1
1070
    42
1040
0.1
1070
    44
1040
0.2
1070
    43
1040
0.4
1070
   271
1070
     2
1070
   141
1040
0.1
1070
    41
1040
2.0
1002
}
  0
HATCH
  5
644
100
AcDbEntity
  8
0
100
AcDbHatch
 10
0.0
 20
0.0
 30
0.0
210
0.0
220
0.0
230
1.0
  2
ANSI31
 70
     0
 71
     1
 91
        1
 92
        7
 72
     1
 73
     1
 93
        8
 10
71.89999963873024
 20
16.14999998348328
 42
0.0
 10
56.89999963873026
 20
16.14999998348328
 42
0.0
 10
56.89999963873026
 20
15.04999998348327
 42
0.0
 10
51.89999963873026
 20
15.04999998348327
 42
0.0
 10
51.89999963873026
 20
14.24999998348327
 42
0.4142135623730951
 10
52.89999963873026
 20
13.24999998348327
 42
0.0
 10
70.89999963873026
 20
13.24999998348326
 42
0.4142135623730951
 10
71.89999963873026
 20
14.24999998348326
 42
0.0
 97
        8
330
645
330
650
330
64E
330
64D
330
64F
330
646
330
657
330
656
 75
     0
 76
     1
 52
0.0
 41
3.0
 77
     0
 78
     1
 53
45.0
 43
-91.1
 44
-88.75
 45
-0.2651650429449553
 46
0.2651650429449553
 79
     0
 47
0.125921
 98
        1
 10
62.65
 20
15.0
  0
LINE
  5
645
102
{ACAD_REACTORS
330
644
102
}
100
AcDbEntity
  8
3
100
AcDbLine
 10
71.9
 20
16.15
 30
0.0
 11
56.9
 21
16.15
 31
0.0
  0
LINE
  5
646
102
{ACAD_REACTORS
330
644
102
}
100
AcDbEntity
  8
3
100
AcDbLine
 10
52.9
 20
13.25
 30
0.0
 11
70.9
 21
13.25
 31
0.0
  0
LINE
  5
647
100
AcDbEntity
  8
3
100
AcDbLine
 10
71.9
 20
24.35
 30
0.0
 11
56.9
 21
24.35
 31
0.0
  0
LINE
  5
648
100
AcDbEntity
  8
3
100
AcDbLine
 10
52.9
 20
27.25
 30
0.0
 11
70.9
 21
27.25
 31
0.0
  0
LINE
  5
649
100
AcDbEntity
  8
1
100
AcDbLine
 10
49.15
 20
20.25
 30
0.0
 11
74.9
 21
20.25
 31
0.0
  0
LINE
  5
64A
100
AcDbEntity
  8
3
100
AcDbLine
 10
56.9
 20
24.35
 30
0.0
 11
56.9
 21
20.25
 31
0.0
  0
LINE
  5
64B
100
AcDbEntity
  8
3
100
AcDbLine
 10
51.9
 20
26.25
 30
0.0
 11
51.9
 21
20.25
 31
0.0
  0
LINE
  5
64C
100
AcDbEntity
  8
3
100
AcDbLine
 10
56.9
 20
16.15
 30
0.0
 11
56.9
 21
20.25
 31
0.0
  0
LINE
  5
64D
102
{ACAD_REACTORS
330
644
102
}
100
AcDbEntity
  8
3
100
AcDbLine
 10
51.9
 20
14.25
 30
0.0
 11
51.9
 21
20.25
 31
0.0
  0
LINE
  5
64E
102
{ACAD_REACTORS
330
644
102
}
100
AcDbEntity
  8
3
100
AcDbLine
 10
56.9
 20
15.05
 30
0.0
 11
51.9
 21
15.05
 31
0.0
  0
ARC
  5
64F
102
{ACAD_REACTORS
330
644
102
}
100
AcDbEntity
  8
3
100
AcDbCircle
 10
52.9
 20
14.25
 30
0.0
 40
1.0
100
AcDbArc
 50
180.0
 51
270.0
  0
LINE
  5
650
102
{ACAD_REACTORS
330
644
102
}
100
AcDbEntity
  8
3
100
AcDbLine
 10
56.9
 20
16.15
 30
0.0
 11
56.9
 21
15.05
 31
0.0
  0
LINE
  5
651
100
AcDbEntity
  8
3
100
AcDbLine
 10
56.9
 20
25.45
 30
0.0
 11
51.9
 21
25.45
 31
0.0
  0
ARC
  5
652
100
AcDbEntity
  8
3
100
AcDbCircle
 10
52.9
 20
26.25
 30
0.0
 40
1.0
100
AcDbArc
 50
90.0
 51
180.0
  0
LINE
  5
653
100
AcDbEntity
  8
3
100
AcDbLine
 10
56.9
 20
24.35
 30
0.0
 11
56.9
 21
25.45
 31
0.0
  0
LINE
  5
654
100
AcDbEntity
  8
3
100
AcDbLine
 10
71.9
 20
24.35
 30
0.0
 11
71.9
 21
20.25
 31
0.0
  0
LINE
  5
655
100
AcDbEntity
  8
3
100
AcDbLine
 10
71.9
 20
16.15
 30
0.0
 11
71.9
 21
20.25
 31
0.0
  0
LINE
  5
656
102
{ACAD_REACTORS
330
644
102
}
100
AcDbEntity
  8
3
100
AcDbLine
 10
71.9
 20
14.25
 30
0.0
 11
71.9
 21
16.15
 31
0.0
  0
ARC
  5
657
102
{ACAD_REACTORS
330
644
102
}
100
AcDbEntity
  8
3
100
AcDbCircle
 10
70.9
 20
14.25
 30
0.0
 40
1.0
100
AcDbArc
 50
270.0
 51
0.0
  0
ARC
  5
658
100
AcDbEntity
  8
3
100
AcDbCircle
 10
70.9
 20
26.25
 30
0.0
 40
1.0
100
AcDbArc
 50
0.0
 51
90.0
  0
LINE
  5
659
100
AcDbEntity
  8
3
100
AcDbLine
 10
71.9
 20
26.25
 30
0.0
 11
71.9
 21
24.35
 31
0.0
  0
CIRCLE
  5
65A
100
AcDbEntity
  8
3
100
AcDbCircle
 10
101.4
 20
20.25
 30
0.0
 40
7.0
  0
LINE
  5
65B
100
AcDbEntity
  8
1
100
AcDbLine
 10
101.4
 20
29.75
 30
0.0
 11
101.4
 21
11.0
 31
0.0
  0
CIRCLE
  5
65C
100
AcDbEntity
  8
3
100
AcDbCircle
 10
101.4
 20
20.25
 30
0.0
 40
4.1
  0
ENDBLK
  5
65E
100
AcDbEntity
  8
0
100
AcDbBlockEnd
  0
BLOCK
  5
6F0
100
AcDbEntity
  8
0
100
AcDbBlockBegin
  2
*D48
 70
     1
 10
0.0
 20
0.0
 30
0.0
  3
*D48
  1

  0
LINE
  5
6F1
100
AcDbEntity
  8
0
  6
BYBLOCK
 62
     0
100
AcDbLine
 10
78.143141
 20
38.829657
 30
0.0
 11
76.780933
 21
37.365284
 31
0.0
  0
MTEXT
  5
6F2
100
AcDbEntity
  8
0
  6
BYBLOCK
 62
     0
100
AcDbMText
 10
66.686453
 20
30.276217
 30
0.0
 40
10.0
 41
0.0
 71
     5
 72
     1
  1
\A1;R1
  7
BIGFONT
  0
SOLID
  5
6F3
100
AcDbEntity
  8
0
  6
BYBLOCK
 62
     0
100
AcDbTrace
 10
77.899079
 20
39.056692
 30
0.0
 11
78.387203
 21
38.602623
 31
0.0
 12
79.505349
 22
40.294031
 32
0.0
 13
79.505349
 23
40.294031
 33
0.0
  0
LINE
  5
6F4
100
AcDbEntity
  8
0
  6
BYBLOCK
 62
     0
100
AcDbLine
 10
80.086453
 20
41.026217
 30
0.0
 11
80.286453
 21
41.026217
 31
0.0
  0
LINE
  5
6F5
100
AcDbEntity
  8
0
  6
BYBLOCK
 62
     0
100
AcDbLine
 10
80.186453
 20
40.926217
 30
0.0
 11
80.186453
 21
41.126217
 31
0.0
  0
POINT
  5
6F6
100
AcDbEntity
  8
DEFPOINTS
  6
BYBLOCK
 62
     0
100
AcDbPoint
 10
79.505349
 20
40.294031
 30
0.0
  0
POINT
  5
6F7
100
AcDbEntity
  8
DEFPOINTS
  6
BYBLOCK
 62
     0
100
AcDbPoint
 10
80.186453
 20
41.026217
 30
0.0
  0
ENDBLK
  5
6F8
100
AcDbEntity
  8
0
100
AcDbBlockEnd
  0
BLOCK
  5
6F9
100
AcDbEntity
  8
0
100
AcDbBlockBegin
  2
*D49
 70
     1
 10
0.0
 20
0.0
 30
0.0
  3
*D49
  1

  0
LINE
  5
6FA
100
AcDbEntity
  8
0
  6
BYBLOCK
 62
     0
100
AcDbLine
 10
52.12083
 20
43.30791
 30
0.0
 11
46.752076
 21
51.744525
 31
0.0
  0
MTEXT
  5
6FB
100
AcDbEntity
  8
0
  6
BYBLOCK
 62
     0
100
AcDbMText
 10
32.386453
 20
66.776217
 30
0.0
 40
10.0
 41
0.0
 71
     5
 72
     1
  1
\A1;\U+220514
  7
BIGFONT
  0
SOLID
  5
6FC
100
AcDbEntity
  8
0
  6
BYBLOCK
 62
     0
100
AcDbTrace
 10
52.402051
 20
43.486868
 30
0.0
 11
51.83961
 21
43.128951
 31
0.0
 12
53.194581
 22
41.620587
 32
0.0
 13
53.194581
 23
41.620587
 33
0.0
  0
SOLID
  5
6FD
100
AcDbEntity
  8
0
  6
BYBLOCK
 62
     0
100
AcDbTrace
 10
47.033296
 20
51.923483
 30
0.0
 11
46.470855
 21
51.565566
 31
0.0
 12
45.678325
 22
53.431848
 32
0.0
 13
45.678325
 23
53.431848
 33
0.0
  0
POINT
  5
6FE
100
AcDbEntity
  8
DEFPOINTS
  6
BYBLOCK
 62
     0
100
AcDbPoint
 10
45.678325
 20
53.431848
 30
0.0
  0
POINT
  5
6FF
100
AcDbEntity
  8
DEFPOINTS
  6
BYBLOCK
 62
     0
100
AcDbPoint
 10
53.194581
 20
41.620587
 30
0.0
  0
ENDBLK
  5
700
100
AcDbEntity
  8
0
100
AcDbBlockEnd
  0
BLOCK
  5
701
100
AcDbEntity
  8
0
100
AcDbBlockBegin
  2
*D50
 70
     1
 10
0.0
 20
0.0
 30
0.0
  3
*D50
  1

  0
LINE
  5
702
100
AcDbEntity
  8
0
  6
BYBLOCK
 62
     0
100
AcDbLine
 10
51.424676
 20
46.850222
 30
0.0
 11
47.44823
 21
48.202213
 31
0.0
  0
MTEXT
  5
703
100
AcDbEntity
  8
0
  6
BYBLOCK
 62
     0
100
AcDbMText
 10
31.686453
 20
51.776217
 30
0.0
 40
10.0
 41
0.0
 71
     5
 72
     1
  1
\A1;\U+22058.2
  7
BIGFONT
  0
SOLID
  5
704
100
AcDbEntity
  8
0
  6
BYBLOCK
 62
     0
100
AcDbTrace
 10
51.531977
 20
47.165813
 30
0.0
 11
51.317375
 21
46.534631
 31
0.0
 12
53.318221
 22
46.206416
 32
0.0
 13
53.318221
 23
46.206416
 33
0.0
  0
SOLID
  5
705
100
AcDbEntity
  8
0
  6
BYBLOCK
 62
     0
100
AcDbTrace
 10
47.555531
 20
48.517804
 30
0.0
 11
47.340929
 21
47.886622
 31
0.0
 12
45.554685
 22
48.846019
 32
0.0
 13
45.554685
 23
48.846019
 33
0.0
  0
POINT
  5
706
100
AcDbEntity
  8
DEFPOINTS
  6
BYBLOCK
 62
     0
100
AcDbPoint
 10
45.554685
 20
48.846019
 30
0.0
  0
POINT
  5
707
100
AcDbEntity
  8
DEFPOINTS
  6
BYBLOCK
 62
     0
100
AcDbPoint
 10
53.318221
 20
46.206416
 30
0.0
  0
ENDBLK
  5
708
100
AcDbEntity
  8
0
100
AcDbBlockEnd
  0
BLOCK
  5
709
100
AcDbEntity
  8
0
100
AcDbBlockBegin
  2
*D51
 70
     1
 10
0.0
 20
0.0
 30
0.0
  3
*D51
  1

  0
LINE
  5
70A
100
AcDbEntity
  8
0
  6
BYBLOCK
 62
     0
100
AcDbLine
 10
51.723393
 20
45.287936
 30
0.0
 11
47.149513
 21
49.764499
 31
0.0
  0
MTEXT
  5
70B
100
AcDbEntity
  8
0
  6
BYBLOCK
 62
     0
100
AcDbMText
 10
31.386453
 20
59.026217
 30
0.0
 40
10.0
 41
0.0
 71
     5
 72
     1
  1
\A1;\U+220510.4
  7
BIGFONT
  0
SOLID
  5
70C
100
AcDbEntity
  8
0
  6
BYBLOCK
 62
     0
100
AcDbTrace
 10
51.956547
 20
45.526159
 30
0.0
 11
51.490239
 21
45.049713
 31
0.0
 12
53.152731
 22
43.88901
 32
0.0
 13
53.152731
 23
43.88901
 33
0.0
  0
SOLID
  5
70D
100
AcDbEntity
  8
0
  6
BYBLOCK
 62
     0
100
AcDbTrace
 10
47.382667
 20
50.002722
 30
0.0
 11
46.916359
 21
49.526276
 31
0.0
 12
45.720175
 22
51.163425
 32
0.0
 13
45.720175
 23
51.163425
 33
0.0
  0
POINT
  5
70E
100
AcDbEntity
  8
DEFPOINTS
  6
BYBLOCK
 62
     0
100
AcDbPoint
 10
45.720175
 20
51.163425
 30
0.0
  0
POINT
  5
70F
100
AcDbEntity
  8
DEFPOINTS
  6
BYBLOCK
 62
     0
100
AcDbPoint
 10
53.152731
 20
43.88901
 30
0.0
  0
ENDBLK
  5
710
100
AcDbEntity
  8
0
100
AcDbBlockEnd
  0
BLOCK
  5
711
100
AcDbEntity
  8
0
100
AcDbBlockBegin
  2
*D52
 70
     1
 10
0.0
 20
0.0
 30
0.0
  3
*D52
  1

  0
LINE
  5
712
100
AcDbEntity
  8
0
  6
BYBLOCK
 62
     0
100
AcDbLine
 10
99.920505
 20
38.578144
 30
0.0
 11
101.07654
 21
36.946095
 31
0.0
  0
MTEXT
  5
713
100
AcDbEntity
  8
0
  6
BYBLOCK
 62
     0
100
AcDbMText
 10
110.186453
 20
29.026217
 30
0.0
 40
10.0
 41
0.0
 71
     5
 72
     1
  1
\A1;R1
  7
BIGFONT
  0
SOLID
  5
714
100
AcDbEntity
  8
0
  6
BYBLOCK
 62
     0
100
AcDbTrace
 10
100.192513
 20
38.770816
 30
0.0
 11
99.648497
 21
38.385471
 31
0.0
 12
98.76447
 22
40.210193
 32
0.0
 13
98.76447
 23
40.210193
 33
0.0
  0
LINE
  5
715
100
AcDbEntity
  8
0
  6
BYBLOCK
 62
     0
100
AcDbLine
 10
98.086453
 20
41.026217
 30
0.0
 11
98.286453
 21
41.026217
 31
0.0
  0
LINE
  5
716
100
AcDbEntity
  8
0
  6
BYBLOCK
 62
     0
100
AcDbLine
 10
98.186453
 20
40.926217
 30
0.0
 11
98.186453
 21
41.126217
 31
0.0
  0
POINT
  5
717
100
AcDbEntity
  8
DEFPOINTS
  6
BYBLOCK
 62
     0
100
AcDbPoint
 10
98.76447
 20
40.210193
 30
0.0
  0
POINT
  5
718
100
AcDbEntity
  8
DEFPOINTS
  6
BYBLOCK
 62
     0
100
AcDbPoint
 10
98.186453
 20
41.026217
 30
0.0
  0
ENDBLK
  5
719
100
AcDbEntity
  8
0
100
AcDbBlockEnd
  0
BLOCK
  5
71A
100
AcDbEntity
  8
0
100
AcDbBlockBegin
  2
*D53
 70
     1
 10
0.0
 20
0.0
 30
0.0
  3
*D53
  1

  0
LINE
  5
71B
100
AcDbEntity
  8
0
  6
BYBLOCK
 62
     0
100
AcDbLine
 10
131.205808
 20
43.207323
 30
0.0
 11
126.167098
 21
51.845112
 31
0.0
  0
MTEXT
  5
71C
100
AcDbEntity
  8
0
  6
BYBLOCK
 62
     0
100
AcDbMText
 10
115.136453
 20
62.526217
 30
0.0
 40
10.0
 41
0.0
 71
     5
 72
     1
  1
\A1;\U+220514
  7
BIGFONT
  0
SOLID
  5
71D
100
AcDbEntity
  8
0
  6
BYBLOCK
 62
     0
100
AcDbTrace
 10
131.493734
 20
43.37528
 30
0.0
 11
130.917882
 21
43.039366
 31
0.0
 12
132.21355
 22
41.479765
 32
0.0
 13
132.21355
 23
41.479765
 33
0.0
  0
SOLID
  5
71E
100
AcDbEntity
  8
0
  6
BYBLOCK
 62
     0
100
AcDbTrace
 10
126.455024
 20
52.013069
 30
0.0
 11
125.879172
 21
51.677155
 31
0.0
 12
125.159356
 22
53.57267
 32
0.0
 13
125.159356
 23
53.57267
 33
0.0
  0
POINT
  5
71F
100
AcDbEntity
  8
DEFPOINTS
  6
BYBLOCK
 62
     0
100
AcDbPoint
 10
125.159356
 20
53.57267
 30
0.0
  0
POINT
  5
720
100
AcDbEntity
  8
DEFPOINTS
  6
BYBLOCK
 62
     0
100
AcDbPoint
 10
132.21355
 20
41.479765
 30
0.0
  0
ENDBLK
  5
721
100
AcDbEntity
  8
0
100
AcDbBlockEnd
  0
BLOCK
  5
722
100
AcDbEntity
  8
0
100
AcDbBlockBegin
  2
*D54
 70
     1
 10
0.0
 20
0.0
 30
0.0
  3
*D54
  1

  0
LINE
  5
723
100
AcDbEntity
  8
0
  6
BYBLOCK
 62
     0
100
AcDbLine
 10
129.992406
 20
45.881685
 30
0.0
 11
127.380501
 21
49.17075
 31
0.0
  0
MTEXT
  5
724
100
AcDbEntity
  8
0
  6
BYBLOCK
 62
     0
100
AcDbMText
 10
116.686453
 20
56.026217
 30
0.0
 40
10.0
 41
0.0
 71
     5
 72
     1
  1
\A1;\U+22058.2
  7
BIGFONT
  0
SOLID
  5
725
100
AcDbEntity
  8
0
  6
BYBLOCK
 62
     0
100
AcDbTrace
 10
130.253442
 20
46.088979
 30
0.0
 11
129.731369
 21
45.674391
 31
0.0
 12
131.23617
 22
44.315463
 32
0.0
 13
131.23617
 23
44.315463
 33
0.0
  0
SOLID
  5
726
100
AcDbEntity
  8
0
  6
BYBLOCK
 62
     0
100
AcDbTrace
 10
127.641537
 20
49.378044
 30
0.0
 11
127.119464
 21
48.963456
 31
0.0
 12
126.136736
 22
50.736972
 32
0.0
 13
126.136736
 23
50.736972
 33
0.0
  0
POINT
  5
727
100
AcDbEntity
  8
DEFPOINTS
  6
BYBLOCK
 62
     0
100
AcDbPoint
 10
126.136736
 20
50.736972
 30
0.0
  0
POINT
  5
728
100
AcDbEntity
  8
DEFPOINTS
  6
BYBLOCK
 62
     0
100
AcDbPoint
 10
131.23617
 20
44.315463
 30
0.0
  0
ENDBLK
  5
729
100
AcDbEntity
  8
0
100
AcDbBlockEnd
  0
BLOCK
  5
72A
100
AcDbEntity
  8
0
100
AcDbBlockBegin
  2
*D55
 70
     1
 10
0.0
 20
0.0
 30
0.0
  3
*D55
  1

  0
LINE
  5
72B
100
AcDbEntity
  8
0
  6
BYBLOCK
 62
     0
100
AcDbLine
 10
79.186453
 20
53.626217
 30
0.0
 11
79.186453
 21
77.476217
 31
0.0
  0
LINE
  5
72C
100
AcDbEntity
  8
0
  6
BYBLOCK
 62
     0
100
AcDbLine
 10
99.186453
 20
53.626217
 30
0.0
 11
99.186453
 21
77.476217
 31
0.0
  0
LINE
  5
72D
100
AcDbEntity
  8
0
  6
BYBLOCK
 62
     0
100
AcDbLine
 10
81.186453
 20
77.276217
 30
0.0
 11
81.336453
 21
77.276217
 31
0.0
  0
LINE
  5
72E
100
AcDbEntity
  8
0
  6
BYBLOCK
 62
     0
100
AcDbLine
 10
97.186453
 20
77.276217
 30
0.0
 11
96.536453
 21
77.276217
 31
0.0
  0
MTEXT
  5
72F
100
AcDbEntity
  8
0
  6
BYBLOCK
 62
     0
100
AcDbMText
 10
88.936453
 20
77.276217
 30
0.0
 40
10.0
 41
0.0
 71
     5
 72
     1
  1
\A1;20
  7
BIGFONT
  0
SOLID
  5
730
100
AcDbEntity
  8
0
  6
BYBLOCK
 62
     0
100
AcDbTrace
 10
81.186453
 20
77.609551
 30
0.0
 11
81.186453
 21
76.942884
 31
0.0
 12
79.186453
 22
77.276217
 32
0.0
 13
79.186453
 23
77.276217
 33
0.0
  0
SOLID
  5
731
100
AcDbEntity
  8
0
  6
BYBLOCK
 62
     0
100
AcDbTrace
 10
97.186453
 20
77.609551
 30
0.0
 11
97.186453
 21
76.942884
 31
0.0
 12
99.186453
 22
77.276217
 32
0.0
 13
99.186453
 23
77.276217
 33
0.0
  0
POINT
  5
732
100
AcDbEntity
  8
DEFPOINTS
  6
BYBLOCK
 62
     0
100
AcDbPoint
 10
79.186453
 20
53.526217
 30
0.0
  0
POINT
  5
733
100
AcDbEntity
  8
DEFPOINTS
  6
BYBLOCK
 62
     0
100
AcDbPoint
 10
99.186453
 20
53.526217
 30
0.0
  0
POINT
  5
734
100
AcDbEntity
  8
DEFPOINTS
  6
BYBLOCK
 62
     0
100
AcDbPoint
 10
99.186453
 20
77.276217
 30
0.0
  0
ENDBLK
  5
735
100
AcDbEntity
  8
0
100
AcDbBlockEnd
  0
BLOCK
  5
736
100
AcDbEntity
  8
0
100
AcDbBlockBegin
  2
*D56
 70
     1
 10
0.0
 20
0.0
 30
0.0
  3
*D56
  1

  0
LINE
  5
737
100
AcDbEntity
  8
0
  6
BYBLOCK
 62
     0
100
AcDbLine
 10
79.186453
 20
53.626217
 30
0.0
 11
79.186453
 21
64.976217
 31
0.0
  0
LINE
  5
738
100
AcDbEntity
  8
0
  6
BYBLOCK
 62
     0
100
AcDbLine
 10
84.186453
 20
52.826217
 30
0.0
 11
84.186453
 21
64.976217
 31
0.0
  0
LINE
  5
739
100
AcDbEntity
  8
0
  6
BYBLOCK
 62
     0
100
AcDbLine
 10
81.186453
 20
64.776217
 30
0.0
 11
82.186453
 21
64.776217
 31
0.0
  0
MTEXT
  5
73A
100
AcDbEntity
  8
0
  6
BYBLOCK
 62
     0
100
AcDbMText
 10
81.436453
 20
64.776217
 30
0.0
 40
10.0
 41
0.0
 71
     5
 72
     1
  1
\A1;5
  7
BIGFONT
  0
SOLID
  5
73B
100
AcDbEntity
  8
0
  6
BYBLOCK
 62
     0
100
AcDbTrace
 10
81.186453
 20
65.109551
 30
0.0
 11
81.186453
 21
64.442884
 31
0.0
 12
79.186453
 22
64.776217
 32
0.0
 13
79.186453
 23
64.776217
 33
0.0
  0
SOLID
  5
73C
100
AcDbEntity
  8
0
  6
BYBLOCK
 62
     0
100
AcDbTrace
 10
82.186453
 20
65.109551
 30
0.0
 11
82.186453
 21
64.442884
 31
0.0
 12
84.186453
 22
64.776217
 32
0.0
 13
84.186453
 23
64.776217
 33
0.0
  0
POINT
  5
73D
100
AcDbEntity
  8
DEFPOINTS
  6
BYBLOCK
 62
     0
100
AcDbPoint
 10
79.186453
 20
53.526217
 30
0.0
  0
POINT
  5
73E
100
AcDbEntity
  8
DEFPOINTS
  6
BYBLOCK
 62
     0
100
AcDbPoint
 10
84.186453
 20
52.726217
 30
0.0
  0
POINT
  5
73F
100
AcDbEntity
  8
DEFPOINTS
  6
BYBLOCK
 62
     0
100
AcDbPoint
 10
84.186453
 20
64.776217
 30
0.0
  0
ENDBLK
  5
740
100
AcDbEntity
  8
0
100
AcDbBlockEnd
  0
BLOCK
  5
741
100
AcDbEntity
  8
0
100
AcDbBlockBegin
  2
*D57
 70
     1
 10
0.0
 20
0.0
 30
0.0
  3
*D57
  1

  0
LINE
  5
742
100
AcDbEntity
  8
0
  6
BYBLOCK
 62
     0
100
AcDbLine
 10
84.186453
 20
52.826217
 30
0.0
 11
84.186453
 21
71.226217
 31
0.0
  0
LINE
  5
743
100
AcDbEntity
  8
0
  6
BYBLOCK
 62
     0
100
AcDbLine
 10
99.186453
 20
53.126217
 30
0.0
 11
99.186453
 21
71.226217
 31
0.0
  0
LINE
  5
744
100
AcDbEntity
  8
0
  6
BYBLOCK
 62
     0
100
AcDbLine
 10
86.186453
 20
71.026217
 30
0.0
 11
86.286453
 21
71.026217
 31
0.0
  0
LINE
  5
745
100
AcDbEntity
  8
0
  6
BYBLOCK
 62
     0
100
AcDbLine
 10
97.186453
 20
71.026217
 30
0.0
 11
97.086453
 21
71.026217
 31
0.0
  0
MTEXT
  5
746
100
AcDbEntity
  8
0
  6
BYBLOCK
 62
     0
100
AcDbMText
 10
92.186453
 20
71.026217
 30
0.0
 40
10.0
 41
0.0
 71
     5
 72
     1
  1
\A1;15
  7
BIGFONT
  0
SOLID
  5
747
100
AcDbEntity
  8
0
  6
BYBLOCK
 62
     0
100
AcDbTrace
 10
86.186453
 20
71.359551
 30
0.0
 11
86.186453
 21
70.692884
 31
0.0
 12
84.186453
 22
71.026217
 32
0.0
 13
84.186453
 23
71.026217
 33
0.0
  0
SOLID
  5
748
100
AcDbEntity
  8
0
  6
BYBLOCK
 62
     0
100
AcDbTrace
 10
97.186453
 20
71.359551
 30
0.0
 11
97.186453
 21
70.692884
 31
0.0
 12
99.186453
 22
71.026217
 32
0.0
 13
99.186453
 23
71.026217
 33
0.0
  0
POINT
  5
749
100
AcDbEntity
  8
DEFPOINTS
  6
BYBLOCK
 62
     0
100
AcDbPoint
 10
84.186453
 20
52.726217
 30
0.0
  0
POINT
  5
74A
100
AcDbEntity
  8
DEFPOINTS
  6
BYBLOCK
 62
     0
100
AcDbPoint
 10
99.186453
 20
53.026217
 30
0.0
  0
POINT
  5
74B
100
AcDbEntity
  8
DEFPOINTS
  6
BYBLOCK
 62
     0
100
AcDbPoint
 10
99.186453
 20
71.026217
 30
0.0
  0
ENDBLK
  5
74C
100
AcDbEntity
  8
0
100
AcDbBlockEnd
  0
BLOCK
  5
759
100
AcDbEntity
  8
0
100
AcDbBlockBegin
  2
*D58
 70
     1
 10
0.0
 20
0.0
 30
0.0
  3
*D58
  1

  0
LINE
  5
74E
100
AcDbEntity
  8
0
  6
BYBLOCK
 62
     0
100
AcDbLine
 10
128.15
 20
116.25
 30
0.0
 11
108.9
 21
116.25
 31
0.0
  0
LINE
  5
74F
100
AcDbEntity
  8
0
  6
BYBLOCK
 62
     0
100
AcDbLine
 10
128.15
 20
114.75
 30
0.0
 11
108.9
 21
114.75
 31
0.0
  0
LINE
  5
750
100
AcDbEntity
  8
0
  6
BYBLOCK
 62
     0
100
AcDbLine
 10
109.1
 20
112.75
 30
0.0
 11
109.1
 21
110.75
 31
0.0
  0
LINE
  5
751
100
AcDbEntity
  8
0
  6
BYBLOCK
 62
     0
100
AcDbLine
 10
109.1
 20
118.25
 30
0.0
 11
109.1
 21
121.0
 31
0.0
  0
LINE
  5
752
100
AcDbEntity
  8
0
  6
BYBLOCK
 62
     0
100
AcDbLine
 10
109.1
 20
121.0
 30
0.0
 11
111.1
 21
121.0
 31
0.0
  0
SOLID
  5
753
100
AcDbEntity
  8
0
  6
BYBLOCK
 62
     0
100
AcDbTrace
 10
108.766667
 20
112.75
 30
0.0
 11
109.433333
 21
112.75
 31
0.0
 12
109.1
 22
114.75
 32
0.0
 13
109.1
 23
114.75
 33
0.0
  0
SOLID
  5
754
100
AcDbEntity
  8
0
  6
BYBLOCK
 62
     0
100
AcDbTrace
 10
108.766667
 20
118.25
 30
0.0
 11
109.433333
 21
118.25
 31
0.0
 12
109.1
 22
116.25
 32
0.0
 13
109.1
 23
116.25
 33
0.0
  0
MTEXT
  5
755
100
AcDbEntity
  8
0
  6
BYBLOCK
 62
     0
100
AcDbMText
 10
113.25
 20
121.0
 30
0.0
 40
3.5
 41
0.0
 71
     5
 72
     1
  1
\A1;1.5
  0
POINT
  5
756
100
AcDbEntity
  8
DEFPOINTS
  6
BYBLOCK
 62
     0
100
AcDbPoint
 10
128.25
 20
116.25
 30
0.0
  0
POINT
  5
757
100
AcDbEntity
  8
DEFPOINTS
  6
BYBLOCK
 62
     0
100
AcDbPoint
 10
128.25
 20
114.75
 30
0.0
  0
POINT
  5
758
100
AcDbEntity
  8
DEFPOINTS
  6
BYBLOCK
 62
     0
100
AcDbPoint
 10
109.1
 20
114.75
 30
0.0
  0
ENDBLK
  5
75A
100
AcDbEntity
  8
0
100
AcDbBlockEnd
  0
BLOCK
  5
784
100
AcDbEntity
  8
0
100
AcDbBlockBegin
  2
A$C549C4216
 70
     0
 10
0.0
 20
0.0
 30
0.0
  3
A$C549C4216
  1

  0
LINE
  5
75C
100
AcDbEntity
  8
3
100
AcDbLine
 10
64.0
 20
8.25
 30
0.0
 11
48.0
 21
8.25
 31
0.0
  0
LINE
  5
75D
100
AcDbEntity
  8
3
100
AcDbLine
 10
64.0
 20
2.25
 30
0.0
 11
48.0
 21
2.25
 31
0.0
  0
LINE
  5
75E
100
AcDbEntity
  8
1
100
AcDbLine
 10
41.75
 20
5.25
 30
0.0
 11
66.0
 21
5.25
 31
0.0
  0
LINE
  5
75F
100
AcDbEntity
  8
1
100
AcDbLine
 10
5.5
 20
10.25
 30
0.0
 11
5.5
 21
0.0
 31
0.0
  0
CIRCLE
  5
760
100
AcDbEntity
  8
3
100
AcDbCircle
 10
5.5
 20
5.25
 30
0.0
 40
4.0
  0
LINE
  5
761
100
AcDbEntity
  8
3
100
AcDbLine
 10
9.429059
 20
4.5
 30
0.0
 11
1.570942
 21
4.5
 31
0.0
  0
LINE
  5
762
100
AcDbEntity
  8
3
100
AcDbLine
 10
9.429059
 20
6.0
 30
0.0
 11
1.570942
 21
6.0
 31
0.0
  0
LINE
  5
763
100
AcDbEntity
  8
1
100
AcDbLine
 10
0.0
 20
5.25
 30
0.0
 11
11.25
 21
5.25
 31
0.0
  0
DIMENSION
  5
764
100
AcDbEntity
  8
0
100
AcDbDimension
  2
*D58
 10
25.85
 20
4.5
 30
0.0
 11
30.0
 21
10.75
 31
0.0
 12
-83.25
 22
-110.25
 32
0.0
 70
   128
  3
STANDARD
100
AcDbAlignedDimension
 13
45.0
 23
6.0
 33
0.0
 14
45.0
 24
4.5
 34
0.0
 50
90.0
100
AcDbRotatedDimension
1001
ACAD
1000
DSTYLE
1002
{
1070
    78
1070
     8
1070
   288
1070
     1
1070
   284
1070
     8
1070
   140
1040
2.0
1070
    73
1070
     0
1070
   272
1070
     2
1070
   147
1040
0.1
1070
    42
1040
0.1
1070
    44
1040
0.2
1070
    43
1040
0.4
1070
   271
1070
     2
1070
   141
1040
0.1
1070
    41
1040
2.0
1002
}
  0
LINE
  5
765
100
AcDbEntity
  8
3
100
AcDbLine
 10
45.0
 20
1.25
 30
0.0
 11
45.0
 21
4.5
 31
0.0
  0
LINE
  5
766
100
AcDbEntity
  8
3
100
AcDbLine
 10
48.0
 20
5.25
 30
0.0
 11
48.0
 21
1.25
 31
0.0
  0
LINE
  5
767
100
AcDbEntity
  8
3
100
AcDbLine
 10
48.0
 20
1.25
 30
0.0
 11
45.0
 21
1.25
 31
0.0
  0
LINE
  5
768
100
AcDbEntity
  8
3
100
AcDbLine
 10
45.0
 20
6.0
 30
0.0
 11
46.0
 21
6.0
 31
0.0
  0
LINE
  5
769
100
AcDbEntity
  8
3
100
AcDbLine
 10
48.0
 20
9.25
 30
0.0
 11
45.0
 21
9.25
 31
0.0
  0
LINE
  5
76A
100
AcDbEntity
  8
3
100
AcDbLine
 10
45.0
 20
4.5
 30
0.0
 11
46.0
 21
4.5
 31
0.0
  0
LINE
  5
76B
100
AcDbEntity
  8
3
100
AcDbLine
 10
45.0
 20
9.25
 30
0.0
 11
45.0
 21
6.0
 31
0.0
  0
LINE
  5
76C
100
AcDbEntity
  8
3
100
AcDbLine
 10
48.0
 20
5.25
 30
0.0
 11
48.0
 21
9.25
 31
0.0
  0
LINE
  5
76D
100
AcDbEntity
  8
3
100
AcDbLine
 10
46.0
 20
6.0
 30
0.0
 11
46.0
 21
5.25
 31
0.0
  0
LINE
  5
76E
100
AcDbEntity
  8
3
100
AcDbLine
 10
46.0
 20
4.5
 30
0.0
 11
46.0
 21
5.25
 31
0.0
  0
LINE
  5
76F
100
AcDbEntity
  8
3
100
AcDbLine
 10
64.0
 20
5.25
 30
0.0
 11
64.0
 21
2.25
 31
0.0
  0
LINE
  5
770
100
AcDbEntity
  8
3
100
AcDbLine
 10
72.0
 20
7.75
 30
0.0
 11
64.0
 21
7.75
 31
0.0
  0
LINE
  5
771
100
AcDbEntity
  8
3
100
AcDbLine
 10
72.75
 20
7.0
 30
0.0
 11
64.75
 21
7.0
 31
0.0
  0
LINE
  5
772
100
AcDbEntity
  8
3
100
AcDbLine
 10
72.75
 20
3.5
 30
0.0
 11
64.75
 21
3.5
 31
0.0
  0
LINE
  5
773
100
AcDbEntity
  8
3
100
AcDbLine
 10
72.0
 20
2.75
 30
0.0
 11
64.0
 21
2.75
 31
0.0
  0
LINE
  5
774
100
AcDbEntity
  8
1
100
AcDbLine
 10
66.25
 20
5.25
 30
0.0
 11
74.5
 21
5.25
 31
0.0
  0
LINE
  5
775
100
AcDbEntity
  8
3
100
AcDbLine
 10
64.75
 20
5.25
 30
0.0
 11
64.75
 21
7.75
 31
0.0
  0
LINE
  5
776
100
AcDbEntity
  8
3
100
AcDbLine
 10
64.0
 20
5.25
 30
0.0
 11
64.0
 21
8.25
 31
0.0
  0
LINE
  5
777
100
AcDbEntity
  8
3
100
AcDbLine
 10
64.75
 20
5.25
 30
0.0
 11
64.75
 21
2.75
 31
0.0
  0
LINE
  5
778
100
AcDbEntity
  8
3
100
AcDbLine
 10
73.0
 20
5.25
 30
0.0
 11
73.0
 21
6.75
 31
0.0
  0
LINE
  5
779
100
AcDbEntity
  8
3
100
AcDbLine
 10
72.0
 20
5.25
 30
0.0
 11
72.0
 21
7.75
 31
0.0
  0
LINE
  5
77A
100
AcDbEntity
  8
3
100
AcDbLine
 10
72.0
 20
5.25
 30
0.0
 11
72.0
 21
2.75
 31
0.0
  0
LINE
  5
77B
100
AcDbEntity
  8
3
100
AcDbLine
 10
73.0
 20
3.75
 30
0.0
 11
72.0
 21
2.75
 31
0.0
  0
LINE
  5
77C
100
AcDbEntity
  8
3
100
AcDbLine
 10
73.0
 20
5.25
 30
0.0
 11
73.0
 21
3.75
 31
0.0
  0
LINE
  5
77D
100
AcDbEntity
  8
3
100
AcDbLine
 10
73.0
 20
6.75
 30
0.0
 11
72.0
 21
7.75
 31
0.0
  0
CIRCLE
  5
77E
100
AcDbEntity
  8
3
100
AcDbCircle
 10
110.5
 20
5.25
 30
0.0
 40
3.0
  0
CIRCLE
  5
77F
100
AcDbEntity
  8
3
100
AcDbCircle
 10
110.5
 20
5.25
 30
0.0
 40
4.0
  0
LINE
  5
780
100
AcDbEntity
  8
1
100
AcDbLine
 10
110.5
 20
10.25
 30
0.0
 11
110.5
 21
0.0
 31
0.0
  0
CIRCLE
  5
781
100
AcDbEntity
  8
3
100
AcDbCircle
 10
110.5
 20
5.25
 30
0.0
 40
1.75
  0
CIRCLE
  5
782
100
AcDbEntity
  8
3
100
AcDbCircle
 10
110.5
 20
5.25
 30
0.0
 40
2.5
  0
LINE
  5
783
100
AcDbEntity
  8
1
100
AcDbLine
 10
105.0
 20
5.25
 30
0.0
 11
116.25
 21
5.25
 31
0.0
  0
ENDBLK
  5
785
100
AcDbEntity
  8
0
100
AcDbBlockEnd
  0
BLOCK
  5
7BD
100
AcDbEntity
  8
0
100
AcDbBlockBegin
  2
*D60
 70
     1
 10
0.0
 20
0.0
 30
0.0
  3
*D60
  1

  0
LINE
  5
7BE
100
AcDbEntity
  8
0
  6
BYBLOCK
 62
     0
100
AcDbLine
 10
79.520362
 20
82.438097
 30
0.0
 11
60.270362
 21
82.438097
 31
0.0
  0
LINE
  5
7BF
100
AcDbEntity
  8
0
  6
BYBLOCK
 62
     0
100
AcDbLine
 10
79.520362
 20
80.938097
 30
0.0
 11
60.270362
 21
80.938097
 31
0.0
  0
LINE
  5
7C0
100
AcDbEntity
  8
0
  6
BYBLOCK
 62
     0
100
AcDbLine
 10
60.470362
 20
84.438097
 30
0.0
 11
60.470362
 21
86.438097
 31
0.0
  0
LINE
  5
7C1
100
AcDbEntity
  8
0
  6
BYBLOCK
 62
     0
100
AcDbLine
 10
60.470362
 20
78.938097
 30
0.0
 11
60.470362
 21
76.938097
 31
0.0
  0
MTEXT
  5
7C2
100
AcDbEntity
  8
0
  6
BYBLOCK
 62
     0
100
AcDbMText
 10
64.620362
 20
87.188096
 30
0.0
 40
10.0
 41
0.0
 71
     5
 72
     1
  1
\A1;1.5
  7
BIGFONT
  0
LINE
  5
7C3
100
AcDbEntity
  8
0
  6
BYBLOCK
 62
     0
100
AcDbLine
 10
60.470362
 20
82.438097
 30
0.0
 11
60.470362
 21
80.938097
 31
0.0
  0
SOLID
  5
7C4
100
AcDbEntity
  8
0
  6
BYBLOCK
 62
     0
100
AcDbTrace
 10
60.137028
 20
84.438097
 30
0.0
 11
60.803695
 21
84.438097
 31
0.0
 12
60.470362
 22
82.438097
 32
0.0
 13
60.470362
 23
82.438097
 33
0.0
  0
SOLID
  5
7C5
100
AcDbEntity
  8
0
  6
BYBLOCK
 62
     0
100
AcDbTrace
 10
60.137028
 20
78.938097
 30
0.0
 11
60.803695
 21
78.938097
 31
0.0
 12
60.470362
 22
80.938097
 32
0.0
 13
60.470362
 23
80.938097
 33
0.0
  0
POINT
  5
7C6
100
AcDbEntity
  8
DEFPOINTS
  6
BYBLOCK
 62
     0
100
AcDbPoint
 10
79.620362
 20
82.438097
 30
0.0
  0
POINT
  5
7C7
100
AcDbEntity
  8
DEFPOINTS
  6
BYBLOCK
 62
     0
100
AcDbPoint
 10
79.620362
 20
80.938097
 30
0.0
  0
POINT
  5
7C8
100
AcDbEntity
  8
DEFPOINTS
  6
BYBLOCK
 62
     0
100
AcDbPoint
 10
60.470362
 20
80.938097
 30
0.0
  0
ENDBLK
  5
7C9
100
AcDbEntity
  8
0
100
AcDbBlockEnd
  0
ENDSEC
  0
SECTION
  2
ENTITIES
  0
CIRCLE
  5
664
100
AcDbEntity
  8
3
100
AcDbCircle
 10
49.436453
 20
47.526217
 30
0.0
 40
7.0
  0
LINE
  5
666
100
AcDbEntity
  8
1
100
AcDbLine
 10
61.436453
 20
47.526217
 30
0.0
 11
37.686453
 21
47.526217
 31
0.0
  0
LINE
  5
668
100
AcDbEntity
  8
1
100
AcDbLine
 10
49.436453
 20
57.026217
 30
0.0
 11
49.436453
 21
38.276217
 31
0.0
  0
LINE
  5
66C
100
AcDbEntity
  8
1
100
AcDbLine
 10
140.686453
 20
47.526217
 30
0.0
 11
116.936453
 21
47.526217
 31
0.0
  0
LINE
  5
672
100
AcDbEntity
  8
3
100
AcDbLine
 10
80.186453
 20
40.526217
 30
0.0
 11
98.186453
 21
40.526217
 31
0.0
  0
LINE
  5
674
100
AcDbEntity
  8
3
100
AcDbLine
 10
80.186453
 20
54.526217
 30
0.0
 11
98.186453
 21
54.526217
 31
0.0
  0
LINE
  5
675
100
AcDbEntity
  8
1
100
AcDbLine
 10
76.436453
 20
47.526217
 30
0.0
 11
102.186453
 21
47.526217
 31
0.0
  0
LINE
  5
677
100
AcDbEntity
  8
3
100
AcDbLine
 10
79.186453
 20
53.526217
 30
0.0
 11
79.186453
 21
47.526217
 31
0.0
  0
LINE
  5
679
100
AcDbEntity
  8
3
100
AcDbLine
 10
79.186453
 20
41.526217
 30
0.0
 11
79.186453
 21
47.526217
 31
0.0
  0
ARC
  5
67B
100
AcDbEntity
  8
3
100
AcDbCircle
 10
80.186453
 20
41.526217
 30
0.0
 40
1.0
100
AcDbArc
 50
180.0
 51
270.0
  0
ARC
  5
67E
100
AcDbEntity
  8
3
100
AcDbCircle
 10
80.186453
 20
53.526217
 30
0.0
 40
1.0
100
AcDbArc
 50
90.0
 51
180.0
  0
LINE
  5
680
100
AcDbEntity
  8
3
100
AcDbLine
 10
99.186453
 20
51.626217
 30
0.0
 11
99.186453
 21
47.526217
 31
0.0
  0
LINE
  5
681
100
AcDbEntity
  8
3
100
AcDbLine
 10
99.186453
 20
43.426217
 30
0.0
 11
99.186453
 21
47.526217
 31
0.0
  0
LINE
  5
682
100
AcDbEntity
  8
3
100
AcDbLine
 10
99.186453
 20
41.526217
 30
0.0
 11
99.186453
 21
43.426217
 31
0.0
  0
ARC
  5
683
100
AcDbEntity
  8
3
100
AcDbCircle
 10
98.186453
 20
41.526217
 30
0.0
 40
1.0
100
AcDbArc
 50
270.0
 51
0.0
  0
ARC
  5
684
100
AcDbEntity
  8
3
100
AcDbCircle
 10
98.186453
 20
53.526217
 30
0.0
 40
1.0
100
AcDbArc
 50
0.0
 51
90.0
  0
LINE
  5
685
100
AcDbEntity
  8
3
100
AcDbLine
 10
99.186453
 20
53.526217
 30
0.0
 11
99.186453
 21
51.626217
 31
0.0
  0
CIRCLE
  5
686
100
AcDbEntity
  8
3
100
AcDbCircle
 10
128.686453
 20
47.526217
 30
0.0
 40
7.0
  0
LINE
  5
687
100
AcDbEntity
  8
1
100
AcDbLine
 10
128.686453
 20
57.026217
 30
0.0
 11
128.686453
 21
38.276217
 31
0.0
  0
LINE
  5
787
100
AcDbEntity
  8
3
100
AcDbLine
 10
100.186453
 20
50.526217
 30
0.0
 11
99.186453
 21
50.526217
 31
0.0
  0
LINE
  5
788
100
AcDbEntity
  8
3
100
AcDbLine
 10
100.186453
 20
44.526217
 30
0.0
 11
99.186453
 21
44.526217
 31
0.0
  0
CIRCLE
  5
78B
100
AcDbEntity
  8
3
100
AcDbCircle
 10
49.436453
 20
47.526217
 30
0.0
 40
4.0
  0
LINE
  5
78C
100
AcDbEntity
  8
3
100
AcDbLine
 10
53.365511
 20
46.776217
 30
0.0
 11
45.507395
 21
46.776217
 31
0.0
  0
LINE
  5
78D
100
AcDbEntity
  8
3
100
AcDbLine
 10
53.365511
 20
48.276217
 30
0.0
 11
45.507395
 21
48.276217
 31
0.0
  0
LINE
  5
79A
100
AcDbEntity
  8
3
100
AcDbLine
 10
100.186453
 20
47.526217
 30
0.0
 11
100.186453
 21
44.526217
 31
0.0
  0
LINE
  5
79B
100
AcDbEntity
  8
3
100
AcDbLine
 10
108.186453
 20
50.026217
 30
0.0
 11
100.186453
 21
50.026217
 31
0.0
  0
LINE
  5
79C
100
AcDbEntity
  8
3
100
AcDbLine
 10
108.936453
 20
49.276217
 30
0.0
 11
100.936453
 21
49.276217
 31
0.0
  0
LINE
  5
79D
100
AcDbEntity
  8
3
100
AcDbLine
 10
108.936453
 20
45.776217
 30
0.0
 11
100.936453
 21
45.776217
 31
0.0
  0
LINE
  5
79E
100
AcDbEntity
  8
3
100
AcDbLine
 10
108.186453
 20
45.026217
 30
0.0
 11
100.186453
 21
45.026217
 31
0.0
  0
LINE
  5
79F
100
AcDbEntity
  8
1
100
AcDbLine
 10
102.436453
 20
47.526217
 30
0.0
 11
110.686453
 21
47.526217
 31
0.0
  0
LINE
  5
7A0
100
AcDbEntity
  8
3
100
AcDbLine
 10
100.936453
 20
47.526217
 30
0.0
 11
100.936453
 21
50.026217
 31
0.0
  0
LINE
  5
7A1
100
AcDbEntity
  8
3
100
AcDbLine
 10
100.186453
 20
47.526217
 30
0.0
 11
100.186453
 21
50.526217
 31
0.0
  0
LINE
  5
7A2
100
AcDbEntity
  8
3
100
AcDbLine
 10
100.936453
 20
47.526217
 30
0.0
 11
100.936453
 21
45.026217
 31
0.0
  0
LINE
  5
7A3
100
AcDbEntity
  8
3
100
AcDbLine
 10
109.186453
 20
47.526217
 30
0.0
 11
109.186453
 21
49.026217
 31
0.0
  0
LINE
  5
7A4
100
AcDbEntity
  8
3
100
AcDbLine
 10
108.186453
 20
47.526217
 30
0.0
 11
108.186453
 21
50.026217
 31
0.0
  0
LINE
  5
7A5
100
AcDbEntity
  8
3
100
AcDbLine
 10
108.186453
 20
47.526217
 30
0.0
 11
108.186453
 21
45.026217
 31
0.0
  0
LINE
  5
7A6
100
AcDbEntity
  8
3
100
AcDbLine
 10
109.186453
 20
46.026217
 30
0.0
 11
108.186453
 21
45.026217
 31
0.0
  0
LINE
  5
7A7
100
AcDbEntity
  8
3
100
AcDbLine
 10
109.186453
 20
47.526217
 30
0.0
 11
109.186453
 21
46.026217
 31
0.0
  0
LINE
  5
7A8
100
AcDbEntity
  8
3
100
AcDbLine
 10
109.186453
 20
49.026217
 30
0.0
 11
108.186453
 21
50.026217
 31
0.0
  0
CIRCLE
  5
7A9
100
AcDbEntity
  8
3
100
AcDbCircle
 10
128.686453
 20
47.526217
 30
0.0
 40
3.0
  0
CIRCLE
  5
7AA
100
AcDbEntity
  8
3
100
AcDbCircle
 10
128.686453
 20
47.526217
 30
0.0
 40
4.0
  0
CIRCLE
  5
7AC
100
AcDbEntity
  8
3
100
AcDbCircle
 10
128.686453
 20
47.526217
 30
0.0
 40
1.75
  0
CIRCLE
  5
7AD
100
AcDbEntity
  8
3
100
AcDbCircle
 10
128.686453
 20
47.526217
 30
0.0
 40
2.5
  0
LINE
  5
7CA
100
AcDbEntity
  8
2
100
AcDbLine
 10
84.186453
 20
51.526217
 30
0.0
 11
79.186453
 21
51.526217
 31
0.0
  0
LINE
  5
7CB
100
AcDbEntity
  8
2
100
AcDbLine
 10
84.186453
 20
43.526217
 30
0.0
 11
79.186453
 21
43.526217
 31
0.0
  0
LINE
  5
7CC
100
AcDbEntity
  8
2
100
AcDbLine
 10
81.186453
 20
51.526217
 30
0.0
 11
81.186453
 21
48.276217
 31
0.0
  0
LINE
  5
7CD
100
AcDbEntity
  8
2
100
AcDbLine
 10
81.186453
 20
48.276217
 30
0.0
 11
82.186453
 21
48.276217
 31
0.0
  0
LINE
  5
7CE
100
AcDbEntity
  8
2
100
AcDbLine
 10
82.186453
 20
48.276217
 30
0.0
 11
82.186453
 21
46.776217
 31
0.0
  0
LINE
  5
7CF
100
AcDbEntity
  8
2
100
AcDbLine
 10
82.186453
 20
46.776217
 30
0.0
 11
81.186453
 21
46.776217
 31
0.0
  0
LINE
  5
7D0
100
AcDbEntity
  8
2
100
AcDbLine
 10
81.186453
 20
46.776217
 30
0.0
 11
81.186453
 21
43.526217
 31
0.0
  0
LINE
  5
7D1
100
AcDbEntity
  8
2
100
AcDbLine
 10
84.186453
 20
43.526217
 30
0.0
 11
84.186453
 21
44.526217
 31
0.0
  0
LINE
  5
7D2
100
AcDbEntity
  8
2
100
AcDbLine
 10
84.186453
 20
44.526217
 30
0.0
 11
99.186453
 21
44.526217
 31
0.0
  0
LINE
  5
7D3
100
AcDbEntity
  8
2
100
AcDbLine
 10
84.186453
 20
44.526217
 30
0.0
 11
84.186453
 21
51.526217
 31
0.0
  0
LINE
  5
7D4
100
AcDbEntity
  8
2
100
AcDbLine
 10
84.186453
 20
50.526217
 30
0.0
 11
99.186453
 21
50.526217
 31
0.0
  0
ENDSEC
  0
SECTION
  2
OBJECTS
  0
DICTIONARY
  5
20B
100
AcDbDictionary
  3
ACAD_GROUP
350
20C
  3
ACAD_MLINESTYLE
350
219
  3
ACDBVARIABLEDICTIONARY
350
228
  0
DICTIONARY
  5
2C7
100
AcDbDictionary
280
     1
  3
ACAD_XREC_ROUNDTRIP
360
2C8
  0
DICTIONARY
  5
20C
102
{ACAD_REACTORS
330
20B
102
}
100
AcDbDictionary
  0
DICTIONARY
  5
219
102
{ACAD_REACTORS
330
20B
102
}
100
AcDbDictionary
  3
STANDARD
350
21A
  0
DICTIONARY
  5
228
102
{ACAD_REACTORS
330
20B
102
}
100
AcDbDictionary
  3
DIMADEC
350
229
  0
XRECORD
  5
2C8
102
{ACAD_REACTORS
330
2C7
102
}
100
AcDbXrecord
102
PLOTBIT
280
     0
  0
MLINESTYLE
  5
21A
102
{ACAD_REACTORS
330
219
102
}
100
AcDbMlineStyle
  2
STANDARD
 70
     0
  3

 62
   256
 51
90.0
 52
90.0
 71
     2
 49
0.5
 62
   256
  6
BYLAYER
 49
-0.5
 62
   256
  6
BYLAYER
  0
DICTIONARYVAR
  5
229
102
{ACAD_REACTORS
330
228
102
}
100
DictionaryVariables
280
     0
  1
0
  0
ENDSEC
  0
EOF
