  0
SECTION
  2
HEADER
  9
$ACADVER
  1
AC1014
  9
$ACADMAINTVER
 70
     0
  9
$DWGCODEPAGE
  3
ANSI_932
  9
$INSBASE
 10
0.0
 20
0.0
 30
0.0
  9
$EXTMIN
 10
-44.901807
 20
-13.11086
 30
0.0
  9
$EXTMAX
 10
151.654106
 20
99.561308
 30
0.0
  9
$LIMMIN
 10
0.0
 20
0.0
  9
$LIMMAX
 10
250.0
 20
150.0
  9
$ORTHOMODE
 70
     1
  9
$REGENMODE
 70
     1
  9
$FILLMODE
 70
     1
  9
$QTEXTMODE
 70
     0
  9
$MIRRTEXT
 70
     1
  9
$DRAGMODE
 70
     2
  9
$LTSCALE
 40
1.0
  9
$OSMODE
 70
    32
  9
$ATTMODE
 70
     1
  9
$TEXTSIZE
 40
10.0
  9
$TRACEWID
 40
0.05
  9
$TEXTSTYLE
  7
BIGFONT
  9
$CLAYER
  8
3
  9
$CELTYPE
  6
BYLAYER
  9
$CECOLOR
 62
   256
  9
$CELTSCALE
 40
1.0
  9
$DELOBJ
 70
     1
  9
$DISPSILH
 70
     0
  9
$DIMSCALE
 40
1.0
  9
$DIMASZ
 40
2.0
  9
$DIMEXO
 40
0.1
  9
$DIMDLI
 40
0.4
  9
$DIMRND
 40
0.0
  9
$DIMDLE
 40
0.0
  9
$DIMEXE
 40
0.2
  9
$DIMTP
 40
0.0
  9
$DIMTM
 40
0.0
  9
$DIMTXT
 40
2.0
  9
$DIMCEN
 40
0.1
  9
$DIMTSZ
 40
0.0
  9
$DIMTOL
 70
     0
  9
$DIMLIM
 70
     0
  9
$DIMTIH
 70
     0
  9
$DIMTOH
 70
     1
  9
$DIMSE1
 70
     0
  9
$DIMSE2
 70
     0
  9
$DIMTAD
 70
     0
  9
$DIMZIN
 70
     8
  9
$DIMBLK
  1

  9
$DIMASO
 70
     1
  9
$DIMSHO
 70
     1
  9
$DIMPOST
  1

  9
$DIMAPOST
  1

  9
$DIMALT
 70
     0
  9
$DIMALTD
 70
     2
  9
$DIMALTF
 40
25.4
  9
$DIMLFAC
 40
1.0
  9
$DIMTOFL
 70
     0
  9
$DIMTVP
 40
0.0
  9
$DIMTIX
 70
     0
  9
$DIMSOXD
 70
     0
  9
$DIMSAH
 70
     0
  9
$DIMBLK1
  1

  9
$DIMBLK2
  1

  9
$DIMSTYLE
  2
STANDARD
  9
$DIMCLRD
 70
     0
  9
$DIMCLRE
 70
     0
  9
$DIMCLRT
 70
     0
  9
$DIMTFAC
 40
1.0
  9
$DIMGAP
 40
0.1
  9
$DIMJUST
 70
     0
  9
$DIMSD1
 70
     0
  9
$DIMSD2
 70
     0
  9
$DIMTOLJ
 70
     1
  9
$DIMTZIN
 70
     8
  9
$DIMALTZ
 70
     0
  9
$DIMALTTZ
 70
     0
  9
$DIMFIT
 70
     5
  9
$DIMUPT
 70
     1
  9
$DIMUNIT
 70
     2
  9
$DIMDEC
 70
     2
  9
$DIMTDEC
 70
     2
  9
$DIMALTU
 70
     2
  9
$DIMALTTD
 70
     2
  9
$DIMTXSTY
  7
BIGFONT
  9
$DIMAUNIT
 70
     0
  9
$LUNITS
 70
     2
  9
$LUPREC
 70
     4
  9
$SKETCHINC
 40
0.1
  9
$FILLETRAD
 40
0.0
  9
$AUNITS
 70
     0
  9
$AUPREC
 70
     0
  9
$MENU
  1
acad
  9
$ELEVATION
 40
0.0
  9
$PELEVATION
 40
0.0
  9
$THICKNESS
 40
0.0
  9
$LIMCHECK
 70
     0
  9
$BLIPMODE
 70
     0
  9
$CHAMFERA
 40
0.0
  9
$CHAMFERB
 40
0.0
  9
$CHAMFERC
 40
0.0
  9
$CHAMFERD
 40
0.0
  9
$SKPOLY
 70
     0
  9
$TDCREATE
 40
2450870.978377083
  9
$TDUPDATE
 40
2453594.385684317
  9
$TDINDWG
 40
0.1439203472
  9
$TDUSRTIMER
 40
0.1439203472
  9
$USRTIMER
 70
     1
  9
$ANGBASE
 50
0.0
  9
$ANGDIR
 70
     0
  9
$PDMODE
 70
     0
  9
$PDSIZE
 40
0.0
  9
$PLINEWID
 40
0.0
  9
$COORDS
 70
     2
  9
$SPLFRAME
 70
     0
  9
$SPLINETYPE
 70
     6
  9
$SPLINESEGS
 70
     8
  9
$ATTDIA
 70
     0
  9
$ATTREQ
 70
     1
  9
$HANDLING
 70
     1
  9
$HANDSEED
  5
134B
  9
$SURFTAB1
 70
     6
  9
$SURFTAB2
 70
     6
  9
$SURFTYPE
 70
     6
  9
$SURFU
 70
     6
  9
$SURFV
 70
     6
  9
$UCSNAME
  2

  9
$UCSORG
 10
0.0
 20
0.0
 30
0.0
  9
$UCSXDIR
 10
1.0
 20
0.0
 30
0.0
  9
$UCSYDIR
 10
0.0
 20
1.0
 30
0.0
  9
$PUCSNAME
  2

  9
$PUCSORG
 10
0.0
 20
0.0
 30
0.0
  9
$PUCSXDIR
 10
1.0
 20
0.0
 30
0.0
  9
$PUCSYDIR
 10
0.0
 20
1.0
 30
0.0
  9
$USERI1
 70
     0
  9
$USERI2
 70
     0
  9
$USERI3
 70
     0
  9
$USERI4
 70
     0
  9
$USERI5
 70
     0
  9
$USERR1
 40
0.0
  9
$USERR2
 40
0.0
  9
$USERR3
 40
0.0
  9
$USERR4
 40
0.0
  9
$USERR5
 40
0.0
  9
$WORLDVIEW
 70
     1
  9
$SHADEDGE
 70
     3
  9
$SHADEDIF
 70
    70
  9
$TILEMODE
 70
     1
  9
$MAXACTVP
 70
    16
  9
$PINSBASE
 10
0.0
 20
0.0
 30
0.0
  9
$PLIMCHECK
 70
     0
  9
$PEXTMIN
 10
1.000000E+20
 20
1.000000E+20
 30
1.000000E+20
  9
$PEXTMAX
 10
-1.000000E+20
 20
-1.000000E+20
 30
-1.000000E+20
  9
$PLIMMIN
 10
0.0
 20
0.0
  9
$PLIMMAX
 10
12.0
 20
9.0
  9
$UNITMODE
 70
     0
  9
$VISRETAIN
 70
     0
  9
$PLINEGEN
 70
     0
  9
$PSLTSCALE
 70
     1
  9
$TREEDEPTH
 70
  3020
  9
$PICKSTYLE
 70
     1
  9
$CMLSTYLE
  2
STANDARD
  9
$CMLJUST
 70
     0
  9
$CMLSCALE
 40
1.0
  9
$PROXYGRAPHICS
 70
     1
  9
$MEASUREMENT
 70
     0
  0
ENDSEC
  0
SECTION
  2
CLASSES
  0
CLASS
  1
DICTIONARYVAR
  2
AcDbDictionaryVar
  3
"AutoCAD"
 90
        0
280
     0
281
     0
  0
CLASS
  1
XRECORD
  2
AcDbXrecord
  3
"<Built In>"
 90
        0
280
     0
281
     0
  0
CLASS
  1
HATCH
  2
AcDbHatch
  3
"ACAD_SEDONA"
 90
        0
280
     0
281
     1
  0
ENDSEC
  0
SECTION
  2
TABLES
  0
TABLE
  2
VPORT
  5
207
100
AcDbSymbolTable
 70
     3
  0
VPORT
  5
134A
100
AcDbSymbolTableRecord
100
AcDbViewportTableRecord
  2
*ACTIVE
 70
     0
 10
0.0
 20
0.0
 11
1.0
 21
1.0
 12
60.619204
 22
40.511034
 13
0.0
 23
0.0
 14
10.0
 24
10.0
 15
20.0
 25
20.0
 16
0.0
 26
0.0
 36
1.0
 17
0.0
 27
0.0
 37
0.0
 40
116.377756
 41
1.434944
 42
50.0
 43
0.0
 44
0.0
 50
0.0
 51
0.0
 71
     0
 72
 20000
 73
     1
 74
     1
 75
     0
 76
     0
 77
     0
 78
     0
  0
ENDTAB
  0
TABLE
  2
LTYPE
  5
204
100
AcDbSymbolTable
 70
     5
  0
LTYPE
  5
210
100
AcDbSymbolTableRecord
100
AcDbLinetypeTableRecord
  2
BYBLOCK
 70
     0
  3

 72
    65
 73
     0
 40
0.0
  0
LTYPE
  5
211
100
AcDbSymbolTableRecord
100
AcDbLinetypeTableRecord
  2
BYLAYER
 70
     0
  3

 72
    65
 73
     0
 40
0.0
  0
LTYPE
  5
212
100
AcDbSymbolTableRecord
100
AcDbLinetypeTableRecord
  2
CONTINUOUS
 70
     0
  3
Solid line
 72
    65
 73
     0
 40
0.0
  0
LTYPE
  5
21C
100
AcDbSymbolTableRecord
100
AcDbLinetypeTableRecord
  2
TENSEN1
 70
     0
  3

 72
    65
 73
     2
 40
0.4
 49
0.3
 74
     0
 49
-0.1
 74
     0
  0
LTYPE
  5
21D
100
AcDbSymbolTableRecord
100
AcDbLinetypeTableRecord
  2
ITTEN1
 70
     0
  3

 72
    65
 73
     4
 40
8.2
 49
5.0
 74
     0
 49
-1.0
 74
     0
 49
1.2
 74
     0
 49
-1.0
 74
     0
  0
LTYPE
  5
21E
100
AcDbSymbolTableRecord
100
AcDbLinetypeTableRecord
  2
TENSEN2
 70
     0
  3

 72
    65
 73
     2
 40
2.1
 49
1.5
 74
     0
 49
-0.6
 74
     0
  0
LTYPE
  5
2C5
100
AcDbSymbolTableRecord
100
AcDbLinetypeTableRecord
  2
ITTEN
 70
     0
  3

 72
    65
 73
     4
 40
5.5
 49
2.5
 74
     0
 49
-1.0
 74
     0
 49
1.0
 74
     0
 49
-1.0
 74
     0
  0
ENDTAB
  0
TABLE
  2
LAYER
  5
201
100
AcDbSymbolTable
 70
     5
  0
LAYER
  5
20D
100
AcDbSymbolTableRecord
100
AcDbLayerTableRecord
  2
0
 70
     0
 62
     7
  6
CONTINUOUS
  0
LAYER
  5
221
100
AcDbSymbolTableRecord
100
AcDbLayerTableRecord
  2
1
 70
     0
 62
     1
  6
ITTEN1
  0
LAYER
  5
222
100
AcDbSymbolTableRecord
100
AcDbLayerTableRecord
  2
2
 70
     0
 62
     2
  6
TENSEN2
  0
LAYER
  5
223
100
AcDbSymbolTableRecord
100
AcDbLayerTableRecord
  2
3
 70
     0
 62
     3
  6
CONTINUOUS
  0
LAYER
  5
2C6
102
{ACAD_XDICTIONARY
360
2C7
102
}
100
AcDbSymbolTableRecord
100
AcDbLayerTableRecord
  2
DEFPOINTS
 70
     0
 62
     7
  6
CONTINUOUS
  0
ENDTAB
  0
TABLE
  2
STYLE
  5
202
100
AcDbSymbolTable
 70
     2
  0
STYLE
  5
20E
100
AcDbSymbolTableRecord
100
AcDbTextStyleTableRecord
  2
STANDARD
 70
     0
 40
0.0
 41
1.0
 50
0.0
 71
     0
 42
0.2
  3
txt
  4

  0
STYLE
  5
21B
100
AcDbSymbolTableRecord
100
AcDbTextStyleTableRecord
  2
BIGFONT
 70
     0
 40
10.0
 41
1.0
 50
0.0
 71
     0
 42
10.0
  3
txt.shx
  4
bigfont
  0
ENDTAB
  0
TABLE
  2
VIEW
  5
205
100
AcDbSymbolTable
 70
     0
  0
ENDTAB
  0
TABLE
  2
UCS
  5
206
100
AcDbSymbolTable
 70
     0
  0
ENDTAB
  0
TABLE
  2
APPID
  5
208
100
AcDbSymbolTable
 70
     1
  0
APPID
  5
20F
100
AcDbSymbolTableRecord
100
AcDbRegAppTableRecord
  2
ACAD
 70
     0
  0
ENDTAB
  0
TABLE
  2
DIMSTYLE
  5
209
100
AcDbSymbolTable
 70
     1
  0
DIMSTYLE
105
220
100
AcDbSymbolTableRecord
100
AcDbDimStyleTableRecord
  2
STANDARD
 70
     0
  3

  4

  5

  6

  7

 40
1.0
 41
0.18
 42
0.0625
 43
0.38
 44
0.18
 45
0.0
 46
0.0
 47
0.0
 48
0.0
140
0.18
141
0.09
142
0.0
143
25.4
144
1.0
145
0.0
146
1.0
147
0.09
 71
     0
 72
     0
 73
     1
 74
     1
 75
     0
 76
     0
 77
     0
 78
     0
170
     0
171
     2
172
     0
173
     0
174
     0
175
     0
176
     0
177
     0
178
     0
270
     2
271
     4
272
     4
273
     2
274
     2
340
21B
275
     0
280
     0
281
     0
282
     0
283
     1
284
     0
285
     0
286
     0
287
     5
288
     0
  0
ENDTAB
  0
TABLE
  2
BLOCK_RECORD
  5
200
100
AcDbSymbolTable
 70
   126
  0
BLOCK_RECORD
  5
216
100
AcDbSymbolTableRecord
100
AcDbBlockTableRecord
  2
*MODEL_SPACE
  0
BLOCK_RECORD
  5
213
100
AcDbSymbolTableRecord
100
AcDbBlockTableRecord
  2
*PAPER_SPACE
  0
BLOCK_RECORD
  5
238
100
AcDbSymbolTableRecord
100
AcDbBlockTableRecord
  2
*D0
  0
BLOCK_RECORD
  5
243
100
AcDbSymbolTableRecord
100
AcDbBlockTableRecord
  2
*D1
  0
BLOCK_RECORD
  5
24E
100
AcDbSymbolTableRecord
100
AcDbBlockTableRecord
  2
*D2
  0
BLOCK_RECORD
  5
259
100
AcDbSymbolTableRecord
100
AcDbBlockTableRecord
  2
*D3
  0
BLOCK_RECORD
  5
266
100
AcDbSymbolTableRecord
100
AcDbBlockTableRecord
  2
*D4
  0
BLOCK_RECORD
  5
273
100
AcDbSymbolTableRecord
100
AcDbBlockTableRecord
  2
*D5
  0
BLOCK_RECORD
  5
280
100
AcDbSymbolTableRecord
100
AcDbBlockTableRecord
  2
*D6
  0
BLOCK_RECORD
  5
28B
100
AcDbSymbolTableRecord
100
AcDbBlockTableRecord
  2
*D7
  0
BLOCK_RECORD
  5
296
100
AcDbSymbolTableRecord
100
AcDbBlockTableRecord
  2
*D8
  0
BLOCK_RECORD
  5
2A1
100
AcDbSymbolTableRecord
100
AcDbBlockTableRecord
  2
*D9
  0
BLOCK_RECORD
  5
2AC
100
AcDbSymbolTableRecord
100
AcDbBlockTableRecord
  2
*D10
  0
BLOCK_RECORD
  5
2BA
100
AcDbSymbolTableRecord
100
AcDbBlockTableRecord
  2
*D11
  0
BLOCK_RECORD
  5
2C9
100
AcDbSymbolTableRecord
100
AcDbBlockTableRecord
  2
A$C502C4094
  0
BLOCK_RECORD
  5
46F
100
AcDbSymbolTableRecord
100
AcDbBlockTableRecord
  2
*D13
  0
BLOCK_RECORD
  5
47A
100
AcDbSymbolTableRecord
100
AcDbBlockTableRecord
  2
*D14
  0
BLOCK_RECORD
  5
485
100
AcDbSymbolTableRecord
100
AcDbBlockTableRecord
  2
*D15
  0
BLOCK_RECORD
  5
492
100
AcDbSymbolTableRecord
100
AcDbBlockTableRecord
  2
A$C12173F50
  0
BLOCK_RECORD
  5
517
100
AcDbSymbolTableRecord
100
AcDbBlockTableRecord
  2
*D17
  0
BLOCK_RECORD
  5
525
100
AcDbSymbolTableRecord
100
AcDbBlockTableRecord
  2
*D18
  0
BLOCK_RECORD
  5
530
100
AcDbSymbolTableRecord
100
AcDbBlockTableRecord
  2
A$C748B7793
  0
BLOCK_RECORD
  5
5BF
100
AcDbSymbolTableRecord
100
AcDbBlockTableRecord
  2
*D20
  0
BLOCK_RECORD
  5
5CA
100
AcDbSymbolTableRecord
100
AcDbBlockTableRecord
  2
*D21
  0
BLOCK_RECORD
  5
5D5
100
AcDbSymbolTableRecord
100
AcDbBlockTableRecord
  2
*D22
  0
BLOCK_RECORD
  5
5E0
100
AcDbSymbolTableRecord
100
AcDbBlockTableRecord
  2
*D23
  0
BLOCK_RECORD
  5
5EB
100
AcDbSymbolTableRecord
100
AcDbBlockTableRecord
  2
*D24
  0
BLOCK_RECORD
  5
5F6
100
AcDbSymbolTableRecord
100
AcDbBlockTableRecord
  2
*D25
  0
BLOCK_RECORD
  5
603
100
AcDbSymbolTableRecord
100
AcDbBlockTableRecord
  2
*D26
  0
BLOCK_RECORD
  5
610
100
AcDbSymbolTableRecord
100
AcDbBlockTableRecord
  2
*D27
  0
BLOCK_RECORD
  5
61D
100
AcDbSymbolTableRecord
100
AcDbBlockTableRecord
  2
*D28
  0
BLOCK_RECORD
  5
628
100
AcDbSymbolTableRecord
100
AcDbBlockTableRecord
  2
*D29
  0
BLOCK_RECORD
  5
633
100
AcDbSymbolTableRecord
100
AcDbBlockTableRecord
  2
A$C3A00351B
  0
BLOCK_RECORD
  5
74D
100
AcDbSymbolTableRecord
100
AcDbBlockTableRecord
  2
*D31
  0
BLOCK_RECORD
  5
75B
100
AcDbSymbolTableRecord
100
AcDbBlockTableRecord
  2
A$C549C4216
  0
BLOCK_RECORD
  5
7D8
100
AcDbSymbolTableRecord
100
AcDbBlockTableRecord
  2
*D33
  0
BLOCK_RECORD
  5
7E3
100
AcDbSymbolTableRecord
100
AcDbBlockTableRecord
  2
A$C4DD33202
  0
BLOCK_RECORD
  5
870
100
AcDbSymbolTableRecord
100
AcDbBlockTableRecord
  2
*D35
  0
BLOCK_RECORD
  5
87E
100
AcDbSymbolTableRecord
100
AcDbBlockTableRecord
  2
*D36
  0
BLOCK_RECORD
  5
889
100
AcDbSymbolTableRecord
100
AcDbBlockTableRecord
  2
A$C214A55FC
  0
BLOCK_RECORD
  5
913
100
AcDbSymbolTableRecord
100
AcDbBlockTableRecord
  2
*D38
  0
BLOCK_RECORD
  5
920
100
AcDbSymbolTableRecord
100
AcDbBlockTableRecord
  2
*D39
  0
BLOCK_RECORD
  5
92E
100
AcDbSymbolTableRecord
100
AcDbBlockTableRecord
  2
*D40
  0
BLOCK_RECORD
  5
939
100
AcDbSymbolTableRecord
100
AcDbBlockTableRecord
  2
*D41
  0
BLOCK_RECORD
  5
944
100
AcDbSymbolTableRecord
100
AcDbBlockTableRecord
  2
A$C256B013E
  0
BLOCK_RECORD
  5
ABC
100
AcDbSymbolTableRecord
100
AcDbBlockTableRecord
  2
*D43
  0
BLOCK_RECORD
  5
ACA
100
AcDbSymbolTableRecord
100
AcDbBlockTableRecord
  2
*D44
  0
BLOCK_RECORD
  5
AD7
100
AcDbSymbolTableRecord
100
AcDbBlockTableRecord
  2
*D45
  0
BLOCK_RECORD
  5
AE4
100
AcDbSymbolTableRecord
100
AcDbBlockTableRecord
  2
*D46
  0
BLOCK_RECORD
  5
AEF
100
AcDbSymbolTableRecord
100
AcDbBlockTableRecord
  2
*D47
  0
BLOCK_RECORD
  5
AFA
100
AcDbSymbolTableRecord
100
AcDbBlockTableRecord
  2
*D48
  0
BLOCK_RECORD
  5
B05
100
AcDbSymbolTableRecord
100
AcDbBlockTableRecord
  2
*D49
  0
BLOCK_RECORD
  5
B12
100
AcDbSymbolTableRecord
100
AcDbBlockTableRecord
  2
*D50
  0
BLOCK_RECORD
  5
B1F
100
AcDbSymbolTableRecord
100
AcDbBlockTableRecord
  2
*D51
  0
BLOCK_RECORD
  5
B2C
100
AcDbSymbolTableRecord
100
AcDbBlockTableRecord
  2
A$C09730A4E
  0
BLOCK_RECORD
  5
C6D
100
AcDbSymbolTableRecord
100
AcDbBlockTableRecord
  2
*D53
  0
BLOCK_RECORD
  5
C78
100
AcDbSymbolTableRecord
100
AcDbBlockTableRecord
  2
A$C55202CB5
  0
BLOCK_RECORD
  5
CCE
100
AcDbSymbolTableRecord
100
AcDbBlockTableRecord
  2
*D55
  0
BLOCK_RECORD
  5
CDB
100
AcDbSymbolTableRecord
100
AcDbBlockTableRecord
  2
*D56
  0
BLOCK_RECORD
  5
CE8
100
AcDbSymbolTableRecord
100
AcDbBlockTableRecord
  2
*D57
  0
BLOCK_RECORD
  5
CF5
100
AcDbSymbolTableRecord
100
AcDbBlockTableRecord
  2
*D58
  0
BLOCK_RECORD
  5
D02
100
AcDbSymbolTableRecord
100
AcDbBlockTableRecord
  2
*D59
  0
BLOCK_RECORD
  5
D0F
100
AcDbSymbolTableRecord
100
AcDbBlockTableRecord
  2
*D60
  0
BLOCK_RECORD
  5
D1D
100
AcDbSymbolTableRecord
100
AcDbBlockTableRecord
  2
*D61
  0
BLOCK_RECORD
  5
D28
100
AcDbSymbolTableRecord
100
AcDbBlockTableRecord
  2
*D62
  0
BLOCK_RECORD
  5
D33
100
AcDbSymbolTableRecord
100
AcDbBlockTableRecord
  2
*D63
  0
BLOCK_RECORD
  5
D3E
100
AcDbSymbolTableRecord
100
AcDbBlockTableRecord
  2
A$C0BA56306
  0
BLOCK_RECORD
  5
D73
100
AcDbSymbolTableRecord
100
AcDbBlockTableRecord
  2
A$C38E150EC
  0
BLOCK_RECORD
  5
EF7
100
AcDbSymbolTableRecord
100
AcDbBlockTableRecord
  2
A$C0E9D2FA7
  0
BLOCK_RECORD
  5
1002
100
AcDbSymbolTableRecord
100
AcDbBlockTableRecord
  2
*D85
  0
BLOCK_RECORD
  5
100D
100
AcDbSymbolTableRecord
100
AcDbBlockTableRecord
  2
*D86
  0
BLOCK_RECORD
  5
101A
100
AcDbSymbolTableRecord
100
AcDbBlockTableRecord
  2
*D87
  0
BLOCK_RECORD
  5
1025
100
AcDbSymbolTableRecord
100
AcDbBlockTableRecord
  2
*D88
  0
BLOCK_RECORD
  5
1030
100
AcDbSymbolTableRecord
100
AcDbBlockTableRecord
  2
*D89
  0
BLOCK_RECORD
  5
103B
100
AcDbSymbolTableRecord
100
AcDbBlockTableRecord
  2
*D90
  0
BLOCK_RECORD
  5
1046
100
AcDbSymbolTableRecord
100
AcDbBlockTableRecord
  2
*D91
  0
BLOCK_RECORD
  5
1053
100
AcDbSymbolTableRecord
100
AcDbBlockTableRecord
  2
*D92
  0
BLOCK_RECORD
  5
1060
100
AcDbSymbolTableRecord
100
AcDbBlockTableRecord
  2
*D93
  0
BLOCK_RECORD
  5
106B
100
AcDbSymbolTableRecord
100
AcDbBlockTableRecord
  2
*D94
  0
BLOCK_RECORD
  5
1076
100
AcDbSymbolTableRecord
100
AcDbBlockTableRecord
  2
A$C1F027D50
  0
BLOCK_RECORD
  5
10CE
100
AcDbSymbolTableRecord
100
AcDbBlockTableRecord
  2
*D96
  0
BLOCK_RECORD
  5
10D8
100
AcDbSymbolTableRecord
100
AcDbBlockTableRecord
  2
*D97
  0
BLOCK_RECORD
  5
10E2
100
AcDbSymbolTableRecord
100
AcDbBlockTableRecord
  2
*D98
  0
BLOCK_RECORD
  5
10EB
100
AcDbSymbolTableRecord
100
AcDbBlockTableRecord
  2
*D99
  0
BLOCK_RECORD
  5
10F4
100
AcDbSymbolTableRecord
100
AcDbBlockTableRecord
  2
*D100
  0
BLOCK_RECORD
  5
10FD
100
AcDbSymbolTableRecord
100
AcDbBlockTableRecord
  2
*D101
  0
BLOCK_RECORD
  5
110A
100
AcDbSymbolTableRecord
100
AcDbBlockTableRecord
  2
*D102
  0
BLOCK_RECORD
  5
1117
100
AcDbSymbolTableRecord
100
AcDbBlockTableRecord
  2
*D103
  0
BLOCK_RECORD
  5
1123
100
AcDbSymbolTableRecord
100
AcDbBlockTableRecord
  2
*D104
  0
BLOCK_RECORD
  5
112C
100
AcDbSymbolTableRecord
100
AcDbBlockTableRecord
  2
*D105
  0
BLOCK_RECORD
  5
1192
100
AcDbSymbolTableRecord
100
AcDbBlockTableRecord
  2
*D106
  0
BLOCK_RECORD
  5
119D
100
AcDbSymbolTableRecord
100
AcDbBlockTableRecord
  2
*D107
  0
BLOCK_RECORD
  5
11A8
100
AcDbSymbolTableRecord
100
AcDbBlockTableRecord
  2
*D108
  0
BLOCK_RECORD
  5
11B3
100
AcDbSymbolTableRecord
100
AcDbBlockTableRecord
  2
*D109
  0
BLOCK_RECORD
  5
11C0
100
AcDbSymbolTableRecord
100
AcDbBlockTableRecord
  2
*D110
  0
BLOCK_RECORD
  5
11CD
100
AcDbSymbolTableRecord
100
AcDbBlockTableRecord
  2
*D111
  0
BLOCK_RECORD
  5
11DA
100
AcDbSymbolTableRecord
100
AcDbBlockTableRecord
  2
*D112
  0
BLOCK_RECORD
  5
11E7
100
AcDbSymbolTableRecord
100
AcDbBlockTableRecord
  2
*D113
  0
BLOCK_RECORD
  5
11F4
100
AcDbSymbolTableRecord
100
AcDbBlockTableRecord
  2
*D114
  0
BLOCK_RECORD
  5
1202
100
AcDbSymbolTableRecord
100
AcDbBlockTableRecord
  2
A$C294906BD
  0
BLOCK_RECORD
  5
1237
100
AcDbSymbolTableRecord
100
AcDbBlockTableRecord
  2
A$C2EA97131
  0
BLOCK_RECORD
  5
126F
100
AcDbSymbolTableRecord
100
AcDbBlockTableRecord
  2
*D117
  0
BLOCK_RECORD
  5
127D
100
AcDbSymbolTableRecord
100
AcDbBlockTableRecord
  2
*D118
  0
BLOCK_RECORD
  5
128B
100
AcDbSymbolTableRecord
100
AcDbBlockTableRecord
  2
*D119
  0
BLOCK_RECORD
  5
1299
100
AcDbSymbolTableRecord
100
AcDbBlockTableRecord
  2
*D120
  0
BLOCK_RECORD
  5
12A2
100
AcDbSymbolTableRecord
100
AcDbBlockTableRecord
  2
*D121
  0
BLOCK_RECORD
  5
12AF
100
AcDbSymbolTableRecord
100
AcDbBlockTableRecord
  2
*D122
  0
BLOCK_RECORD
  5
12BC
100
AcDbSymbolTableRecord
100
AcDbBlockTableRecord
  2
*D123
  0
BLOCK_RECORD
  5
12C9
100
AcDbSymbolTableRecord
100
AcDbBlockTableRecord
  2
*D124
  0
BLOCK_RECORD
  5
12D2
100
AcDbSymbolTableRecord
100
AcDbBlockTableRecord
  2
*D125
  0
ENDTAB
  0
ENDSEC
  0
SECTION
  2
BLOCKS
  0
BLOCK
  5
226
100
AcDbEntity
  8
0
100
AcDbBlockBegin
  2
*MODEL_SPACE
 70
     0
 10
0.0
 20
0.0
 30
0.0
  3
*MODEL_SPACE
  1

  0
ENDBLK
  5
227
100
AcDbEntity
  8
0
100
AcDbBlockEnd
  0
BLOCK
  5
224
100
AcDbEntity
 67
     1
  8
0
100
AcDbBlockBegin
  2
*PAPER_SPACE
 70
     0
 10
0.0
 20
0.0
 30
0.0
  3
*PAPER_SPACE
  1

  0
ENDBLK
  5
225
100
AcDbEntity
 67
     1
  8
0
100
AcDbBlockEnd
  0
BLOCK
  5
241
100
AcDbEntity
  8
0
100
AcDbBlockBegin
  2
*D0
 70
     1
 10
0.0
 20
0.0
 30
0.0
  3
*D0
  1

  0
LINE
  5
239
100
AcDbEntity
  8
0
  6
BYBLOCK
 62
     0
100
AcDbLine
 10
79.0
 20
129.0
 30
0.0
 11
81.0
 21
129.0
 31
0.0
  0
LINE
  5
23A
100
AcDbEntity
  8
0
  6
BYBLOCK
 62
     0
100
AcDbLine
 10
81.0
 20
129.0
 30
0.0
 11
86.588475
 21
121.814818
 31
0.0
  0
MTEXT
  5
23B
100
AcDbEntity
  8
0
  6
BYBLOCK
 62
     0
100
AcDbMText
 10
76.25
 20
129.0
 30
0.0
 40
3.5
 41
0.0
 71
     5
 72
     1
  1
\A1;\U+220512
  0
SOLID
  5
23C
100
AcDbEntity
  8
0
  6
BYBLOCK
 62
     0
100
AcDbTrace
 10
86.851593
 20
122.019465
 30
0.0
 11
86.325358
 21
121.610171
 31
0.0
 12
87.816356
 22
120.236113
 32
0.0
 13
87.816356
 23
120.236113
 33
0.0
  0
LINE
  5
23D
100
AcDbEntity
  8
0
  6
BYBLOCK
 62
     0
100
AcDbLine
 10
91.4
 20
115.5
 30
0.0
 11
91.6
 21
115.5
 31
0.0
  0
LINE
  5
23E
100
AcDbEntity
  8
0
  6
BYBLOCK
 62
     0
100
AcDbLine
 10
91.5
 20
115.4
 30
0.0
 11
91.5
 21
115.6
 31
0.0
  0
POINT
  5
23F
100
AcDbEntity
  8
DEFPOINTS
  6
BYBLOCK
 62
     0
100
AcDbPoint
 10
87.816356
 20
120.236113
 30
0.0
  0
POINT
  5
240
100
AcDbEntity
  8
DEFPOINTS
  6
BYBLOCK
 62
     0
100
AcDbPoint
 10
95.183644
 20
110.763887
 30
0.0
  0
ENDBLK
  5
242
100
AcDbEntity
  8
0
100
AcDbBlockEnd
  0
BLOCK
  5
24C
100
AcDbEntity
  8
0
100
AcDbBlockBegin
  2
*D1
 70
     1
 10
0.0
 20
0.0
 30
0.0
  3
*D1
  1

  0
LINE
  5
244
100
AcDbEntity
  8
0
  6
BYBLOCK
 62
     0
100
AcDbLine
 10
79.25
 20
124.0
 30
0.0
 11
81.25
 21
124.0
 31
0.0
  0
LINE
  5
245
100
AcDbEntity
  8
0
  6
BYBLOCK
 62
     0
100
AcDbLine
 10
81.25
 20
124.0
 30
0.0
 11
86.727501
 21
119.457683
 31
0.0
  0
MTEXT
  5
246
100
AcDbEntity
  8
0
  6
BYBLOCK
 62
     0
100
AcDbMText
 10
75.95
 20
124.0
 30
0.0
 40
3.5
 41
0.0
 71
     5
 72
     1
  1
\A1;\U+22058.4
  0
SOLID
  5
247
100
AcDbEntity
  8
0
  6
BYBLOCK
 62
     0
100
AcDbTrace
 10
86.940279
 20
119.714269
 30
0.0
 11
86.514722
 21
119.201097
 31
0.0
 12
88.267017
 22
118.181011
 32
0.0
 13
88.267017
 23
118.181011
 33
0.0
  0
LINE
  5
248
100
AcDbEntity
  8
0
  6
BYBLOCK
 62
     0
100
AcDbLine
 10
91.4
 20
115.5
 30
0.0
 11
91.6
 21
115.5
 31
0.0
  0
LINE
  5
249
100
AcDbEntity
  8
0
  6
BYBLOCK
 62
     0
100
AcDbLine
 10
91.5
 20
115.4
 30
0.0
 11
91.5
 21
115.6
 31
0.0
  0
POINT
  5
24A
100
AcDbEntity
  8
DEFPOINTS
  6
BYBLOCK
 62
     0
100
AcDbPoint
 10
88.267017
 20
118.181011
 30
0.0
  0
POINT
  5
24B
100
AcDbEntity
  8
DEFPOINTS
  6
BYBLOCK
 62
     0
100
AcDbPoint
 10
94.732983
 20
112.81899
 30
0.0
  0
ENDBLK
  5
24D
100
AcDbEntity
  8
0
100
AcDbBlockEnd
  0
BLOCK
  5
257
100
AcDbEntity
  8
0
100
AcDbBlockBegin
  2
*D2
 70
     1
 10
0.0
 20
0.0
 30
0.0
  3
*D2
  1

  0
LINE
  5
24F
100
AcDbEntity
  8
0
  6
BYBLOCK
 62
     0
100
AcDbLine
 10
79.75
 20
110.0
 30
0.0
 11
81.75
 21
110.0
 31
0.0
  0
LINE
  5
250
100
AcDbEntity
  8
0
  6
BYBLOCK
 62
     0
100
AcDbLine
 10
81.75
 20
110.0
 30
0.0
 11
87.05801
 21
112.994262
 31
0.0
  0
MTEXT
  5
251
100
AcDbEntity
  8
0
  6
BYBLOCK
 62
     0
100
AcDbMText
 10
76.5
 20
110.0
 30
0.0
 40
3.5
 41
0.0
 71
     5
 72
     1
  1
\A1;\U+22056.2
  0
SOLID
  5
252
100
AcDbEntity
  8
0
  6
BYBLOCK
 62
     0
100
AcDbTrace
 10
86.894236
 20
113.284588
 30
0.0
 11
87.221784
 21
112.703936
 31
0.0
 12
88.799967
 22
113.976905
 32
0.0
 13
88.799967
 23
113.976905
 33
0.0
  0
LINE
  5
253
100
AcDbEntity
  8
0
  6
BYBLOCK
 62
     0
100
AcDbLine
 10
91.4
 20
115.5
 30
0.0
 11
91.6
 21
115.5
 31
0.0
  0
LINE
  5
254
100
AcDbEntity
  8
0
  6
BYBLOCK
 62
     0
100
AcDbLine
 10
91.5
 20
115.4
 30
0.0
 11
91.5
 21
115.6
 31
0.0
  0
POINT
  5
255
100
AcDbEntity
  8
DEFPOINTS
  6
BYBLOCK
 62
     0
100
AcDbPoint
 10
88.799967
 20
113.976905
 30
0.0
  0
POINT
  5
256
100
AcDbEntity
  8
DEFPOINTS
  6
BYBLOCK
 62
     0
100
AcDbPoint
 10
94.200033
 20
117.023096
 30
0.0
  0
ENDBLK
  5
258
100
AcDbEntity
  8
0
100
AcDbBlockEnd
  0
BLOCK
  5
264
100
AcDbEntity
  8
0
100
AcDbBlockBegin
  2
*D3
 70
     1
 10
0.0
 20
0.0
 30
0.0
  3
*D3
  1

  0
LINE
  5
25A
100
AcDbEntity
  8
0
  6
BYBLOCK
 62
     0
100
AcDbLine
 10
128.25
 20
120.6
 30
0.0
 11
128.25
 21
143.95
 31
0.0
  0
LINE
  5
25B
100
AcDbEntity
  8
0
  6
BYBLOCK
 62
     0
100
AcDbLine
 10
146.25
 20
120.6
 30
0.0
 11
146.25
 21
143.95
 31
0.0
  0
LINE
  5
25C
100
AcDbEntity
  8
0
  6
BYBLOCK
 62
     0
100
AcDbLine
 10
130.25
 20
143.75
 30
0.0
 11
135.35
 21
143.75
 31
0.0
  0
LINE
  5
25D
100
AcDbEntity
  8
0
  6
BYBLOCK
 62
     0
100
AcDbLine
 10
144.25
 20
143.75
 30
0.0
 11
138.65
 21
143.75
 31
0.0
  0
SOLID
  5
25E
100
AcDbEntity
  8
0
  6
BYBLOCK
 62
     0
100
AcDbTrace
 10
130.25
 20
144.083333
 30
0.0
 11
130.25
 21
143.416667
 31
0.0
 12
128.25
 22
143.75
 32
0.0
 13
128.25
 23
143.75
 33
0.0
  0
SOLID
  5
25F
100
AcDbEntity
  8
0
  6
BYBLOCK
 62
     0
100
AcDbTrace
 10
144.25
 20
144.083333
 30
0.0
 11
144.25
 21
143.416667
 31
0.0
 12
146.25
 22
143.75
 32
0.0
 13
146.25
 23
143.75
 33
0.0
  0
MTEXT
  5
260
100
AcDbEntity
  8
0
  6
BYBLOCK
 62
     0
100
AcDbMText
 10
137.0
 20
143.75
 30
0.0
 40
3.5
 41
0.0
 71
     5
 72
     1
  1
\A1;18
  0
POINT
  5
261
100
AcDbEntity
  8
DEFPOINTS
  6
BYBLOCK
 62
     0
100
AcDbPoint
 10
128.25
 20
120.5
 30
0.0
  0
POINT
  5
262
100
AcDbEntity
  8
DEFPOINTS
  6
BYBLOCK
 62
     0
100
AcDbPoint
 10
146.25
 20
120.5
 30
0.0
  0
POINT
  5
263
100
AcDbEntity
  8
DEFPOINTS
  6
BYBLOCK
 62
     0
100
AcDbPoint
 10
146.25
 20
143.75
 30
0.0
  0
ENDBLK
  5
265
100
AcDbEntity
  8
0
100
AcDbBlockEnd
  0
BLOCK
  5
271
100
AcDbEntity
  8
0
100
AcDbBlockBegin
  2
*D4
 70
     1
 10
0.0
 20
0.0
 30
0.0
  3
*D4
  1

  0
LINE
  5
267
100
AcDbEntity
  8
0
  6
BYBLOCK
 62
     0
100
AcDbLine
 10
128.25
 20
120.6
 30
0.0
 11
128.25
 21
137.7
 31
0.0
  0
LINE
  5
268
100
AcDbEntity
  8
0
  6
BYBLOCK
 62
     0
100
AcDbLine
 10
131.25
 20
119.8
 30
0.0
 11
131.25
 21
137.7
 31
0.0
  0
LINE
  5
269
100
AcDbEntity
  8
0
  6
BYBLOCK
 62
     0
100
AcDbLine
 10
126.25
 20
137.5
 30
0.0
 11
124.25
 21
137.5
 31
0.0
  0
LINE
  5
26A
100
AcDbEntity
  8
0
  6
BYBLOCK
 62
     0
100
AcDbLine
 10
133.25
 20
137.5
 30
0.0
 11
135.25
 21
137.5
 31
0.0
  0
SOLID
  5
26B
100
AcDbEntity
  8
0
  6
BYBLOCK
 62
     0
100
AcDbTrace
 10
126.25
 20
137.833333
 30
0.0
 11
126.25
 21
137.166667
 31
0.0
 12
128.25
 22
137.5
 32
0.0
 13
128.25
 23
137.5
 33
0.0
  0
SOLID
  5
26C
100
AcDbEntity
  8
0
  6
BYBLOCK
 62
     0
100
AcDbTrace
 10
133.25
 20
137.833333
 30
0.0
 11
133.25
 21
137.166667
 31
0.0
 12
131.25
 22
137.5
 32
0.0
 13
131.25
 23
137.5
 33
0.0
  0
MTEXT
  5
26D
100
AcDbEntity
  8
0
  6
BYBLOCK
 62
     0
100
AcDbMText
 10
129.75
 20
137.5
 30
0.0
 40
3.5
 41
0.0
 71
     5
 72
     1
  1
\A1;3
  0
POINT
  5
26E
100
AcDbEntity
  8
DEFPOINTS
  6
BYBLOCK
 62
     0
100
AcDbPoint
 10
128.25
 20
120.5
 30
0.0
  0
POINT
  5
26F
100
AcDbEntity
  8
DEFPOINTS
  6
BYBLOCK
 62
     0
100
AcDbPoint
 10
131.25
 20
119.7
 30
0.0
  0
POINT
  5
270
100
AcDbEntity
  8
DEFPOINTS
  6
BYBLOCK
 62
     0
100
AcDbPoint
 10
131.25
 20
137.5
 30
0.0
  0
ENDBLK
  5
272
100
AcDbEntity
  8
0
100
AcDbBlockEnd
  0
BLOCK
  5
27E
100
AcDbEntity
  8
0
100
AcDbBlockBegin
  2
*D5
 70
     1
 10
0.0
 20
0.0
 30
0.0
  3
*D5
  1

  0
LINE
  5
274
100
AcDbEntity
  8
0
  6
BYBLOCK
 62
     0
100
AcDbLine
 10
131.25
 20
119.8
 30
0.0
 11
131.25
 21
134.7
 31
0.0
  0
LINE
  5
275
100
AcDbEntity
  8
0
  6
BYBLOCK
 62
     0
100
AcDbLine
 10
146.25
 20
120.6
 30
0.0
 11
146.25
 21
134.7
 31
0.0
  0
LINE
  5
276
100
AcDbEntity
  8
0
  6
BYBLOCK
 62
     0
100
AcDbLine
 10
133.25
 20
134.5
 30
0.0
 11
137.1
 21
134.5
 31
0.0
  0
LINE
  5
277
100
AcDbEntity
  8
0
  6
BYBLOCK
 62
     0
100
AcDbLine
 10
144.25
 20
134.5
 30
0.0
 11
140.4
 21
134.5
 31
0.0
  0
SOLID
  5
278
100
AcDbEntity
  8
0
  6
BYBLOCK
 62
     0
100
AcDbTrace
 10
133.25
 20
134.833333
 30
0.0
 11
133.25
 21
134.166667
 31
0.0
 12
131.25
 22
134.5
 32
0.0
 13
131.25
 23
134.5
 33
0.0
  0
SOLID
  5
279
100
AcDbEntity
  8
0
  6
BYBLOCK
 62
     0
100
AcDbTrace
 10
144.25
 20
134.833333
 30
0.0
 11
144.25
 21
134.166667
 31
0.0
 12
146.25
 22
134.5
 32
0.0
 13
146.25
 23
134.5
 33
0.0
  0
MTEXT
  5
27A
100
AcDbEntity
  8
0
  6
BYBLOCK
 62
     0
100
AcDbMText
 10
138.75
 20
134.5
 30
0.0
 40
3.5
 41
0.0
 71
     5
 72
     1
  1
\A1;15
  0
POINT
  5
27B
100
AcDbEntity
  8
DEFPOINTS
  6
BYBLOCK
 62
     0
100
AcDbPoint
 10
131.25
 20
119.7
 30
0.0
  0
POINT
  5
27C
100
AcDbEntity
  8
DEFPOINTS
  6
BYBLOCK
 62
     0
100
AcDbPoint
 10
146.25
 20
120.5
 30
0.0
  0
POINT
  5
27D
100
AcDbEntity
  8
DEFPOINTS
  6
BYBLOCK
 62
     0
100
AcDbPoint
 10
146.25
 20
134.5
 30
0.0
  0
ENDBLK
  5
27F
100
AcDbEntity
  8
0
100
AcDbBlockEnd
  0
BLOCK
  5
289
100
AcDbEntity
  8
0
100
AcDbBlockBegin
  2
*D6
 70
     1
 10
0.0
 20
0.0
 30
0.0
  3
*D6
  1

  0
LINE
  5
281
100
AcDbEntity
  8
0
  6
BYBLOCK
 62
     0
100
AcDbLine
 10
119.75
 20
104.0
 30
0.0
 11
121.75
 21
104.0
 31
0.0
  0
LINE
  5
282
100
AcDbEntity
  8
0
  6
BYBLOCK
 62
     0
100
AcDbLine
 10
121.75
 20
104.0
 30
0.0
 11
128.494311
 21
109.845069
 31
0.0
  0
MTEXT
  5
283
100
AcDbEntity
  8
0
  6
BYBLOCK
 62
     0
100
AcDbMText
 10
118.25
 20
104.0
 30
0.0
 40
3.5
 41
0.0
 71
     5
 72
     1
  1
\A1;R1
  0
SOLID
  5
284
100
AcDbEntity
  8
0
  6
BYBLOCK
 62
     0
100
AcDbTrace
 10
126.764623
 20
108.787105
 30
0.0
 11
127.201243
 21
108.283312
 31
0.0
 12
128.494311
 22
109.845069
 32
0.0
 13
128.494311
 23
109.845069
 33
0.0
  0
LINE
  5
285
100
AcDbEntity
  8
0
  6
BYBLOCK
 62
     0
100
AcDbLine
 10
129.15
 20
110.5
 30
0.0
 11
129.35
 21
110.5
 31
0.0
  0
LINE
  5
286
100
AcDbEntity
  8
0
  6
BYBLOCK
 62
     0
100
AcDbLine
 10
129.25
 20
110.4
 30
0.0
 11
129.25
 21
110.6
 31
0.0
  0
POINT
  5
287
100
AcDbEntity
  8
DEFPOINTS
  6
BYBLOCK
 62
     0
100
AcDbPoint
 10
128.494311
 20
109.845069
 30
0.0
  0
POINT
  5
288
100
AcDbEntity
  8
DEFPOINTS
  6
BYBLOCK
 62
     0
100
AcDbPoint
 10
129.25
 20
110.5
 30
0.0
  0
ENDBLK
  5
28A
100
AcDbEntity
  8
0
100
AcDbBlockEnd
  0
BLOCK
  5
294
100
AcDbEntity
  8
0
100
AcDbBlockBegin
  2
*D7
 70
     1
 10
0.0
 20
0.0
 30
0.0
  3
*D7
  1

  0
LINE
  5
28C
100
AcDbEntity
  8
0
  6
BYBLOCK
 62
     0
100
AcDbLine
 10
154.5
 20
96.75
 30
0.0
 11
152.5
 21
96.75
 31
0.0
  0
LINE
  5
28D
100
AcDbEntity
  8
0
  6
BYBLOCK
 62
     0
100
AcDbLine
 10
152.5
 20
96.75
 30
0.0
 11
145.716409
 21
109.615431
 31
0.0
  0
MTEXT
  5
28E
100
AcDbEntity
  8
0
  6
BYBLOCK
 62
     0
100
AcDbMText
 10
156.0
 20
96.75
 30
0.0
 40
3.5
 41
0.0
 71
     5
 72
     1
  1
\A1;R1
  0
SOLID
  5
28F
100
AcDbEntity
  8
0
  6
BYBLOCK
 62
     0
100
AcDbTrace
 10
146.944084
 20
108.001762
 30
0.0
 11
146.354371
 21
107.690823
 31
0.0
 12
145.716409
 22
109.615431
 32
0.0
 13
145.716409
 23
109.615431
 33
0.0
  0
LINE
  5
290
100
AcDbEntity
  8
0
  6
BYBLOCK
 62
     0
100
AcDbLine
 10
145.15
 20
110.5
 30
0.0
 11
145.35
 21
110.5
 31
0.0
  0
LINE
  5
291
100
AcDbEntity
  8
0
  6
BYBLOCK
 62
     0
100
AcDbLine
 10
145.25
 20
110.4
 30
0.0
 11
145.25
 21
110.6
 31
0.0
  0
POINT
  5
292
100
AcDbEntity
  8
DEFPOINTS
  6
BYBLOCK
 62
     0
100
AcDbPoint
 10
145.716409
 20
109.615431
 30
0.0
  0
POINT
  5
293
100
AcDbEntity
  8
DEFPOINTS
  6
BYBLOCK
 62
     0
100
AcDbPoint
 10
145.25
 20
110.5
 30
0.0
  0
ENDBLK
  5
295
100
AcDbEntity
  8
0
100
AcDbBlockEnd
  0
BLOCK
  5
29F
100
AcDbEntity
  8
0
100
AcDbBlockBegin
  2
*D8
 70
     1
 10
0.0
 20
0.0
 30
0.0
  3
*D8
  1

  0
LINE
  5
297
100
AcDbEntity
  8
0
  6
BYBLOCK
 62
     0
100
AcDbLine
 10
169.75
 20
129.75
 30
0.0
 11
171.75
 21
129.75
 31
0.0
  0
LINE
  5
298
100
AcDbEntity
  8
0
  6
BYBLOCK
 62
     0
100
AcDbLine
 10
171.75
 20
129.75
 30
0.0
 11
176.982529
 21
122.102458
 31
0.0
  0
MTEXT
  5
299
100
AcDbEntity
  8
0
  6
BYBLOCK
 62
     0
100
AcDbMText
 10
167.0
 20
129.75
 30
0.0
 40
3.5
 41
0.0
 71
     5
 72
     1
  1
\A1;\U+220512
  0
SOLID
  5
29A
100
AcDbEntity
  8
0
  6
BYBLOCK
 62
     0
100
AcDbTrace
 10
177.257631
 20
122.290686
 30
0.0
 11
176.707426
 21
121.91423
 31
0.0
 12
178.111897
 22
120.451844
 32
0.0
 13
178.111897
 23
120.451844
 33
0.0
  0
LINE
  5
29B
100
AcDbEntity
  8
0
  6
BYBLOCK
 62
     0
100
AcDbLine
 10
181.4
 20
115.5
 30
0.0
 11
181.6
 21
115.5
 31
0.0
  0
LINE
  5
29C
100
AcDbEntity
  8
0
  6
BYBLOCK
 62
     0
100
AcDbLine
 10
181.5
 20
115.4
 30
0.0
 11
181.5
 21
115.6
 31
0.0
  0
POINT
  5
29D
100
AcDbEntity
  8
DEFPOINTS
  6
BYBLOCK
 62
     0
100
AcDbPoint
 10
178.111897
 20
120.451844
 30
0.0
  0
POINT
  5
29E
100
AcDbEntity
  8
DEFPOINTS
  6
BYBLOCK
 62
     0
100
AcDbPoint
 10
184.888103
 20
110.548157
 30
0.0
  0
ENDBLK
  5
2A0
100
AcDbEntity
  8
0
100
AcDbBlockEnd
  0
BLOCK
  5
2AA
100
AcDbEntity
  8
0
100
AcDbBlockBegin
  2
*D9
 70
     1
 10
0.0
 20
0.0
 30
0.0
  3
*D9
  1

  0
LINE
  5
2A2
100
AcDbEntity
  8
0
  6
BYBLOCK
 62
     0
100
AcDbLine
 10
169.0
 20
121.25
 30
0.0
 11
171.0
 21
121.25
 31
0.0
  0
LINE
  5
2A3
100
AcDbEntity
  8
0
  6
BYBLOCK
 62
     0
100
AcDbLine
 10
171.0
 20
121.25
 30
0.0
 11
177.026809
 21
117.949605
 31
0.0
  0
MTEXT
  5
2A4
100
AcDbEntity
  8
0
  6
BYBLOCK
 62
     0
100
AcDbMText
 10
165.75
 20
121.25
 30
0.0
 40
3.5
 41
0.0
 71
     5
 72
     1
  1
\A1;\U+22056.2
  0
SOLID
  5
2A5
100
AcDbEntity
  8
0
  6
BYBLOCK
 62
     0
100
AcDbTrace
 10
177.186914
 20
118.24197
 30
0.0
 11
176.866704
 21
117.657239
 31
0.0
 12
178.781002
 22
116.988976
 32
0.0
 13
178.781002
 23
116.988976
 33
0.0
  0
LINE
  5
2A6
100
AcDbEntity
  8
0
  6
BYBLOCK
 62
     0
100
AcDbLine
 10
181.4
 20
115.5
 30
0.0
 11
181.6
 21
115.5
 31
0.0
  0
LINE
  5
2A7
100
AcDbEntity
  8
0
  6
BYBLOCK
 62
     0
100
AcDbLine
 10
181.5
 20
115.4
 30
0.0
 11
181.5
 21
115.6
 31
0.0
  0
POINT
  5
2A8
100
AcDbEntity
  8
DEFPOINTS
  6
BYBLOCK
 62
     0
100
AcDbPoint
 10
178.781002
 20
116.988976
 30
0.0
  0
POINT
  5
2A9
100
AcDbEntity
  8
DEFPOINTS
  6
BYBLOCK
 62
     0
100
AcDbPoint
 10
184.218998
 20
114.011025
 30
0.0
  0
ENDBLK
  5
2AB
100
AcDbEntity
  8
0
100
AcDbBlockEnd
  0
BLOCK
  5
2B8
100
AcDbEntity
  8
0
100
AcDbBlockBegin
  2
*D10
 70
     1
 10
0.0
 20
0.0
 30
0.0
  3
*D10
  1

  0
LINE
  5
2AD
100
AcDbEntity
  8
0
  6
BYBLOCK
 62
     0
100
AcDbLine
 10
129.15
 20
79.25
 30
0.0
 11
109.9
 21
79.25
 31
0.0
  0
LINE
  5
2AE
100
AcDbEntity
  8
0
  6
BYBLOCK
 62
     0
100
AcDbLine
 10
129.15
 20
77.75
 30
0.0
 11
109.9
 21
77.75
 31
0.0
  0
LINE
  5
2AF
100
AcDbEntity
  8
0
  6
BYBLOCK
 62
     0
100
AcDbLine
 10
110.1
 20
75.75
 30
0.0
 11
110.1
 21
73.75
 31
0.0
  0
LINE
  5
2B0
100
AcDbEntity
  8
0
  6
BYBLOCK
 62
     0
100
AcDbLine
 10
110.1
 20
81.25
 30
0.0
 11
110.1
 21
84.0
 31
0.0
  0
LINE
  5
2B1
100
AcDbEntity
  8
0
  6
BYBLOCK
 62
     0
100
AcDbLine
 10
110.1
 20
84.0
 30
0.0
 11
112.1
 21
84.0
 31
0.0
  0
SOLID
  5
2B2
100
AcDbEntity
  8
0
  6
BYBLOCK
 62
     0
100
AcDbTrace
 10
109.766667
 20
75.75
 30
0.0
 11
110.433333
 21
75.75
 31
0.0
 12
110.1
 22
77.75
 32
0.0
 13
110.1
 23
77.75
 33
0.0
  0
SOLID
  5
2B3
100
AcDbEntity
  8
0
  6
BYBLOCK
 62
     0
100
AcDbTrace
 10
109.766667
 20
81.25
 30
0.0
 11
110.433333
 21
81.25
 31
0.0
 12
110.1
 22
79.25
 32
0.0
 13
110.1
 23
79.25
 33
0.0
  0
MTEXT
  5
2B4
100
AcDbEntity
  8
0
  6
BYBLOCK
 62
     0
100
AcDbMText
 10
114.25
 20
84.0
 30
0.0
 40
3.5
 41
0.0
 71
     5
 72
     1
  1
\A1;1.5
  0
POINT
  5
2B5
100
AcDbEntity
  8
DEFPOINTS
  6
BYBLOCK
 62
     0
100
AcDbPoint
 10
129.25
 20
79.25
 30
0.0
  0
POINT
  5
2B6
100
AcDbEntity
  8
DEFPOINTS
  6
BYBLOCK
 62
     0
100
AcDbPoint
 10
129.25
 20
77.75
 30
0.0
  0
POINT
  5
2B7
100
AcDbEntity
  8
DEFPOINTS
  6
BYBLOCK
 62
     0
100
AcDbPoint
 10
110.1
 20
77.75
 30
0.0
  0
ENDBLK
  5
2B9
100
AcDbEntity
  8
0
100
AcDbBlockEnd
  0
BLOCK
  5
2C3
100
AcDbEntity
  8
0
100
AcDbBlockBegin
  2
*D11
 70
     1
 10
0.0
 20
0.0
 30
0.0
  3
*D11
  1

  0
LINE
  5
2BB
100
AcDbEntity
  8
0
  6
BYBLOCK
 62
     0
100
AcDbLine
 10
183.5
 20
86.25
 30
0.0
 11
185.5
 21
86.25
 31
0.0
  0
LINE
  5
2BC
100
AcDbEntity
  8
0
  6
BYBLOCK
 62
     0
100
AcDbLine
 10
185.5
 20
86.25
 30
0.0
 11
190.917398
 21
81.711099
 31
0.0
  0
MTEXT
  5
2BD
100
AcDbEntity
  8
0
  6
BYBLOCK
 62
     0
100
AcDbMText
 10
181.75
 20
86.25
 30
0.0
 40
3.5
 41
0.0
 71
     5
 72
     1
  1
\A1;\U+22056
  0
SOLID
  5
2BE
100
AcDbEntity
  8
0
  6
BYBLOCK
 62
     0
100
AcDbTrace
 10
191.131471
 20
81.966606
 30
0.0
 11
190.703324
 21
81.455592
 31
0.0
 12
192.450439
 22
80.426659
 32
0.0
 13
192.450439
 23
80.426659
 33
0.0
  0
LINE
  5
2BF
100
AcDbEntity
  8
0
  6
BYBLOCK
 62
     0
100
AcDbLine
 10
194.65
 20
78.5
 30
0.0
 11
194.85
 21
78.5
 31
0.0
  0
LINE
  5
2C0
100
AcDbEntity
  8
0
  6
BYBLOCK
 62
     0
100
AcDbLine
 10
194.75
 20
78.4
 30
0.0
 11
194.75
 21
78.6
 31
0.0
  0
POINT
  5
2C1
100
AcDbEntity
  8
DEFPOINTS
  6
BYBLOCK
 62
     0
100
AcDbPoint
 10
192.450439
 20
80.426659
 30
0.0
  0
POINT
  5
2C2
100
AcDbEntity
  8
DEFPOINTS
  6
BYBLOCK
 62
     0
100
AcDbPoint
 10
197.049562
 20
76.57334
 30
0.0
  0
ENDBLK
  5
2C4
100
AcDbEntity
  8
0
100
AcDbBlockEnd
  0
BLOCK
  5
31C
100
AcDbEntity
  8
0
100
AcDbBlockBegin
  2
A$C502C4094
 70
     0
 10
0.0
 20
0.0
 30
0.0
  3
A$C502C4094
  1

  0
LINE
  5
2CA
100
AcDbEntity
  8
1
100
AcDbLine
 10
53.15
 20
5.25
 30
0.0
 11
77.4
 21
5.25
 31
0.0
  0
LINE
  5
2CB
100
AcDbEntity
  8
3
100
AcDbLine
 10
75.4
 20
2.25
 30
0.0
 11
59.4
 21
2.25
 31
0.0
  0
LINE
  5
2CC
100
AcDbEntity
  8
3
100
AcDbLine
 10
75.4
 20
8.25
 30
0.0
 11
59.4
 21
8.25
 31
0.0
  0
HATCH
  5
2CD
100
AcDbEntity
  8
0
100
AcDbHatch
 10
0.0
 20
0.0
 30
0.0
210
0.0
220
0.0
230
1.0
  2
ANSI31
 70
     0
 71
     1
 91
        1
 92
        7
 72
     1
 73
     1
 93
        8
 10
73.40000004562319
 20
37.25000032117286
 42
0.0
 10
73.40000004562319
 20
39.15000032117287
 42
0.0
 10
58.40000004562321
 20
39.15000032117285
 42
0.0
 10
58.40000004562319
 20
38.05000032117286
 42
0.0
 10
55.40000004562319
 20
38.05000032117287
 42
0.0
 10
55.40000004562319
 20
37.25000032117286
 42
0.4142135623730951
 10
56.40000004562319
 20
36.25000032117286
 42
0.0
 10
72.40000004562318
 20
36.25000032117286
 42
0.4142135623730951
 97
        8
330
317
330
2D0
330
2F3
330
2F1
330
2F0
330
2F2
330
2D1
330
316
 75
     0
 76
     1
 52
0.0
 41
3.0
 77
     0
 78
     1
 53
45.0
 43
-72.85
 44
-73.25
 45
-0.2651650429449553
 46
0.2651650429449553
 79
     0
 47
0.136474
 98
        1
 10
65.4
 20
37.25
  0
DIMENSION
  5
2CE
100
AcDbEntity
  8
0
100
AcDbDimension
  2
*D5
 10
73.4
 20
61.25
 30
0.0
 11
65.9
 21
61.25
 31
0.0
 12
-72.85
 22
-73.25
 32
0.0
 70
   128
  3
STANDARD
100
AcDbAlignedDimension
 13
58.4
 23
46.45
 33
0.0
 14
73.4
 24
47.25
 34
0.0
100
AcDbRotatedDimension
1001
ACAD
1000
DSTYLE
1002
{
1070
    78
1070
     8
1070
   288
1070
     1
1070
   284
1070
     8
1070
   140
1040
2.0
1070
    73
1070
     0
1070
   272
1070
     2
1070
   147
1040
0.1
1070
    42
1040
0.1
1070
    44
1040
0.2
1070
    43
1040
0.4
1070
   271
1070
     2
1070
   141
1040
0.1
1070
    41
1040
2.0
1002
}
  0
DIMENSION
  5
2CF
100
AcDbEntity
  8
0
100
AcDbDimension
  2
*D3
 10
73.4
 20
70.5
 30
0.0
 11
64.15
 21
70.5
 31
0.0
 12
-72.85
 22
-73.25
 32
0.0
 70
   128
  3
STANDARD
100
AcDbAlignedDimension
 13
55.4
 23
47.25
 33
0.0
 14
73.4
 24
47.25
 34
0.0
100
AcDbRotatedDimension
1001
ACAD
1000
DSTYLE
1002
{
1070
    78
1070
     8
1070
   288
1070
     1
1070
   284
1070
     8
1070
   140
1040
2.0
1070
    73
1070
     0
1070
   272
1070
     2
1070
   147
1040
0.1
1070
    42
1040
0.1
1070
    44
1040
0.2
1070
    43
1040
0.4
1070
   271
1070
     2
1070
   141
1040
0.1
1070
    41
1040
2.0
1002
}
  0
LINE
  5
2D0
102
{ACAD_REACTORS
330
2CD
102
}
100
AcDbEntity
  8
3
100
AcDbLine
 10
73.4
 20
39.15
 30
0.0
 11
58.4
 21
39.15
 31
0.0
  0
LINE
  5
2D1
102
{ACAD_REACTORS
330
2CD
102
}
100
AcDbEntity
  8
3
100
AcDbLine
 10
56.4
 20
36.25
 30
0.0
 11
72.4
 21
36.25
 31
0.0
  0
LINE
  5
2D2
100
AcDbEntity
  8
3
100
AcDbLine
 10
73.4
 20
45.35
 30
0.0
 11
58.4
 21
45.35
 31
0.0
  0
LINE
  5
2D3
100
AcDbEntity
  8
3
100
AcDbLine
 10
56.4
 20
48.25
 30
0.0
 11
72.4
 21
48.25
 31
0.0
  0
LINE
  5
2D4
100
AcDbEntity
  8
1
100
AcDbLine
 10
52.15
 20
42.250001
 30
0.0
 11
76.4
 21
42.250001
 31
0.0
  0
CIRCLE
  5
2D5
100
AcDbEntity
  8
3
100
AcDbCircle
 10
16.9
 20
5.25
 30
0.0
 40
4.0
  0
LINE
  5
2D6
100
AcDbEntity
  8
1
100
AcDbLine
 10
16.9
 20
10.25
 30
0.0
 11
16.9
 21
0.0
 31
0.0
  0
LINE
  5
2D7
100
AcDbEntity
  8
1
100
AcDbLine
 10
11.4
 20
5.25
 30
0.0
 11
22.65
 21
5.25
 31
0.0
  0
LINE
  5
2D8
100
AcDbEntity
  8
3
100
AcDbLine
 10
20.829059
 20
6.0
 30
0.0
 11
12.970942
 21
6.0
 31
0.0
  0
LINE
  5
2D9
100
AcDbEntity
  8
3
100
AcDbLine
 10
20.829059
 20
4.5
 30
0.0
 11
12.970942
 21
4.5
 31
0.0
  0
DIMENSION
  5
2DA
100
AcDbEntity
  8
0
100
AcDbDimension
  2
*D10
 10
37.25
 20
4.5
 30
0.0
 11
41.4
 21
10.75
 31
0.0
 12
-72.85
 22
-73.25
 32
0.0
 70
   128
  3
STANDARD
100
AcDbAlignedDimension
 13
56.4
 23
6.0
 33
0.0
 14
56.4
 24
4.5
 34
0.0
 50
90.0
100
AcDbRotatedDimension
1001
ACAD
1000
DSTYLE
1002
{
1070
    78
1070
     8
1070
   288
1070
     1
1070
   284
1070
     8
1070
   140
1040
2.0
1070
    73
1070
     0
1070
   272
1070
     2
1070
   147
1040
0.1
1070
    42
1040
0.1
1070
    44
1040
0.2
1070
    43
1040
0.4
1070
   271
1070
     2
1070
   141
1040
0.1
1070
    41
1040
2.0
1002
}
  0
LINE
  5
2DB
100
AcDbEntity
  8
3
100
AcDbLine
 10
59.4
 20
5.25
 30
0.0
 11
59.4
 21
9.25
 31
0.0
  0
LINE
  5
2DC
100
AcDbEntity
  8
3
100
AcDbLine
 10
56.4
 20
9.25
 30
0.0
 11
56.4
 21
6.0
 31
0.0
  0
LINE
  5
2DD
100
AcDbEntity
  8
3
100
AcDbLine
 10
59.4
 20
5.25
 30
0.0
 11
59.4
 21
1.25
 31
0.0
  0
LINE
  5
2DE
100
AcDbEntity
  8
3
100
AcDbLine
 10
56.4
 20
1.25
 30
0.0
 11
56.4
 21
4.5
 31
0.0
  0
LINE
  5
2DF
100
AcDbEntity
  8
3
100
AcDbLine
 10
59.4
 20
1.25
 30
0.0
 11
56.4
 21
1.25
 31
0.0
  0
LINE
  5
2E0
100
AcDbEntity
  8
3
100
AcDbLine
 10
57.4
 20
4.5
 30
0.0
 11
57.4
 21
5.25
 31
0.0
  0
LINE
  5
2E1
100
AcDbEntity
  8
3
100
AcDbLine
 10
56.4
 20
4.5
 30
0.0
 11
57.4
 21
4.5
 31
0.0
  0
LINE
  5
2E2
100
AcDbEntity
  8
3
100
AcDbLine
 10
57.4
 20
6.0
 30
0.0
 11
57.4
 21
5.25
 31
0.0
  0
LINE
  5
2E3
100
AcDbEntity
  8
3
100
AcDbLine
 10
56.4
 20
6.0
 30
0.0
 11
57.4
 21
6.0
 31
0.0
  0
LINE
  5
2E4
100
AcDbEntity
  8
3
100
AcDbLine
 10
59.4
 20
9.25
 30
0.0
 11
56.4
 21
9.25
 31
0.0
  0
CIRCLE
  5
2E5
100
AcDbEntity
  8
3
100
AcDbCircle
 10
18.65
 20
42.250001
 30
0.0
 40
6.0
  0
LINE
  5
2E6
100
AcDbEntity
  8
1
100
AcDbLine
 10
27.65
 20
42.250001
 30
0.0
 11
8.65
 21
42.250001
 31
0.0
  0
DIMENSION
  5
2E7
100
AcDbEntity
  8
0
100
AcDbDimension
  2
*D0
 10
22.333644
 20
37.513888
 30
0.0
 11
3.4
 21
55.75
 31
0.0
 12
-72.85
 22
-73.25
 32
0.0
 70
   131
  3
STANDARD
100
AcDbDiametricDimension
 15
14.966356
 25
46.986114
 35
0.0
 40
0.0
1001
ACAD
1000
DSTYLE
1002
{
1070
    78
1070
     8
1070
   288
1070
     1
1070
   284
1070
     8
1070
   140
1040
2.0
1070
    73
1070
     0
1070
   272
1070
     2
1070
   147
1040
0.1
1070
    42
1040
0.1
1070
    44
1040
0.2
1070
    43
1040
0.4
1070
   271
1070
     2
1070
   141
1040
0.1
1070
    41
1040
2.0
1002
}
  0
DIMENSION
  5
2E8
100
AcDbEntity
  8
0
100
AcDbDimension
  2
*D2
 10
21.350033
 20
43.773096
 30
0.0
 11
3.65
 21
36.75
 31
0.0
 12
-72.85
 22
-73.25
 32
0.0
 70
   131
  3
STANDARD
100
AcDbDiametricDimension
 15
15.949967
 25
40.726905
 35
0.0
 40
0.0
1001
ACAD
1000
DSTYLE
1002
{
1070
    78
1070
     8
1070
   288
1070
     1
1070
   284
1070
     8
1070
   140
1040
2.0
1070
    73
1070
     0
1070
   272
1070
     2
1070
   147
1040
0.1
1070
    42
1040
0.1
1070
    44
1040
0.2
1070
    43
1040
0.4
1070
   271
1070
     2
1070
   141
1040
0.1
1070
    41
1040
2.0
1002
}
  0
DIMENSION
  5
2E9
100
AcDbEntity
  8
0
100
AcDbDimension
  2
*D1
 10
21.882984
 20
39.56899
 30
0.0
 11
3.1
 21
50.75
 31
0.0
 12
-72.85
 22
-73.25
 32
0.0
 70
   131
  3
STANDARD
100
AcDbDiametricDimension
 15
15.417017
 25
44.931011
 35
0.0
 40
0.0
1001
ACAD
1000
DSTYLE
1002
{
1070
    78
1070
     8
1070
   288
1070
     1
1070
   284
1070
     8
1070
   140
1040
2.0
1070
    73
1070
     0
1070
   272
1070
     2
1070
   147
1040
0.1
1070
    42
1040
0.1
1070
    44
1040
0.2
1070
    43
1040
0.4
1070
   271
1070
     2
1070
   141
1040
0.1
1070
    41
1040
2.0
1002
}
  0
CIRCLE
  5
2EA
100
AcDbEntity
  8
3
100
AcDbCircle
 10
18.65
 20
42.250001
 30
0.0
 40
3.1
  0
CIRCLE
  5
2EB
100
AcDbEntity
  8
3
100
AcDbCircle
 10
18.65
 20
42.250001
 30
0.0
 40
4.2
  0
LINE
  5
2EC
100
AcDbEntity
  8
1
100
AcDbLine
 10
18.65
 20
51.5
 30
0.0
 11
18.65
 21
33.0
 31
0.0
  0
DIMENSION
  5
2ED
100
AcDbEntity
  8
0
100
AcDbDimension
  2
*D4
 10
58.4
 20
64.25
 30
0.0
 11
56.9
 21
64.25
 31
0.0
 12
-72.85
 22
-73.25
 32
0.0
 70
   128
  3
STANDARD
100
AcDbAlignedDimension
 13
55.4
 23
47.25
 33
0.0
 14
58.4
 24
46.45
 34
0.0
100
AcDbRotatedDimension
1001
ACAD
1000
DSTYLE
1002
{
1070
    78
1070
     8
1070
   288
1070
     1
1070
   284
1070
     8
1070
   140
1040
2.0
1070
    73
1070
     0
1070
   272
1070
     2
1070
   147
1040
0.1
1070
    42
1040
0.1
1070
    44
1040
0.2
1070
    43
1040
0.4
1070
   271
1070
     2
1070
   141
1040
0.1
1070
    41
1040
2.0
1002
}
  0
DIMENSION
  5
2EE
100
AcDbEntity
  8
0
100
AcDbDimension
  2
*D6
 10
56.4
 20
37.25
 30
0.0
 11
45.4
 21
30.75
 31
0.0
 12
-72.85
 22
-73.25
 32
0.0
 70
   132
  3
STANDARD
100
AcDbRadialDimension
 15
55.644311
 25
36.59507
 35
0.0
 40
0.0
1001
ACAD
1000
DSTYLE
1002
{
1070
    78
1070
     8
1070
   288
1070
     1
1070
   284
1070
     8
1070
   140
1040
2.0
1070
    73
1070
     0
1070
   272
1070
     2
1070
   147
1040
0.1
1070
    42
1040
0.1
1070
    44
1040
0.2
1070
    43
1040
0.4
1070
   271
1070
     2
1070
   141
1040
0.1
1070
    41
1040
2.0
1002
}
  0
LINE
  5
2EF
100
AcDbEntity
  8
3
100
AcDbLine
 10
58.4
 20
39.15
 30
0.0
 11
58.4
 21
42.25
 31
0.0
  0
LINE
  5
2F0
102
{ACAD_REACTORS
330
2CD
102
}
100
AcDbEntity
  8
3
100
AcDbLine
 10
55.4
 20
37.25
 30
0.0
 11
55.4
 21
42.25
 31
0.0
  0
LINE
  5
2F1
102
{ACAD_REACTORS
330
2CD
102
}
100
AcDbEntity
  8
3
100
AcDbLine
 10
58.4
 20
38.05
 30
0.0
 11
55.4
 21
38.05
 31
0.0
  0
ARC
  5
2F2
102
{ACAD_REACTORS
330
2CD
102
}
100
AcDbEntity
  8
3
100
AcDbCircle
 10
56.4
 20
37.25
 30
0.0
 40
1.0
100
AcDbArc
 50
180.0
 51
270.0
  0
LINE
  5
2F3
102
{ACAD_REACTORS
330
2CD
102
}
100
AcDbEntity
  8
3
100
AcDbLine
 10
58.4
 20
39.15
 30
0.0
 11
58.4
 21
38.05
 31
0.0
  0
ARC
  5
2F4
100
AcDbEntity
  8
3
100
AcDbCircle
 10
56.4
 20
47.25
 30
0.0
 40
1.0
100
AcDbArc
 50
90.0
 51
180.0
  0
LINE
  5
2F5
100
AcDbEntity
  8
3
100
AcDbLine
 10
58.4
 20
46.45
 30
0.0
 11
55.4
 21
46.45
 31
0.0
  0
LINE
  5
2F6
100
AcDbEntity
  8
3
100
AcDbLine
 10
55.4
 20
47.25
 30
0.0
 11
55.4
 21
42.25
 31
0.0
  0
LINE
  5
2F7
100
AcDbEntity
  8
3
100
AcDbLine
 10
58.4
 20
45.35
 30
0.0
 11
58.4
 21
42.25
 31
0.0
  0
LINE
  5
2F8
100
AcDbEntity
  8
3
100
AcDbLine
 10
58.4
 20
45.35
 30
0.0
 11
58.4
 21
46.45
 31
0.0
  0
DIMENSION
  5
2F9
100
AcDbEntity
  8
0
100
AcDbDimension
  2
*D7
 10
72.4
 20
37.25
 30
0.0
 11
83.15
 21
23.5
 31
0.0
 12
-72.85
 22
-73.25
 32
0.0
 70
   132
  3
STANDARD
100
AcDbRadialDimension
 15
72.866409
 25
36.365431
 35
0.0
 40
0.0
1001
ACAD
1000
DSTYLE
1002
{
1070
    78
1070
     8
1070
   288
1070
     1
1070
   284
1070
     8
1070
   140
1040
2.0
1070
    73
1070
     0
1070
   272
1070
     2
1070
   147
1040
0.1
1070
    42
1040
0.1
1070
    44
1040
0.2
1070
    43
1040
0.4
1070
   271
1070
     2
1070
   141
1040
0.1
1070
    41
1040
2.0
1002
}
  0
DIMENSION
  5
2FA
100
AcDbEntity
  8
0
100
AcDbDimension
  2
*D11
 10
124.199562
 20
3.32334
 30
0.0
 11
108.9
 21
13.0
 31
0.0
 12
-72.85
 22
-73.25
 32
0.0
 70
   131
  3
STANDARD
100
AcDbDiametricDimension
 15
119.600439
 25
7.17666
 35
0.0
 40
0.0
1001
ACAD
1000
DSTYLE
1002
{
1070
    78
1070
     8
1070
   288
1070
     1
1070
   284
1070
     8
1070
   140
1040
2.0
1070
    73
1070
     0
1070
   272
1070
     2
1070
   147
1040
0.1
1070
    42
1040
0.1
1070
    44
1040
0.2
1070
    43
1040
0.4
1070
   271
1070
     2
1070
   141
1040
0.1
1070
    41
1040
2.0
1002
}
  0
LINE
  5
2FB
100
AcDbEntity
  8
1
100
AcDbLine
 10
77.65
 20
5.25
 30
0.0
 11
85.9
 21
5.25
 31
0.0
  0
LINE
  5
2FC
100
AcDbEntity
  8
3
100
AcDbLine
 10
83.4
 20
2.75
 30
0.0
 11
75.4
 21
2.75
 31
0.0
  0
LINE
  5
2FD
100
AcDbEntity
  8
3
100
AcDbLine
 10
84.15
 20
3.5
 30
0.0
 11
76.15
 21
3.5
 31
0.0
  0
LINE
  5
2FE
100
AcDbEntity
  8
3
100
AcDbLine
 10
84.15
 20
7.0
 30
0.0
 11
76.15
 21
7.0
 31
0.0
  0
LINE
  5
2FF
100
AcDbEntity
  8
3
100
AcDbLine
 10
83.4
 20
7.75
 30
0.0
 11
75.4
 21
7.75
 31
0.0
  0
LINE
  5
300
100
AcDbEntity
  8
3
100
AcDbLine
 10
76.15
 20
5.25
 30
0.0
 11
76.15
 21
2.75
 31
0.0
  0
LINE
  5
301
100
AcDbEntity
  8
3
100
AcDbLine
 10
75.4
 20
5.25
 30
0.0
 11
75.4
 21
2.25
 31
0.0
  0
LINE
  5
302
100
AcDbEntity
  8
3
100
AcDbLine
 10
75.4
 20
5.25
 30
0.0
 11
75.4
 21
8.25
 31
0.0
  0
LINE
  5
303
100
AcDbEntity
  8
3
100
AcDbLine
 10
76.15
 20
5.25
 30
0.0
 11
76.15
 21
7.75
 31
0.0
  0
LINE
  5
304
100
AcDbEntity
  8
3
100
AcDbLine
 10
84.4
 20
6.75
 30
0.0
 11
83.4
 21
7.75
 31
0.0
  0
LINE
  5
305
100
AcDbEntity
  8
3
100
AcDbLine
 10
84.4
 20
3.75
 30
0.0
 11
83.4
 21
2.75
 31
0.0
  0
LINE
  5
306
100
AcDbEntity
  8
3
100
AcDbLine
 10
83.4
 20
5.25
 30
0.0
 11
83.4
 21
2.75
 31
0.0
  0
LINE
  5
307
100
AcDbEntity
  8
3
100
AcDbLine
 10
83.4
 20
5.25
 30
0.0
 11
83.4
 21
7.75
 31
0.0
  0
LINE
  5
308
100
AcDbEntity
  8
3
100
AcDbLine
 10
84.4
 20
5.25
 30
0.0
 11
84.4
 21
3.75
 31
0.0
  0
LINE
  5
309
100
AcDbEntity
  8
3
100
AcDbLine
 10
84.4
 20
5.25
 30
0.0
 11
84.4
 21
6.75
 31
0.0
  0
LINE
  5
30A
100
AcDbEntity
  8
1
100
AcDbLine
 10
121.9
 20
10.25
 30
0.0
 11
121.9
 21
0.0
 31
0.0
  0
CIRCLE
  5
30B
100
AcDbEntity
  8
3
100
AcDbCircle
 10
121.9
 20
5.25
 30
0.0
 40
4.0
  0
LINE
  5
30C
100
AcDbEntity
  8
1
100
AcDbLine
 10
116.4
 20
5.25
 30
0.0
 11
127.65
 21
5.25
 31
0.0
  0
CIRCLE
  5
30D
100
AcDbEntity
  8
3
100
AcDbCircle
 10
121.9
 20
5.25
 30
0.0
 40
2.5
  0
CIRCLE
  5
30E
100
AcDbEntity
  8
3
100
AcDbCircle
 10
121.9
 20
5.25
 30
0.0
 40
1.75
  0
CIRCLE
  5
30F
100
AcDbEntity
  8
3
100
AcDbCircle
 10
121.9
 20
5.25
 30
0.0
 40
3.0
  0
DIMENSION
  5
310
100
AcDbEntity
  8
0
100
AcDbDimension
  2
*D9
 10
111.368999
 20
40.761025
 30
0.0
 11
92.9
 21
48.0
 31
0.0
 12
-72.85
 22
-73.25
 32
0.0
 70
   131
  3
STANDARD
100
AcDbDiametricDimension
 15
105.931002
 25
43.738976
 35
0.0
 40
0.0
1001
ACAD
1000
DSTYLE
1002
{
1070
    78
1070
     8
1070
   288
1070
     1
1070
   284
1070
     8
1070
   140
1040
2.0
1070
    73
1070
     0
1070
   272
1070
     2
1070
   147
1040
0.1
1070
    42
1040
0.1
1070
    44
1040
0.2
1070
    43
1040
0.4
1070
   271
1070
     2
1070
   141
1040
0.1
1070
    41
1040
2.0
1002
}
  0
DIMENSION
  5
311
100
AcDbEntity
  8
0
100
AcDbDimension
  2
*D8
 10
112.038103
 20
37.298157
 30
0.0
 11
94.15
 21
56.5
 31
0.0
 12
-72.85
 22
-73.25
 32
0.0
 70
   131
  3
STANDARD
100
AcDbDiametricDimension
 15
105.261897
 25
47.201844
 35
0.0
 40
0.0
1001
ACAD
1000
DSTYLE
1002
{
1070
    78
1070
     8
1070
   288
1070
     1
1070
   284
1070
     8
1070
   140
1040
2.0
1070
    73
1070
     0
1070
   272
1070
     2
1070
   147
1040
0.1
1070
    42
1040
0.1
1070
    44
1040
0.2
1070
    43
1040
0.4
1070
   271
1070
     2
1070
   141
1040
0.1
1070
    41
1040
2.0
1002
}
  0
LINE
  5
312
100
AcDbEntity
  8
1
100
AcDbLine
 10
117.65
 20
42.250001
 30
0.0
 11
98.65
 21
42.250001
 31
0.0
  0
CIRCLE
  5
313
100
AcDbEntity
  8
3
100
AcDbCircle
 10
108.65
 20
42.250001
 30
0.0
 40
6.0
  0
CIRCLE
  5
314
100
AcDbEntity
  8
3
100
AcDbCircle
 10
108.65
 20
42.250001
 30
0.0
 40
3.1
  0
LINE
  5
315
100
AcDbEntity
  8
3
100
AcDbLine
 10
73.4
 20
39.15
 30
0.0
 11
73.4
 21
42.25
 31
0.0
  0
ARC
  5
316
102
{ACAD_REACTORS
330
2CD
102
}
100
AcDbEntity
  8
3
100
AcDbCircle
 10
72.4
 20
37.25
 30
0.0
 40
1.0
100
AcDbArc
 50
270.0
 51
0.0
  0
LINE
  5
317
102
{ACAD_REACTORS
330
2CD
102
}
100
AcDbEntity
  8
3
100
AcDbLine
 10
73.4
 20
37.25
 30
0.0
 11
73.4
 21
39.15
 31
0.0
  0
LINE
  5
318
100
AcDbEntity
  8
3
100
AcDbLine
 10
73.4
 20
47.25
 30
0.0
 11
73.4
 21
45.35
 31
0.0
  0
LINE
  5
319
100
AcDbEntity
  8
3
100
AcDbLine
 10
73.4
 20
45.35
 30
0.0
 11
73.4
 21
42.25
 31
0.0
  0
ARC
  5
31A
100
AcDbEntity
  8
3
100
AcDbCircle
 10
72.4
 20
47.25
 30
0.0
 40
1.0
100
AcDbArc
 50
0.0
 51
90.0
  0
LINE
  5
31B
100
AcDbEntity
  8
1
100
AcDbLine
 10
108.65
 20
51.5
 30
0.0
 11
108.65
 21
33.0
 31
0.0
  0
ENDBLK
  5
31D
100
AcDbEntity
  8
0
100
AcDbBlockEnd
  0
BLOCK
  5
478
100
AcDbEntity
  8
0
100
AcDbBlockBegin
  2
*D13
 70
     1
 10
0.0
 20
0.0
 30
0.0
  3
*D13
  1

  0
LINE
  5
470
100
AcDbEntity
  8
0
  6
BYBLOCK
 62
     0
100
AcDbLine
 10
184.5
 20
123.0
 30
0.0
 11
186.5
 21
123.0
 31
0.0
  0
LINE
  5
471
100
AcDbEntity
  8
0
  6
BYBLOCK
 62
     0
100
AcDbLine
 10
186.5
 20
123.0
 30
0.0
 11
189.151686
 21
116.812733
 31
0.0
  0
MTEXT
  5
472
100
AcDbEntity
  8
0
  6
BYBLOCK
 62
     0
100
AcDbMText
 10
181.75
 20
123.0
 30
0.0
 40
3.5
 41
0.0
 71
     5
 72
     1
  1
\A1;\U+220513
  0
SOLID
  5
473
100
AcDbEntity
  8
0
  6
BYBLOCK
 62
     0
100
AcDbTrace
 10
189.458068
 20
116.944039
 30
0.0
 11
188.845304
 21
116.681426
 31
0.0
 12
189.939525
 22
114.974443
 32
0.0
 13
189.939525
 23
114.974443
 33
0.0
  0
LINE
  5
474
100
AcDbEntity
  8
0
  6
BYBLOCK
 62
     0
100
AcDbLine
 10
192.4
 20
109.0
 30
0.0
 11
192.6
 21
109.0
 31
0.0
  0
LINE
  5
475
100
AcDbEntity
  8
0
  6
BYBLOCK
 62
     0
100
AcDbLine
 10
192.5
 20
108.9
 30
0.0
 11
192.5
 21
109.1
 31
0.0
  0
POINT
  5
476
100
AcDbEntity
  8
DEFPOINTS
  6
BYBLOCK
 62
     0
100
AcDbPoint
 10
189.939525
 20
114.974443
 30
0.0
  0
POINT
  5
477
100
AcDbEntity
  8
DEFPOINTS
  6
BYBLOCK
 62
     0
100
AcDbPoint
 10
195.060475
 20
103.025557
 30
0.0
  0
ENDBLK
  5
479
100
AcDbEntity
  8
0
100
AcDbBlockEnd
  0
BLOCK
  5
483
100
AcDbEntity
  8
0
100
AcDbBlockBegin
  2
*D14
 70
     1
 10
0.0
 20
0.0
 30
0.0
  3
*D14
  1

  0
LINE
  5
47B
100
AcDbEntity
  8
0
  6
BYBLOCK
 62
     0
100
AcDbLine
 10
183.75
 20
117.5
 30
0.0
 11
185.75
 21
117.5
 31
0.0
  0
LINE
  5
47C
100
AcDbEntity
  8
0
  6
BYBLOCK
 62
     0
100
AcDbLine
 10
185.75
 20
117.5
 30
0.0
 11
188.706519
 21
113.776976
 31
0.0
  0
MTEXT
  5
47D
100
AcDbEntity
  8
0
  6
BYBLOCK
 62
     0
100
AcDbMText
 10
180.5
 20
117.5
 30
0.0
 40
3.5
 41
0.0
 71
     5
 72
     1
  1
\A1;\U+22058.2
  0
SOLID
  5
47E
100
AcDbEntity
  8
0
  6
BYBLOCK
 62
     0
100
AcDbTrace
 10
188.967556
 20
113.98427
 30
0.0
 11
188.445482
 21
113.569682
 31
0.0
 12
189.950283
 22
112.210754
 32
0.0
 13
189.950283
 23
112.210754
 33
0.0
  0
LINE
  5
47F
100
AcDbEntity
  8
0
  6
BYBLOCK
 62
     0
100
AcDbLine
 10
192.4
 20
109.0
 30
0.0
 11
192.6
 21
109.0
 31
0.0
  0
LINE
  5
480
100
AcDbEntity
  8
0
  6
BYBLOCK
 62
     0
100
AcDbLine
 10
192.5
 20
108.9
 30
0.0
 11
192.5
 21
109.1
 31
0.0
  0
POINT
  5
481
100
AcDbEntity
  8
DEFPOINTS
  6
BYBLOCK
 62
     0
100
AcDbPoint
 10
189.950283
 20
112.210754
 30
0.0
  0
POINT
  5
482
100
AcDbEntity
  8
DEFPOINTS
  6
BYBLOCK
 62
     0
100
AcDbPoint
 10
195.049717
 20
105.789246
 30
0.0
  0
ENDBLK
  5
484
100
AcDbEntity
  8
0
100
AcDbBlockEnd
  0
BLOCK
  5
490
100
AcDbEntity
  8
0
100
AcDbBlockBegin
  2
*D15
 70
     1
 10
0.0
 20
0.0
 30
0.0
  3
*D15
  1

  0
LINE
  5
486
100
AcDbEntity
  8
0
  6
BYBLOCK
 62
     0
100
AcDbLine
 10
145.0
 20
114.6
 30
0.0
 11
145.0
 21
128.45
 31
0.0
  0
LINE
  5
487
100
AcDbEntity
  8
0
  6
BYBLOCK
 62
     0
100
AcDbLine
 10
148.0
 20
114.3
 30
0.0
 11
148.0
 21
128.45
 31
0.0
  0
LINE
  5
488
100
AcDbEntity
  8
0
  6
BYBLOCK
 62
     0
100
AcDbLine
 10
143.0
 20
128.25
 30
0.0
 11
141.0
 21
128.25
 31
0.0
  0
LINE
  5
489
100
AcDbEntity
  8
0
  6
BYBLOCK
 62
     0
100
AcDbLine
 10
150.0
 20
128.25
 30
0.0
 11
152.0
 21
128.25
 31
0.0
  0
SOLID
  5
48A
100
AcDbEntity
  8
0
  6
BYBLOCK
 62
     0
100
AcDbTrace
 10
143.0
 20
128.583333
 30
0.0
 11
143.0
 21
127.916667
 31
0.0
 12
145.0
 22
128.25
 32
0.0
 13
145.0
 23
128.25
 33
0.0
  0
SOLID
  5
48B
100
AcDbEntity
  8
0
  6
BYBLOCK
 62
     0
100
AcDbTrace
 10
150.0
 20
128.583333
 30
0.0
 11
150.0
 21
127.916667
 31
0.0
 12
148.0
 22
128.25
 32
0.0
 13
148.0
 23
128.25
 33
0.0
  0
MTEXT
  5
48C
100
AcDbEntity
  8
0
  6
BYBLOCK
 62
     0
100
AcDbMText
 10
146.5
 20
128.25
 30
0.0
 40
3.5
 41
0.0
 71
     5
 72
     1
  1
\A1;3
  0
POINT
  5
48D
100
AcDbEntity
  8
DEFPOINTS
  6
BYBLOCK
 62
     0
100
AcDbPoint
 10
145.0
 20
114.5
 30
0.0
  0
POINT
  5
48E
100
AcDbEntity
  8
DEFPOINTS
  6
BYBLOCK
 62
     0
100
AcDbPoint
 10
148.0
 20
114.2
 30
0.0
  0
POINT
  5
48F
100
AcDbEntity
  8
DEFPOINTS
  6
BYBLOCK
 62
     0
100
AcDbPoint
 10
148.0
 20
128.25
 30
0.0
  0
ENDBLK
  5
491
100
AcDbEntity
  8
0
100
AcDbBlockEnd
  0
BLOCK
  5
4B5
100
AcDbEntity
  8
0
100
AcDbBlockBegin
  2
A$C12173F50
 70
     0
 10
0.0
 20
0.0
 30
0.0
  3
A$C12173F50
  1

  0
CIRCLE
  5
493
100
AcDbEntity
  8
3
100
AcDbCircle
 10
11.75
 20
9.25
 30
0.0
 40
5.2
  0
CIRCLE
  5
494
100
AcDbEntity
  8
3
100
AcDbCircle
 10
11.75
 20
9.25
 30
0.0
 40
6.5
  0
LINE
  5
495
100
AcDbEntity
  8
1
100
AcDbLine
 10
23.75
 20
9.25
 30
0.0
 11
0.0
 21
9.25
 31
0.0
  0
CIRCLE
  5
496
100
AcDbEntity
  8
3
100
AcDbCircle
 10
11.75
 20
9.25
 30
0.0
 40
4.1
  0
LINE
  5
497
100
AcDbEntity
  8
1
100
AcDbLine
 10
11.75
 20
18.75
 30
0.0
 11
11.75
 21
0.0
 31
0.0
  0
DIMENSION
  5
498
100
AcDbEntity
  8
0
100
AcDbDimension
  2
*D14
 10
93.549717
 20
6.039245
 30
0.0
 11
79.0
 21
17.75
 31
0.0
 12
-101.5
 22
-99.75
 32
0.0
 70
   131
  3
STANDARD
100
AcDbDiametricDimension
 15
88.450283
 25
12.460754
 35
0.0
 40
0.0
1001
ACAD
1000
DSTYLE
1002
{
1070
    78
1070
     8
1070
   288
1070
     1
1070
   284
1070
     8
1070
   140
1040
2.0
1070
    73
1070
     0
1070
   272
1070
     2
1070
   147
1040
0.1
1070
    42
1040
0.1
1070
    44
1040
0.2
1070
    43
1040
0.4
1070
   271
1070
     2
1070
   141
1040
0.1
1070
    41
1040
2.0
1002
}
  0
DIMENSION
  5
499
100
AcDbEntity
  8
0
100
AcDbDimension
  2
*D13
 10
93.560476
 20
3.275557
 30
0.0
 11
80.25
 21
23.25
 31
0.0
 12
-101.5
 22
-99.75
 32
0.0
 70
   131
  3
STANDARD
100
AcDbDiametricDimension
 15
88.439525
 25
15.224442
 35
0.0
 40
0.0
1001
ACAD
1000
DSTYLE
1002
{
1070
    78
1070
     8
1070
   288
1070
     1
1070
   284
1070
     8
1070
   140
1040
2.0
1070
    73
1070
     0
1070
   272
1070
     2
1070
   147
1040
0.1
1070
    42
1040
0.1
1070
    44
1040
0.2
1070
    43
1040
0.4
1070
   271
1070
     2
1070
   141
1040
0.1
1070
    41
1040
2.0
1002
}
  0
LINE
  5
49A
100
AcDbEntity
  8
1
100
AcDbLine
 10
103.0
 20
9.25
 30
0.0
 11
79.25
 21
9.25
 31
0.0
  0
DIMENSION
  5
49B
100
AcDbEntity
  8
0
100
AcDbDimension
  2
*D15
 10
46.5
 20
28.5
 30
0.0
 11
45.0
 21
28.5
 31
0.0
 12
-101.5
 22
-99.75
 32
0.0
 70
   128
  3
STANDARD
100
AcDbAlignedDimension
 13
43.5
 23
14.75
 33
0.0
 14
46.5
 24
14.45
 34
0.0
100
AcDbRotatedDimension
1001
ACAD
1000
DSTYLE
1002
{
1070
    78
1070
     8
1070
   288
1070
     1
1070
   284
1070
     8
1070
   140
1040
2.0
1070
    73
1070
     0
1070
   272
1070
     2
1070
   147
1040
0.1
1070
    42
1040
0.1
1070
    44
1040
0.2
1070
    43
1040
0.4
1070
   271
1070
     2
1070
   141
1040
0.1
1070
    41
1040
2.0
1002
}
  0
HATCH
  5
49C
100
AcDbEntity
  8
0
100
AcDbHatch
 10
0.0
 20
0.0
 30
0.0
210
0.0
220
0.0
230
1.0
  2
ANSI31
 70
     0
 71
     1
 91
        1
 92
        7
 72
     1
 73
     1
 93
        8
 10
61.50000016412926
 20
5.149999796013005
 42
0.0
 10
46.5000001641292
 20
5.149999796012991
 42
0.0
 10
46.50000016412923
 20
4.049999796013011
 42
0.0
 10
43.50000016412923
 20
4.049999796013011
 42
0.0
 10
43.50000016412923
 20
3.749999796013
 42
0.4142135623730951
 10
44.50000016412923
 20
2.749999796013
 42
0.0
 10
60.50000016412923
 20
2.749999796012986
 42
0.4142135623730951
 10
61.50000016412923
 20
3.749999796012986
 42
0.0
 97
        8
330
49D
330
4A8
330
4A6
330
4A5
330
4A7
330
49E
330
4AF
330
4AE
 75
     0
 76
     1
 52
0.0
 41
3.0
 77
     0
 78
     1
 53
45.0
 43
-101.5
 44
-99.75
 45
-0.2651650429449553
 46
0.2651650429449553
 79
     0
 47
0.119472
 98
        1
 10
51.75
 20
4.0
  0
LINE
  5
49D
102
{ACAD_REACTORS
330
49C
102
}
100
AcDbEntity
  8
3
100
AcDbLine
 10
61.5
 20
5.15
 30
0.0
 11
46.5
 21
5.15
 31
0.0
  0
LINE
  5
49E
102
{ACAD_REACTORS
330
49C
102
}
100
AcDbEntity
  8
3
100
AcDbLine
 10
44.5
 20
2.75
 30
0.0
 11
60.5
 21
2.75
 31
0.0
  0
LINE
  5
49F
100
AcDbEntity
  8
3
100
AcDbLine
 10
61.5
 20
13.35
 30
0.0
 11
46.5
 21
13.35
 31
0.0
  0
LINE
  5
4A0
100
AcDbEntity
  8
3
100
AcDbLine
 10
44.5
 20
15.75
 30
0.0
 11
60.5
 21
15.75
 31
0.0
  0
LINE
  5
4A1
100
AcDbEntity
  8
1
100
AcDbLine
 10
40.75
 20
9.25
 30
0.0
 11
64.5
 21
9.25
 31
0.0
  0
LINE
  5
4A2
100
AcDbEntity
  8
3
100
AcDbLine
 10
46.5
 20
13.35
 30
0.0
 11
46.5
 21
9.25
 31
0.0
  0
LINE
  5
4A3
100
AcDbEntity
  8
3
100
AcDbLine
 10
43.5
 20
14.75
 30
0.0
 11
43.5
 21
9.25
 31
0.0
  0
LINE
  5
4A4
100
AcDbEntity
  8
3
100
AcDbLine
 10
46.5
 20
5.15
 30
0.0
 11
46.5
 21
9.25
 31
0.0
  0
LINE
  5
4A5
102
{ACAD_REACTORS
330
49C
102
}
100
AcDbEntity
  8
3
100
AcDbLine
 10
43.5
 20
3.75
 30
0.0
 11
43.5
 21
9.25
 31
0.0
  0
LINE
  5
4A6
102
{ACAD_REACTORS
330
49C
102
}
100
AcDbEntity
  8
3
100
AcDbLine
 10
46.5
 20
4.05
 30
0.0
 11
43.5
 21
4.05
 31
0.0
  0
ARC
  5
4A7
102
{ACAD_REACTORS
330
49C
102
}
100
AcDbEntity
  8
3
100
AcDbCircle
 10
44.5
 20
3.75
 30
0.0
 40
1.0
100
AcDbArc
 50
180.0
 51
270.0
  0
LINE
  5
4A8
102
{ACAD_REACTORS
330
49C
102
}
100
AcDbEntity
  8
3
100
AcDbLine
 10
46.5
 20
5.15
 30
0.0
 11
46.5
 21
4.05
 31
0.0
  0
ARC
  5
4A9
100
AcDbEntity
  8
3
100
AcDbCircle
 10
44.5
 20
14.75
 30
0.0
 40
1.0
100
AcDbArc
 50
90.0
 51
180.0
  0
LINE
  5
4AA
100
AcDbEntity
  8
3
100
AcDbLine
 10
46.5
 20
14.45
 30
0.0
 11
43.5
 21
14.45
 31
0.0
  0
LINE
  5
4AB
100
AcDbEntity
  8
3
100
AcDbLine
 10
46.5
 20
13.35
 30
0.0
 11
46.5
 21
14.45
 31
0.0
  0
LINE
  5
4AC
100
AcDbEntity
  8
3
100
AcDbLine
 10
61.5
 20
13.35
 30
0.0
 11
61.5
 21
9.25
 31
0.0
  0
LINE
  5
4AD
100
AcDbEntity
  8
3
100
AcDbLine
 10
61.5
 20
5.15
 30
0.0
 11
61.5
 21
9.25
 31
0.0
  0
LINE
  5
4AE
102
{ACAD_REACTORS
330
49C
102
}
100
AcDbEntity
  8
3
100
AcDbLine
 10
61.5
 20
3.75
 30
0.0
 11
61.5
 21
5.15
 31
0.0
  0
ARC
  5
4AF
102
{ACAD_REACTORS
330
49C
102
}
100
AcDbEntity
  8
3
100
AcDbCircle
 10
60.5
 20
3.75
 30
0.0
 40
1.0
100
AcDbArc
 50
270.0
 51
0.0
  0
ARC
  5
4B0
100
AcDbEntity
  8
3
100
AcDbCircle
 10
60.5
 20
14.75
 30
0.0
 40
1.0
100
AcDbArc
 50
0.0
 51
90.0
  0
LINE
  5
4B1
100
AcDbEntity
  8
3
100
AcDbLine
 10
61.5
 20
14.75
 30
0.0
 11
61.5
 21
13.35
 31
0.0
  0
LINE
  5
4B2
100
AcDbEntity
  8
1
100
AcDbLine
 10
91.0
 20
18.75
 30
0.0
 11
91.0
 21
0.0
 31
0.0
  0
CIRCLE
  5
4B3
100
AcDbEntity
  8
3
100
AcDbCircle
 10
91.0
 20
9.25
 30
0.0
 40
6.5
  0
CIRCLE
  5
4B4
100
AcDbEntity
  8
3
100
AcDbCircle
 10
91.0
 20
9.25
 30
0.0
 40
4.1
  0
ENDBLK
  5
4B6
100
AcDbEntity
  8
0
100
AcDbBlockEnd
  0
BLOCK
  5
523
100
AcDbEntity
  8
0
100
AcDbBlockBegin
  2
*D17
 70
     1
 10
0.0
 20
0.0
 30
0.0
  3
*D17
  1

  0
LINE
  5
518
100
AcDbEntity
  8
0
  6
BYBLOCK
 62
     0
100
AcDbLine
 10
144.9
 20
109.75
 30
0.0
 11
126.15
 21
109.75
 31
0.0
  0
LINE
  5
519
100
AcDbEntity
  8
0
  6
BYBLOCK
 62
     0
100
AcDbLine
 10
144.9
 20
108.25
 30
0.0
 11
126.15
 21
108.25
 31
0.0
  0
LINE
  5
51A
100
AcDbEntity
  8
0
  6
BYBLOCK
 62
     0
100
AcDbLine
 10
126.35
 20
106.25
 30
0.0
 11
126.35
 21
104.25
 31
0.0
  0
LINE
  5
51B
100
AcDbEntity
  8
0
  6
BYBLOCK
 62
     0
100
AcDbLine
 10
126.35
 20
111.75
 30
0.0
 11
126.35
 21
115.0
 31
0.0
  0
LINE
  5
51C
100
AcDbEntity
  8
0
  6
BYBLOCK
 62
     0
100
AcDbLine
 10
126.35
 20
115.0
 30
0.0
 11
128.35
 21
115.0
 31
0.0
  0
SOLID
  5
51D
100
AcDbEntity
  8
0
  6
BYBLOCK
 62
     0
100
AcDbTrace
 10
126.016667
 20
106.25
 30
0.0
 11
126.683333
 21
106.25
 31
0.0
 12
126.35
 22
108.25
 32
0.0
 13
126.35
 23
108.25
 33
0.0
  0
SOLID
  5
51E
100
AcDbEntity
  8
0
  6
BYBLOCK
 62
     0
100
AcDbTrace
 10
126.016667
 20
111.75
 30
0.0
 11
126.683333
 21
111.75
 31
0.0
 12
126.35
 22
109.75
 32
0.0
 13
126.35
 23
109.75
 33
0.0
  0
MTEXT
  5
51F
100
AcDbEntity
  8
0
  6
BYBLOCK
 62
     0
100
AcDbMText
 10
130.5
 20
115.0
 30
0.0
 40
3.5
 41
0.0
 71
     5
 72
     1
  1
\A1;1.5
  0
POINT
  5
520
100
AcDbEntity
  8
DEFPOINTS
  6
BYBLOCK
 62
     0
100
AcDbPoint
 10
145.0
 20
109.75
 30
0.0
  0
POINT
  5
521
100
AcDbEntity
  8
DEFPOINTS
  6
BYBLOCK
 62
     0
100
AcDbPoint
 10
145.0
 20
108.25
 30
0.0
  0
POINT
  5
522
100
AcDbEntity
  8
DEFPOINTS
  6
BYBLOCK
 62
     0
100
AcDbPoint
 10
126.35
 20
108.25
 30
0.0
  0
ENDBLK
  5
524
100
AcDbEntity
  8
0
100
AcDbBlockEnd
  0
BLOCK
  5
52E
100
AcDbEntity
  8
0
100
AcDbBlockBegin
  2
*D18
 70
     1
 10
0.0
 20
0.0
 30
0.0
  3
*D18
  1

  0
LINE
  5
526
100
AcDbEntity
  8
0
  6
BYBLOCK
 62
     0
100
AcDbLine
 10
182.75
 20
115.25
 30
0.0
 11
184.75
 21
115.25
 31
0.0
  0
LINE
  5
527
100
AcDbEntity
  8
0
  6
BYBLOCK
 62
     0
100
AcDbLine
 10
184.75
 20
115.25
 30
0.0
 11
187.45554
 21
112.917638
 31
0.0
  0
MTEXT
  5
528
100
AcDbEntity
  8
0
  6
BYBLOCK
 62
     0
100
AcDbMText
 10
181.0
 20
115.25
 30
0.0
 40
3.5
 41
0.0
 71
     5
 72
     1
  1
\A1;\U+22058
  0
SOLID
  5
529
100
AcDbEntity
  8
0
  6
BYBLOCK
 62
     0
100
AcDbTrace
 10
187.673187
 20
113.170108
 30
0.0
 11
187.237894
 21
112.665168
 31
0.0
 12
188.97036
 22
111.611758
 32
0.0
 13
188.97036
 23
111.611758
 33
0.0
  0
LINE
  5
52A
100
AcDbEntity
  8
0
  6
BYBLOCK
 62
     0
100
AcDbLine
 10
191.9
 20
109.0
 30
0.0
 11
192.1
 21
109.0
 31
0.0
  0
LINE
  5
52B
100
AcDbEntity
  8
0
  6
BYBLOCK
 62
     0
100
AcDbLine
 10
192.0
 20
108.9
 30
0.0
 11
192.0
 21
109.1
 31
0.0
  0
POINT
  5
52C
100
AcDbEntity
  8
DEFPOINTS
  6
BYBLOCK
 62
     0
100
AcDbPoint
 10
188.97036
 20
111.611758
 30
0.0
  0
POINT
  5
52D
100
AcDbEntity
  8
DEFPOINTS
  6
BYBLOCK
 62
     0
100
AcDbPoint
 10
195.02964
 20
106.388242
 30
0.0
  0
ENDBLK
  5
52F
100
AcDbEntity
  8
0
100
AcDbBlockEnd
  0
BLOCK
  5
559
100
AcDbEntity
  8
0
100
AcDbBlockBegin
  2
A$C748B7793
 70
     0
 10
0.0
 20
0.0
 30
0.0
  3
A$C748B7793
  1

  0
DIMENSION
  5
531
100
AcDbEntity
  8
0
100
AcDbDimension
  2
*D17
 10
23.6
 20
7.75
 30
0.0
 11
27.75
 21
14.5
 31
0.0
 12
-102.75
 22
-100.5
 32
0.0
 70
   128
  3
STANDARD
100
AcDbAlignedDimension
 13
42.25
 23
9.25
 33
0.0
 14
42.25
 24
7.75
 34
0.0
 50
90.0
100
AcDbRotatedDimension
1001
ACAD
1000
DSTYLE
1002
{
1070
    78
1070
     8
1070
   288
1070
     1
1070
   284
1070
     8
1070
   140
1040
2.0
1070
    73
1070
     0
1070
   272
1070
     2
1070
   147
1040
0.1
1070
    42
1040
0.1
1070
    44
1040
0.2
1070
    43
1040
0.4
1070
   271
1070
     2
1070
   141
1040
0.1
1070
    41
1040
2.0
1002
}
  0
LINE
  5
532
100
AcDbEntity
  8
1
100
AcDbLine
 10
0.0
 20
8.5
 30
0.0
 11
16.5
 21
8.5
 31
0.0
  0
LINE
  5
533
100
AcDbEntity
  8
1
100
AcDbLine
 10
8.5
 20
16.25
 30
0.0
 11
8.5
 21
0.0
 31
0.0
  0
CIRCLE
  5
534
100
AcDbEntity
  8
3
100
AcDbCircle
 10
8.5
 20
8.5
 30
0.0
 40
5.0
  0
LINE
  5
535
100
AcDbEntity
  8
3
100
AcDbLine
 10
3.55657
 20
7.75
 30
0.0
 11
13.44343
 21
7.75
 31
0.0
  0
LINE
  5
536
100
AcDbEntity
  8
3
100
AcDbLine
 10
3.55657
 20
9.25
 30
0.0
 11
13.44343
 21
9.25
 31
0.0
  0
DIMENSION
  5
537
100
AcDbEntity
  8
0
100
AcDbDimension
  2
*D18
 10
92.27964
 20
5.888241
 30
0.0
 11
78.25
 21
14.75
 31
0.0
 12
-102.75
 22
-100.5
 32
0.0
 70
   131
  3
STANDARD
100
AcDbDiametricDimension
 15
86.22036
 25
11.111758
 35
0.0
 40
0.0
1001
ACAD
1000
DSTYLE
1002
{
1070
    78
1070
     8
1070
   288
1070
     1
1070
   284
1070
     8
1070
   140
1040
2.0
1070
    73
1070
     0
1070
   272
1070
     2
1070
   147
1040
0.1
1070
    42
1040
0.1
1070
    44
1040
0.2
1070
    43
1040
0.4
1070
   271
1070
     2
1070
   141
1040
0.1
1070
    41
1040
2.0
1002
}
  0
LINE
  5
538
100
AcDbEntity
  8
1
100
AcDbLine
 10
80.75
 20
8.5
 30
0.0
 11
97.25
 21
8.5
 31
0.0
  0
LINE
  5
539
100
AcDbEntity
  8
3
100
AcDbLine
 10
61.25
 20
12.499999
 30
0.0
 11
45.25
 21
12.499999
 31
0.0
  0
LINE
  5
53A
100
AcDbEntity
  8
1
100
AcDbLine
 10
39.5
 20
8.5
 30
0.0
 11
74.5
 21
8.5
 31
0.0
  0
LINE
  5
53B
100
AcDbEntity
  8
3
100
AcDbLine
 10
61.25
 20
4.5
 30
0.0
 11
45.25
 21
4.5
 31
0.0
  0
LINE
  5
53C
100
AcDbEntity
  8
3
100
AcDbLine
 10
45.25
 20
8.5
 30
0.0
 11
45.25
 21
13.5
 31
0.0
  0
LINE
  5
53D
100
AcDbEntity
  8
3
100
AcDbLine
 10
42.25
 20
13.5
 30
0.0
 11
42.25
 21
9.25
 31
0.0
  0
LINE
  5
53E
100
AcDbEntity
  8
3
100
AcDbLine
 10
42.25
 20
3.5
 30
0.0
 11
42.25
 21
7.75
 31
0.0
  0
LINE
  5
53F
100
AcDbEntity
  8
3
100
AcDbLine
 10
45.25
 20
8.5
 30
0.0
 11
45.25
 21
3.5
 31
0.0
  0
LINE
  5
540
100
AcDbEntity
  8
3
100
AcDbLine
 10
45.25
 20
3.5
 30
0.0
 11
42.25
 21
3.5
 31
0.0
  0
LINE
  5
541
100
AcDbEntity
  8
3
100
AcDbLine
 10
42.25
 20
9.25
 30
0.0
 11
43.25
 21
9.25
 31
0.0
  0
LINE
  5
542
100
AcDbEntity
  8
3
100
AcDbLine
 10
42.25
 20
7.75
 30
0.0
 11
43.25
 21
7.75
 31
0.0
  0
LINE
  5
543
100
AcDbEntity
  8
3
100
AcDbLine
 10
43.25
 20
7.75
 30
0.0
 11
43.25
 21
8.5
 31
0.0
  0
LINE
  5
544
100
AcDbEntity
  8
3
100
AcDbLine
 10
43.25
 20
9.25
 30
0.0
 11
43.25
 21
8.5
 31
0.0
  0
LINE
  5
545
100
AcDbEntity
  8
3
100
AcDbLine
 10
45.25
 20
13.5
 30
0.0
 11
42.25
 21
13.5
 31
0.0
  0
LINE
  5
546
100
AcDbEntity
  8
3
100
AcDbLine
 10
61.25
 20
8.499999
 30
0.0
 11
61.25
 21
12.499999
 31
0.0
  0
LINE
  5
547
100
AcDbEntity
  8
3
100
AcDbLine
 10
61.25
 20
5.5
 30
0.0
 11
72.25
 21
5.5
 31
0.0
  0
LINE
  5
548
100
AcDbEntity
  8
3
100
AcDbLine
 10
62.0
 20
6.25
 30
0.0
 11
73.0
 21
6.25
 31
0.0
  0
LINE
  5
549
100
AcDbEntity
  8
3
100
AcDbLine
 10
62.0
 20
10.75
 30
0.0
 11
73.0
 21
10.75
 31
0.0
  0
LINE
  5
54A
100
AcDbEntity
  8
3
100
AcDbLine
 10
61.25
 20
11.5
 30
0.0
 11
72.25
 21
11.5
 31
0.0
  0
LINE
  5
54B
100
AcDbEntity
  8
3
100
AcDbLine
 10
61.25
 20
8.5
 30
0.0
 11
61.25
 21
4.5
 31
0.0
  0
LINE
  5
54C
100
AcDbEntity
  8
3
100
AcDbLine
 10
62.0
 20
5.5
 30
0.0
 11
62.0
 21
8.5
 31
0.0
  0
LINE
  5
54D
100
AcDbEntity
  8
3
100
AcDbLine
 10
62.0
 20
11.5
 30
0.0
 11
62.0
 21
8.5
 31
0.0
  0
LINE
  5
54E
100
AcDbEntity
  8
3
100
AcDbLine
 10
72.25
 20
5.5
 30
0.0
 11
72.25
 21
8.5
 31
0.0
  0
LINE
  5
54F
100
AcDbEntity
  8
3
100
AcDbLine
 10
73.25
 20
6.5
 30
0.0
 11
73.25
 21
8.5
 31
0.0
  0
LINE
  5
550
100
AcDbEntity
  8
3
100
AcDbLine
 10
72.25
 20
5.5
 30
0.0
 11
73.25
 21
6.5
 31
0.0
  0
LINE
  5
551
100
AcDbEntity
  8
3
100
AcDbLine
 10
72.25
 20
11.5
 30
0.0
 11
73.25
 21
10.5
 31
0.0
  0
LINE
  5
552
100
AcDbEntity
  8
3
100
AcDbLine
 10
72.25
 20
11.5
 30
0.0
 11
72.25
 21
8.5
 31
0.0
  0
LINE
  5
553
100
AcDbEntity
  8
3
100
AcDbLine
 10
73.25
 20
10.5
 30
0.0
 11
73.25
 21
8.5
 31
0.0
  0
CIRCLE
  5
554
100
AcDbEntity
  8
3
100
AcDbCircle
 10
89.25
 20
8.5
 30
0.0
 40
4.0
  0
CIRCLE
  5
555
100
AcDbEntity
  8
3
100
AcDbCircle
 10
89.25
 20
8.5
 30
0.0
 40
5.0
  0
LINE
  5
556
100
AcDbEntity
  8
1
100
AcDbLine
 10
89.25
 20
16.25
 30
0.0
 11
89.25
 21
0.0
 31
0.0
  0
CIRCLE
  5
557
100
AcDbEntity
  8
3
100
AcDbCircle
 10
89.25
 20
8.5
 30
0.0
 40
3.0
  0
CIRCLE
  5
558
100
AcDbEntity
  8
3
100
AcDbCircle
 10
89.25
 20
8.5
 30
0.0
 40
2.25
  0
ENDBLK
  5
55A
100
AcDbEntity
  8
0
100
AcDbBlockEnd
  0
BLOCK
  5
5C8
100
AcDbEntity
  8
0
100
AcDbBlockBegin
  2
*D20
 70
     1
 10
0.0
 20
0.0
 30
0.0
  3
*D20
  1

  0
LINE
  5
5C0
100
AcDbEntity
  8
0
  6
BYBLOCK
 62
     0
100
AcDbLine
 10
99.5
 20
120.5
 30
0.0
 11
101.5
 21
120.5
 31
0.0
  0
LINE
  5
5C1
100
AcDbEntity
  8
0
  6
BYBLOCK
 62
     0
100
AcDbLine
 10
101.5
 20
120.5
 30
0.0
 11
108.104385
 21
114.036134
 31
0.0
  0
MTEXT
  5
5C2
100
AcDbEntity
  8
0
  6
BYBLOCK
 62
     0
100
AcDbMText
 10
95.2
 20
120.5
 30
0.0
 40
3.5
 41
0.0
 71
     5
 72
     1
  1
\A1;\U+220510.4
  0
SOLID
  5
5C3
100
AcDbEntity
  8
0
  6
BYBLOCK
 62
     0
100
AcDbTrace
 10
108.337539
 20
114.274357
 30
0.0
 11
107.871231
 21
113.797911
 31
0.0
 12
109.533722
 22
112.637208
 32
0.0
 13
109.533722
 23
112.637208
 33
0.0
  0
LINE
  5
5C4
100
AcDbEntity
  8
0
  6
BYBLOCK
 62
     0
100
AcDbLine
 10
113.15
 20
109.0
 30
0.0
 11
113.35
 21
109.0
 31
0.0
  0
LINE
  5
5C5
100
AcDbEntity
  8
0
  6
BYBLOCK
 62
     0
100
AcDbLine
 10
113.25
 20
108.9
 30
0.0
 11
113.25
 21
109.1
 31
0.0
  0
POINT
  5
5C6
100
AcDbEntity
  8
DEFPOINTS
  6
BYBLOCK
 62
     0
100
AcDbPoint
 10
109.533722
 20
112.637208
 30
0.0
  0
POINT
  5
5C7
100
AcDbEntity
  8
DEFPOINTS
  6
BYBLOCK
 62
     0
100
AcDbPoint
 10
116.966278
 20
105.362792
 30
0.0
  0
ENDBLK
  5
5C9
100
AcDbEntity
  8
0
100
AcDbBlockEnd
  0
BLOCK
  5
5D3
100
AcDbEntity
  8
0
100
AcDbBlockBegin
  2
*D21
 70
     1
 10
0.0
 20
0.0
 30
0.0
  3
*D21
  1

  0
LINE
  5
5CB
100
AcDbEntity
  8
0
  6
BYBLOCK
 62
     0
100
AcDbLine
 10
98.75
 20
113.25
 30
0.0
 11
100.75
 21
113.25
 31
0.0
  0
LINE
  5
5CC
100
AcDbEntity
  8
0
  6
BYBLOCK
 62
     0
100
AcDbLine
 10
100.75
 20
113.25
 30
0.0
 11
107.474686
 21
110.963607
 31
0.0
  0
MTEXT
  5
5CD
100
AcDbEntity
  8
0
  6
BYBLOCK
 62
     0
100
AcDbMText
 10
95.5
 20
113.25
 30
0.0
 40
3.5
 41
0.0
 71
     5
 72
     1
  1
\A1;\U+22058.2
  0
SOLID
  5
5CE
100
AcDbEntity
  8
0
  6
BYBLOCK
 62
     0
100
AcDbTrace
 10
107.581987
 20
111.279198
 30
0.0
 11
107.367385
 21
110.648016
 31
0.0
 12
109.368232
 22
110.319801
 32
0.0
 13
109.368232
 23
110.319801
 33
0.0
  0
LINE
  5
5CF
100
AcDbEntity
  8
0
  6
BYBLOCK
 62
     0
100
AcDbLine
 10
113.15
 20
109.0
 30
0.0
 11
113.35
 21
109.0
 31
0.0
  0
LINE
  5
5D0
100
AcDbEntity
  8
0
  6
BYBLOCK
 62
     0
100
AcDbLine
 10
113.25
 20
108.9
 30
0.0
 11
113.25
 21
109.1
 31
0.0
  0
POINT
  5
5D1
100
AcDbEntity
  8
DEFPOINTS
  6
BYBLOCK
 62
     0
100
AcDbPoint
 10
109.368232
 20
110.319801
 30
0.0
  0
POINT
  5
5D2
100
AcDbEntity
  8
DEFPOINTS
  6
BYBLOCK
 62
     0
100
AcDbPoint
 10
117.131768
 20
107.680199
 30
0.0
  0
ENDBLK
  5
5D4
100
AcDbEntity
  8
0
100
AcDbBlockEnd
  0
BLOCK
  5
5DE
100
AcDbEntity
  8
0
100
AcDbBlockBegin
  2
*D22
 70
     1
 10
0.0
 20
0.0
 30
0.0
  3
*D22
  1

  0
LINE
  5
5D6
100
AcDbEntity
  8
0
  6
BYBLOCK
 62
     0
100
AcDbLine
 10
183.75
 20
117.5
 30
0.0
 11
185.75
 21
117.5
 31
0.0
  0
LINE
  5
5D7
100
AcDbEntity
  8
0
  6
BYBLOCK
 62
     0
100
AcDbLine
 10
185.75
 20
117.5
 30
0.0
 11
188.706519
 21
113.776976
 31
0.0
  0
MTEXT
  5
5D8
100
AcDbEntity
  8
0
  6
BYBLOCK
 62
     0
100
AcDbMText
 10
180.5
 20
117.5
 30
0.0
 40
3.5
 41
0.0
 71
     5
 72
     1
  1
\A1;\U+22058.2
  0
SOLID
  5
5D9
100
AcDbEntity
  8
0
  6
BYBLOCK
 62
     0
100
AcDbTrace
 10
188.967556
 20
113.98427
 30
0.0
 11
188.445482
 21
113.569682
 31
0.0
 12
189.950283
 22
112.210754
 32
0.0
 13
189.950283
 23
112.210754
 33
0.0
  0
LINE
  5
5DA
100
AcDbEntity
  8
0
  6
BYBLOCK
 62
     0
100
AcDbLine
 10
192.4
 20
109.0
 30
0.0
 11
192.6
 21
109.0
 31
0.0
  0
LINE
  5
5DB
100
AcDbEntity
  8
0
  6
BYBLOCK
 62
     0
100
AcDbLine
 10
192.5
 20
108.9
 30
0.0
 11
192.5
 21
109.1
 31
0.0
  0
POINT
  5
5DC
100
AcDbEntity
  8
DEFPOINTS
  6
BYBLOCK
 62
     0
100
AcDbPoint
 10
189.950283
 20
112.210754
 30
0.0
  0
POINT
  5
5DD
100
AcDbEntity
  8
DEFPOINTS
  6
BYBLOCK
 62
     0
100
AcDbPoint
 10
195.049717
 20
105.789246
 30
0.0
  0
ENDBLK
  5
5DF
100
AcDbEntity
  8
0
100
AcDbBlockEnd
  0
BLOCK
  5
5E9
100
AcDbEntity
  8
0
100
AcDbBlockBegin
  2
*D23
 70
     1
 10
0.0
 20
0.0
 30
0.0
  3
*D23
  1

  0
LINE
  5
5E1
100
AcDbEntity
  8
0
  6
BYBLOCK
 62
     0
100
AcDbLine
 10
134.0
 20
92.75
 30
0.0
 11
136.0
 21
92.75
 31
0.0
  0
LINE
  5
5E2
100
AcDbEntity
  8
0
  6
BYBLOCK
 62
     0
100
AcDbLine
 10
136.0
 20
92.75
 30
0.0
 11
145.318896
 21
102.767813
 31
0.0
  0
MTEXT
  5
5E3
100
AcDbEntity
  8
0
  6
BYBLOCK
 62
     0
100
AcDbMText
 10
132.5
 20
92.75
 30
0.0
 40
3.5
 41
0.0
 71
     5
 72
     1
  1
\A1;R1
  0
SOLID
  5
5E4
100
AcDbEntity
  8
0
  6
BYBLOCK
 62
     0
100
AcDbTrace
 10
143.712626
 20
101.530474
 30
0.0
 11
144.20075
 21
101.076405
 31
0.0
 12
145.318896
 22
102.767813
 32
0.0
 13
145.318896
 23
102.767813
 33
0.0
  0
LINE
  5
5E5
100
AcDbEntity
  8
0
  6
BYBLOCK
 62
     0
100
AcDbLine
 10
145.9
 20
103.5
 30
0.0
 11
146.1
 21
103.5
 31
0.0
  0
LINE
  5
5E6
100
AcDbEntity
  8
0
  6
BYBLOCK
 62
     0
100
AcDbLine
 10
146.0
 20
103.4
 30
0.0
 11
146.0
 21
103.6
 31
0.0
  0
POINT
  5
5E7
100
AcDbEntity
  8
DEFPOINTS
  6
BYBLOCK
 62
     0
100
AcDbPoint
 10
145.318896
 20
102.767813
 30
0.0
  0
POINT
  5
5E8
100
AcDbEntity
  8
DEFPOINTS
  6
BYBLOCK
 62
     0
100
AcDbPoint
 10
146.0
 20
103.5
 30
0.0
  0
ENDBLK
  5
5EA
100
AcDbEntity
  8
0
100
AcDbBlockEnd
  0
BLOCK
  5
5F4
100
AcDbEntity
  8
0
100
AcDbBlockBegin
  2
*D24
 70
     1
 10
0.0
 20
0.0
 30
0.0
  3
*D24
  1

  0
LINE
  5
5EC
100
AcDbEntity
  8
0
  6
BYBLOCK
 62
     0
100
AcDbLine
 10
172.5
 20
91.5
 30
0.0
 11
170.5
 21
91.5
 31
0.0
  0
LINE
  5
5ED
100
AcDbEntity
  8
0
  6
BYBLOCK
 62
     0
100
AcDbLine
 10
170.5
 20
91.5
 30
0.0
 11
162.578017
 21
102.683976
 31
0.0
  0
MTEXT
  5
5EE
100
AcDbEntity
  8
0
  6
BYBLOCK
 62
     0
100
AcDbMText
 10
174.0
 20
91.5
 30
0.0
 40
3.5
 41
0.0
 71
     5
 72
     1
  1
\A1;R1
  0
SOLID
  5
5EF
100
AcDbEntity
  8
0
  6
BYBLOCK
 62
     0
100
AcDbTrace
 10
164.00606
 20
101.244599
 30
0.0
 11
163.462044
 21
100.859254
 31
0.0
 12
162.578017
 22
102.683976
 32
0.0
 13
162.578017
 23
102.683976
 33
0.0
  0
LINE
  5
5F0
100
AcDbEntity
  8
0
  6
BYBLOCK
 62
     0
100
AcDbLine
 10
161.9
 20
103.5
 30
0.0
 11
162.1
 21
103.5
 31
0.0
  0
LINE
  5
5F1
100
AcDbEntity
  8
0
  6
BYBLOCK
 62
     0
100
AcDbLine
 10
162.0
 20
103.4
 30
0.0
 11
162.0
 21
103.6
 31
0.0
  0
POINT
  5
5F2
100
AcDbEntity
  8
DEFPOINTS
  6
BYBLOCK
 62
     0
100
AcDbPoint
 10
162.578017
 20
102.683976
 30
0.0
  0
POINT
  5
5F3
100
AcDbEntity
  8
DEFPOINTS
  6
BYBLOCK
 62
     0
100
AcDbPoint
 10
162.0
 20
103.5
 30
0.0
  0
ENDBLK
  5
5F5
100
AcDbEntity
  8
0
100
AcDbBlockEnd
  0
BLOCK
  5
601
100
AcDbEntity
  8
0
100
AcDbBlockBegin
  2
*D25
 70
     1
 10
0.0
 20
0.0
 30
0.0
  3
*D25
  1

  0
LINE
  5
5F7
100
AcDbEntity
  8
0
  6
BYBLOCK
 62
     0
100
AcDbLine
 10
148.0
 20
114.3
 30
0.0
 11
148.0
 21
132.7
 31
0.0
  0
LINE
  5
5F8
100
AcDbEntity
  8
0
  6
BYBLOCK
 62
     0
100
AcDbLine
 10
163.0
 20
114.6
 30
0.0
 11
163.0
 21
132.7
 31
0.0
  0
LINE
  5
5F9
100
AcDbEntity
  8
0
  6
BYBLOCK
 62
     0
100
AcDbLine
 10
150.0
 20
132.5
 30
0.0
 11
154.35
 21
132.5
 31
0.0
  0
LINE
  5
5FA
100
AcDbEntity
  8
0
  6
BYBLOCK
 62
     0
100
AcDbLine
 10
161.0
 20
132.5
 30
0.0
 11
157.65
 21
132.5
 31
0.0
  0
SOLID
  5
5FB
100
AcDbEntity
  8
0
  6
BYBLOCK
 62
     0
100
AcDbTrace
 10
150.0
 20
132.833333
 30
0.0
 11
150.0
 21
132.166667
 31
0.0
 12
148.0
 22
132.5
 32
0.0
 13
148.0
 23
132.5
 33
0.0
  0
SOLID
  5
5FC
100
AcDbEntity
  8
0
  6
BYBLOCK
 62
     0
100
AcDbTrace
 10
161.0
 20
132.833333
 30
0.0
 11
161.0
 21
132.166667
 31
0.0
 12
163.0
 22
132.5
 32
0.0
 13
163.0
 23
132.5
 33
0.0
  0
MTEXT
  5
5FD
100
AcDbEntity
  8
0
  6
BYBLOCK
 62
     0
100
AcDbMText
 10
156.0
 20
132.5
 30
0.0
 40
3.5
 41
0.0
 71
     5
 72
     1
  1
\A1;15
  0
POINT
  5
5FE
100
AcDbEntity
  8
DEFPOINTS
  6
BYBLOCK
 62
     0
100
AcDbPoint
 10
148.0
 20
114.2
 30
0.0
  0
POINT
  5
5FF
100
AcDbEntity
  8
DEFPOINTS
  6
BYBLOCK
 62
     0
100
AcDbPoint
 10
163.0
 20
114.5
 30
0.0
  0
POINT
  5
600
100
AcDbEntity
  8
DEFPOINTS
  6
BYBLOCK
 62
     0
100
AcDbPoint
 10
163.0
 20
132.5
 30
0.0
  0
ENDBLK
  5
602
100
AcDbEntity
  8
0
100
AcDbBlockEnd
  0
BLOCK
  5
60E
100
AcDbEntity
  8
0
100
AcDbBlockBegin
  2
*D26
 70
     1
 10
0.0
 20
0.0
 30
0.0
  3
*D26
  1

  0
LINE
  5
604
100
AcDbEntity
  8
0
  6
BYBLOCK
 62
     0
100
AcDbLine
 10
143.0
 20
115.1
 30
0.0
 11
143.0
 21
126.45
 31
0.0
  0
LINE
  5
605
100
AcDbEntity
  8
0
  6
BYBLOCK
 62
     0
100
AcDbLine
 10
148.0
 20
114.3
 30
0.0
 11
148.0
 21
126.45
 31
0.0
  0
LINE
  5
606
100
AcDbEntity
  8
0
  6
BYBLOCK
 62
     0
100
AcDbLine
 10
145.0
 20
126.25
 30
0.0
 11
145.1
 21
126.25
 31
0.0
  0
LINE
  5
607
100
AcDbEntity
  8
0
  6
BYBLOCK
 62
     0
100
AcDbLine
 10
146.0
 20
126.25
 30
0.0
 11
145.9
 21
126.25
 31
0.0
  0
SOLID
  5
608
100
AcDbEntity
  8
0
  6
BYBLOCK
 62
     0
100
AcDbTrace
 10
145.0
 20
126.583333
 30
0.0
 11
145.0
 21
125.916667
 31
0.0
 12
143.0
 22
126.25
 32
0.0
 13
143.0
 23
126.25
 33
0.0
  0
SOLID
  5
609
100
AcDbEntity
  8
0
  6
BYBLOCK
 62
     0
100
AcDbTrace
 10
146.0
 20
126.583333
 30
0.0
 11
146.0
 21
125.916667
 31
0.0
 12
148.0
 22
126.25
 32
0.0
 13
148.0
 23
126.25
 33
0.0
  0
MTEXT
  5
60A
100
AcDbEntity
  8
0
  6
BYBLOCK
 62
     0
100
AcDbMText
 10
145.25
 20
126.25
 30
0.0
 40
3.5
 41
0.0
 71
     5
 72
     1
  1
\A1;5
  0
POINT
  5
60B
100
AcDbEntity
  8
DEFPOINTS
  6
BYBLOCK
 62
     0
100
AcDbPoint
 10
143.0
 20
115.0
 30
0.0
  0
POINT
  5
60C
100
AcDbEntity
  8
DEFPOINTS
  6
BYBLOCK
 62
     0
100
AcDbPoint
 10
148.0
 20
114.2
 30
0.0
  0
POINT
  5
60D
100
AcDbEntity
  8
DEFPOINTS
  6
BYBLOCK
 62
     0
100
AcDbPoint
 10
148.0
 20
126.25
 30
0.0
  0
ENDBLK
  5
60F
100
AcDbEntity
  8
0
100
AcDbBlockEnd
  0
BLOCK
  5
61B
100
AcDbEntity
  8
0
100
AcDbBlockBegin
  2
*D27
 70
     1
 10
0.0
 20
0.0
 30
0.0
  3
*D27
  1

  0
LINE
  5
611
100
AcDbEntity
  8
0
  6
BYBLOCK
 62
     0
100
AcDbLine
 10
143.0
 20
115.1
 30
0.0
 11
143.0
 21
138.95
 31
0.0
  0
LINE
  5
612
100
AcDbEntity
  8
0
  6
BYBLOCK
 62
     0
100
AcDbLine
 10
163.0
 20
115.1
 30
0.0
 11
163.0
 21
138.95
 31
0.0
  0
LINE
  5
613
100
AcDbEntity
  8
0
  6
BYBLOCK
 62
     0
100
AcDbLine
 10
145.0
 20
138.75
 30
0.0
 11
150.95
 21
138.75
 31
0.0
  0
LINE
  5
614
100
AcDbEntity
  8
0
  6
BYBLOCK
 62
     0
100
AcDbLine
 10
161.0
 20
138.75
 30
0.0
 11
154.55
 21
138.75
 31
0.0
  0
SOLID
  5
615
100
AcDbEntity
  8
0
  6
BYBLOCK
 62
     0
100
AcDbTrace
 10
145.0
 20
139.083333
 30
0.0
 11
145.0
 21
138.416667
 31
0.0
 12
143.0
 22
138.75
 32
0.0
 13
143.0
 23
138.75
 33
0.0
  0
SOLID
  5
616
100
AcDbEntity
  8
0
  6
BYBLOCK
 62
     0
100
AcDbTrace
 10
161.0
 20
139.083333
 30
0.0
 11
161.0
 21
138.416667
 31
0.0
 12
163.0
 22
138.75
 32
0.0
 13
163.0
 23
138.75
 33
0.0
  0
MTEXT
  5
617
100
AcDbEntity
  8
0
  6
BYBLOCK
 62
     0
100
AcDbMText
 10
152.75
 20
138.75
 30
0.0
 40
3.5
 41
0.0
 71
     5
 72
     1
  1
\A1;20
  0
POINT
  5
618
100
AcDbEntity
  8
DEFPOINTS
  6
BYBLOCK
 62
     0
100
AcDbPoint
 10
143.0
 20
115.0
 30
0.0
  0
POINT
  5
619
100
AcDbEntity
  8
DEFPOINTS
  6
BYBLOCK
 62
     0
100
AcDbPoint
 10
163.0
 20
115.0
 30
0.0
  0
POINT
  5
61A
100
AcDbEntity
  8
DEFPOINTS
  6
BYBLOCK
 62
     0
100
AcDbPoint
 10
163.0
 20
138.75
 30
0.0
  0
ENDBLK
  5
61C
100
AcDbEntity
  8
0
100
AcDbBlockEnd
  0
BLOCK
  5
626
100
AcDbEntity
  8
0
100
AcDbBlockBegin
  2
*D28
 70
     1
 10
0.0
 20
0.0
 30
0.0
  3
*D28
  1

  0
LINE
  5
61E
100
AcDbEntity
  8
0
  6
BYBLOCK
 62
     0
100
AcDbLine
 10
99.0
 20
128.25
 30
0.0
 11
101.0
 21
128.25
 31
0.0
  0
LINE
  5
61F
100
AcDbEntity
  8
0
  6
BYBLOCK
 62
     0
100
AcDbLine
 10
101.0
 20
128.25
 30
0.0
 11
108.418121
 21
116.592953
 31
0.0
  0
MTEXT
  5
620
100
AcDbEntity
  8
0
  6
BYBLOCK
 62
     0
100
AcDbMText
 10
96.2
 20
128.25
 30
0.0
 40
3.5
 41
0.0
 71
     5
 72
     1
  1
\A1;\U+220514
  0
SOLID
  5
621
100
AcDbEntity
  8
0
  6
BYBLOCK
 62
     0
100
AcDbTrace
 10
108.699341
 20
116.771912
 30
0.0
 11
108.1369
 21
116.413995
 31
0.0
 12
109.491872
 22
114.90563
 32
0.0
 13
109.491872
 23
114.90563
 33
0.0
  0
LINE
  5
622
100
AcDbEntity
  8
0
  6
BYBLOCK
 62
     0
100
AcDbLine
 10
113.15
 20
109.0
 30
0.0
 11
113.35
 21
109.0
 31
0.0
  0
LINE
  5
623
100
AcDbEntity
  8
0
  6
BYBLOCK
 62
     0
100
AcDbLine
 10
113.25
 20
108.9
 30
0.0
 11
113.25
 21
109.1
 31
0.0
  0
POINT
  5
624
100
AcDbEntity
  8
DEFPOINTS
  6
BYBLOCK
 62
     0
100
AcDbPoint
 10
109.491872
 20
114.90563
 30
0.0
  0
POINT
  5
625
100
AcDbEntity
  8
DEFPOINTS
  6
BYBLOCK
 62
     0
100
AcDbPoint
 10
117.008128
 20
103.09437
 30
0.0
  0
ENDBLK
  5
627
100
AcDbEntity
  8
0
100
AcDbBlockEnd
  0
BLOCK
  5
631
100
AcDbEntity
  8
0
100
AcDbBlockBegin
  2
*D29
 70
     1
 10
0.0
 20
0.0
 30
0.0
  3
*D29
  1

  0
LINE
  5
629
100
AcDbEntity
  8
0
  6
BYBLOCK
 62
     0
100
AcDbLine
 10
181.75
 20
124.0
 30
0.0
 11
183.75
 21
124.0
 31
0.0
  0
LINE
  5
62A
100
AcDbEntity
  8
0
  6
BYBLOCK
 62
     0
100
AcDbLine
 10
183.75
 20
124.0
 30
0.0
 11
187.965161
 21
116.77401
 31
0.0
  0
MTEXT
  5
62B
100
AcDbEntity
  8
0
  6
BYBLOCK
 62
     0
100
AcDbMText
 10
178.95
 20
124.0
 30
0.0
 40
3.5
 41
0.0
 71
     5
 72
     1
  1
\A1;\U+220514
  0
SOLID
  5
62C
100
AcDbEntity
  8
0
  6
BYBLOCK
 62
     0
100
AcDbTrace
 10
188.253087
 20
116.941967
 30
0.0
 11
187.677234
 21
116.606053
 31
0.0
 12
188.972903
 22
115.046452
 32
0.0
 13
188.972903
 23
115.046452
 33
0.0
  0
LINE
  5
62D
100
AcDbEntity
  8
0
  6
BYBLOCK
 62
     0
100
AcDbLine
 10
192.4
 20
109.0
 30
0.0
 11
192.6
 21
109.0
 31
0.0
  0
LINE
  5
62E
100
AcDbEntity
  8
0
  6
BYBLOCK
 62
     0
100
AcDbLine
 10
192.5
 20
108.9
 30
0.0
 11
192.5
 21
109.1
 31
0.0
  0
POINT
  5
62F
100
AcDbEntity
  8
DEFPOINTS
  6
BYBLOCK
 62
     0
100
AcDbPoint
 10
188.972903
 20
115.046452
 30
0.0
  0
POINT
  5
630
100
AcDbEntity
  8
DEFPOINTS
  6
BYBLOCK
 62
     0
100
AcDbPoint
 10
196.027097
 20
102.953548
 30
0.0
  0
ENDBLK
  5
632
100
AcDbEntity
  8
0
100
AcDbBlockEnd
  0
BLOCK
  5
65D
100
AcDbEntity
  8
0
100
AcDbBlockBegin
  2
A$C3A00351B
 70
     0
 10
0.0
 20
0.0
 30
0.0
  3
A$C3A00351B
  1

  0
DIMENSION
  5
634
100
AcDbEntity
  8
0
100
AcDbDimension
  2
*D23
 10
52.9
 20
13.75
 30
0.0
 11
39.4
 21
3.0
 31
0.0
 12
-93.1
 22
-89.75
 32
0.0
 70
   132
  3
STANDARD
100
AcDbRadialDimension
 15
52.218896
 25
13.017813
 35
0.0
 40
0.0
1001
ACAD
1000
DSTYLE
1002
{
1070
    78
1070
     8
1070
   288
1070
     1
1070
   284
1070
     8
1070
   140
1040
2.0
1070
    73
1070
     0
1070
   272
1070
     2
1070
   147
1040
0.1
1070
    42
1040
0.1
1070
    44
1040
0.2
1070
    43
1040
0.4
1070
   271
1070
     2
1070
   141
1040
0.1
1070
    41
1040
2.0
1002
}
  0
DIMENSION
  5
635
100
AcDbEntity
  8
0
100
AcDbDimension
  2
*D28
 10
25.908128
 20
14.34437
 30
0.0
 11
5.1
 21
39.5
 31
0.0
 12
-91.1
 22
-88.75
 32
0.0
 70
   131
  3
STANDARD
100
AcDbDiametricDimension
 15
18.391871
 25
26.15563
 35
0.0
 40
0.0
1001
ACAD
1000
DSTYLE
1002
{
1070
    78
1070
     8
1070
   288
1070
     1
1070
   284
1070
     8
1070
   140
1040
2.0
1070
    73
1070
     0
1070
   272
1070
     2
1070
   147
1040
0.1
1070
    42
1040
0.1
1070
    44
1040
0.2
1070
    43
1040
0.4
1070
   271
1070
     2
1070
   141
1040
0.1
1070
    41
1040
2.0
1002
}
  0
DIMENSION
  5
636
100
AcDbEntity
  8
0
100
AcDbDimension
  2
*D21
 10
26.031768
 20
18.930199
 30
0.0
 11
4.4
 21
24.5
 31
0.0
 12
-91.1
 22
-88.75
 32
0.0
 70
   131
  3
STANDARD
100
AcDbDiametricDimension
 15
18.268231
 25
21.569801
 35
0.0
 40
0.0
1001
ACAD
1000
DSTYLE
1002
{
1070
    78
1070
     8
1070
   288
1070
     1
1070
   284
1070
     8
1070
   140
1040
2.0
1070
    73
1070
     0
1070
   272
1070
     2
1070
   147
1040
0.1
1070
    42
1040
0.1
1070
    44
1040
0.2
1070
    43
1040
0.4
1070
   271
1070
     2
1070
   141
1040
0.1
1070
    41
1040
2.0
1002
}
  0
DIMENSION
  5
637
100
AcDbEntity
  8
0
100
AcDbDimension
  2
*D20
 10
25.866277
 20
16.612792
 30
0.0
 11
4.1
 21
31.75
 31
0.0
 12
-91.1
 22
-88.75
 32
0.0
 70
   131
  3
STANDARD
100
AcDbDiametricDimension
 15
18.433722
 25
23.887208
 35
0.0
 40
0.0
1001
ACAD
1000
DSTYLE
1002
{
1070
    78
1070
     8
1070
   288
1070
     1
1070
   284
1070
     8
1070
   140
1040
2.0
1070
    73
1070
     0
1070
   272
1070
     2
1070
   147
1040
0.1
1070
    42
1040
0.1
1070
    44
1040
0.2
1070
    43
1040
0.4
1070
   271
1070
     2
1070
   141
1040
0.1
1070
    41
1040
2.0
1002
}
  0
CIRCLE
  5
638
100
AcDbEntity
  8
3
100
AcDbCircle
 10
22.15
 20
20.25
 30
0.0
 40
7.0
  0
CIRCLE
  5
639
100
AcDbEntity
  8
3
100
AcDbCircle
 10
22.15
 20
20.25
 30
0.0
 40
5.2
  0
LINE
  5
63A
100
AcDbEntity
  8
1
100
AcDbLine
 10
34.15
 20
20.25
 30
0.0
 11
10.4
 21
20.25
 31
0.0
  0
CIRCLE
  5
63B
100
AcDbEntity
  8
3
100
AcDbCircle
 10
22.15
 20
20.25
 30
0.0
 40
4.1
  0
LINE
  5
63C
100
AcDbEntity
  8
1
100
AcDbLine
 10
22.15
 20
29.75
 30
0.0
 11
22.15
 21
11.0
 31
0.0
  0
DIMENSION
  5
63D
100
AcDbEntity
  8
0
100
AcDbDimension
  2
*D24
 10
70.9
 20
13.75
 30
0.0
 11
82.9
 21
1.75
 31
0.0
 12
-91.1
 22
-89.75
 32
0.0
 70
   132
  3
STANDARD
100
AcDbRadialDimension
 15
71.478017
 25
12.933976
 35
0.0
 40
0.0
1001
ACAD
1000
DSTYLE
1002
{
1070
    78
1070
     8
1070
   288
1070
     1
1070
   284
1070
     8
1070
   140
1040
2.0
1070
    73
1070
     0
1070
   272
1070
     2
1070
   147
1040
0.1
1070
    42
1040
0.1
1070
    44
1040
0.2
1070
    43
1040
0.4
1070
   271
1070
     2
1070
   141
1040
0.1
1070
    41
1040
2.0
1002
}
  0
DIMENSION
  5
63E
100
AcDbEntity
  8
0
100
AcDbDimension
  2
*D29
 10
104.927097
 20
14.203548
 30
0.0
 11
87.85
 21
35.25
 31
0.0
 12
-91.1
 22
-88.75
 32
0.0
 70
   131
  3
STANDARD
100
AcDbDiametricDimension
 15
97.872902
 25
26.296452
 35
0.0
 40
0.0
1001
ACAD
1000
DSTYLE
1002
{
1070
    78
1070
     8
1070
   288
1070
     1
1070
   284
1070
     8
1070
   140
1040
2.0
1070
    73
1070
     0
1070
   272
1070
     2
1070
   147
1040
0.1
1070
    42
1040
0.1
1070
    44
1040
0.2
1070
    43
1040
0.4
1070
   271
1070
     2
1070
   141
1040
0.1
1070
    41
1040
2.0
1002
}
  0
DIMENSION
  5
63F
100
AcDbEntity
  8
0
100
AcDbDimension
  2
*D22
 10
103.949716
 20
17.039246
 30
0.0
 11
89.4
 21
28.75
 31
0.0
 12
-91.1
 22
-88.75
 32
0.0
 70
   131
  3
STANDARD
100
AcDbDiametricDimension
 15
98.850283
 25
23.460754
 35
0.0
 40
0.0
1001
ACAD
1000
DSTYLE
1002
{
1070
    78
1070
     8
1070
   288
1070
     1
1070
   284
1070
     8
1070
   140
1040
2.0
1070
    73
1070
     0
1070
   272
1070
     2
1070
   147
1040
0.1
1070
    42
1040
0.1
1070
    44
1040
0.2
1070
    43
1040
0.4
1070
   271
1070
     2
1070
   141
1040
0.1
1070
    41
1040
2.0
1002
}
  0
LINE
  5
640
100
AcDbEntity
  8
1
100
AcDbLine
 10
113.4
 20
20.25
 30
0.0
 11
89.65
 21
20.25
 31
0.0
  0
DIMENSION
  5
641
100
AcDbEntity
  8
0
100
AcDbDimension
  2
*D27
 10
71.9
 20
50.0
 30
0.0
 11
61.65
 21
50.0
 31
0.0
 12
-91.1
 22
-88.75
 32
0.0
 70
   128
  3
STANDARD
100
AcDbAlignedDimension
 13
51.9
 23
26.25
 33
0.0
 14
71.9
 24
26.25
 34
0.0
100
AcDbRotatedDimension
1001
ACAD
1000
DSTYLE
1002
{
1070
    78
1070
     8
1070
   288
1070
     1
1070
   284
1070
     8
1070
   140
1040
2.0
1070
    73
1070
     0
1070
   272
1070
     2
1070
   147
1040
0.1
1070
    42
1040
0.1
1070
    44
1040
0.2
1070
    43
1040
0.4
1070
   271
1070
     2
1070
   141
1040
0.1
1070
    41
1040
2.0
1002
}
  0
DIMENSION
  5
642
100
AcDbEntity
  8
0
100
AcDbDimension
  2
*D26
 10
56.9
 20
37.5
 30
0.0
 11
54.15
 21
37.5
 31
0.0
 12
-91.1
 22
-88.75
 32
0.0
 70
   128
  3
STANDARD
100
AcDbAlignedDimension
 13
51.9
 23
26.25
 33
0.0
 14
56.9
 24
25.45
 34
0.0
100
AcDbRotatedDimension
1001
ACAD
1000
DSTYLE
1002
{
1070
    78
1070
     8
1070
   288
1070
     1
1070
   284
1070
     8
1070
   140
1040
2.0
1070
    73
1070
     0
1070
   272
1070
     2
1070
   147
1040
0.1
1070
    42
1040
0.1
1070
    44
1040
0.2
1070
    43
1040
0.4
1070
   271
1070
     2
1070
   141
1040
0.1
1070
    41
1040
2.0
1002
}
  0
DIMENSION
  5
643
100
AcDbEntity
  8
0
100
AcDbDimension
  2
*D25
 10
71.9
 20
43.75
 30
0.0
 11
64.9
 21
43.75
 31
0.0
 12
-91.1
 22
-88.75
 32
0.0
 70
   128
  3
STANDARD
100
AcDbAlignedDimension
 13
56.9
 23
25.45
 33
0.0
 14
71.9
 24
25.75
 34
0.0
100
AcDbRotatedDimension
1001
ACAD
1000
DSTYLE
1002
{
1070
    78
1070
     8
1070
   288
1070
     1
1070
   284
1070
     8
1070
   140
1040
2.0
1070
    73
1070
     0
1070
   272
1070
     2
1070
   147
1040
0.1
1070
    42
1040
0.1
1070
    44
1040
0.2
1070
    43
1040
0.4
1070
   271
1070
     2
1070
   141
1040
0.1
1070
    41
1040
2.0
1002
}
  0
HATCH
  5
644
100
AcDbEntity
  8
0
100
AcDbHatch
 10
0.0
 20
0.0
 30
0.0
210
0.0
220
0.0
230
1.0
  2
ANSI31
 70
     0
 71
     1
 91
        1
 92
        7
 72
     1
 73
     1
 93
        8
 10
71.89999963873024
 20
16.14999998348328
 42
0.0
 10
56.89999963873026
 20
16.14999998348328
 42
0.0
 10
56.89999963873026
 20
15.04999998348327
 42
0.0
 10
51.89999963873026
 20
15.04999998348327
 42
0.0
 10
51.89999963873026
 20
14.24999998348327
 42
0.4142135623730951
 10
52.89999963873026
 20
13.24999998348327
 42
0.0
 10
70.89999963873026
 20
13.24999998348326
 42
0.4142135623730951
 10
71.89999963873026
 20
14.24999998348326
 42
0.0
 97
        8
330
645
330
650
330
64E
330
64D
330
64F
330
646
330
657
330
656
 75
     0
 76
     1
 52
0.0
 41
3.0
 77
     0
 78
     1
 53
45.0
 43
-91.1
 44
-88.75
 45
-0.2651650429449553
 46
0.2651650429449553
 79
     0
 47
0.125921
 98
        1
 10
62.65
 20
15.0
  0
LINE
  5
645
102
{ACAD_REACTORS
330
644
102
}
100
AcDbEntity
  8
3
100
AcDbLine
 10
71.9
 20
16.15
 30
0.0
 11
56.9
 21
16.15
 31
0.0
  0
LINE
  5
646
102
{ACAD_REACTORS
330
644
102
}
100
AcDbEntity
  8
3
100
AcDbLine
 10
52.9
 20
13.25
 30
0.0
 11
70.9
 21
13.25
 31
0.0
  0
LINE
  5
647
100
AcDbEntity
  8
3
100
AcDbLine
 10
71.9
 20
24.35
 30
0.0
 11
56.9
 21
24.35
 31
0.0
  0
LINE
  5
648
100
AcDbEntity
  8
3
100
AcDbLine
 10
52.9
 20
27.25
 30
0.0
 11
70.9
 21
27.25
 31
0.0
  0
LINE
  5
649
100
AcDbEntity
  8
1
100
AcDbLine
 10
49.15
 20
20.25
 30
0.0
 11
74.9
 21
20.25
 31
0.0
  0
LINE
  5
64A
100
AcDbEntity
  8
3
100
AcDbLine
 10
56.9
 20
24.35
 30
0.0
 11
56.9
 21
20.25
 31
0.0
  0
LINE
  5
64B
100
AcDbEntity
  8
3
100
AcDbLine
 10
51.9
 20
26.25
 30
0.0
 11
51.9
 21
20.25
 31
0.0
  0
LINE
  5
64C
100
AcDbEntity
  8
3
100
AcDbLine
 10
56.9
 20
16.15
 30
0.0
 11
56.9
 21
20.25
 31
0.0
  0
LINE
  5
64D
102
{ACAD_REACTORS
330
644
102
}
100
AcDbEntity
  8
3
100
AcDbLine
 10
51.9
 20
14.25
 30
0.0
 11
51.9
 21
20.25
 31
0.0
  0
LINE
  5
64E
102
{ACAD_REACTORS
330
644
102
}
100
AcDbEntity
  8
3
100
AcDbLine
 10
56.9
 20
15.05
 30
0.0
 11
51.9
 21
15.05
 31
0.0
  0
ARC
  5
64F
102
{ACAD_REACTORS
330
644
102
}
100
AcDbEntity
  8
3
100
AcDbCircle
 10
52.9
 20
14.25
 30
0.0
 40
1.0
100
AcDbArc
 50
180.0
 51
270.0
  0
LINE
  5
650
102
{ACAD_REACTORS
330
644
102
}
100
AcDbEntity
  8
3
100
AcDbLine
 10
56.9
 20
16.15
 30
0.0
 11
56.9
 21
15.05
 31
0.0
  0
LINE
  5
651
100
AcDbEntity
  8
3
100
AcDbLine
 10
56.9
 20
25.45
 30
0.0
 11
51.9
 21
25.45
 31
0.0
  0
ARC
  5
652
100
AcDbEntity
  8
3
100
AcDbCircle
 10
52.9
 20
26.25
 30
0.0
 40
1.0
100
AcDbArc
 50
90.0
 51
180.0
  0
LINE
  5
653
100
AcDbEntity
  8
3
100
AcDbLine
 10
56.9
 20
24.35
 30
0.0
 11
56.9
 21
25.45
 31
0.0
  0
LINE
  5
654
100
AcDbEntity
  8
3
100
AcDbLine
 10
71.9
 20
24.35
 30
0.0
 11
71.9
 21
20.25
 31
0.0
  0
LINE
  5
655
100
AcDbEntity
  8
3
100
AcDbLine
 10
71.9
 20
16.15
 30
0.0
 11
71.9
 21
20.25
 31
0.0
  0
LINE
  5
656
102
{ACAD_REACTORS
330
644
102
}
100
AcDbEntity
  8
3
100
AcDbLine
 10
71.9
 20
14.25
 30
0.0
 11
71.9
 21
16.15
 31
0.0
  0
ARC
  5
657
102
{ACAD_REACTORS
330
644
102
}
100
AcDbEntity
  8
3
100
AcDbCircle
 10
70.9
 20
14.25
 30
0.0
 40
1.0
100
AcDbArc
 50
270.0
 51
0.0
  0
ARC
  5
658
100
AcDbEntity
  8
3
100
AcDbCircle
 10
70.9
 20
26.25
 30
0.0
 40
1.0
100
AcDbArc
 50
0.0
 51
90.0
  0
LINE
  5
659
100
AcDbEntity
  8
3
100
AcDbLine
 10
71.9
 20
26.25
 30
0.0
 11
71.9
 21
24.35
 31
0.0
  0
CIRCLE
  5
65A
100
AcDbEntity
  8
3
100
AcDbCircle
 10
101.4
 20
20.25
 30
0.0
 40
7.0
  0
LINE
  5
65B
100
AcDbEntity
  8
1
100
AcDbLine
 10
101.4
 20
29.75
 30
0.0
 11
101.4
 21
11.0
 31
0.0
  0
CIRCLE
  5
65C
100
AcDbEntity
  8
3
100
AcDbCircle
 10
101.4
 20
20.25
 30
0.0
 40
4.1
  0
ENDBLK
  5
65E
100
AcDbEntity
  8
0
100
AcDbBlockEnd
  0
BLOCK
  5
759
100
AcDbEntity
  8
0
100
AcDbBlockBegin
  2
*D31
 70
     1
 10
0.0
 20
0.0
 30
0.0
  3
*D31
  1

  0
LINE
  5
74E
100
AcDbEntity
  8
0
  6
BYBLOCK
 62
     0
100
AcDbLine
 10
128.15
 20
116.25
 30
0.0
 11
108.9
 21
116.25
 31
0.0
  0
LINE
  5
74F
100
AcDbEntity
  8
0
  6
BYBLOCK
 62
     0
100
AcDbLine
 10
128.15
 20
114.75
 30
0.0
 11
108.9
 21
114.75
 31
0.0
  0
LINE
  5
750
100
AcDbEntity
  8
0
  6
BYBLOCK
 62
     0
100
AcDbLine
 10
109.1
 20
112.75
 30
0.0
 11
109.1
 21
110.75
 31
0.0
  0
LINE
  5
751
100
AcDbEntity
  8
0
  6
BYBLOCK
 62
     0
100
AcDbLine
 10
109.1
 20
118.25
 30
0.0
 11
109.1
 21
121.0
 31
0.0
  0
LINE
  5
752
100
AcDbEntity
  8
0
  6
BYBLOCK
 62
     0
100
AcDbLine
 10
109.1
 20
121.0
 30
0.0
 11
111.1
 21
121.0
 31
0.0
  0
SOLID
  5
753
100
AcDbEntity
  8
0
  6
BYBLOCK
 62
     0
100
AcDbTrace
 10
108.766667
 20
112.75
 30
0.0
 11
109.433333
 21
112.75
 31
0.0
 12
109.1
 22
114.75
 32
0.0
 13
109.1
 23
114.75
 33
0.0
  0
SOLID
  5
754
100
AcDbEntity
  8
0
  6
BYBLOCK
 62
     0
100
AcDbTrace
 10
108.766667
 20
118.25
 30
0.0
 11
109.433333
 21
118.25
 31
0.0
 12
109.1
 22
116.25
 32
0.0
 13
109.1
 23
116.25
 33
0.0
  0
MTEXT
  5
755
100
AcDbEntity
  8
0
  6
BYBLOCK
 62
     0
100
AcDbMText
 10
113.25
 20
121.0
 30
0.0
 40
3.5
 41
0.0
 71
     5
 72
     1
  1
\A1;1.5
  0
POINT
  5
756
100
AcDbEntity
  8
DEFPOINTS
  6
BYBLOCK
 62
     0
100
AcDbPoint
 10
128.25
 20
116.25
 30
0.0
  0
POINT
  5
757
100
AcDbEntity
  8
DEFPOINTS
  6
BYBLOCK
 62
     0
100
AcDbPoint
 10
128.25
 20
114.75
 30
0.0
  0
POINT
  5
758
100
AcDbEntity
  8
DEFPOINTS
  6
BYBLOCK
 62
     0
100
AcDbPoint
 10
109.1
 20
114.75
 30
0.0
  0
ENDBLK
  5
75A
100
AcDbEntity
  8
0
100
AcDbBlockEnd
  0
BLOCK
  5
784
100
AcDbEntity
  8
0
100
AcDbBlockBegin
  2
A$C549C4216
 70
     0
 10
0.0
 20
0.0
 30
0.0
  3
A$C549C4216
  1

  0
LINE
  5
75C
100
AcDbEntity
  8
3
100
AcDbLine
 10
64.0
 20
8.25
 30
0.0
 11
48.0
 21
8.25
 31
0.0
  0
LINE
  5
75D
100
AcDbEntity
  8
3
100
AcDbLine
 10
64.0
 20
2.25
 30
0.0
 11
48.0
 21
2.25
 31
0.0
  0
LINE
  5
75E
100
AcDbEntity
  8
1
100
AcDbLine
 10
41.75
 20
5.25
 30
0.0
 11
66.0
 21
5.25
 31
0.0
  0
LINE
  5
75F
100
AcDbEntity
  8
1
100
AcDbLine
 10
5.5
 20
10.25
 30
0.0
 11
5.5
 21
0.0
 31
0.0
  0
CIRCLE
  5
760
100
AcDbEntity
  8
3
100
AcDbCircle
 10
5.5
 20
5.25
 30
0.0
 40
4.0
  0
LINE
  5
761
100
AcDbEntity
  8
3
100
AcDbLine
 10
9.429059
 20
4.5
 30
0.0
 11
1.570942
 21
4.5
 31
0.0
  0
LINE
  5
762
100
AcDbEntity
  8
3
100
AcDbLine
 10
9.429059
 20
6.0
 30
0.0
 11
1.570942
 21
6.0
 31
0.0
  0
LINE
  5
763
100
AcDbEntity
  8
1
100
AcDbLine
 10
0.0
 20
5.25
 30
0.0
 11
11.25
 21
5.25
 31
0.0
  0
DIMENSION
  5
764
100
AcDbEntity
  8
0
100
AcDbDimension
  2
*D31
 10
25.85
 20
4.5
 30
0.0
 11
30.0
 21
10.75
 31
0.0
 12
-83.25
 22
-110.25
 32
0.0
 70
   128
  3
STANDARD
100
AcDbAlignedDimension
 13
45.0
 23
6.0
 33
0.0
 14
45.0
 24
4.5
 34
0.0
 50
90.0
100
AcDbRotatedDimension
1001
ACAD
1000
DSTYLE
1002
{
1070
    78
1070
     8
1070
   288
1070
     1
1070
   284
1070
     8
1070
   140
1040
2.0
1070
    73
1070
     0
1070
   272
1070
     2
1070
   147
1040
0.1
1070
    42
1040
0.1
1070
    44
1040
0.2
1070
    43
1040
0.4
1070
   271
1070
     2
1070
   141
1040
0.1
1070
    41
1040
2.0
1002
}
  0
LINE
  5
765
100
AcDbEntity
  8
3
100
AcDbLine
 10
45.0
 20
1.25
 30
0.0
 11
45.0
 21
4.5
 31
0.0
  0
LINE
  5
766
100
AcDbEntity
  8
3
100
AcDbLine
 10
48.0
 20
5.25
 30
0.0
 11
48.0
 21
1.25
 31
0.0
  0
LINE
  5
767
100
AcDbEntity
  8
3
100
AcDbLine
 10
48.0
 20
1.25
 30
0.0
 11
45.0
 21
1.25
 31
0.0
  0
LINE
  5
768
100
AcDbEntity
  8
3
100
AcDbLine
 10
45.0
 20
6.0
 30
0.0
 11
46.0
 21
6.0
 31
0.0
  0
LINE
  5
769
100
AcDbEntity
  8
3
100
AcDbLine
 10
48.0
 20
9.25
 30
0.0
 11
45.0
 21
9.25
 31
0.0
  0
LINE
  5
76A
100
AcDbEntity
  8
3
100
AcDbLine
 10
45.0
 20
4.5
 30
0.0
 11
46.0
 21
4.5
 31
0.0
  0
LINE
  5
76B
100
AcDbEntity
  8
3
100
AcDbLine
 10
45.0
 20
9.25
 30
0.0
 11
45.0
 21
6.0
 31
0.0
  0
LINE
  5
76C
100
AcDbEntity
  8
3
100
AcDbLine
 10
48.0
 20
5.25
 30
0.0
 11
48.0
 21
9.25
 31
0.0
  0
LINE
  5
76D
100
AcDbEntity
  8
3
100
AcDbLine
 10
46.0
 20
6.0
 30
0.0
 11
46.0
 21
5.25
 31
0.0
  0
LINE
  5
76E
100
AcDbEntity
  8
3
100
AcDbLine
 10
46.0
 20
4.5
 30
0.0
 11
46.0
 21
5.25
 31
0.0
  0
LINE
  5
76F
100
AcDbEntity
  8
3
100
AcDbLine
 10
64.0
 20
5.25
 30
0.0
 11
64.0
 21
2.25
 31
0.0
  0
LINE
  5
770
100
AcDbEntity
  8
3
100
AcDbLine
 10
72.0
 20
7.75
 30
0.0
 11
64.0
 21
7.75
 31
0.0
  0
LINE
  5
771
100
AcDbEntity
  8
3
100
AcDbLine
 10
72.75
 20
7.0
 30
0.0
 11
64.75
 21
7.0
 31
0.0
  0
LINE
  5
772
100
AcDbEntity
  8
3
100
AcDbLine
 10
72.75
 20
3.5
 30
0.0
 11
64.75
 21
3.5
 31
0.0
  0
LINE
  5
773
100
AcDbEntity
  8
3
100
AcDbLine
 10
72.0
 20
2.75
 30
0.0
 11
64.0
 21
2.75
 31
0.0
  0
LINE
  5
774
100
AcDbEntity
  8
1
100
AcDbLine
 10
66.25
 20
5.25
 30
0.0
 11
74.5
 21
5.25
 31
0.0
  0
LINE
  5
775
100
AcDbEntity
  8
3
100
AcDbLine
 10
64.75
 20
5.25
 30
0.0
 11
64.75
 21
7.75
 31
0.0
  0
LINE
  5
776
100
AcDbEntity
  8
3
100
AcDbLine
 10
64.0
 20
5.25
 30
0.0
 11
64.0
 21
8.25
 31
0.0
  0
LINE
  5
777
100
AcDbEntity
  8
3
100
AcDbLine
 10
64.75
 20
5.25
 30
0.0
 11
64.75
 21
2.75
 31
0.0
  0
LINE
  5
778
100
AcDbEntity
  8
3
100
AcDbLine
 10
73.0
 20
5.25
 30
0.0
 11
73.0
 21
6.75
 31
0.0
  0
LINE
  5
779
100
AcDbEntity
  8
3
100
AcDbLine
 10
72.0
 20
5.25
 30
0.0
 11
72.0
 21
7.75
 31
0.0
  0
LINE
  5
77A
100
AcDbEntity
  8
3
100
AcDbLine
 10
72.0
 20
5.25
 30
0.0
 11
72.0
 21
2.75
 31
0.0
  0
LINE
  5
77B
100
AcDbEntity
  8
3
100
AcDbLine
 10
73.0
 20
3.75
 30
0.0
 11
72.0
 21
2.75
 31
0.0
  0
LINE
  5
77C
100
AcDbEntity
  8
3
100
AcDbLine
 10
73.0
 20
5.25
 30
0.0
 11
73.0
 21
3.75
 31
0.0
  0
LINE
  5
77D
100
AcDbEntity
  8
3
100
AcDbLine
 10
73.0
 20
6.75
 30
0.0
 11
72.0
 21
7.75
 31
0.0
  0
CIRCLE
  5
77E
100
AcDbEntity
  8
3
100
AcDbCircle
 10
110.5
 20
5.25
 30
0.0
 40
3.0
  0
CIRCLE
  5
77F
100
AcDbEntity
  8
3
100
AcDbCircle
 10
110.5
 20
5.25
 30
0.0
 40
4.0
  0
LINE
  5
780
100
AcDbEntity
  8
1
100
AcDbLine
 10
110.5
 20
10.25
 30
0.0
 11
110.5
 21
0.0
 31
0.0
  0
CIRCLE
  5
781
100
AcDbEntity
  8
3
100
AcDbCircle
 10
110.5
 20
5.25
 30
0.0
 40
1.75
  0
CIRCLE
  5
782
100
AcDbEntity
  8
3
100
AcDbCircle
 10
110.5
 20
5.25
 30
0.0
 40
2.5
  0
LINE
  5
783
100
AcDbEntity
  8
1
100
AcDbLine
 10
105.0
 20
5.25
 30
0.0
 11
116.25
 21
5.25
 31
0.0
  0
ENDBLK
  5
785
100
AcDbEntity
  8
0
100
AcDbBlockEnd
  0
BLOCK
  5
7E1
100
AcDbEntity
  8
0
100
AcDbBlockBegin
  2
*D33
 70
     1
 10
0.0
 20
0.0
 30
0.0
  3
*D33
  1

  0
LINE
  5
7D9
100
AcDbEntity
  8
0
  6
BYBLOCK
 62
     0
100
AcDbLine
 10
183.75
 20
117.5
 30
0.0
 11
185.75
 21
117.5
 31
0.0
  0
LINE
  5
7DA
100
AcDbEntity
  8
0
  6
BYBLOCK
 62
     0
100
AcDbLine
 10
185.75
 20
117.5
 30
0.0
 11
188.706519
 21
113.776976
 31
0.0
  0
MTEXT
  5
7DB
100
AcDbEntity
  8
0
  6
BYBLOCK
 62
     0
100
AcDbMText
 10
180.5
 20
117.5
 30
0.0
 40
3.5
 41
0.0
 71
     5
 72
     1
  1
\A1;\U+22058.2
  0
SOLID
  5
7DC
100
AcDbEntity
  8
0
  6
BYBLOCK
 62
     0
100
AcDbTrace
 10
188.967556
 20
113.98427
 30
0.0
 11
188.445482
 21
113.569682
 31
0.0
 12
189.950283
 22
112.210754
 32
0.0
 13
189.950283
 23
112.210754
 33
0.0
  0
LINE
  5
7DD
100
AcDbEntity
  8
0
  6
BYBLOCK
 62
     0
100
AcDbLine
 10
192.4
 20
109.0
 30
0.0
 11
192.6
 21
109.0
 31
0.0
  0
LINE
  5
7DE
100
AcDbEntity
  8
0
  6
BYBLOCK
 62
     0
100
AcDbLine
 10
192.5
 20
108.9
 30
0.0
 11
192.5
 21
109.1
 31
0.0
  0
POINT
  5
7DF
100
AcDbEntity
  8
DEFPOINTS
  6
BYBLOCK
 62
     0
100
AcDbPoint
 10
189.950283
 20
112.210754
 30
0.0
  0
POINT
  5
7E0
100
AcDbEntity
  8
DEFPOINTS
  6
BYBLOCK
 62
     0
100
AcDbPoint
 10
195.049717
 20
105.789246
 30
0.0
  0
ENDBLK
  5
7E2
100
AcDbEntity
  8
0
100
AcDbBlockEnd
  0
BLOCK
  5
803
100
AcDbEntity
  8
0
100
AcDbBlockBegin
  2
A$C4DD33202
 70
     0
 10
0.0
 20
0.0
 30
0.0
  3
A$C4DD33202
  1

  0
HATCH
  5
7E4
100
AcDbEntity
  8
0
100
AcDbHatch
 10
0.0
 20
0.0
 30
0.0
210
0.0
220
0.0
230
1.0
  2
ANSI31
 70
     0
 71
     1
 91
        1
 92
        7
 72
     1
 73
     1
 93
        8
 10
64.49999981635588
 20
5.149999796012991
 42
0.0
 10
49.49999981635582
 20
5.149999796013005
 42
0.0
 10
49.49999981635585
 20
4.049999796013011
 42
0.0
 10
41.49999981635585
 20
4.049999796013025
 42
0.0
 10
41.49999981635585
 20
2.249999796013
 42
0.4142135623730951
 10
42.49999981635585
 20
1.249999796013
 42
0.0
 10
63.49999981635585
 20
1.249999796012986
 42
0.4142135623730951
 10
64.49999981635585
 20
2.249999796012986
 42
0.0
 97
        8
330
7F2
330
7F8
330
7E5
330
7F0
330
7E6
330
7F3
330
7FC
330
7FD
 75
     0
 76
     1
 52
0.0
 41
3.0
 77
     0
 78
     1
 53
45.0
 43
-98.5
 44
-99.75
 45
-0.2651650429449553
 46
0.2651650429449553
 79
     0
 47
0.264601
 98
        1
 10
55.25
 20
3.25
  0
LINE
  5
7E5
102
{ACAD_REACTORS
330
7E4
102
}
100
AcDbEntity
  8
3
100
AcDbLine
 10
49.5
 20
4.05
 30
0.0
 11
41.5
 21
4.05
 31
0.0
  0
ARC
  5
7E6
102
{ACAD_REACTORS
330
7E4
102
}
100
AcDbEntity
  8
3
100
AcDbCircle
 10
42.5
 20
2.25
 30
0.0
 40
1.0
100
AcDbArc
 50
180.0
 51
270.0
  0
ARC
  5
7E7
100
AcDbEntity
  8
3
100
AcDbCircle
 10
42.5
 20
16.25
 30
0.0
 40
1.0
100
AcDbArc
 50
90.0
 51
180.0
  0
LINE
  5
7E8
100
AcDbEntity
  8
3
100
AcDbLine
 10
49.5
 20
14.45
 30
0.0
 11
41.5
 21
14.45
 31
0.0
  0
LINE
  5
7E9
100
AcDbEntity
  8
1
100
AcDbLine
 10
38.75
 20
9.25
 30
0.0
 11
67.5
 21
9.25
 31
0.0
  0
CIRCLE
  5
7EA
100
AcDbEntity
  8
3
100
AcDbCircle
 10
11.75
 20
9.25
 30
0.0
 40
8.0
  0
LINE
  5
7EB
100
AcDbEntity
  8
1
100
AcDbLine
 10
23.75
 20
9.25
 30
0.0
 11
0.0
 21
9.25
 31
0.0
  0
CIRCLE
  5
7EC
100
AcDbEntity
  8
3
100
AcDbCircle
 10
11.75
 20
9.25
 30
0.0
 40
4.1
  0
CIRCLE
  5
7ED
100
AcDbEntity
  8
3
100
AcDbCircle
 10
11.75
 20
9.25
 30
0.0
 40
5.2
  0
LINE
  5
7EE
100
AcDbEntity
  8
1
100
AcDbLine
 10
11.75
 20
18.75
 30
0.0
 11
11.75
 21
0.0
 31
0.0
  0
LINE
  5
7EF
100
AcDbEntity
  8
3
100
AcDbLine
 10
41.5
 20
16.25
 30
0.0
 11
41.5
 21
9.25
 31
0.0
  0
LINE
  5
7F0
102
{ACAD_REACTORS
330
7E4
102
}
100
AcDbEntity
  8
3
100
AcDbLine
 10
41.5
 20
2.25
 30
0.0
 11
41.5
 21
9.25
 31
0.0
  0
DIMENSION
  5
7F1
100
AcDbEntity
  8
0
100
AcDbDimension
  2
*D33
 10
96.549717
 20
6.039245
 30
0.0
 11
82.0
 21
17.75
 31
0.0
 12
-98.5
 22
-99.75
 32
0.0
 70
   131
  3
STANDARD
100
AcDbDiametricDimension
 15
91.450283
 25
12.460754
 35
0.0
 40
0.0
1001
ACAD
1000
DSTYLE
1002
{
1070
    78
1070
     8
1070
   288
1070
     1
1070
   284
1070
     8
1070
   140
1040
2.0
1070
    73
1070
     0
1070
   272
1070
     2
1070
   147
1040
0.1
1070
    42
1040
0.1
1070
    44
1040
0.2
1070
    43
1040
0.4
1070
   271
1070
     2
1070
   141
1040
0.1
1070
    41
1040
2.0
1002
}
  0
LINE
  5
7F2
102
{ACAD_REACTORS
330
7E4
102
}
100
AcDbEntity
  8
3
100
AcDbLine
 10
64.5
 20
5.15
 30
0.0
 11
49.5
 21
5.15
 31
0.0
  0
LINE
  5
7F3
102
{ACAD_REACTORS
330
7E4
102
}
100
AcDbEntity
  8
3
100
AcDbLine
 10
42.5
 20
1.25
 30
0.0
 11
63.5
 21
1.25
 31
0.0
  0
LINE
  5
7F4
100
AcDbEntity
  8
3
100
AcDbLine
 10
64.5
 20
13.35
 30
0.0
 11
49.5
 21
13.35
 31
0.0
  0
LINE
  5
7F5
100
AcDbEntity
  8
3
100
AcDbLine
 10
42.5
 20
17.25
 30
0.0
 11
63.5
 21
17.25
 31
0.0
  0
LINE
  5
7F6
100
AcDbEntity
  8
3
100
AcDbLine
 10
49.5
 20
13.35
 30
0.0
 11
49.5
 21
9.25
 31
0.0
  0
LINE
  5
7F7
100
AcDbEntity
  8
3
100
AcDbLine
 10
49.5
 20
5.15
 30
0.0
 11
49.5
 21
9.25
 31
0.0
  0
LINE
  5
7F8
102
{ACAD_REACTORS
330
7E4
102
}
100
AcDbEntity
  8
3
100
AcDbLine
 10
49.5
 20
5.15
 30
0.0
 11
49.5
 21
4.05
 31
0.0
  0
LINE
  5
7F9
100
AcDbEntity
  8
3
100
AcDbLine
 10
49.5
 20
13.35
 30
0.0
 11
49.5
 21
14.45
 31
0.0
  0
LINE
  5
7FA
100
AcDbEntity
  8
3
100
AcDbLine
 10
64.5
 20
13.35
 30
0.0
 11
64.5
 21
9.25
 31
0.0
  0
LINE
  5
7FB
100
AcDbEntity
  8
3
100
AcDbLine
 10
64.5
 20
5.15
 30
0.0
 11
64.5
 21
9.25
 31
0.0
  0
ARC
  5
7FC
102
{ACAD_REACTORS
330
7E4
102
}
100
AcDbEntity
  8
3
100
AcDbCircle
 10
63.5
 20
2.25
 30
0.0
 40
1.0
100
AcDbArc
 50
270.0
 51
0.0
  0
LINE
  5
7FD
102
{ACAD_REACTORS
330
7E4
102
}
100
AcDbEntity
  8
3
100
AcDbLine
 10
64.5
 20
2.25
 30
0.0
 11
64.5
 21
5.15
 31
0.0
  0
ARC
  5
7FE
100
AcDbEntity
  8
3
100
AcDbCircle
 10
63.5
 20
16.25
 30
0.0
 40
1.0
100
AcDbArc
 50
0.0
 51
90.0
  0
LINE
  5
7FF
100
AcDbEntity
  8
3
100
AcDbLine
 10
64.5
 20
16.25
 30
0.0
 11
64.5
 21
13.35
 31
0.0
  0
CIRCLE
  5
800
100
AcDbEntity
  8
3
100
AcDbCircle
 10
94.0
 20
9.25
 30
0.0
 40
8.0
  0
LINE
  5
801
100
AcDbEntity
  8
1
100
AcDbLine
 10
94.0
 20
18.75
 30
0.0
 11
94.0
 21
0.0
 31
0.0
  0
CIRCLE
  5
802
100
AcDbEntity
  8
3
100
AcDbCircle
 10
94.0
 20
9.25
 30
0.0
 40
4.1
  0
ENDBLK
  5
804
100
AcDbEntity
  8
0
100
AcDbBlockEnd
  0
BLOCK
  5
87C
100
AcDbEntity
  8
0
100
AcDbBlockBegin
  2
*D35
 70
     1
 10
0.0
 20
0.0
 30
0.0
  3
*D35
  1

  0
LINE
  5
871
100
AcDbEntity
  8
0
  6
BYBLOCK
 62
     0
100
AcDbLine
 10
128.15
 20
116.25
 30
0.0
 11
108.9
 21
116.25
 31
0.0
  0
LINE
  5
872
100
AcDbEntity
  8
0
  6
BYBLOCK
 62
     0
100
AcDbLine
 10
128.15
 20
114.75
 30
0.0
 11
108.9
 21
114.75
 31
0.0
  0
LINE
  5
873
100
AcDbEntity
  8
0
  6
BYBLOCK
 62
     0
100
AcDbLine
 10
109.1
 20
112.75
 30
0.0
 11
109.1
 21
110.75
 31
0.0
  0
LINE
  5
874
100
AcDbEntity
  8
0
  6
BYBLOCK
 62
     0
100
AcDbLine
 10
109.1
 20
118.25
 30
0.0
 11
109.1
 21
121.0
 31
0.0
  0
LINE
  5
875
100
AcDbEntity
  8
0
  6
BYBLOCK
 62
     0
100
AcDbLine
 10
109.1
 20
121.0
 30
0.0
 11
111.1
 21
121.0
 31
0.0
  0
SOLID
  5
876
100
AcDbEntity
  8
0
  6
BYBLOCK
 62
     0
100
AcDbTrace
 10
108.766667
 20
112.75
 30
0.0
 11
109.433333
 21
112.75
 31
0.0
 12
109.1
 22
114.75
 32
0.0
 13
109.1
 23
114.75
 33
0.0
  0
SOLID
  5
877
100
AcDbEntity
  8
0
  6
BYBLOCK
 62
     0
100
AcDbTrace
 10
108.766667
 20
118.25
 30
0.0
 11
109.433333
 21
118.25
 31
0.0
 12
109.1
 22
116.25
 32
0.0
 13
109.1
 23
116.25
 33
0.0
  0
MTEXT
  5
878
100
AcDbEntity
  8
0
  6
BYBLOCK
 62
     0
100
AcDbMText
 10
113.25
 20
121.0
 30
0.0
 40
3.5
 41
0.0
 71
     5
 72
     1
  1
\A1;1.5
  0
POINT
  5
879
100
AcDbEntity
  8
DEFPOINTS
  6
BYBLOCK
 62
     0
100
AcDbPoint
 10
128.25
 20
116.25
 30
0.0
  0
POINT
  5
87A
100
AcDbEntity
  8
DEFPOINTS
  6
BYBLOCK
 62
     0
100
AcDbPoint
 10
128.25
 20
114.75
 30
0.0
  0
POINT
  5
87B
100
AcDbEntity
  8
DEFPOINTS
  6
BYBLOCK
 62
     0
100
AcDbPoint
 10
109.1
 20
114.75
 30
0.0
  0
ENDBLK
  5
87D
100
AcDbEntity
  8
0
100
AcDbBlockEnd
  0
BLOCK
  5
887
100
AcDbEntity
  8
0
100
AcDbBlockBegin
  2
*D36
 70
     1
 10
0.0
 20
0.0
 30
0.0
  3
*D36
  1

  0
LINE
  5
87F
100
AcDbEntity
  8
0
  6
BYBLOCK
 62
     0
100
AcDbLine
 10
182.5
 20
123.25
 30
0.0
 11
184.5
 21
123.25
 31
0.0
  0
LINE
  5
880
100
AcDbEntity
  8
0
  6
BYBLOCK
 62
     0
100
AcDbLine
 10
184.5
 20
123.25
 30
0.0
 11
189.917398
 21
118.711099
 31
0.0
  0
MTEXT
  5
881
100
AcDbEntity
  8
0
  6
BYBLOCK
 62
     0
100
AcDbMText
 10
180.75
 20
123.25
 30
0.0
 40
3.5
 41
0.0
 71
     5
 72
     1
  1
\A1;\U+22056
  0
SOLID
  5
882
100
AcDbEntity
  8
0
  6
BYBLOCK
 62
     0
100
AcDbTrace
 10
190.131471
 20
118.966606
 30
0.0
 11
189.703324
 21
118.455592
 31
0.0
 12
191.450439
 22
117.42666
 32
0.0
 13
191.450439
 23
117.42666
 33
0.0
  0
LINE
  5
883
100
AcDbEntity
  8
0
  6
BYBLOCK
 62
     0
100
AcDbLine
 10
193.65
 20
115.5
 30
0.0
 11
193.85
 21
115.5
 31
0.0
  0
LINE
  5
884
100
AcDbEntity
  8
0
  6
BYBLOCK
 62
     0
100
AcDbLine
 10
193.75
 20
115.4
 30
0.0
 11
193.75
 21
115.6
 31
0.0
  0
POINT
  5
885
100
AcDbEntity
  8
DEFPOINTS
  6
BYBLOCK
 62
     0
100
AcDbPoint
 10
191.450439
 20
117.42666
 30
0.0
  0
POINT
  5
886
100
AcDbEntity
  8
DEFPOINTS
  6
BYBLOCK
 62
     0
100
AcDbPoint
 10
196.049561
 20
113.57334
 30
0.0
  0
ENDBLK
  5
888
100
AcDbEntity
  8
0
100
AcDbBlockEnd
  0
BLOCK
  5
8B3
100
AcDbEntity
  8
0
100
AcDbBlockBegin
  2
A$C214A55FC
 70
     0
 10
0.0
 20
0.0
 30
0.0
  3
A$C214A55FC
  1

  0
LINE
  5
88A
100
AcDbEntity
  8
3
100
AcDbLine
 10
64.0
 20
8.25
 30
0.0
 11
48.0
 21
8.25
 31
0.0
  0
LINE
  5
88B
100
AcDbEntity
  8
3
100
AcDbLine
 10
64.0
 20
2.25
 30
0.0
 11
48.0
 21
2.25
 31
0.0
  0
LINE
  5
88C
100
AcDbEntity
  8
1
100
AcDbLine
 10
41.75
 20
5.25
 30
0.0
 11
66.0
 21
5.25
 31
0.0
  0
LINE
  5
88D
100
AcDbEntity
  8
1
100
AcDbLine
 10
5.5
 20
10.25
 30
0.0
 11
5.5
 21
0.0
 31
0.0
  0
CIRCLE
  5
88E
100
AcDbEntity
  8
3
100
AcDbCircle
 10
5.5
 20
5.25
 30
0.0
 40
4.0
  0
LINE
  5
88F
100
AcDbEntity
  8
3
100
AcDbLine
 10
9.429059
 20
4.5
 30
0.0
 11
1.570942
 21
4.5
 31
0.0
  0
LINE
  5
890
100
AcDbEntity
  8
3
100
AcDbLine
 10
9.429059
 20
6.0
 30
0.0
 11
1.570942
 21
6.0
 31
0.0
  0
LINE
  5
891
100
AcDbEntity
  8
1
100
AcDbLine
 10
0.0
 20
5.25
 30
0.0
 11
11.25
 21
5.25
 31
0.0
  0
DIMENSION
  5
892
100
AcDbEntity
  8
0
100
AcDbDimension
  2
*D35
 10
25.85
 20
4.5
 30
0.0
 11
30.0
 21
10.75
 31
0.0
 12
-83.25
 22
-110.25
 32
0.0
 70
   128
  3
STANDARD
100
AcDbAlignedDimension
 13
45.0
 23
6.0
 33
0.0
 14
45.0
 24
4.5
 34
0.0
 50
90.0
100
AcDbRotatedDimension
1001
ACAD
1000
DSTYLE
1002
{
1070
    78
1070
     8
1070
   288
1070
     1
1070
   284
1070
     8
1070
   140
1040
2.0
1070
    73
1070
     0
1070
   272
1070
     2
1070
   147
1040
0.1
1070
    42
1040
0.1
1070
    44
1040
0.2
1070
    43
1040
0.4
1070
   271
1070
     2
1070
   141
1040
0.1
1070
    41
1040
2.0
1002
}
  0
LINE
  5
893
100
AcDbEntity
  8
3
100
AcDbLine
 10
45.0
 20
1.25
 30
0.0
 11
45.0
 21
4.5
 31
0.0
  0
LINE
  5
894
100
AcDbEntity
  8
3
100
AcDbLine
 10
48.0
 20
5.25
 30
0.0
 11
48.0
 21
1.25
 31
0.0
  0
LINE
  5
895
100
AcDbEntity
  8
3
100
AcDbLine
 10
48.0
 20
1.25
 30
0.0
 11
45.0
 21
1.25
 31
0.0
  0
LINE
  5
896
100
AcDbEntity
  8
3
100
AcDbLine
 10
45.0
 20
6.0
 30
0.0
 11
46.0
 21
6.0
 31
0.0
  0
LINE
  5
897
100
AcDbEntity
  8
3
100
AcDbLine
 10
48.0
 20
9.25
 30
0.0
 11
45.0
 21
9.25
 31
0.0
  0
LINE
  5
898
100
AcDbEntity
  8
3
100
AcDbLine
 10
45.0
 20
4.5
 30
0.0
 11
46.0
 21
4.5
 31
0.0
  0
LINE
  5
899
100
AcDbEntity
  8
3
100
AcDbLine
 10
45.0
 20
9.25
 30
0.0
 11
45.0
 21
6.0
 31
0.0
  0
LINE
  5
89A
100
AcDbEntity
  8
3
100
AcDbLine
 10
48.0
 20
5.25
 30
0.0
 11
48.0
 21
9.25
 31
0.0
  0
LINE
  5
89B
100
AcDbEntity
  8
3
100
AcDbLine
 10
46.0
 20
6.0
 30
0.0
 11
46.0
 21
5.25
 31
0.0
  0
LINE
  5
89C
100
AcDbEntity
  8
3
100
AcDbLine
 10
46.0
 20
4.5
 30
0.0
 11
46.0
 21
5.25
 31
0.0
  0
DIMENSION
  5
89D
100
AcDbEntity
  8
0
100
AcDbDimension
  2
*D36
 10
112.799562
 20
3.32334
 30
0.0
 11
97.5
 21
13.0
 31
0.0
 12
-83.25
 22
-110.25
 32
0.0
 70
   131
  3
STANDARD
100
AcDbDiametricDimension
 15
108.200439
 25
7.176659
 35
0.0
 40
0.0
1001
ACAD
1000
DSTYLE
1002
{
1070
    78
1070
     8
1070
   288
1070
     1
1070
   284
1070
     8
1070
   140
1040
2.0
1070
    73
1070
     0
1070
   272
1070
     2
1070
   147
1040
0.1
1070
    42
1040
0.1
1070
    44
1040
0.2
1070
    43
1040
0.4
1070
   271
1070
     2
1070
   141
1040
0.1
1070
    41
1040
2.0
1002
}
  0
LINE
  5
89E
100
AcDbEntity
  8
3
100
AcDbLine
 10
64.0
 20
5.25
 30
0.0
 11
64.0
 21
2.25
 31
0.0
  0
LINE
  5
89F
100
AcDbEntity
  8
3
100
AcDbLine
 10
72.0
 20
7.75
 30
0.0
 11
64.0
 21
7.75
 31
0.0
  0
LINE
  5
8A0
100
AcDbEntity
  8
3
100
AcDbLine
 10
72.75
 20
7.0
 30
0.0
 11
64.75
 21
7.0
 31
0.0
  0
LINE
  5
8A1
100
AcDbEntity
  8
3
100
AcDbLine
 10
72.75
 20
3.5
 30
0.0
 11
64.75
 21
3.5
 31
0.0
  0
LINE
  5
8A2
100
AcDbEntity
  8
3
100
AcDbLine
 10
72.0
 20
2.75
 30
0.0
 11
64.0
 21
2.75
 31
0.0
  0
LINE
  5
8A3
100
AcDbEntity
  8
1
100
AcDbLine
 10
66.25
 20
5.25
 30
0.0
 11
74.5
 21
5.25
 31
0.0
  0
LINE
  5
8A4
100
AcDbEntity
  8
3
100
AcDbLine
 10
64.75
 20
5.25
 30
0.0
 11
64.75
 21
7.75
 31
0.0
  0
LINE
  5
8A5
100
AcDbEntity
  8
3
100
AcDbLine
 10
64.0
 20
5.25
 30
0.0
 11
64.0
 21
8.25
 31
0.0
  0
LINE
  5
8A6
100
AcDbEntity
  8
3
100
AcDbLine
 10
64.75
 20
5.25
 30
0.0
 11
64.75
 21
2.75
 31
0.0
  0
LINE
  5
8A7
100
AcDbEntity
  8
3
100
AcDbLine
 10
73.0
 20
5.25
 30
0.0
 11
73.0
 21
6.75
 31
0.0
  0
LINE
  5
8A8
100
AcDbEntity
  8
3
100
AcDbLine
 10
72.0
 20
5.25
 30
0.0
 11
72.0
 21
7.75
 31
0.0
  0
LINE
  5
8A9
100
AcDbEntity
  8
3
100
AcDbLine
 10
72.0
 20
5.25
 30
0.0
 11
72.0
 21
2.75
 31
0.0
  0
LINE
  5
8AA
100
AcDbEntity
  8
3
100
AcDbLine
 10
73.0
 20
3.75
 30
0.0
 11
72.0
 21
2.75
 31
0.0
  0
LINE
  5
8AB
100
AcDbEntity
  8
3
100
AcDbLine
 10
73.0
 20
5.25
 30
0.0
 11
73.0
 21
3.75
 31
0.0
  0
LINE
  5
8AC
100
AcDbEntity
  8
3
100
AcDbLine
 10
73.0
 20
6.75
 30
0.0
 11
72.0
 21
7.75
 31
0.0
  0
CIRCLE
  5
8AD
100
AcDbEntity
  8
3
100
AcDbCircle
 10
110.5
 20
5.25
 30
0.0
 40
3.0
  0
CIRCLE
  5
8AE
100
AcDbEntity
  8
3
100
AcDbCircle
 10
110.5
 20
5.25
 30
0.0
 40
4.0
  0
LINE
  5
8AF
100
AcDbEntity
  8
1
100
AcDbLine
 10
110.5
 20
10.25
 30
0.0
 11
110.5
 21
0.0
 31
0.0
  0
CIRCLE
  5
8B0
100
AcDbEntity
  8
3
100
AcDbCircle
 10
110.5
 20
5.25
 30
0.0
 40
1.75
  0
CIRCLE
  5
8B1
100
AcDbEntity
  8
3
100
AcDbCircle
 10
110.5
 20
5.25
 30
0.0
 40
2.5
  0
LINE
  5
8B2
100
AcDbEntity
  8
1
100
AcDbLine
 10
105.0
 20
5.25
 30
0.0
 11
116.25
 21
5.25
 31
0.0
  0
ENDBLK
  5
8B4
100
AcDbEntity
  8
0
100
AcDbBlockEnd
  0
BLOCK
  5
91E
100
AcDbEntity
  8
0
100
AcDbBlockBegin
  2
*D38
 70
     1
 10
0.0
 20
0.0
 30
0.0
  3
*D38
  1

  0
LINE
  5
914
100
AcDbEntity
  8
0
  6
BYBLOCK
 62
     0
100
AcDbLine
 10
132.75
 20
106.1
 30
0.0
 11
132.75
 21
112.7
 31
0.0
  0
LINE
  5
915
100
AcDbEntity
  8
0
  6
BYBLOCK
 62
     0
100
AcDbLine
 10
133.75
 20
100.85
 30
0.0
 11
133.75
 21
112.7
 31
0.0
  0
LINE
  5
916
100
AcDbEntity
  8
0
  6
BYBLOCK
 62
     0
100
AcDbLine
 10
135.75
 20
112.5
 30
0.0
 11
137.75
 21
112.5
 31
0.0
  0
LINE
  5
917
100
AcDbEntity
  8
0
  6
BYBLOCK
 62
     0
100
AcDbLine
 10
130.75
 20
112.5
 30
0.0
 11
125.6
 21
112.5
 31
0.0
  0
SOLID
  5
918
100
AcDbEntity
  8
0
  6
BYBLOCK
 62
     0
100
AcDbTrace
 10
135.75
 20
112.833333
 30
0.0
 11
135.75
 21
112.166667
 31
0.0
 12
133.75
 22
112.5
 32
0.0
 13
133.75
 23
112.5
 33
0.0
  0
SOLID
  5
919
100
AcDbEntity
  8
0
  6
BYBLOCK
 62
     0
100
AcDbTrace
 10
130.75
 20
112.833333
 30
0.0
 11
130.75
 21
112.166667
 31
0.0
 12
132.75
 22
112.5
 32
0.0
 13
132.75
 23
112.5
 33
0.0
  0
MTEXT
  5
91A
100
AcDbEntity
  8
0
  6
BYBLOCK
 62
     0
100
AcDbMText
 10
125.25
 20
112.5
 30
0.0
 40
3.5
 41
0.0
 71
     5
 72
     1
  1
\A1;1
  0
POINT
  5
91B
100
AcDbEntity
  8
DEFPOINTS
  6
BYBLOCK
 62
     0
100
AcDbPoint
 10
132.75
 20
106.0
 30
0.0
  0
POINT
  5
91C
100
AcDbEntity
  8
DEFPOINTS
  6
BYBLOCK
 62
     0
100
AcDbPoint
 10
133.75
 20
100.75
 30
0.0
  0
POINT
  5
91D
100
AcDbEntity
  8
DEFPOINTS
  6
BYBLOCK
 62
     0
100
AcDbPoint
 10
133.75
 20
112.5
 30
0.0
  0
ENDBLK
  5
91F
100
AcDbEntity
  8
0
100
AcDbBlockEnd
  0
BLOCK
  5
92C
100
AcDbEntity
  8
0
100
AcDbBlockBegin
  2
*D39
 70
     1
 10
0.0
 20
0.0
 30
0.0
  3
*D39
  1

  0
LINE
  5
921
100
AcDbEntity
  8
0
  6
BYBLOCK
 62
     0
100
AcDbLine
 10
132.65
 20
100.75
 30
0.0
 11
118.65
 21
100.75
 31
0.0
  0
LINE
  5
922
100
AcDbEntity
  8
0
  6
BYBLOCK
 62
     0
100
AcDbLine
 10
132.65
 20
99.25
 30
0.0
 11
118.65
 21
99.25
 31
0.0
  0
LINE
  5
923
100
AcDbEntity
  8
0
  6
BYBLOCK
 62
     0
100
AcDbLine
 10
118.85
 20
97.25
 30
0.0
 11
118.85
 21
95.25
 31
0.0
  0
LINE
  5
924
100
AcDbEntity
  8
0
  6
BYBLOCK
 62
     0
100
AcDbLine
 10
118.85
 20
102.75
 30
0.0
 11
118.85
 21
105.0
 31
0.0
  0
LINE
  5
925
100
AcDbEntity
  8
0
  6
BYBLOCK
 62
     0
100
AcDbLine
 10
118.85
 20
105.0
 30
0.0
 11
120.85
 21
105.0
 31
0.0
  0
SOLID
  5
926
100
AcDbEntity
  8
0
  6
BYBLOCK
 62
     0
100
AcDbTrace
 10
118.516667
 20
97.25
 30
0.0
 11
119.183333
 21
97.25
 31
0.0
 12
118.85
 22
99.25
 32
0.0
 13
118.85
 23
99.25
 33
0.0
  0
SOLID
  5
927
100
AcDbEntity
  8
0
  6
BYBLOCK
 62
     0
100
AcDbTrace
 10
118.516667
 20
102.75
 30
0.0
 11
119.183333
 21
102.75
 31
0.0
 12
118.85
 22
100.75
 32
0.0
 13
118.85
 23
100.75
 33
0.0
  0
MTEXT
  5
928
100
AcDbEntity
  8
0
  6
BYBLOCK
 62
     0
100
AcDbMText
 10
123.0
 20
105.0
 30
0.0
 40
3.5
 41
0.0
 71
     5
 72
     1
  1
\A1;1.5
  0
POINT
  5
929
100
AcDbEntity
  8
DEFPOINTS
  6
BYBLOCK
 62
     0
100
AcDbPoint
 10
132.75
 20
100.75
 30
0.0
  0
POINT
  5
92A
100
AcDbEntity
  8
DEFPOINTS
  6
BYBLOCK
 62
     0
100
AcDbPoint
 10
132.75
 20
99.25
 30
0.0
  0
POINT
  5
92B
100
AcDbEntity
  8
DEFPOINTS
  6
BYBLOCK
 62
     0
100
AcDbPoint
 10
118.85
 20
99.25
 30
0.0
  0
ENDBLK
  5
92D
100
AcDbEntity
  8
0
100
AcDbBlockEnd
  0
BLOCK
  5
937
100
AcDbEntity
  8
0
100
AcDbBlockBegin
  2
*D40
 70
     1
 10
0.0
 20
0.0
 30
0.0
  3
*D40
  1

  0
LINE
  5
92F
100
AcDbEntity
  8
0
  6
BYBLOCK
 62
     0
100
AcDbLine
 10
183.5
 20
112.5
 30
0.0
 11
185.5
 21
112.5
 31
0.0
  0
LINE
  5
930
100
AcDbEntity
  8
0
  6
BYBLOCK
 62
     0
100
AcDbLine
 10
185.5
 20
112.5
 30
0.0
 11
189.034483
 21
106.799222
 31
0.0
  0
MTEXT
  5
931
100
AcDbEntity
  8
0
  6
BYBLOCK
 62
     0
100
AcDbMText
 10
180.75
 20
112.5
 30
0.0
 40
3.5
 41
0.0
 71
     5
 72
     1
  1
\A1;\U+220512
  0
SOLID
  5
932
100
AcDbEntity
  8
0
  6
BYBLOCK
 62
     0
100
AcDbTrace
 10
189.317784
 20
106.974868
 30
0.0
 11
188.751182
 21
106.623575
 31
0.0
 12
190.088362
 22
105.099416
 32
0.0
 13
190.088362
 23
105.099416
 33
0.0
  0
LINE
  5
933
100
AcDbEntity
  8
0
  6
BYBLOCK
 62
     0
100
AcDbLine
 10
193.15
 20
100.0
 30
0.0
 11
193.35
 21
100.0
 31
0.0
  0
LINE
  5
934
100
AcDbEntity
  8
0
  6
BYBLOCK
 62
     0
100
AcDbLine
 10
193.25
 20
99.9
 30
0.0
 11
193.25
 21
100.1
 31
0.0
  0
POINT
  5
935
100
AcDbEntity
  8
DEFPOINTS
  6
BYBLOCK
 62
     0
100
AcDbPoint
 10
190.088362
 20
105.099416
 30
0.0
  0
POINT
  5
936
100
AcDbEntity
  8
DEFPOINTS
  6
BYBLOCK
 62
     0
100
AcDbPoint
 10
196.411638
 20
94.900584
 30
0.0
  0
ENDBLK
  5
938
100
AcDbEntity
  8
0
100
AcDbBlockEnd
  0
BLOCK
  5
942
100
AcDbEntity
  8
0
100
AcDbBlockBegin
  2
*D41
 70
     1
 10
0.0
 20
0.0
 30
0.0
  3
*D41
  1

  0
LINE
  5
93A
100
AcDbEntity
  8
0
  6
BYBLOCK
 62
     0
100
AcDbLine
 10
182.5
 20
107.0
 30
0.0
 11
184.5
 21
107.0
 31
0.0
  0
LINE
  5
93B
100
AcDbEntity
  8
0
  6
BYBLOCK
 62
     0
100
AcDbLine
 10
184.5
 20
107.0
 30
0.0
 11
187.783918
 21
104.372865
 31
0.0
  0
MTEXT
  5
93C
100
AcDbEntity
  8
0
  6
BYBLOCK
 62
     0
100
AcDbMText
 10
179.75
 20
107.0
 30
0.0
 40
3.5
 41
0.0
 71
     5
 72
     1
  1
\A1;\U+220510
  0
SOLID
  5
93D
100
AcDbEntity
  8
0
  6
BYBLOCK
 62
     0
100
AcDbTrace
 10
187.99215
 20
104.633155
 30
0.0
 11
187.575687
 21
104.112576
 31
0.0
 12
189.345656
 22
103.123475
 32
0.0
 13
189.345656
 23
103.123475
 33
0.0
  0
LINE
  5
93E
100
AcDbEntity
  8
0
  6
BYBLOCK
 62
     0
100
AcDbLine
 10
193.15
 20
100.0
 30
0.0
 11
193.35
 21
100.0
 31
0.0
  0
LINE
  5
93F
100
AcDbEntity
  8
0
  6
BYBLOCK
 62
     0
100
AcDbLine
 10
193.25
 20
99.9
 30
0.0
 11
193.25
 21
100.1
 31
0.0
  0
POINT
  5
940
100
AcDbEntity
  8
DEFPOINTS
  6
BYBLOCK
 62
     0
100
AcDbPoint
 10
189.345656
 20
103.123475
 30
0.0
  0
POINT
  5
941
100
AcDbEntity
  8
DEFPOINTS
  6
BYBLOCK
 62
     0
100
AcDbPoint
 10
197.154344
 20
96.876525
 30
0.0
  0
ENDBLK
  5
943
100
AcDbEntity
  8
0
100
AcDbBlockEnd
  0
BLOCK
  5
971
100
AcDbEntity
  8
0
100
AcDbBlockBegin
  2
A$C256B013E
 70
     0
 10
0.0
 20
0.0
 30
0.0
  3
A$C256B013E
  1

  0
LINE
  5
945
100
AcDbEntity
  8
3
100
AcDbLine
 10
63.5
 20
15.0
 30
0.0
 11
40.5
 21
15.0
 31
0.0
  0
LINE
  5
946
100
AcDbEntity
  8
3
100
AcDbLine
 10
63.5
 20
5.0
 30
0.0
 11
40.5
 21
5.0
 31
0.0
  0
LINE
  5
947
100
AcDbEntity
  8
1
100
AcDbLine
 10
34.65
 20
10.0
 30
0.0
 11
80.0
 21
10.0
 31
0.0
  0
DIMENSION
  5
948
100
AcDbEntity
  8
0
100
AcDbDimension
  2
*D39
 10
23.6
 20
9.25
 30
0.0
 11
27.75
 21
15.0
 31
0.0
 12
-95.25
 22
-90.0
 32
0.0
 70
   128
  3
STANDARD
100
AcDbAlignedDimension
 13
37.5
 23
10.75
 33
0.0
 14
37.5
 24
9.25
 34
0.0
 50
90.0
100
AcDbRotatedDimension
1001
ACAD
1000
DSTYLE
1002
{
1070
    78
1070
     8
1070
   288
1070
     1
1070
   284
1070
     8
1070
   140
1040
2.0
1070
    73
1070
     0
1070
   272
1070
     2
1070
   147
1040
0.1
1070
    42
1040
0.1
1070
    44
1040
0.2
1070
    43
1040
0.4
1070
   271
1070
     2
1070
   141
1040
0.1
1070
    41
1040
2.0
1002
}
  0
CIRCLE
  5
949
100
AcDbEntity
  8
3
100
AcDbCircle
 10
10.75
 20
10.0
 30
0.0
 40
6.0
  0
LINE
  5
94A
100
AcDbEntity
  8
1
100
AcDbLine
 10
10.75
 20
19.75
 30
0.0
 11
10.75
 21
0.0
 31
0.0
  0
LINE
  5
94B
100
AcDbEntity
  8
3
100
AcDbLine
 10
37.5
 20
4.0
 30
0.0
 11
37.5
 21
9.25
 31
0.0
  0
LINE
  5
94C
100
AcDbEntity
  8
3
100
AcDbLine
 10
40.5
 20
10.0
 30
0.0
 11
40.5
 21
4.0
 31
0.0
  0
LINE
  5
94D
100
AcDbEntity
  8
3
100
AcDbLine
 10
40.5
 20
4.0
 30
0.0
 11
37.5
 21
4.0
 31
0.0
  0
LINE
  5
94E
100
AcDbEntity
  8
1
100
AcDbLine
 10
20.65
 20
10.0
 30
0.0
 11
0.0
 21
10.0
 31
0.0
  0
LINE
  5
94F
100
AcDbEntity
  8
3
100
AcDbLine
 10
16.70294
 20
9.25
 30
0.0
 11
4.79706
 21
9.25
 31
0.0
  0
LINE
  5
950
100
AcDbEntity
  8
3
100
AcDbLine
 10
16.70294
 20
10.75
 30
0.0
 11
4.79706
 21
10.75
 31
0.0
  0
DIMENSION
  5
951
100
AcDbEntity
  8
0
100
AcDbDimension
  2
*D38
 10
38.5
 20
22.5
 30
0.0
 11
30.0
 21
22.5
 31
0.0
 12
-95.25
 22
-90.0
 32
0.0
 70
   128
  3
STANDARD
100
AcDbAlignedDimension
 13
37.5
 23
16.0
 33
0.0
 14
38.5
 24
10.75
 34
0.0
100
AcDbRotatedDimension
1001
ACAD
1000
DSTYLE
1002
{
1070
    78
1070
     8
1070
   288
1070
     1
1070
   284
1070
     8
1070
   140
1040
2.0
1070
    73
1070
     0
1070
   272
1070
     2
1070
   147
1040
0.1
1070
    42
1040
0.1
1070
    44
1040
0.2
1070
    43
1040
0.4
1070
   271
1070
     2
1070
   141
1040
0.1
1070
    41
1040
2.0
1002
}
  0
LINE
  5
952
100
AcDbEntity
  8
3
100
AcDbLine
 10
40.5
 20
10.0
 30
0.0
 11
40.5
 21
16.0
 31
0.0
  0
LINE
  5
953
100
AcDbEntity
  8
3
100
AcDbLine
 10
37.5
 20
16.0
 30
0.0
 11
37.5
 21
10.75
 31
0.0
  0
LINE
  5
954
100
AcDbEntity
  8
3
100
AcDbLine
 10
37.5
 20
10.75
 30
0.0
 11
38.5
 21
10.75
 31
0.0
  0
LINE
  5
955
100
AcDbEntity
  8
3
100
AcDbLine
 10
38.5
 20
10.75
 30
0.0
 11
38.5
 21
10.0
 31
0.0
  0
LINE
  5
956
100
AcDbEntity
  8
3
100
AcDbLine
 10
38.5
 20
9.25
 30
0.0
 11
38.5
 21
10.0
 31
0.0
  0
LINE
  5
957
100
AcDbEntity
  8
3
100
AcDbLine
 10
37.5
 20
9.25
 30
0.0
 11
38.5
 21
9.25
 31
0.0
  0
LINE
  5
958
100
AcDbEntity
  8
3
100
AcDbLine
 10
40.5
 20
16.0
 30
0.0
 11
37.5
 21
16.0
 31
0.0
  0
DIMENSION
  5
959
100
AcDbEntity
  8
0
100
AcDbDimension
  2
*D41
 10
101.904344
 20
6.876525
 30
0.0
 11
84.5
 21
17.0
 31
0.0
 12
-95.25
 22
-90.0
 32
0.0
 70
   131
  3
STANDARD
100
AcDbDiametricDimension
 15
94.095656
 25
13.123475
 35
0.0
 40
0.0
1001
ACAD
1000
DSTYLE
1002
{
1070
    78
1070
     8
1070
   288
1070
     1
1070
   284
1070
     8
1070
   140
1040
2.0
1070
    73
1070
     0
1070
   272
1070
     2
1070
   147
1040
0.1
1070
    42
1040
0.1
1070
    44
1040
0.2
1070
    43
1040
0.4
1070
   271
1070
     2
1070
   141
1040
0.1
1070
    41
1040
2.0
1002
}
  0
CIRCLE
  5
95A
100
AcDbEntity
  8
3
100
AcDbCircle
 10
98.0
 20
10.0
 30
0.0
 40
3.25
  0
CIRCLE
  5
95B
100
AcDbEntity
  8
3
100
AcDbCircle
 10
98.0
 20
10.0
 30
0.0
 40
4.0
  0
CIRCLE
  5
95C
100
AcDbEntity
  8
3
100
AcDbCircle
 10
98.0
 20
10.0
 30
0.0
 40
5.0
  0
DIMENSION
  5
95D
100
AcDbEntity
  8
0
100
AcDbDimension
  2
*D40
 10
101.161638
 20
4.900584
 30
0.0
 11
85.5
 21
22.5
 31
0.0
 12
-95.25
 22
-90.0
 32
0.0
 70
   131
  3
STANDARD
100
AcDbDiametricDimension
 15
94.838362
 25
15.099416
 35
0.0
 40
0.0
1001
ACAD
1000
DSTYLE
1002
{
1070
    78
1070
     8
1070
   288
1070
     1
1070
   284
1070
     8
1070
   140
1040
2.0
1070
    73
1070
     0
1070
   272
1070
     2
1070
   147
1040
0.1
1070
    42
1040
0.1
1070
    44
1040
0.2
1070
    43
1040
0.4
1070
   271
1070
     2
1070
   141
1040
0.1
1070
    41
1040
2.0
1002
}
  0
LINE
  5
95E
100
AcDbEntity
  8
1
100
AcDbLine
 10
98.0
 20
19.75
 30
0.0
 11
98.0
 21
0.0
 31
0.0
  0
CIRCLE
  5
95F
100
AcDbEntity
  8
3
100
AcDbCircle
 10
98.0
 20
10.0
 30
0.0
 40
6.0
  0
LINE
  5
960
100
AcDbEntity
  8
3
100
AcDbLine
 10
76.5
 20
7.0
 30
0.0
 11
76.5
 21
10.0
 31
0.0
  0
LINE
  5
961
100
AcDbEntity
  8
3
100
AcDbLine
 10
75.5
 20
6.0
 30
0.0
 11
75.5
 21
10.0
 31
0.0
  0
LINE
  5
962
100
AcDbEntity
  8
3
100
AcDbLine
 10
63.5
 20
10.0
 30
0.0
 11
63.5
 21
6.0
 31
0.0
  0
LINE
  5
963
100
AcDbEntity
  8
3
100
AcDbLine
 10
64.5
 20
6.0
 30
0.0
 11
64.5
 21
10.0
 31
0.0
  0
LINE
  5
964
100
AcDbEntity
  8
3
100
AcDbLine
 10
63.5
 20
10.0
 30
0.0
 11
63.5
 21
5.0
 31
0.0
  0
LINE
  5
965
100
AcDbEntity
  8
3
100
AcDbLine
 10
63.5
 20
6.0
 30
0.0
 11
75.5
 21
6.0
 31
0.0
  0
LINE
  5
966
100
AcDbEntity
  8
3
100
AcDbLine
 10
64.5
 20
6.75
 30
0.0
 11
76.25
 21
6.75
 31
0.0
  0
LINE
  5
967
100
AcDbEntity
  8
3
100
AcDbLine
 10
75.5
 20
6.0
 30
0.0
 11
76.5
 21
7.0
 31
0.0
  0
LINE
  5
968
100
AcDbEntity
  8
1
100
AcDbLine
 10
107.9
 20
10.0
 30
0.0
 11
87.25
 21
10.0
 31
0.0
  0
LINE
  5
969
100
AcDbEntity
  8
3
100
AcDbLine
 10
64.5
 20
13.25
 30
0.0
 11
76.25
 21
13.25
 31
0.0
  0
LINE
  5
96A
100
AcDbEntity
  8
3
100
AcDbLine
 10
63.5
 20
14.0
 30
0.0
 11
75.5
 21
14.0
 31
0.0
  0
LINE
  5
96B
100
AcDbEntity
  8
3
100
AcDbLine
 10
64.5
 20
14.0
 30
0.0
 11
64.5
 21
10.0
 31
0.0
  0
LINE
  5
96C
100
AcDbEntity
  8
3
100
AcDbLine
 10
63.5
 20
10.0
 30
0.0
 11
63.5
 21
14.0
 31
0.0
  0
LINE
  5
96D
100
AcDbEntity
  8
3
100
AcDbLine
 10
63.5
 20
10.0
 30
0.0
 11
63.5
 21
15.0
 31
0.0
  0
LINE
  5
96E
100
AcDbEntity
  8
3
100
AcDbLine
 10
75.5
 20
14.0
 30
0.0
 11
75.5
 21
10.0
 31
0.0
  0
LINE
  5
96F
100
AcDbEntity
  8
3
100
AcDbLine
 10
76.5
 20
13.0
 30
0.0
 11
76.5
 21
10.0
 31
0.0
  0
LINE
  5
970
100
AcDbEntity
  8
3
100
AcDbLine
 10
75.5
 20
14.0
 30
0.0
 11
76.5
 21
13.0
 31
0.0
  0
ENDBLK
  5
972
100
AcDbEntity
  8
0
100
AcDbBlockEnd
  0
BLOCK
  5
AC8
100
AcDbEntity
  8
0
100
AcDbBlockBegin
  2
*D43
 70
     1
 10
0.0
 20
0.0
 30
0.0
  3
*D43
  1

  0
LINE
  5
ABD
100
AcDbEntity
  8
0
  6
BYBLOCK
 62
     0
100
AcDbLine
 10
79.250001
 20
150.25
 30
0.0
 11
60.5
 21
150.25
 31
0.0
  0
LINE
  5
ABE
100
AcDbEntity
  8
0
  6
BYBLOCK
 62
     0
100
AcDbLine
 10
79.250001
 20
148.750001
 30
0.0
 11
60.5
 21
148.750001
 31
0.0
  0
LINE
  5
ABF
100
AcDbEntity
  8
0
  6
BYBLOCK
 62
     0
100
AcDbLine
 10
60.7
 20
146.750001
 30
0.0
 11
60.7
 21
144.750001
 31
0.0
  0
LINE
  5
AC0
100
AcDbEntity
  8
0
  6
BYBLOCK
 62
     0
100
AcDbLine
 10
60.7
 20
152.25
 30
0.0
 11
60.7
 21
155.5
 31
0.0
  0
LINE
  5
AC1
100
AcDbEntity
  8
0
  6
BYBLOCK
 62
     0
100
AcDbLine
 10
60.7
 20
155.5
 30
0.0
 11
62.7
 21
155.5
 31
0.0
  0
SOLID
  5
AC2
100
AcDbEntity
  8
0
  6
BYBLOCK
 62
     0
100
AcDbTrace
 10
60.366667
 20
146.750001
 30
0.0
 11
61.033334
 21
146.750001
 31
0.0
 12
60.7
 22
148.750001
 32
0.0
 13
60.7
 23
148.750001
 33
0.0
  0
SOLID
  5
AC3
100
AcDbEntity
  8
0
  6
BYBLOCK
 62
     0
100
AcDbTrace
 10
60.366667
 20
152.25
 30
0.0
 11
61.033334
 21
152.25
 31
0.0
 12
60.7
 22
150.25
 32
0.0
 13
60.7
 23
150.25
 33
0.0
  0
MTEXT
  5
AC4
100
AcDbEntity
  8
0
  6
BYBLOCK
 62
     0
100
AcDbMText
 10
64.85
 20
155.5
 30
0.0
 40
3.5
 41
0.0
 71
     5
 72
     1
  1
\A1;1.5
  0
POINT
  5
AC5
100
AcDbEntity
  8
DEFPOINTS
  6
BYBLOCK
 62
     0
100
AcDbPoint
 10
79.350001
 20
150.25
 30
0.0
  0
POINT
  5
AC6
100
AcDbEntity
  8
DEFPOINTS
  6
BYBLOCK
 62
     0
100
AcDbPoint
 10
79.350001
 20
148.750001
 30
0.0
  0
POINT
  5
AC7
100
AcDbEntity
  8
DEFPOINTS
  6
BYBLOCK
 62
     0
100
AcDbPoint
 10
60.7
 20
148.750001
 30
0.0
  0
ENDBLK
  5
AC9
100
AcDbEntity
  8
0
100
AcDbBlockEnd
  0
BLOCK
  5
AD5
100
AcDbEntity
  8
0
100
AcDbBlockBegin
  2
*D44
 70
     1
 10
0.0
 20
0.0
 30
0.0
  3
*D44
  1

  0
LINE
  5
ACB
100
AcDbEntity
  8
0
  6
BYBLOCK
 62
     0
100
AcDbLine
 10
79.350001
 20
154.7
 30
0.0
 11
79.350001
 21
166.913216
 31
0.0
  0
LINE
  5
ACC
100
AcDbEntity
  8
0
  6
BYBLOCK
 62
     0
100
AcDbLine
 10
82.350001
 20
154.6
 30
0.0
 11
82.350001
 21
166.913216
 31
0.0
  0
LINE
  5
ACD
100
AcDbEntity
  8
0
  6
BYBLOCK
 62
     0
100
AcDbLine
 10
84.350001
 20
166.713216
 30
0.0
 11
86.350001
 21
166.713216
 31
0.0
  0
LINE
  5
ACE
100
AcDbEntity
  8
0
  6
BYBLOCK
 62
     0
100
AcDbLine
 10
77.350001
 20
166.713216
 30
0.0
 11
70.524631
 21
166.713216
 31
0.0
  0
SOLID
  5
ACF
100
AcDbEntity
  8
0
  6
BYBLOCK
 62
     0
100
AcDbTrace
 10
84.350001
 20
167.046549
 30
0.0
 11
84.350001
 21
166.379883
 31
0.0
 12
82.350001
 22
166.713216
 32
0.0
 13
82.350001
 23
166.713216
 33
0.0
  0
SOLID
  5
AD0
100
AcDbEntity
  8
0
  6
BYBLOCK
 62
     0
100
AcDbTrace
 10
77.350001
 20
167.046549
 30
0.0
 11
77.350001
 21
166.379883
 31
0.0
 12
79.350001
 22
166.713216
 32
0.0
 13
79.350001
 23
166.713216
 33
0.0
  0
MTEXT
  5
AD1
100
AcDbEntity
  8
0
  6
BYBLOCK
 62
     0
100
AcDbMText
 10
69.724631
 20
166.713216
 30
0.0
 40
3.5
 41
0.0
 71
     5
 72
     1
  1
\A1;3
  0
POINT
  5
AD2
100
AcDbEntity
  8
DEFPOINTS
  6
BYBLOCK
 62
     0
100
AcDbPoint
 10
79.350001
 20
154.6
 30
0.0
  0
POINT
  5
AD3
100
AcDbEntity
  8
DEFPOINTS
  6
BYBLOCK
 62
     0
100
AcDbPoint
 10
82.350001
 20
154.5
 30
0.0
  0
POINT
  5
AD4
100
AcDbEntity
  8
DEFPOINTS
  6
BYBLOCK
 62
     0
100
AcDbPoint
 10
82.350001
 20
166.713216
 30
0.0
  0
ENDBLK
  5
AD6
100
AcDbEntity
  8
0
100
AcDbBlockEnd
  0
BLOCK
  5
AE2
100
AcDbEntity
  8
0
100
AcDbBlockBegin
  2
*D45
 70
     1
 10
0.0
 20
0.0
 30
0.0
  3
*D45
  1

  0
LINE
  5
AD8
100
AcDbEntity
  8
0
  6
BYBLOCK
 62
     0
100
AcDbLine
 10
79.350001
 20
154.6
 30
0.0
 11
79.350001
 21
161.356587
 31
0.0
  0
LINE
  5
AD9
100
AcDbEntity
  8
0
  6
BYBLOCK
 62
     0
100
AcDbLine
 10
80.350001
 20
150.35
 30
0.0
 11
80.350001
 21
161.356587
 31
0.0
  0
LINE
  5
ADA
100
AcDbEntity
  8
0
  6
BYBLOCK
 62
     0
100
AcDbLine
 10
82.350001
 20
161.156587
 30
0.0
 11
84.350001
 21
161.156587
 31
0.0
  0
LINE
  5
ADB
100
AcDbEntity
  8
0
  6
BYBLOCK
 62
     0
100
AcDbLine
 10
77.350001
 20
161.156587
 30
0.0
 11
71.927376
 21
161.156587
 31
0.0
  0
SOLID
  5
ADC
100
AcDbEntity
  8
0
  6
BYBLOCK
 62
     0
100
AcDbTrace
 10
82.350001
 20
161.489921
 30
0.0
 11
82.350001
 21
160.823254
 31
0.0
 12
80.350001
 22
161.156587
 32
0.0
 13
80.350001
 23
161.156587
 33
0.0
  0
SOLID
  5
ADD
100
AcDbEntity
  8
0
  6
BYBLOCK
 62
     0
100
AcDbTrace
 10
77.350001
 20
161.489921
 30
0.0
 11
77.350001
 21
160.823254
 31
0.0
 12
79.350001
 22
161.156587
 32
0.0
 13
79.350001
 23
161.156587
 33
0.0
  0
MTEXT
  5
ADE
100
AcDbEntity
  8
0
  6
BYBLOCK
 62
     0
100
AcDbMText
 10
71.577376
 20
161.156587
 30
0.0
 40
3.5
 41
0.0
 71
     5
 72
     1
  1
\A1;1
  0
POINT
  5
ADF
100
AcDbEntity
  8
DEFPOINTS
  6
BYBLOCK
 62
     0
100
AcDbPoint
 10
79.350001
 20
154.5
 30
0.0
  0
POINT
  5
AE0
100
AcDbEntity
  8
DEFPOINTS
  6
BYBLOCK
 62
     0
100
AcDbPoint
 10
80.350001
 20
150.25
 30
0.0
  0
POINT
  5
AE1
100
AcDbEntity
  8
DEFPOINTS
  6
BYBLOCK
 62
     0
100
AcDbPoint
 10
80.350001
 20
161.156587
 30
0.0
  0
ENDBLK
  5
AE3
100
AcDbEntity
  8
0
100
AcDbBlockEnd
  0
BLOCK
  5
AED
100
AcDbEntity
  8
0
100
AcDbBlockBegin
  2
*D46
 70
     1
 10
0.0
 20
0.0
 30
0.0
  3
*D46
  1

  0
LINE
  5
AE5
100
AcDbEntity
  8
0
  6
BYBLOCK
 62
     0
100
AcDbLine
 10
24.1
 20
161.75
 30
0.0
 11
26.1
 21
161.75
 31
0.0
  0
LINE
  5
AE6
100
AcDbEntity
  8
0
  6
BYBLOCK
 62
     0
100
AcDbLine
 10
26.1
 20
161.75
 30
0.0
 11
39.672567
 21
153.223645
 31
0.0
  0
MTEXT
  5
AE7
100
AcDbEntity
  8
0
  6
BYBLOCK
 62
     0
100
AcDbMText
 10
21.35
 20
161.75
 30
0.0
 40
3.5
 41
0.0
 71
     5
 72
     1
  1
\A1;\U+220510
  0
SOLID
  5
AE8
100
AcDbEntity
  8
0
  6
BYBLOCK
 62
     0
100
AcDbTrace
 10
39.849883
 20
153.505903
 30
0.0
 11
39.49525
 21
152.941386
 31
0.0
 12
41.366119
 22
152.159746
 32
0.0
 13
41.366119
 23
152.159746
 33
0.0
  0
LINE
  5
AE9
100
AcDbEntity
  8
0
  6
BYBLOCK
 62
     0
100
AcDbLine
 10
45.5
 20
149.5
 30
0.0
 11
45.7
 21
149.5
 31
0.0
  0
LINE
  5
AEA
100
AcDbEntity
  8
0
  6
BYBLOCK
 62
     0
100
AcDbLine
 10
45.6
 20
149.4
 30
0.0
 11
45.6
 21
149.6
 31
0.0
  0
POINT
  5
AEB
100
AcDbEntity
  8
DEFPOINTS
  6
BYBLOCK
 62
     0
100
AcDbPoint
 10
41.366119
 20
152.159746
 30
0.0
  0
POINT
  5
AEC
100
AcDbEntity
  8
DEFPOINTS
  6
BYBLOCK
 62
     0
100
AcDbPoint
 10
49.833882
 20
146.840254
 30
0.0
  0
ENDBLK
  5
AEE
100
AcDbEntity
  8
0
100
AcDbBlockEnd
  0
BLOCK
  5
AF8
100
AcDbEntity
  8
0
100
AcDbBlockBegin
  2
*D47
 70
     1
 10
0.0
 20
0.0
 30
0.0
  3
*D47
  1

  0
LINE
  5
AF0
100
AcDbEntity
  8
0
  6
BYBLOCK
 62
     0
100
AcDbLine
 10
117.1
 20
155.75
 30
0.0
 11
119.1
 21
155.75
 31
0.0
  0
LINE
  5
AF1
100
AcDbEntity
  8
0
  6
BYBLOCK
 62
     0
100
AcDbLine
 10
119.1
 20
155.75
 30
0.0
 11
121.805541
 21
153.417638
 31
0.0
  0
MTEXT
  5
AF2
100
AcDbEntity
  8
0
  6
BYBLOCK
 62
     0
100
AcDbMText
 10
115.35
 20
155.75
 30
0.0
 40
3.5
 41
0.0
 71
     5
 72
     1
  1
\A1;\U+22058
  0
SOLID
  5
AF3
100
AcDbEntity
  8
0
  6
BYBLOCK
 62
     0
100
AcDbTrace
 10
122.023187
 20
153.670108
 30
0.0
 11
121.587894
 21
153.165168
 31
0.0
 12
123.320361
 22
152.111759
 32
0.0
 13
123.320361
 23
152.111759
 33
0.0
  0
LINE
  5
AF4
100
AcDbEntity
  8
0
  6
BYBLOCK
 62
     0
100
AcDbLine
 10
126.25
 20
149.5
 30
0.0
 11
126.45
 21
149.5
 31
0.0
  0
LINE
  5
AF5
100
AcDbEntity
  8
0
  6
BYBLOCK
 62
     0
100
AcDbLine
 10
126.35
 20
149.4
 30
0.0
 11
126.35
 21
149.6
 31
0.0
  0
POINT
  5
AF6
100
AcDbEntity
  8
DEFPOINTS
  6
BYBLOCK
 62
     0
100
AcDbPoint
 10
123.320361
 20
152.111759
 30
0.0
  0
POINT
  5
AF7
100
AcDbEntity
  8
DEFPOINTS
  6
BYBLOCK
 62
     0
100
AcDbPoint
 10
129.37964
 20
146.888242
 30
0.0
  0
ENDBLK
  5
AF9
100
AcDbEntity
  8
0
100
AcDbBlockEnd
  0
BLOCK
  5
B03
100
AcDbEntity
  8
0
100
AcDbBlockBegin
  2
*D48
 70
     1
 10
0.0
 20
0.0
 30
0.0
  3
*D48
  1

  0
LINE
  5
AFB
100
AcDbEntity
  8
0
  6
BYBLOCK
 62
     0
100
AcDbLine
 10
118.85
 20
161.5
 30
0.0
 11
120.85
 21
161.5
 31
0.0
  0
LINE
  5
AFC
100
AcDbEntity
  8
0
  6
BYBLOCK
 62
     0
100
AcDbLine
 10
120.85
 20
161.5
 30
0.0
 11
123.433417
 21
155.863454
 31
0.0
  0
MTEXT
  5
AFD
100
AcDbEntity
  8
0
  6
BYBLOCK
 62
     0
100
AcDbMText
 10
116.1
 20
161.5
 30
0.0
 40
3.5
 41
0.0
 71
     5
 72
     1
  1
\A1;\U+220510
  0
SOLID
  5
AFE
100
AcDbEntity
  8
0
  6
BYBLOCK
 62
     0
100
AcDbTrace
 10
123.736439
 20
156.002339
 30
0.0
 11
123.130396
 21
155.724569
 31
0.0
 12
124.266727
 22
154.045324
 32
0.0
 13
124.266727
 23
154.045324
 33
0.0
  0
LINE
  5
AFF
100
AcDbEntity
  8
0
  6
BYBLOCK
 62
     0
100
AcDbLine
 10
126.25
 20
149.5
 30
0.0
 11
126.45
 21
149.5
 31
0.0
  0
LINE
  5
B00
100
AcDbEntity
  8
0
  6
BYBLOCK
 62
     0
100
AcDbLine
 10
126.35
 20
149.4
 30
0.0
 11
126.35
 21
149.6
 31
0.0
  0
POINT
  5
B01
100
AcDbEntity
  8
DEFPOINTS
  6
BYBLOCK
 62
     0
100
AcDbPoint
 10
124.266727
 20
154.045324
 30
0.0
  0
POINT
  5
B02
100
AcDbEntity
  8
DEFPOINTS
  6
BYBLOCK
 62
     0
100
AcDbPoint
 10
128.433274
 20
144.954676
 30
0.0
  0
ENDBLK
  5
B04
100
AcDbEntity
  8
0
100
AcDbBlockEnd
  0
BLOCK
  5
B10
100
AcDbEntity
  8
0
100
AcDbBlockBegin
  2
*D49
 70
     1
 10
0.0
 20
0.0
 30
0.0
  3
*D49
  1

  0
LINE
  5
B06
100
AcDbEntity
  8
0
  6
BYBLOCK
 62
     0
100
AcDbLine
 10
79.350001
 20
154.6
 30
0.0
 11
79.350001
 21
175.645061
 31
0.0
  0
LINE
  5
B07
100
AcDbEntity
  8
0
  6
BYBLOCK
 62
     0
100
AcDbLine
 10
110.35
 20
151.7
 30
0.0
 11
110.35
 21
175.645061
 31
0.0
  0
LINE
  5
B08
100
AcDbEntity
  8
0
  6
BYBLOCK
 62
     0
100
AcDbLine
 10
81.350001
 20
175.445061
 30
0.0
 11
93.633703
 21
175.445061
 31
0.0
  0
LINE
  5
B09
100
AcDbEntity
  8
0
  6
BYBLOCK
 62
     0
100
AcDbLine
 10
108.35
 20
175.445061
 30
0.0
 11
96.633703
 21
175.445061
 31
0.0
  0
SOLID
  5
B0A
100
AcDbEntity
  8
0
  6
BYBLOCK
 62
     0
100
AcDbTrace
 10
81.350001
 20
175.778394
 30
0.0
 11
81.350001
 21
175.111727
 31
0.0
 12
79.350001
 22
175.445061
 32
0.0
 13
79.350001
 23
175.445061
 33
0.0
  0
SOLID
  5
B0B
100
AcDbEntity
  8
0
  6
BYBLOCK
 62
     0
100
AcDbTrace
 10
108.35
 20
175.778394
 30
0.0
 11
108.35
 21
175.111727
 31
0.0
 12
110.35
 22
175.445061
 32
0.0
 13
110.35
 23
175.445061
 33
0.0
  0
MTEXT
  5
B0C
100
AcDbEntity
  8
0
  6
BYBLOCK
 62
     0
100
AcDbMText
 10
95.133703
 20
175.445061
 30
0.0
 40
3.5
 41
0.0
 71
     5
 72
     1
  1
\A1;31
  0
POINT
  5
B0D
100
AcDbEntity
  8
DEFPOINTS
  6
BYBLOCK
 62
     0
100
AcDbPoint
 10
79.350001
 20
154.5
 30
0.0
  0
POINT
  5
B0E
100
AcDbEntity
  8
DEFPOINTS
  6
BYBLOCK
 62
     0
100
AcDbPoint
 10
110.35
 20
151.6
 30
0.0
  0
POINT
  5
B0F
100
AcDbEntity
  8
DEFPOINTS
  6
BYBLOCK
 62
     0
100
AcDbPoint
 10
110.35
 20
175.445061
 30
0.0
  0
ENDBLK
  5
B11
100
AcDbEntity
  8
0
100
AcDbBlockEnd
  0
BLOCK
  5
B1D
100
AcDbEntity
  8
0
100
AcDbBlockBegin
  2
*D50
 70
     1
 10
0.0
 20
0.0
 30
0.0
  3
*D50
  1

  0
LINE
  5
B13
100
AcDbEntity
  8
0
  6
BYBLOCK
 62
     0
100
AcDbLine
 10
82.350001
 20
154.7
 30
0.0
 11
82.350001
 21
169.823831
 31
0.0
  0
LINE
  5
B14
100
AcDbEntity
  8
0
  6
BYBLOCK
 62
     0
100
AcDbLine
 10
98.350001
 20
153.6
 30
0.0
 11
98.350001
 21
169.823831
 31
0.0
  0
LINE
  5
B15
100
AcDbEntity
  8
0
  6
BYBLOCK
 62
     0
100
AcDbLine
 10
84.350001
 20
169.623831
 30
0.0
 11
88.454824
 21
169.623831
 31
0.0
  0
LINE
  5
B16
100
AcDbEntity
  8
0
  6
BYBLOCK
 62
     0
100
AcDbLine
 10
96.350001
 20
169.623831
 30
0.0
 11
91.754824
 21
169.623831
 31
0.0
  0
SOLID
  5
B17
100
AcDbEntity
  8
0
  6
BYBLOCK
 62
     0
100
AcDbTrace
 10
84.350001
 20
169.957164
 30
0.0
 11
84.350001
 21
169.290498
 31
0.0
 12
82.350001
 22
169.623831
 32
0.0
 13
82.350001
 23
169.623831
 33
0.0
  0
SOLID
  5
B18
100
AcDbEntity
  8
0
  6
BYBLOCK
 62
     0
100
AcDbTrace
 10
96.350001
 20
169.957164
 30
0.0
 11
96.350001
 21
169.290498
 31
0.0
 12
98.350001
 22
169.623831
 32
0.0
 13
98.350001
 23
169.623831
 33
0.0
  0
MTEXT
  5
B19
100
AcDbEntity
  8
0
  6
BYBLOCK
 62
     0
100
AcDbMText
 10
90.104824
 20
169.623831
 30
0.0
 40
3.5
 41
0.0
 71
     5
 72
     1
  1
\A1;16
  0
POINT
  5
B1A
100
AcDbEntity
  8
DEFPOINTS
  6
BYBLOCK
 62
     0
100
AcDbPoint
 10
82.350001
 20
154.6
 30
0.0
  0
POINT
  5
B1B
100
AcDbEntity
  8
DEFPOINTS
  6
BYBLOCK
 62
     0
100
AcDbPoint
 10
98.350001
 20
153.5
 30
0.0
  0
POINT
  5
B1C
100
AcDbEntity
  8
DEFPOINTS
  6
BYBLOCK
 62
     0
100
AcDbPoint
 10
98.350001
 20
169.623831
 30
0.0
  0
ENDBLK
  5
B1E
100
AcDbEntity
  8
0
100
AcDbBlockEnd
  0
BLOCK
  5
B2A
100
AcDbEntity
  8
0
100
AcDbBlockBegin
  2
*D51
 70
     1
 10
0.0
 20
0.0
 30
0.0
  3
*D51
  1

  0
LINE
  5
B20
100
AcDbEntity
  8
0
  6
BYBLOCK
 62
     0
100
AcDbLine
 10
98.350001
 20
153.7
 30
0.0
 11
98.350001
 21
166.648615
 31
0.0
  0
LINE
  5
B21
100
AcDbEntity
  8
0
  6
BYBLOCK
 62
     0
100
AcDbLine
 10
110.35
 20
151.6
 30
0.0
 11
110.35
 21
166.648615
 31
0.0
  0
LINE
  5
B22
100
AcDbEntity
  8
0
  6
BYBLOCK
 62
     0
100
AcDbLine
 10
100.350001
 20
166.448615
 30
0.0
 11
103.012105
 21
166.448615
 31
0.0
  0
LINE
  5
B23
100
AcDbEntity
  8
0
  6
BYBLOCK
 62
     0
100
AcDbLine
 10
108.35
 20
166.448615
 30
0.0
 11
106.312105
 21
166.448615
 31
0.0
  0
SOLID
  5
B24
100
AcDbEntity
  8
0
  6
BYBLOCK
 62
     0
100
AcDbTrace
 10
100.350001
 20
166.781948
 30
0.0
 11
100.350001
 21
166.115281
 31
0.0
 12
98.350001
 22
166.448615
 32
0.0
 13
98.350001
 23
166.448615
 33
0.0
  0
SOLID
  5
B25
100
AcDbEntity
  8
0
  6
BYBLOCK
 62
     0
100
AcDbTrace
 10
108.35
 20
166.781948
 30
0.0
 11
108.35
 21
166.115281
 31
0.0
 12
110.35
 22
166.448615
 32
0.0
 13
110.35
 23
166.448615
 33
0.0
  0
MTEXT
  5
B26
100
AcDbEntity
  8
0
  6
BYBLOCK
 62
     0
100
AcDbMText
 10
104.662105
 20
166.448615
 30
0.0
 40
3.5
 41
0.0
 71
     5
 72
     1
  1
\A1;12
  0
POINT
  5
B27
100
AcDbEntity
  8
DEFPOINTS
  6
BYBLOCK
 62
     0
100
AcDbPoint
 10
98.350001
 20
153.6
 30
0.0
  0
POINT
  5
B28
100
AcDbEntity
  8
DEFPOINTS
  6
BYBLOCK
 62
     0
100
AcDbPoint
 10
110.35
 20
151.5
 30
0.0
  0
POINT
  5
B29
100
AcDbEntity
  8
DEFPOINTS
  6
BYBLOCK
 62
     0
100
AcDbPoint
 10
110.35
 20
166.448615
 30
0.0
  0
ENDBLK
  5
B2B
100
AcDbEntity
  8
0
100
AcDbBlockEnd
  0
BLOCK
  5
B5D
100
AcDbEntity
  8
0
100
AcDbBlockBegin
  2
A$C09730A4E
 70
     0
 10
0.0
 20
0.0
 30
0.0
  3
A$C09730A4E
  1

  0
DIMENSION
  5
B2D
100
AcDbEntity
  8
0
100
AcDbDimension
  2
*D43
 10
48.7
 20
7.75
 30
0.0
 11
52.85
 21
14.5
 31
0.0
 12
-12.000001
 22
-141.0
 32
0.0
 70
   128
  3
STANDARD
100
AcDbAlignedDimension
 13
67.35
 23
9.25
 33
0.0
 14
67.35
 24
7.75
 34
0.0
 50
90.0
100
AcDbRotatedDimension
1001
ACAD
1000
DSTYLE
1002
{
1070
    78
1070
     8
1070
   288
1070
     1
1070
   284
1070
     8
1070
   140
1040
2.0
1070
    73
1070
     0
1070
   272
1070
     2
1070
   147
1040
0.1
1070
    42
1040
0.1
1070
    44
1040
0.2
1070
    43
1040
0.4
1070
   271
1070
     2
1070
   141
1040
0.1
1070
    41
1040
2.0
1002
}
  0
DIMENSION
  5
B2E
100
AcDbEntity
  8
0
100
AcDbDimension
  2
*D46
 10
37.833881
 20
5.840254
 30
0.0
 11
9.35
 21
20.75
 31
0.0
 12
-12.000001
 22
-141.0
 32
0.0
 70
   131
  3
STANDARD
100
AcDbDiametricDimension
 15
29.366118
 25
11.159746
 35
0.0
 40
0.0
1001
ACAD
1000
DSTYLE
1002
{
1070
    78
1070
     8
1070
   288
1070
     1
1070
   284
1070
     8
1070
   140
1040
2.0
1070
    73
1070
     0
1070
   272
1070
     2
1070
   147
1040
0.1
1070
    42
1040
0.1
1070
    44
1040
0.2
1070
    43
1040
0.4
1070
   271
1070
     2
1070
   141
1040
0.1
1070
    41
1040
2.0
1002
}
  0
LINE
  5
B2F
100
AcDbEntity
  8
1
100
AcDbLine
 10
25.1
 20
8.5
 30
0.0
 11
41.6
 21
8.5
 31
0.0
  0
LINE
  5
B30
100
AcDbEntity
  8
3
100
AcDbLine
 10
28.65657
 20
9.25
 30
0.0
 11
38.54343
 21
9.25
 31
0.0
  0
LINE
  5
B31
100
AcDbEntity
  8
3
100
AcDbLine
 10
28.65657
 20
7.75
 30
0.0
 11
38.54343
 21
7.75
 31
0.0
  0
CIRCLE
  5
B32
100
AcDbEntity
  8
3
100
AcDbCircle
 10
33.6
 20
8.5
 30
0.0
 40
5.0
  0
LINE
  5
B33
100
AcDbEntity
  8
1
100
AcDbLine
 10
33.6
 20
16.25
 30
0.0
 11
33.6
 21
0.0
 31
0.0
  0
TEXT
  5
B34
100
AcDbEntity
  8
0
100
AcDbText
 10
-0.4
 20
32.75
 30
0.0
 40
3.5
  1
M6
 41
0.6
100
AcDbText
  0
DIMENSION
  5
B35
100
AcDbEntity
  8
0
100
AcDbDimension
  2
*D48
 10
116.433273
 20
3.954676
 30
0.0
 11
104.1
 21
20.5
 31
0.0
 12
-12.000001
 22
-141.0
 32
0.0
 70
   131
  3
STANDARD
100
AcDbDiametricDimension
 15
112.266726
 25
13.045324
 35
0.0
 40
0.0
1001
ACAD
1000
DSTYLE
1002
{
1070
    78
1070
     8
1070
   288
1070
     1
1070
   284
1070
     8
1070
   140
1040
2.0
1070
    73
1070
     0
1070
   272
1070
     2
1070
   147
1040
0.1
1070
    42
1040
0.1
1070
    44
1040
0.2
1070
    43
1040
0.4
1070
   271
1070
     2
1070
   141
1040
0.1
1070
    41
1040
2.0
1002
}
  0
DIMENSION
  5
B36
100
AcDbEntity
  8
0
100
AcDbDimension
  2
*D47
 10
117.379639
 20
5.888241
 30
0.0
 11
103.35
 21
14.75
 31
0.0
 12
-12.000001
 22
-141.0
 32
0.0
 70
   131
  3
STANDARD
100
AcDbDiametricDimension
 15
111.32036
 25
11.111758
 35
0.0
 40
0.0
1001
ACAD
1000
DSTYLE
1002
{
1070
    78
1070
     8
1070
   288
1070
     1
1070
   284
1070
     8
1070
   140
1040
2.0
1070
    73
1070
     0
1070
   272
1070
     2
1070
   147
1040
0.1
1070
    42
1040
0.1
1070
    44
1040
0.2
1070
    43
1040
0.4
1070
   271
1070
     2
1070
   141
1040
0.1
1070
    41
1040
2.0
1002
}
  0
DIMENSION
  5
B37
100
AcDbEntity
  8
0
100
AcDbDimension
  2
*D51
 10
98.35
 20
25.448614
 30
0.0
 11
92.662104
 21
25.448614
 31
0.0
 12
-12.000001
 22
-141.0
 32
0.0
 70
   128
  3
STANDARD
100
AcDbAlignedDimension
 13
86.35
 23
12.599999
 33
0.0
 14
98.35
 24
10.5
 34
0.0
100
AcDbRotatedDimension
1001
ACAD
1000
DSTYLE
1002
{
1070
    78
1070
     8
1070
   288
1070
     1
1070
   284
1070
     8
1070
   140
1040
2.0
1070
    73
1070
     0
1070
   272
1070
     2
1070
   147
1040
0.1
1070
    42
1040
0.1
1070
    44
1040
0.2
1070
    43
1040
0.4
1070
   271
1070
     2
1070
   141
1040
0.1
1070
    41
1040
2.0
1002
}
  0
DIMENSION
  5
B38
100
AcDbEntity
  8
0
100
AcDbDimension
  2
*D50
 10
86.35
 20
28.623831
 30
0.0
 11
78.104823
 21
28.623831
 31
0.0
 12
-12.000001
 22
-141.0
 32
0.0
 70
   128
  3
STANDARD
100
AcDbAlignedDimension
 13
70.35
 23
13.6
 33
0.0
 14
86.35
 24
12.499999
 34
0.0
100
AcDbRotatedDimension
1001
ACAD
1000
DSTYLE
1002
{
1070
    78
1070
     8
1070
   288
1070
     1
1070
   284
1070
     8
1070
   140
1040
2.0
1070
    73
1070
     0
1070
   272
1070
     2
1070
   147
1040
0.1
1070
    42
1040
0.1
1070
    44
1040
0.2
1070
    43
1040
0.4
1070
   271
1070
     2
1070
   141
1040
0.1
1070
    41
1040
2.0
1002
}
  0
DIMENSION
  5
B39
100
AcDbEntity
  8
0
100
AcDbDimension
  2
*D49
 10
98.35
 20
34.44506
 30
0.0
 11
83.133702
 21
34.44506
 31
0.0
 12
-12.000001
 22
-141.0
 32
0.0
 70
   128
  3
STANDARD
100
AcDbAlignedDimension
 13
67.35
 23
13.5
 33
0.0
 14
98.35
 24
10.6
 34
0.0
100
AcDbRotatedDimension
1001
ACAD
1000
DSTYLE
1002
{
1070
    78
1070
     8
1070
   288
1070
     1
1070
   284
1070
     8
1070
   140
1040
2.0
1070
    73
1070
     0
1070
   272
1070
     2
1070
   147
1040
0.1
1070
    42
1040
0.1
1070
    44
1040
0.2
1070
    43
1040
0.4
1070
   271
1070
     2
1070
   141
1040
0.1
1070
    41
1040
2.0
1002
}
  0
DIMENSION
  5
B3A
100
AcDbEntity
  8
0
100
AcDbDimension
  2
*D45
 10
68.35
 20
20.156587
 30
0.0
 11
59.577375
 21
20.156587
 31
0.0
 12
-12.000001
 22
-141.0
 32
0.0
 70
   128
  3
STANDARD
100
AcDbAlignedDimension
 13
67.35
 23
13.5
 33
0.0
 14
68.35
 24
9.25
 34
0.0
100
AcDbRotatedDimension
1001
ACAD
1000
DSTYLE
1002
{
1070
    78
1070
     8
1070
   288
1070
     1
1070
   284
1070
     8
1070
   140
1040
2.0
1070
    73
1070
     0
1070
   272
1070
     2
1070
   147
1040
0.1
1070
    42
1040
0.1
1070
    44
1040
0.2
1070
    43
1040
0.4
1070
   271
1070
     2
1070
   141
1040
0.1
1070
    41
1040
2.0
1002
}
  0
DIMENSION
  5
B3B
100
AcDbEntity
  8
0
100
AcDbDimension
  2
*D44
 10
70.35
 20
25.713216
 30
0.0
 11
57.72463
 21
25.713216
 31
0.0
 12
-12.000001
 22
-141.0
 32
0.0
 70
   128
  3
STANDARD
100
AcDbAlignedDimension
 13
67.35
 23
13.6
 33
0.0
 14
70.35
 24
13.5
 34
0.0
100
AcDbRotatedDimension
1001
ACAD
1000
DSTYLE
1002
{
1070
    78
1070
     8
1070
   288
1070
     1
1070
   284
1070
     8
1070
   140
1040
2.0
1070
    73
1070
     0
1070
   272
1070
     2
1070
   147
1040
0.1
1070
    42
1040
0.1
1070
    44
1040
0.2
1070
    43
1040
0.4
1070
   271
1070
     2
1070
   141
1040
0.1
1070
    41
1040
2.0
1002
}
  0
LINE
  5
B3C
100
AcDbEntity
  8
3
100
AcDbLine
 10
86.35
 20
4.5
 30
0.0
 11
70.35
 21
4.5
 31
0.0
  0
LINE
  5
B3D
100
AcDbEntity
  8
1
100
AcDbLine
 10
64.6
 20
8.5
 30
0.0
 11
99.6
 21
8.5
 31
0.0
  0
LINE
  5
B3E
100
AcDbEntity
  8
3
100
AcDbLine
 10
86.35
 20
12.499999
 30
0.0
 11
70.35
 21
12.499999
 31
0.0
  0
LINE
  5
B3F
100
AcDbEntity
  8
3
100
AcDbLine
 10
70.35
 20
8.5
 30
0.0
 11
70.35
 21
3.5
 31
0.0
  0
LINE
  5
B40
100
AcDbEntity
  8
3
100
AcDbLine
 10
67.35
 20
3.5
 30
0.0
 11
67.35
 21
7.75
 31
0.0
  0
LINE
  5
B41
100
AcDbEntity
  8
3
100
AcDbLine
 10
70.35
 20
3.5
 30
0.0
 11
67.35
 21
3.5
 31
0.0
  0
LINE
  5
B42
100
AcDbEntity
  8
3
100
AcDbLine
 10
67.35
 20
13.5
 30
0.0
 11
67.35
 21
9.25
 31
0.0
  0
LINE
  5
B43
100
AcDbEntity
  8
3
100
AcDbLine
 10
70.35
 20
8.5
 30
0.0
 11
70.35
 21
13.5
 31
0.0
  0
LINE
  5
B44
100
AcDbEntity
  8
3
100
AcDbLine
 10
68.35
 20
9.25
 30
0.0
 11
68.35
 21
8.5
 31
0.0
  0
LINE
  5
B45
100
AcDbEntity
  8
3
100
AcDbLine
 10
68.35
 20
7.75
 30
0.0
 11
68.35
 21
8.5
 31
0.0
  0
LINE
  5
B46
100
AcDbEntity
  8
3
100
AcDbLine
 10
67.35
 20
7.75
 30
0.0
 11
68.35
 21
7.75
 31
0.0
  0
LINE
  5
B47
100
AcDbEntity
  8
3
100
AcDbLine
 10
67.35
 20
9.25
 30
0.0
 11
68.35
 21
9.25
 31
0.0
  0
LINE
  5
B48
100
AcDbEntity
  8
3
100
AcDbLine
 10
70.35
 20
13.5
 30
0.0
 11
67.35
 21
13.5
 31
0.0
  0
LINE
  5
B49
100
AcDbEntity
  8
3
100
AcDbLine
 10
86.35
 20
11.5
 30
0.0
 11
97.35
 21
11.5
 31
0.0
  0
LINE
  5
B4A
100
AcDbEntity
  8
3
100
AcDbLine
 10
87.1
 20
10.75
 30
0.0
 11
98.1
 21
10.75
 31
0.0
  0
LINE
  5
B4B
100
AcDbEntity
  8
3
100
AcDbLine
 10
87.1
 20
6.25
 30
0.0
 11
98.1
 21
6.25
 31
0.0
  0
LINE
  5
B4C
100
AcDbEntity
  8
3
100
AcDbLine
 10
86.35
 20
5.5
 30
0.0
 11
97.35
 21
5.5
 31
0.0
  0
LINE
  5
B4D
100
AcDbEntity
  8
3
100
AcDbLine
 10
87.1
 20
5.5
 30
0.0
 11
87.1
 21
8.5
 31
0.0
  0
LINE
  5
B4E
100
AcDbEntity
  8
3
100
AcDbLine
 10
86.35
 20
8.5
 30
0.0
 11
86.35
 21
4.5
 31
0.0
  0
LINE
  5
B4F
100
AcDbEntity
  8
3
100
AcDbLine
 10
86.35
 20
8.499999
 30
0.0
 11
86.35
 21
12.499999
 31
0.0
  0
LINE
  5
B50
100
AcDbEntity
  8
3
100
AcDbLine
 10
87.1
 20
11.5
 30
0.0
 11
87.1
 21
8.5
 31
0.0
  0
LINE
  5
B51
100
AcDbEntity
  8
3
100
AcDbLine
 10
98.35
 20
6.5
 30
0.0
 11
98.35
 21
8.5
 31
0.0
  0
LINE
  5
B52
100
AcDbEntity
  8
3
100
AcDbLine
 10
97.35
 20
5.5
 30
0.0
 11
97.35
 21
8.5
 31
0.0
  0
LINE
  5
B53
100
AcDbEntity
  8
3
100
AcDbLine
 10
97.35
 20
5.5
 30
0.0
 11
98.35
 21
6.5
 31
0.0
  0
LINE
  5
B54
100
AcDbEntity
  8
3
100
AcDbLine
 10
97.35
 20
11.5
 30
0.0
 11
98.35
 21
10.5
 31
0.0
  0
LINE
  5
B55
100
AcDbEntity
  8
3
100
AcDbLine
 10
97.35
 20
11.5
 30
0.0
 11
97.35
 21
8.5
 31
0.0
  0
LINE
  5
B56
100
AcDbEntity
  8
3
100
AcDbLine
 10
98.35
 20
10.5
 30
0.0
 11
98.35
 21
8.5
 31
0.0
  0
CIRCLE
  5
B57
100
AcDbEntity
  8
3
100
AcDbCircle
 10
114.35
 20
8.5
 30
0.0
 40
5.0
  0
CIRCLE
  5
B58
100
AcDbEntity
  8
3
100
AcDbCircle
 10
114.35
 20
8.5
 30
0.0
 40
4.0
  0
LINE
  5
B59
100
AcDbEntity
  8
1
100
AcDbLine
 10
105.85
 20
8.5
 30
0.0
 11
122.35
 21
8.5
 31
0.0
  0
CIRCLE
  5
B5A
100
AcDbEntity
  8
3
100
AcDbCircle
 10
114.35
 20
8.5
 30
0.0
 40
2.25
  0
CIRCLE
  5
B5B
100
AcDbEntity
  8
3
100
AcDbCircle
 10
114.35
 20
8.5
 30
0.0
 40
3.0
  0
LINE
  5
B5C
100
AcDbEntity
  8
1
100
AcDbLine
 10
114.35
 20
16.25
 30
0.0
 11
114.35
 21
0.0
 31
0.0
  0
ENDBLK
  5
B5E
100
AcDbEntity
  8
0
100
AcDbBlockEnd
  0
BLOCK
  5
C76
100
AcDbEntity
  8
0
100
AcDbBlockBegin
  2
*D53
 70
     1
 10
0.0
 20
0.0
 30
0.0
  3
*D53
  1

  0
LINE
  5
C6E
100
AcDbEntity
  8
0
  6
BYBLOCK
 62
     0
100
AcDbLine
 10
183.75
 20
109.0
 30
0.0
 11
185.75
 21
109.0
 31
0.0
  0
LINE
  5
C6F
100
AcDbEntity
  8
0
  6
BYBLOCK
 62
     0
100
AcDbLine
 10
185.75
 20
109.0
 30
0.0
 11
188.54596
 21
105.529153
 31
0.0
  0
MTEXT
  5
C70
100
AcDbEntity
  8
0
  6
BYBLOCK
 62
     0
100
AcDbMText
 10
179.5
 20
109.0
 30
0.0
 40
3.5
 41
0.0
 71
     5
 72
     1
  1
\A1;\U+220510.2
  0
SOLID
  5
C71
100
AcDbEntity
  8
0
  6
BYBLOCK
 62
     0
100
AcDbTrace
 10
188.805545
 20
105.738263
 30
0.0
 11
188.286376
 21
105.320043
 31
0.0
 12
189.800619
 22
103.971645
 32
0.0
 13
189.800619
 23
103.971645
 33
0.0
  0
LINE
  5
C72
100
AcDbEntity
  8
0
  6
BYBLOCK
 62
     0
100
AcDbLine
 10
192.9
 20
100.0
 30
0.0
 11
193.1
 21
100.0
 31
0.0
  0
LINE
  5
C73
100
AcDbEntity
  8
0
  6
BYBLOCK
 62
     0
100
AcDbLine
 10
193.0
 20
99.9
 30
0.0
 11
193.0
 21
100.1
 31
0.0
  0
POINT
  5
C74
100
AcDbEntity
  8
DEFPOINTS
  6
BYBLOCK
 62
     0
100
AcDbPoint
 10
189.800619
 20
103.971645
 30
0.0
  0
POINT
  5
C75
100
AcDbEntity
  8
DEFPOINTS
  6
BYBLOCK
 62
     0
100
AcDbPoint
 10
196.199381
 20
96.028355
 30
0.0
  0
ENDBLK
  5
C77
100
AcDbEntity
  8
0
100
AcDbBlockEnd
  0
BLOCK
  5
C99
100
AcDbEntity
  8
0
100
AcDbBlockBegin
  2
A$C55202CB5
 70
     0
 10
0.0
 20
0.0
 30
0.0
  3
A$C55202CB5
  1

  0
HATCH
  5
C79
100
AcDbEntity
  8
0
100
AcDbHatch
 10
0.0
 20
0.0
 30
0.0
210
0.0
220
0.0
230
1.0
  2
ANSI31
 70
     0
 71
     1
 91
        1
 92
        7
 72
     1
 73
     1
 93
        8
 10
69.99999996703874
 20
5.850000263072288
 42
0.0
 10
47.99999996703877
 20
5.850000263072288
 42
0.0
 10
47.99999996703874
 20
4.75000026307228
 42
0.0
 10
44.99999996703877
 20
4.75000026307228
 42
0.0
 10
44.99999996703877
 20
4.000000263072294
 42
0.4142135623730951
 10
45.99999996703878
 20
3.000000263072294
 42
0.0
 10
68.99999996703877
 20
3.000000263072294
 42
0.4142135623730951
 10
69.99999996703877
 20
4.000000263072294
 42
0.0
 97
        8
330
C7A
330
C88
330
C85
330
C86
330
C87
330
C7B
330
C95
330
C94
 75
     0
 76
     1
 52
0.0
 41
3.0
 77
     0
 78
     1
 53
45.0
 43
-87.75
 44
-89.0
 45
-0.2651650429449553
 46
0.2651650429449553
 79
     0
 47
0.264601
 98
        1
 10
59.0
 20
4.5
  0
LINE
  5
C7A
102
{ACAD_REACTORS
330
C79
102
}
100
AcDbEntity
  8
3
100
AcDbLine
 10
48.0
 20
5.85
 30
0.0
 11
70.0
 21
5.85
 31
0.0
  0
LINE
  5
C7B
102
{ACAD_REACTORS
330
C79
102
}
100
AcDbEntity
  8
3
100
AcDbLine
 10
69.0
 20
3.0
 30
0.0
 11
46.0
 21
3.0
 31
0.0
  0
LINE
  5
C7C
100
AcDbEntity
  8
3
100
AcDbLine
 10
48.0
 20
16.15
 30
0.0
 11
70.0
 21
16.15
 31
0.0
  0
LINE
  5
C7D
100
AcDbEntity
  8
3
100
AcDbLine
 10
69.0
 20
19.0
 30
0.0
 11
46.0
 21
19.0
 31
0.0
  0
LINE
  5
C7E
100
AcDbEntity
  8
1
100
AcDbLine
 10
42.15
 20
11.0
 30
0.0
 11
72.75
 21
11.0
 31
0.0
  0
CIRCLE
  5
C7F
100
AcDbEntity
  8
3
100
AcDbCircle
 10
14.0
 20
11.0
 30
0.0
 40
5.1
  0
CIRCLE
  5
C80
100
AcDbEntity
  8
3
100
AcDbCircle
 10
14.0
 20
11.0
 30
0.0
 40
6.25
  0
CIRCLE
  5
C81
100
AcDbEntity
  8
3
100
AcDbCircle
 10
14.0
 20
11.0
 30
0.0
 40
8.0
  0
LINE
  5
C82
100
AcDbEntity
  8
1
100
AcDbLine
 10
14.0
 20
22.75
 30
0.0
 11
14.0
 21
0.0
 31
0.0
  0
LINE
  5
C83
100
AcDbEntity
  8
3
100
AcDbLine
 10
48.0
 20
11.0
 30
0.0
 11
48.0
 21
5.0
 31
0.0
  0
LINE
  5
C84
100
AcDbEntity
  8
3
100
AcDbLine
 10
45.0
 20
4.75
 30
0.0
 11
45.0
 21
11.0
 31
0.0
  0
LINE
  5
C85
102
{ACAD_REACTORS
330
C79
102
}
100
AcDbEntity
  8
3
100
AcDbLine
 10
45.0
 20
4.75
 30
0.0
 11
48.0
 21
4.75
 31
0.0
  0
LINE
  5
C86
102
{ACAD_REACTORS
330
C79
102
}
100
AcDbEntity
  8
3
100
AcDbLine
 10
45.0
 20
4.0
 30
0.0
 11
45.0
 21
4.75
 31
0.0
  0
ARC
  5
C87
102
{ACAD_REACTORS
330
C79
102
}
100
AcDbEntity
  8
3
100
AcDbCircle
 10
46.0
 20
4.0
 30
0.0
 40
1.0
100
AcDbArc
 50
180.0
 51
270.0
  0
LINE
  5
C88
102
{ACAD_REACTORS
330
C79
102
}
100
AcDbEntity
  8
3
100
AcDbLine
 10
48.0
 20
4.75
 30
0.0
 11
48.0
 21
5.85
 31
0.0
  0
LINE
  5
C89
100
AcDbEntity
  8
1
100
AcDbLine
 10
24.25
 20
11.0
 30
0.0
 11
0.0
 21
11.0
 31
0.0
  0
LINE
  5
C8A
100
AcDbEntity
  8
3
100
AcDbLine
 10
45.0
 20
17.25
 30
0.0
 11
45.0
 21
11.0
 31
0.0
  0
LINE
  5
C8B
100
AcDbEntity
  8
3
100
AcDbLine
 10
48.0
 20
11.0
 30
0.0
 11
48.0
 21
17.0
 31
0.0
  0
LINE
  5
C8C
100
AcDbEntity
  8
3
100
AcDbLine
 10
45.0
 20
17.25
 30
0.0
 11
48.0
 21
17.25
 31
0.0
  0
ARC
  5
C8D
100
AcDbEntity
  8
3
100
AcDbCircle
 10
46.0
 20
18.0
 30
0.0
 40
1.0
100
AcDbArc
 50
90.0
 51
180.0
  0
LINE
  5
C8E
100
AcDbEntity
  8
3
100
AcDbLine
 10
45.0
 20
18.0
 30
0.0
 11
45.0
 21
17.25
 31
0.0
  0
LINE
  5
C8F
100
AcDbEntity
  8
3
100
AcDbLine
 10
48.0
 20
17.25
 30
0.0
 11
48.0
 21
16.15
 31
0.0
  0
DIMENSION
  5
C90
100
AcDbEntity
  8
0
100
AcDbDimension
  2
*D53
 10
108.449381
 20
7.028355
 30
0.0
 11
91.75
 21
20.0
 31
0.0
 12
-87.75
 22
-89.0
 32
0.0
 70
   131
  3
STANDARD
100
AcDbDiametricDimension
 15
102.050619
 25
14.971645
 35
0.0
 40
0.0
1001
ACAD
1000
DSTYLE
1002
{
1070
    78
1070
     8
1070
   288
1070
     1
1070
   284
1070
     8
1070
   140
1040
2.0
1070
    73
1070
     0
1070
   272
1070
     2
1070
   147
1040
0.1
1070
    42
1040
0.1
1070
    44
1040
0.2
1070
    43
1040
0.4
1070
   271
1070
     2
1070
   141
1040
0.1
1070
    41
1040
2.0
1002
}
  0
LINE
  5
C91
100
AcDbEntity
  8
1
100
AcDbLine
 10
105.25
 20
22.75
 30
0.0
 11
105.25
 21
0.0
 31
0.0
  0
CIRCLE
  5
C92
100
AcDbEntity
  8
3
100
AcDbCircle
 10
105.25
 20
11.0
 30
0.0
 40
8.0
  0
CIRCLE
  5
C93
100
AcDbEntity
  8
3
100
AcDbCircle
 10
105.25
 20
11.0
 30
0.0
 40
5.1
  0
LINE
  5
C94
102
{ACAD_REACTORS
330
C79
102
}
100
AcDbEntity
  8
3
100
AcDbLine
 10
70.0
 20
11.0
 30
0.0
 11
70.0
 21
4.0
 31
0.0
  0
ARC
  5
C95
102
{ACAD_REACTORS
330
C79
102
}
100
AcDbEntity
  8
3
100
AcDbCircle
 10
69.0
 20
4.0
 30
0.0
 40
1.0
100
AcDbArc
 50
270.0
 51
0.0
  0
LINE
  5
C96
100
AcDbEntity
  8
1
100
AcDbLine
 10
115.5
 20
11.0
 30
0.0
 11
91.25
 21
11.0
 31
0.0
  0
LINE
  5
C97
100
AcDbEntity
  8
3
100
AcDbLine
 10
70.0
 20
11.0
 30
0.0
 11
70.0
 21
18.0
 31
0.0
  0
ARC
  5
C98
100
AcDbEntity
  8
3
100
AcDbCircle
 10
69.0
 20
18.0
 30
0.0
 40
1.0
100
AcDbArc
 50
0.0
 51
90.0
  0
ENDBLK
  5
C9A
100
AcDbEntity
  8
0
100
AcDbBlockEnd
  0
BLOCK
  5
CD9
100
AcDbEntity
  8
0
100
AcDbBlockBegin
  2
*D55
 70
     1
 10
0.0
 20
0.0
 30
0.0
  3
*D55
  1

  0
LINE
  5
CCF
100
AcDbEntity
  8
0
  6
BYBLOCK
 62
     0
100
AcDbLine
 10
132.75
 20
106.1
 30
0.0
 11
132.75
 21
112.7
 31
0.0
  0
LINE
  5
CD0
100
AcDbEntity
  8
0
  6
BYBLOCK
 62
     0
100
AcDbLine
 10
133.75
 20
100.85
 30
0.0
 11
133.75
 21
112.7
 31
0.0
  0
LINE
  5
CD1
100
AcDbEntity
  8
0
  6
BYBLOCK
 62
     0
100
AcDbLine
 10
135.75
 20
112.5
 30
0.0
 11
137.75
 21
112.5
 31
0.0
  0
LINE
  5
CD2
100
AcDbEntity
  8
0
  6
BYBLOCK
 62
     0
100
AcDbLine
 10
130.75
 20
112.5
 30
0.0
 11
125.6
 21
112.5
 31
0.0
  0
SOLID
  5
CD3
100
AcDbEntity
  8
0
  6
BYBLOCK
 62
     0
100
AcDbTrace
 10
135.75
 20
112.833333
 30
0.0
 11
135.75
 21
112.166667
 31
0.0
 12
133.75
 22
112.5
 32
0.0
 13
133.75
 23
112.5
 33
0.0
  0
SOLID
  5
CD4
100
AcDbEntity
  8
0
  6
BYBLOCK
 62
     0
100
AcDbTrace
 10
130.75
 20
112.833333
 30
0.0
 11
130.75
 21
112.166667
 31
0.0
 12
132.75
 22
112.5
 32
0.0
 13
132.75
 23
112.5
 33
0.0
  0
MTEXT
  5
CD5
100
AcDbEntity
  8
0
  6
BYBLOCK
 62
     0
100
AcDbMText
 10
125.25
 20
112.5
 30
0.0
 40
3.5
 41
0.0
 71
     5
 72
     1
  1
\A1;1
  0
POINT
  5
CD6
100
AcDbEntity
  8
DEFPOINTS
  6
BYBLOCK
 62
     0
100
AcDbPoint
 10
132.75
 20
106.0
 30
0.0
  0
POINT
  5
CD7
100
AcDbEntity
  8
DEFPOINTS
  6
BYBLOCK
 62
     0
100
AcDbPoint
 10
133.75
 20
100.75
 30
0.0
  0
POINT
  5
CD8
100
AcDbEntity
  8
DEFPOINTS
  6
BYBLOCK
 62
     0
100
AcDbPoint
 10
133.75
 20
112.5
 30
0.0
  0
ENDBLK
  5
CDA
100
AcDbEntity
  8
0
100
AcDbBlockEnd
  0
BLOCK
  5
CE6
100
AcDbEntity
  8
0
100
AcDbBlockBegin
  2
*D56
 70
     1
 10
0.0
 20
0.0
 30
0.0
  3
*D56
  1

  0
LINE
  5
CDC
100
AcDbEntity
  8
0
  6
BYBLOCK
 62
     0
100
AcDbLine
 10
132.75
 20
106.2
 30
0.0
 11
132.75
 21
119.2
 31
0.0
  0
LINE
  5
CDD
100
AcDbEntity
  8
0
  6
BYBLOCK
 62
     0
100
AcDbLine
 10
135.75
 20
106.1
 30
0.0
 11
135.75
 21
119.2
 31
0.0
  0
LINE
  5
CDE
100
AcDbEntity
  8
0
  6
BYBLOCK
 62
     0
100
AcDbLine
 10
137.75
 20
119.0
 30
0.0
 11
139.75
 21
119.0
 31
0.0
  0
LINE
  5
CDF
100
AcDbEntity
  8
0
  6
BYBLOCK
 62
     0
100
AcDbLine
 10
130.75
 20
119.0
 30
0.0
 11
124.55
 21
119.0
 31
0.0
  0
SOLID
  5
CE0
100
AcDbEntity
  8
0
  6
BYBLOCK
 62
     0
100
AcDbTrace
 10
137.75
 20
119.333333
 30
0.0
 11
137.75
 21
118.666667
 31
0.0
 12
135.75
 22
119.0
 32
0.0
 13
135.75
 23
119.0
 33
0.0
  0
SOLID
  5
CE1
100
AcDbEntity
  8
0
  6
BYBLOCK
 62
     0
100
AcDbTrace
 10
130.75
 20
119.333333
 30
0.0
 11
130.75
 21
118.666667
 31
0.0
 12
132.75
 22
119.0
 32
0.0
 13
132.75
 23
119.0
 33
0.0
  0
MTEXT
  5
CE2
100
AcDbEntity
  8
0
  6
BYBLOCK
 62
     0
100
AcDbMText
 10
123.75
 20
119.0
 30
0.0
 40
3.5
 41
0.0
 71
     5
 72
     1
  1
\A1;3
  0
POINT
  5
CE3
100
AcDbEntity
  8
DEFPOINTS
  6
BYBLOCK
 62
     0
100
AcDbPoint
 10
132.75
 20
106.1
 30
0.0
  0
POINT
  5
CE4
100
AcDbEntity
  8
DEFPOINTS
  6
BYBLOCK
 62
     0
100
AcDbPoint
 10
135.75
 20
106.0
 30
0.0
  0
POINT
  5
CE5
100
AcDbEntity
  8
DEFPOINTS
  6
BYBLOCK
 62
     0
100
AcDbPoint
 10
135.75
 20
119.0
 30
0.0
  0
ENDBLK
  5
CE7
100
AcDbEntity
  8
0
100
AcDbBlockEnd
  0
BLOCK
  5
CF3
100
AcDbEntity
  8
0
100
AcDbBlockBegin
  2
*D57
 70
     1
 10
0.0
 20
0.0
 30
0.0
  3
*D57
  1

  0
LINE
  5
CE9
100
AcDbEntity
  8
0
  6
BYBLOCK
 62
     0
100
AcDbLine
 10
135.75
 20
106.2
 30
0.0
 11
135.75
 21
121.45
 31
0.0
  0
LINE
  5
CEA
100
AcDbEntity
  8
0
  6
BYBLOCK
 62
     0
100
AcDbLine
 10
158.75
 20
105.1
 30
0.0
 11
158.75
 21
121.45
 31
0.0
  0
LINE
  5
CEB
100
AcDbEntity
  8
0
  6
BYBLOCK
 62
     0
100
AcDbLine
 10
137.75
 20
121.25
 30
0.0
 11
144.95
 21
121.25
 31
0.0
  0
LINE
  5
CEC
100
AcDbEntity
  8
0
  6
BYBLOCK
 62
     0
100
AcDbLine
 10
156.75
 20
121.25
 30
0.0
 11
148.55
 21
121.25
 31
0.0
  0
SOLID
  5
CED
100
AcDbEntity
  8
0
  6
BYBLOCK
 62
     0
100
AcDbTrace
 10
137.75
 20
121.583333
 30
0.0
 11
137.75
 21
120.916667
 31
0.0
 12
135.75
 22
121.25
 32
0.0
 13
135.75
 23
121.25
 33
0.0
  0
SOLID
  5
CEE
100
AcDbEntity
  8
0
  6
BYBLOCK
 62
     0
100
AcDbTrace
 10
156.75
 20
121.583333
 30
0.0
 11
156.75
 21
120.916667
 31
0.0
 12
158.75
 22
121.25
 32
0.0
 13
158.75
 23
121.25
 33
0.0
  0
MTEXT
  5
CEF
100
AcDbEntity
  8
0
  6
BYBLOCK
 62
     0
100
AcDbMText
 10
146.75
 20
121.25
 30
0.0
 40
3.5
 41
0.0
 71
     5
 72
     1
  1
\A1;23
  0
POINT
  5
CF0
100
AcDbEntity
  8
DEFPOINTS
  6
BYBLOCK
 62
     0
100
AcDbPoint
 10
135.75
 20
106.1
 30
0.0
  0
POINT
  5
CF1
100
AcDbEntity
  8
DEFPOINTS
  6
BYBLOCK
 62
     0
100
AcDbPoint
 10
158.75
 20
105.0
 30
0.0
  0
POINT
  5
CF2
100
AcDbEntity
  8
DEFPOINTS
  6
BYBLOCK
 62
     0
100
AcDbPoint
 10
158.75
 20
121.25
 30
0.0
  0
ENDBLK
  5
CF4
100
AcDbEntity
  8
0
100
AcDbBlockEnd
  0
BLOCK
  5
D00
100
AcDbEntity
  8
0
100
AcDbBlockBegin
  2
*D58
 70
     1
 10
0.0
 20
0.0
 30
0.0
  3
*D58
  1

  0
LINE
  5
CF6
100
AcDbEntity
  8
0
  6
BYBLOCK
 62
     0
100
AcDbLine
 10
158.75
 20
105.2
 30
0.0
 11
158.75
 21
118.2
 31
0.0
  0
LINE
  5
CF7
100
AcDbEntity
  8
0
  6
BYBLOCK
 62
     0
100
AcDbLine
 10
171.75
 20
103.1
 30
0.0
 11
171.75
 21
118.2
 31
0.0
  0
LINE
  5
CF8
100
AcDbEntity
  8
0
  6
BYBLOCK
 62
     0
100
AcDbLine
 10
160.75
 20
118.0
 30
0.0
 11
164.1
 21
118.0
 31
0.0
  0
LINE
  5
CF9
100
AcDbEntity
  8
0
  6
BYBLOCK
 62
     0
100
AcDbLine
 10
169.75
 20
118.0
 30
0.0
 11
167.4
 21
118.0
 31
0.0
  0
SOLID
  5
CFA
100
AcDbEntity
  8
0
  6
BYBLOCK
 62
     0
100
AcDbTrace
 10
160.75
 20
118.333333
 30
0.0
 11
160.75
 21
117.666667
 31
0.0
 12
158.75
 22
118.0
 32
0.0
 13
158.75
 23
118.0
 33
0.0
  0
SOLID
  5
CFB
100
AcDbEntity
  8
0
  6
BYBLOCK
 62
     0
100
AcDbTrace
 10
169.75
 20
118.333333
 30
0.0
 11
169.75
 21
117.666667
 31
0.0
 12
171.75
 22
118.0
 32
0.0
 13
171.75
 23
118.0
 33
0.0
  0
MTEXT
  5
CFC
100
AcDbEntity
  8
0
  6
BYBLOCK
 62
     0
100
AcDbMText
 10
165.75
 20
118.0
 30
0.0
 40
3.5
 41
0.0
 71
     5
 72
     1
  1
\A1;13
  0
POINT
  5
CFD
100
AcDbEntity
  8
DEFPOINTS
  6
BYBLOCK
 62
     0
100
AcDbPoint
 10
158.75
 20
105.1
 30
0.0
  0
POINT
  5
CFE
100
AcDbEntity
  8
DEFPOINTS
  6
BYBLOCK
 62
     0
100
AcDbPoint
 10
171.75
 20
103.0
 30
0.0
  0
POINT
  5
CFF
100
AcDbEntity
  8
DEFPOINTS
  6
BYBLOCK
 62
     0
100
AcDbPoint
 10
171.75
 20
118.0
 30
0.0
  0
ENDBLK
  5
D01
100
AcDbEntity
  8
0
100
AcDbBlockEnd
  0
BLOCK
  5
D0D
100
AcDbEntity
  8
0
100
AcDbBlockBegin
  2
*D59
 70
     1
 10
0.0
 20
0.0
 30
0.0
  3
*D59
  1

  0
LINE
  5
D03
100
AcDbEntity
  8
0
  6
BYBLOCK
 62
     0
100
AcDbLine
 10
132.75
 20
106.3
 30
0.0
 11
132.75
 21
125.45
 31
0.0
  0
LINE
  5
D04
100
AcDbEntity
  8
0
  6
BYBLOCK
 62
     0
100
AcDbLine
 10
171.75
 20
103.1
 30
0.0
 11
171.75
 21
125.45
 31
0.0
  0
LINE
  5
D05
100
AcDbEntity
  8
0
  6
BYBLOCK
 62
     0
100
AcDbLine
 10
134.75
 20
125.25
 30
0.0
 11
151.0
 21
125.25
 31
0.0
  0
LINE
  5
D06
100
AcDbEntity
  8
0
  6
BYBLOCK
 62
     0
100
AcDbLine
 10
169.75
 20
125.25
 30
0.0
 11
154.5
 21
125.25
 31
0.0
  0
SOLID
  5
D07
100
AcDbEntity
  8
0
  6
BYBLOCK
 62
     0
100
AcDbTrace
 10
134.75
 20
125.583333
 30
0.0
 11
134.75
 21
124.916667
 31
0.0
 12
132.75
 22
125.25
 32
0.0
 13
132.75
 23
125.25
 33
0.0
  0
SOLID
  5
D08
100
AcDbEntity
  8
0
  6
BYBLOCK
 62
     0
100
AcDbTrace
 10
169.75
 20
125.583333
 30
0.0
 11
169.75
 21
124.916667
 31
0.0
 12
171.75
 22
125.25
 32
0.0
 13
171.75
 23
125.25
 33
0.0
  0
MTEXT
  5
D09
100
AcDbEntity
  8
0
  6
BYBLOCK
 62
     0
100
AcDbMText
 10
152.75
 20
125.25
 30
0.0
 40
3.5
 41
0.0
 71
     5
 72
     1
  1
\A1;39
  0
POINT
  5
D0A
100
AcDbEntity
  8
DEFPOINTS
  6
BYBLOCK
 62
     0
100
AcDbPoint
 10
132.75
 20
106.2
 30
0.0
  0
POINT
  5
D0B
100
AcDbEntity
  8
DEFPOINTS
  6
BYBLOCK
 62
     0
100
AcDbPoint
 10
171.75
 20
103.0
 30
0.0
  0
POINT
  5
D0C
100
AcDbEntity
  8
DEFPOINTS
  6
BYBLOCK
 62
     0
100
AcDbPoint
 10
171.75
 20
125.25
 30
0.0
  0
ENDBLK
  5
D0E
100
AcDbEntity
  8
0
100
AcDbBlockEnd
  0
BLOCK
  5
D1B
100
AcDbEntity
  8
0
100
AcDbBlockBegin
  2
*D60
 70
     1
 10
0.0
 20
0.0
 30
0.0
  3
*D60
  1

  0
LINE
  5
D10
100
AcDbEntity
  8
0
  6
BYBLOCK
 62
     0
100
AcDbLine
 10
132.65
 20
100.75
 30
0.0
 11
118.65
 21
100.75
 31
0.0
  0
LINE
  5
D11
100
AcDbEntity
  8
0
  6
BYBLOCK
 62
     0
100
AcDbLine
 10
132.65
 20
99.25
 30
0.0
 11
118.65
 21
99.25
 31
0.0
  0
LINE
  5
D12
100
AcDbEntity
  8
0
  6
BYBLOCK
 62
     0
100
AcDbLine
 10
118.85
 20
97.25
 30
0.0
 11
118.85
 21
95.25
 31
0.0
  0
LINE
  5
D13
100
AcDbEntity
  8
0
  6
BYBLOCK
 62
     0
100
AcDbLine
 10
118.85
 20
102.75
 30
0.0
 11
118.85
 21
105.0
 31
0.0
  0
LINE
  5
D14
100
AcDbEntity
  8
0
  6
BYBLOCK
 62
     0
100
AcDbLine
 10
118.85
 20
105.0
 30
0.0
 11
120.85
 21
105.0
 31
0.0
  0
SOLID
  5
D15
100
AcDbEntity
  8
0
  6
BYBLOCK
 62
     0
100
AcDbTrace
 10
118.516667
 20
97.25
 30
0.0
 11
119.183333
 21
97.25
 31
0.0
 12
118.85
 22
99.25
 32
0.0
 13
118.85
 23
99.25
 33
0.0
  0
SOLID
  5
D16
100
AcDbEntity
  8
0
  6
BYBLOCK
 62
     0
100
AcDbTrace
 10
118.516667
 20
102.75
 30
0.0
 11
119.183333
 21
102.75
 31
0.0
 12
118.85
 22
100.75
 32
0.0
 13
118.85
 23
100.75
 33
0.0
  0
MTEXT
  5
D17
100
AcDbEntity
  8
0
  6
BYBLOCK
 62
     0
100
AcDbMText
 10
123.0
 20
105.0
 30
0.0
 40
3.5
 41
0.0
 71
     5
 72
     1
  1
\A1;1.5
  0
POINT
  5
D18
100
AcDbEntity
  8
DEFPOINTS
  6
BYBLOCK
 62
     0
100
AcDbPoint
 10
132.75
 20
100.75
 30
0.0
  0
POINT
  5
D19
100
AcDbEntity
  8
DEFPOINTS
  6
BYBLOCK
 62
     0
100
AcDbPoint
 10
132.75
 20
99.25
 30
0.0
  0
POINT
  5
D1A
100
AcDbEntity
  8
DEFPOINTS
  6
BYBLOCK
 62
     0
100
AcDbPoint
 10
118.85
 20
99.25
 30
0.0
  0
ENDBLK
  5
D1C
100
AcDbEntity
  8
0
100
AcDbBlockEnd
  0
BLOCK
  5
D26
100
AcDbEntity
  8
0
100
AcDbBlockBegin
  2
*D61
 70
     1
 10
0.0
 20
0.0
 30
0.0
  3
*D61
  1

  0
LINE
  5
D1E
100
AcDbEntity
  8
0
  6
BYBLOCK
 62
     0
100
AcDbLine
 10
90.5
 20
112.0
 30
0.0
 11
92.5
 21
112.0
 31
0.0
  0
LINE
  5
D1F
100
AcDbEntity
  8
0
  6
BYBLOCK
 62
     0
100
AcDbLine
 10
92.5
 20
112.0
 30
0.0
 11
100.020726
 21
105.314911
 31
0.0
  0
MTEXT
  5
D20
100
AcDbEntity
  8
0
  6
BYBLOCK
 62
     0
100
AcDbMText
 10
87.75
 20
112.0
 30
0.0
 40
3.5
 41
0.0
 71
     5
 72
     1
  1
\A1;\U+220512
  0
SOLID
  5
D21
100
AcDbEntity
  8
0
  6
BYBLOCK
 62
     0
100
AcDbTrace
 10
100.24218
 20
105.564047
 30
0.0
 11
99.799271
 21
105.065774
 31
0.0
 12
101.515544
 22
103.986183
 32
0.0
 13
101.515544
 23
103.986183
 33
0.0
  0
LINE
  5
D22
100
AcDbEntity
  8
0
  6
BYBLOCK
 62
     0
100
AcDbLine
 10
105.9
 20
100.0
 30
0.0
 11
106.1
 21
100.0
 31
0.0
  0
LINE
  5
D23
100
AcDbEntity
  8
0
  6
BYBLOCK
 62
     0
100
AcDbLine
 10
106.0
 20
99.9
 30
0.0
 11
106.0
 21
100.1
 31
0.0
  0
POINT
  5
D24
100
AcDbEntity
  8
DEFPOINTS
  6
BYBLOCK
 62
     0
100
AcDbPoint
 10
101.515544
 20
103.986183
 30
0.0
  0
POINT
  5
D25
100
AcDbEntity
  8
DEFPOINTS
  6
BYBLOCK
 62
     0
100
AcDbPoint
 10
110.484456
 20
96.013817
 30
0.0
  0
ENDBLK
  5
D27
100
AcDbEntity
  8
0
100
AcDbBlockEnd
  0
BLOCK
  5
D31
100
AcDbEntity
  8
0
100
AcDbBlockBegin
  2
*D62
 70
     1
 10
0.0
 20
0.0
 30
0.0
  3
*D62
  1

  0
LINE
  5
D29
100
AcDbEntity
  8
0
  6
BYBLOCK
 62
     0
100
AcDbLine
 10
183.5
 20
112.5
 30
0.0
 11
185.5
 21
112.5
 31
0.0
  0
LINE
  5
D2A
100
AcDbEntity
  8
0
  6
BYBLOCK
 62
     0
100
AcDbLine
 10
185.5
 20
112.5
 30
0.0
 11
189.034483
 21
106.799222
 31
0.0
  0
MTEXT
  5
D2B
100
AcDbEntity
  8
0
  6
BYBLOCK
 62
     0
100
AcDbMText
 10
180.75
 20
112.5
 30
0.0
 40
3.5
 41
0.0
 71
     5
 72
     1
  1
\A1;\U+220512
  0
SOLID
  5
D2C
100
AcDbEntity
  8
0
  6
BYBLOCK
 62
     0
100
AcDbTrace
 10
189.317784
 20
106.974868
 30
0.0
 11
188.751182
 21
106.623575
 31
0.0
 12
190.088362
 22
105.099416
 32
0.0
 13
190.088362
 23
105.099416
 33
0.0
  0
LINE
  5
D2D
100
AcDbEntity
  8
0
  6
BYBLOCK
 62
     0
100
AcDbLine
 10
193.15
 20
100.0
 30
0.0
 11
193.35
 21
100.0
 31
0.0
  0
LINE
  5
D2E
100
AcDbEntity
  8
0
  6
BYBLOCK
 62
     0
100
AcDbLine
 10
193.25
 20
99.9
 30
0.0
 11
193.25
 21
100.1
 31
0.0
  0
POINT
  5
D2F
100
AcDbEntity
  8
DEFPOINTS
  6
BYBLOCK
 62
     0
100
AcDbPoint
 10
190.088362
 20
105.099416
 30
0.0
  0
POINT
  5
D30
100
AcDbEntity
  8
DEFPOINTS
  6
BYBLOCK
 62
     0
100
AcDbPoint
 10
196.411638
 20
94.900584
 30
0.0
  0
ENDBLK
  5
D32
100
AcDbEntity
  8
0
100
AcDbBlockEnd
  0
BLOCK
  5
D3C
100
AcDbEntity
  8
0
100
AcDbBlockBegin
  2
*D63
 70
     1
 10
0.0
 20
0.0
 30
0.0
  3
*D63
  1

  0
LINE
  5
D34
100
AcDbEntity
  8
0
  6
BYBLOCK
 62
     0
100
AcDbLine
 10
182.5
 20
107.0
 30
0.0
 11
184.5
 21
107.0
 31
0.0
  0
LINE
  5
D35
100
AcDbEntity
  8
0
  6
BYBLOCK
 62
     0
100
AcDbLine
 10
184.5
 20
107.0
 30
0.0
 11
187.783918
 21
104.372865
 31
0.0
  0
MTEXT
  5
D36
100
AcDbEntity
  8
0
  6
BYBLOCK
 62
     0
100
AcDbMText
 10
179.75
 20
107.0
 30
0.0
 40
3.5
 41
0.0
 71
     5
 72
     1
  1
\A1;\U+220510
  0
SOLID
  5
D37
100
AcDbEntity
  8
0
  6
BYBLOCK
 62
     0
100
AcDbTrace
 10
187.99215
 20
104.633155
 30
0.0
 11
187.575687
 21
104.112576
 31
0.0
 12
189.345656
 22
103.123475
 32
0.0
 13
189.345656
 23
103.123475
 33
0.0
  0
LINE
  5
D38
100
AcDbEntity
  8
0
  6
BYBLOCK
 62
     0
100
AcDbLine
 10
193.15
 20
100.0
 30
0.0
 11
193.35
 21
100.0
 31
0.0
  0
LINE
  5
D39
100
AcDbEntity
  8
0
  6
BYBLOCK
 62
     0
100
AcDbLine
 10
193.25
 20
99.9
 30
0.0
 11
193.25
 21
100.1
 31
0.0
  0
POINT
  5
D3A
100
AcDbEntity
  8
DEFPOINTS
  6
BYBLOCK
 62
     0
100
AcDbPoint
 10
189.345656
 20
103.123475
 30
0.0
  0
POINT
  5
D3B
100
AcDbEntity
  8
DEFPOINTS
  6
BYBLOCK
 62
     0
100
AcDbPoint
 10
197.154344
 20
96.876525
 30
0.0
  0
ENDBLK
  5
D3D
100
AcDbEntity
  8
0
100
AcDbBlockEnd
  0
BLOCK
  5
D71
100
AcDbEntity
  8
0
100
AcDbBlockBegin
  2
A$C0BA56306
 70
     0
 10
0.0
 20
0.0
 30
0.0
  3
A$C0BA56306
  1

  0
DIMENSION
  5
D3F
100
AcDbEntity
  8
0
100
AcDbDimension
  2
*D59
 10
96.35
 20
35.25
 30
0.0
 11
77.35
 21
35.25
 31
0.0
 12
-75.4
 22
-90.0
 32
0.0
 70
   128
  3
STANDARD
100
AcDbAlignedDimension
 13
57.35
 23
16.2
 33
0.0
 14
96.35
 24
13.0
 34
0.0
100
AcDbRotatedDimension
1001
ACAD
1000
DSTYLE
1002
{
1070
    78
1070
     8
1070
   288
1070
     1
1070
   284
1070
     8
1070
   140
1040
2.0
1070
    73
1070
     0
1070
   272
1070
     2
1070
   147
1040
0.1
1070
    42
1040
0.1
1070
    44
1040
0.2
1070
    43
1040
0.4
1070
   271
1070
     2
1070
   141
1040
0.1
1070
    41
1040
2.0
1002
}
  0
DIMENSION
  5
D40
100
AcDbEntity
  8
0
100
AcDbDimension
  2
*D57
 10
83.35
 20
31.25
 30
0.0
 11
71.35
 21
31.25
 31
0.0
 12
-75.4
 22
-90.0
 32
0.0
 70
   128
  3
STANDARD
100
AcDbAlignedDimension
 13
60.35
 23
16.1
 33
0.0
 14
83.35
 24
15.0
 34
0.0
100
AcDbRotatedDimension
1001
ACAD
1000
DSTYLE
1002
{
1070
    78
1070
     8
1070
   288
1070
     1
1070
   284
1070
     8
1070
   140
1040
2.0
1070
    73
1070
     0
1070
   272
1070
     2
1070
   147
1040
0.1
1070
    42
1040
0.1
1070
    44
1040
0.2
1070
    43
1040
0.4
1070
   271
1070
     2
1070
   141
1040
0.1
1070
    41
1040
2.0
1002
}
  0
LINE
  5
D41
100
AcDbEntity
  8
3
100
AcDbLine
 10
83.35
 20
15.0
 30
0.0
 11
60.35
 21
15.0
 31
0.0
  0
LINE
  5
D42
100
AcDbEntity
  8
3
100
AcDbLine
 10
83.35
 20
5.0
 30
0.0
 11
60.35
 21
5.0
 31
0.0
  0
LINE
  5
D43
100
AcDbEntity
  8
1
100
AcDbLine
 10
54.500001
 20
10.0
 30
0.0
 11
99.85
 21
10.0
 31
0.0
  0
DIMENSION
  5
D44
100
AcDbEntity
  8
0
100
AcDbDimension
  2
*D61
 10
35.084456
 20
6.013817
 30
0.0
 11
12.35
 21
22.0
 31
0.0
 12
-75.4
 22
-90.0
 32
0.0
 70
   131
  3
STANDARD
100
AcDbDiametricDimension
 15
26.115544
 25
13.986183
 35
0.0
 40
0.0
1001
ACAD
1000
DSTYLE
1002
{
1070
    78
1070
     8
1070
   288
1070
     1
1070
   284
1070
     8
1070
   140
1040
2.0
1070
    73
1070
     0
1070
   272
1070
     2
1070
   147
1040
0.1
1070
    42
1040
0.1
1070
    44
1040
0.2
1070
    43
1040
0.4
1070
   271
1070
     2
1070
   141
1040
0.1
1070
    41
1040
2.0
1002
}
  0
DIMENSION
  5
D45
100
AcDbEntity
  8
0
100
AcDbDimension
  2
*D60
 10
43.45
 20
9.25
 30
0.0
 11
47.6
 21
15.0
 31
0.0
 12
-75.4
 22
-90.0
 32
0.0
 70
   128
  3
STANDARD
100
AcDbAlignedDimension
 13
57.35
 23
10.75
 33
0.0
 14
57.35
 24
9.25
 34
0.0
 50
90.0
100
AcDbRotatedDimension
1001
ACAD
1000
DSTYLE
1002
{
1070
    78
1070
     8
1070
   288
1070
     1
1070
   284
1070
     8
1070
   140
1040
2.0
1070
    73
1070
     0
1070
   272
1070
     2
1070
   147
1040
0.1
1070
    42
1040
0.1
1070
    44
1040
0.2
1070
    43
1040
0.4
1070
   271
1070
     2
1070
   141
1040
0.1
1070
    41
1040
2.0
1002
}
  0
CIRCLE
  5
D46
100
AcDbEntity
  8
3
100
AcDbCircle
 10
30.6
 20
10.0
 30
0.0
 40
6.0
  0
LINE
  5
D47
100
AcDbEntity
  8
1
100
AcDbLine
 10
30.6
 20
19.75
 30
0.0
 11
30.6
 21
0.0
 31
0.0
  0
LINE
  5
D48
100
AcDbEntity
  8
3
100
AcDbLine
 10
57.35
 20
4.0
 30
0.0
 11
57.35
 21
9.25
 31
0.0
  0
LINE
  5
D49
100
AcDbEntity
  8
3
100
AcDbLine
 10
60.35
 20
10.0
 30
0.0
 11
60.35
 21
4.0
 31
0.0
  0
LINE
  5
D4A
100
AcDbEntity
  8
3
100
AcDbLine
 10
60.35
 20
4.0
 30
0.0
 11
57.35
 21
4.0
 31
0.0
  0
LINE
  5
D4B
100
AcDbEntity
  8
1
100
AcDbLine
 10
40.500001
 20
10.0
 30
0.0
 11
19.85
 21
10.0
 31
0.0
  0
TEXT
  5
D4C
100
AcDbEntity
  8
0
100
AcDbText
 10
-0.4
 20
33.75
 30
0.0
 40
3.5
  1
M8
 41
0.6
100
AcDbText
  0
LINE
  5
D4D
100
AcDbEntity
  8
3
100
AcDbLine
 10
36.55294
 20
9.25
 30
0.0
 11
24.64706
 21
9.25
 31
0.0
  0
LINE
  5
D4E
100
AcDbEntity
  8
3
100
AcDbLine
 10
36.552941
 20
10.75
 30
0.0
 11
24.64706
 21
10.75
 31
0.0
  0
DIMENSION
  5
D4F
100
AcDbEntity
  8
0
100
AcDbDimension
  2
*D56
 10
60.35
 20
29.0
 30
0.0
 11
48.35
 21
29.0
 31
0.0
 12
-75.4
 22
-90.0
 32
0.0
 70
   128
  3
STANDARD
100
AcDbAlignedDimension
 13
57.35
 23
16.1
 33
0.0
 14
60.35
 24
16.0
 34
0.0
100
AcDbRotatedDimension
1001
ACAD
1000
DSTYLE
1002
{
1070
    78
1070
     8
1070
   288
1070
     1
1070
   284
1070
     8
1070
   140
1040
2.0
1070
    73
1070
     0
1070
   272
1070
     2
1070
   147
1040
0.1
1070
    42
1040
0.1
1070
    44
1040
0.2
1070
    43
1040
0.4
1070
   271
1070
     2
1070
   141
1040
0.1
1070
    41
1040
2.0
1002
}
  0
DIMENSION
  5
D50
100
AcDbEntity
  8
0
100
AcDbDimension
  2
*D55
 10
58.35
 20
22.5
 30
0.0
 11
49.85
 21
22.5
 31
0.0
 12
-75.4
 22
-90.0
 32
0.0
 70
   128
  3
STANDARD
100
AcDbAlignedDimension
 13
57.35
 23
16.0
 33
0.0
 14
58.35
 24
10.75
 34
0.0
100
AcDbRotatedDimension
1001
ACAD
1000
DSTYLE
1002
{
1070
    78
1070
     8
1070
   288
1070
     1
1070
   284
1070
     8
1070
   140
1040
2.0
1070
    73
1070
     0
1070
   272
1070
     2
1070
   147
1040
0.1
1070
    42
1040
0.1
1070
    44
1040
0.2
1070
    43
1040
0.4
1070
   271
1070
     2
1070
   141
1040
0.1
1070
    41
1040
2.0
1002
}
  0
LINE
  5
D51
100
AcDbEntity
  8
3
100
AcDbLine
 10
60.35
 20
10.0
 30
0.0
 11
60.35
 21
16.0
 31
0.0
  0
LINE
  5
D52
100
AcDbEntity
  8
3
100
AcDbLine
 10
57.35
 20
16.0
 30
0.0
 11
57.35
 21
10.75
 31
0.0
  0
LINE
  5
D53
100
AcDbEntity
  8
3
100
AcDbLine
 10
57.35
 20
10.75
 30
0.0
 11
58.35
 21
10.75
 31
0.0
  0
LINE
  5
D54
100
AcDbEntity
  8
3
100
AcDbLine
 10
58.35
 20
10.75
 30
0.0
 11
58.35
 21
10.0
 31
0.0
  0
LINE
  5
D55
100
AcDbEntity
  8
3
100
AcDbLine
 10
58.35
 20
9.25
 30
0.0
 11
58.35
 21
10.0
 31
0.0
  0
LINE
  5
D56
100
AcDbEntity
  8
3
100
AcDbLine
 10
57.35
 20
9.25
 30
0.0
 11
58.35
 21
9.25
 31
0.0
  0
LINE
  5
D57
100
AcDbEntity
  8
3
100
AcDbLine
 10
60.35
 20
16.0
 30
0.0
 11
57.35
 21
16.0
 31
0.0
  0
DIMENSION
  5
D58
100
AcDbEntity
  8
0
100
AcDbDimension
  2
*D63
 10
121.754344
 20
6.876525
 30
0.0
 11
104.35
 21
17.0
 31
0.0
 12
-75.4
 22
-90.0
 32
0.0
 70
   131
  3
STANDARD
100
AcDbDiametricDimension
 15
113.945656
 25
13.123475
 35
0.0
 40
0.0
1001
ACAD
1000
DSTYLE
1002
{
1070
    78
1070
     8
1070
   288
1070
     1
1070
   284
1070
     8
1070
   140
1040
2.0
1070
    73
1070
     0
1070
   272
1070
     2
1070
   147
1040
0.1
1070
    42
1040
0.1
1070
    44
1040
0.2
1070
    43
1040
0.4
1070
   271
1070
     2
1070
   141
1040
0.1
1070
    41
1040
2.0
1002
}
  0
CIRCLE
  5
D59
100
AcDbEntity
  8
3
100
AcDbCircle
 10
117.85
 20
10.0
 30
0.0
 40
3.25
  0
CIRCLE
  5
D5A
100
AcDbEntity
  8
3
100
AcDbCircle
 10
117.85
 20
10.0
 30
0.0
 40
4.0
  0
CIRCLE
  5
D5B
100
AcDbEntity
  8
3
100
AcDbCircle
 10
117.85
 20
10.0
 30
0.0
 40
5.0
  0
DIMENSION
  5
D5C
100
AcDbEntity
  8
0
100
AcDbDimension
  2
*D62
 10
121.011638
 20
4.900584
 30
0.0
 11
105.35
 21
22.5
 31
0.0
 12
-75.4
 22
-90.0
 32
0.0
 70
   131
  3
STANDARD
100
AcDbDiametricDimension
 15
114.688362
 25
15.099416
 35
0.0
 40
0.0
1001
ACAD
1000
DSTYLE
1002
{
1070
    78
1070
     8
1070
   288
1070
     1
1070
   284
1070
     8
1070
   140
1040
2.0
1070
    73
1070
     0
1070
   272
1070
     2
1070
   147
1040
0.1
1070
    42
1040
0.1
1070
    44
1040
0.2
1070
    43
1040
0.4
1070
   271
1070
     2
1070
   141
1040
0.1
1070
    41
1040
2.0
1002
}
  0
LINE
  5
D5D
100
AcDbEntity
  8
1
100
AcDbLine
 10
117.85
 20
19.75
 30
0.0
 11
117.85
 21
0.0
 31
0.0
  0
CIRCLE
  5
D5E
100
AcDbEntity
  8
3
100
AcDbCircle
 10
117.85
 20
10.0
 30
0.0
 40
6.0
  0
LINE
  5
D5F
100
AcDbEntity
  8
3
100
AcDbLine
 10
96.35
 20
7.0
 30
0.0
 11
96.35
 21
10.0
 31
0.0
  0
LINE
  5
D60
100
AcDbEntity
  8
3
100
AcDbLine
 10
95.35
 20
6.0
 30
0.0
 11
95.35
 21
10.0
 31
0.0
  0
LINE
  5
D61
100
AcDbEntity
  8
3
100
AcDbLine
 10
83.35
 20
10.0
 30
0.0
 11
83.35
 21
6.0
 31
0.0
  0
LINE
  5
D62
100
AcDbEntity
  8
3
100
AcDbLine
 10
84.35
 20
6.0
 30
0.0
 11
84.35
 21
10.0
 31
0.0
  0
LINE
  5
D63
100
AcDbEntity
  8
3
100
AcDbLine
 10
83.35
 20
10.0
 30
0.0
 11
83.35
 21
5.0
 31
0.0
  0
LINE
  5
D64
100
AcDbEntity
  8
3
100
AcDbLine
 10
83.35
 20
6.0
 30
0.0
 11
95.35
 21
6.0
 31
0.0
  0
LINE
  5
D65
100
AcDbEntity
  8
3
100
AcDbLine
 10
84.35
 20
6.75
 30
0.0
 11
96.1
 21
6.75
 31
0.0
  0
LINE
  5
D66
100
AcDbEntity
  8
3
100
AcDbLine
 10
95.35
 20
6.0
 30
0.0
 11
96.35
 21
7.0
 31
0.0
  0
LINE
  5
D67
100
AcDbEntity
  8
1
100
AcDbLine
 10
127.750001
 20
10.0
 30
0.0
 11
107.1
 21
10.0
 31
0.0
  0
DIMENSION
  5
D68
100
AcDbEntity
  8
0
100
AcDbDimension
  2
*D58
 10
96.35
 20
28.0
 30
0.0
 11
90.35
 21
28.0
 31
0.0
 12
-75.4
 22
-90.0
 32
0.0
 70
   128
  3
STANDARD
100
AcDbAlignedDimension
 13
83.35
 23
15.1
 33
0.0
 14
96.35
 24
13.0
 34
0.0
100
AcDbRotatedDimension
1001
ACAD
1000
DSTYLE
1002
{
1070
    78
1070
     8
1070
   288
1070
     1
1070
   284
1070
     8
1070
   140
1040
2.0
1070
    73
1070
     0
1070
   272
1070
     2
1070
   147
1040
0.1
1070
    42
1040
0.1
1070
    44
1040
0.2
1070
    43
1040
0.4
1070
   271
1070
     2
1070
   141
1040
0.1
1070
    41
1040
2.0
1002
}
  0
LINE
  5
D69
100
AcDbEntity
  8
3
100
AcDbLine
 10
84.35
 20
13.25
 30
0.0
 11
96.1
 21
13.25
 31
0.0
  0
LINE
  5
D6A
100
AcDbEntity
  8
3
100
AcDbLine
 10
83.35
 20
14.0
 30
0.0
 11
95.35
 21
14.0
 31
0.0
  0
LINE
  5
D6B
100
AcDbEntity
  8
3
100
AcDbLine
 10
84.35
 20
14.0
 30
0.0
 11
84.35
 21
10.0
 31
0.0
  0
LINE
  5
D6C
100
AcDbEntity
  8
3
100
AcDbLine
 10
83.35
 20
10.0
 30
0.0
 11
83.35
 21
14.0
 31
0.0
  0
LINE
  5
D6D
100
AcDbEntity
  8
3
100
AcDbLine
 10
83.35
 20
10.0
 30
0.0
 11
83.35
 21
15.0
 31
0.0
  0
LINE
  5
D6E
100
AcDbEntity
  8
3
100
AcDbLine
 10
95.35
 20
14.0
 30
0.0
 11
95.35
 21
10.0
 31
0.0
  0
LINE
  5
D6F
100
AcDbEntity
  8
3
100
AcDbLine
 10
96.35
 20
13.0
 30
0.0
 11
96.35
 21
10.0
 31
0.0
  0
LINE
  5
D70
100
AcDbEntity
  8
3
100
AcDbLine
 10
95.35
 20
14.0
 30
0.0
 11
96.35
 21
13.0
 31
0.0
  0
ENDBLK
  5
D72
100
AcDbEntity
  8
0
100
AcDbBlockEnd
  0
BLOCK
  5
D75
100
AcDbEntity
  8
0
100
AcDbBlockBegin
  2
A$C38E150EC
 70
     0
 10
0.0
 20
0.0
 30
0.0
  3
A$C38E150EC
  1

  0
INSERT
  5
D74
100
AcDbEntity
  8
0
100
AcDbBlockReference
  2
A$C0BA56306
 10
-0.000001
 20
0.000001
 30
0.0
  0
ENDBLK
  5
D76
100
AcDbEntity
  8
0
100
AcDbBlockEnd
  0
BLOCK
  5
EF9
100
AcDbEntity
  8
0
100
AcDbBlockBegin
  2
A$C0E9D2FA7
 70
     0
 10
0.0
 20
0.0
 30
0.0
  3
A$C0E9D2FA7
  1

  0
INSERT
  5
EF8
100
AcDbEntity
  8
0
100
AcDbBlockReference
  2
A$C0BA56306
 10
-0.000001
 20
0.000001
 30
0.0
  0
ENDBLK
  5
EFA
100
AcDbEntity
  8
0
100
AcDbBlockEnd
  0
BLOCK
  5
100B
100
AcDbEntity
  8
0
100
AcDbBlockBegin
  2
*D85
 70
     1
 10
0.0
 20
0.0
 30
0.0
  3
*D85
  1

  0
LINE
  5
1003
100
AcDbEntity
  8
0
  6
BYBLOCK
 62
     0
100
AcDbLine
 10
245.85
 20
103.75
 30
0.0
 11
247.85
 21
103.75
 31
0.0
  0
LINE
  5
1004
100
AcDbEntity
  8
0
  6
BYBLOCK
 62
     0
100
AcDbLine
 10
247.85
 20
103.75
 30
0.0
 11
260.182455
 21
117.505432
 31
0.0
  0
MTEXT
  5
1005
100
AcDbEntity
  8
0
  6
BYBLOCK
 62
     0
100
AcDbMText
 10
244.35
 20
103.75
 30
0.0
 40
3.5
 41
0.0
 71
     5
 72
     1
  1
\A1;R1
  0
SOLID
  5
1006
100
AcDbEntity
  8
0
  6
BYBLOCK
 62
     0
100
AcDbTrace
 10
258.599175
 20
116.238808
 30
0.0
 11
259.095555
 21
115.793778
 31
0.0
 12
260.182455
 22
117.505432
 32
0.0
 13
260.182455
 23
117.505432
 33
0.0
  0
LINE
  5
1007
100
AcDbEntity
  8
0
  6
BYBLOCK
 62
     0
100
AcDbLine
 10
260.75
 20
118.250001
 30
0.0
 11
260.95
 21
118.250001
 31
0.0
  0
LINE
  5
1008
100
AcDbEntity
  8
0
  6
BYBLOCK
 62
     0
100
AcDbLine
 10
260.85
 20
118.150001
 30
0.0
 11
260.85
 21
118.350001
 31
0.0
  0
POINT
  5
1009
100
AcDbEntity
  8
DEFPOINTS
  6
BYBLOCK
 62
     0
100
AcDbPoint
 10
260.182455
 20
117.505432
 30
0.0
  0
POINT
  5
100A
100
AcDbEntity
  8
DEFPOINTS
  6
BYBLOCK
 62
     0
100
AcDbPoint
 10
260.85
 20
118.250001
 30
0.0
  0
ENDBLK
  5
100C
100
AcDbEntity
  8
0
100
AcDbBlockEnd
  0
BLOCK
  5
1018
100
AcDbEntity
  8
0
100
AcDbBlockBegin
  2
*D86
 70
     1
 10
0.0
 20
0.0
 30
0.0
  3
*D86
  1

  0
LINE
  5
100E
100
AcDbEntity
  8
0
  6
BYBLOCK
 62
     0
100
AcDbLine
 10
259.85
 20
135.15
 30
0.0
 11
259.85
 21
153.2
 31
0.0
  0
LINE
  5
100F
100
AcDbEntity
  8
0
  6
BYBLOCK
 62
     0
100
AcDbLine
 10
264.85
 20
135.15
 30
0.0
 11
264.85
 21
153.2
 31
0.0
  0
LINE
  5
1010
100
AcDbEntity
  8
0
  6
BYBLOCK
 62
     0
100
AcDbLine
 10
262.85
 20
153.0
 30
0.0
 11
261.85
 21
153.0
 31
0.0
  0
LINE
  5
1011
100
AcDbEntity
  8
0
  6
BYBLOCK
 62
     0
100
AcDbLine
 10
259.85
 20
153.0
 30
0.0
 11
253.9
 21
153.0
 31
0.0
  0
SOLID
  5
1012
100
AcDbEntity
  8
0
  6
BYBLOCK
 62
     0
100
AcDbTrace
 10
262.85
 20
153.333333
 30
0.0
 11
262.85
 21
152.666666
 31
0.0
 12
264.85
 22
153.0
 32
0.0
 13
264.85
 23
153.0
 33
0.0
  0
SOLID
  5
1013
100
AcDbEntity
  8
0
  6
BYBLOCK
 62
     0
100
AcDbTrace
 10
261.85
 20
153.333333
 30
0.0
 11
261.85
 21
152.666666
 31
0.0
 12
259.85
 22
153.0
 32
0.0
 13
259.85
 23
153.0
 33
0.0
  0
MTEXT
  5
1014
100
AcDbEntity
  8
0
  6
BYBLOCK
 62
     0
100
AcDbMText
 10
253.1
 20
153.0
 30
0.0
 40
3.5
 41
0.0
 71
     5
 72
     1
  1
\A1;5
  0
POINT
  5
1015
100
AcDbEntity
  8
DEFPOINTS
  6
BYBLOCK
 62
     0
100
AcDbPoint
 10
259.85
 20
135.05
 30
0.0
  0
POINT
  5
1016
100
AcDbEntity
  8
DEFPOINTS
  6
BYBLOCK
 62
     0
100
AcDbPoint
 10
264.85
 20
135.05
 30
0.0
  0
POINT
  5
1017
100
AcDbEntity
  8
DEFPOINTS
  6
BYBLOCK
 62
     0
100
AcDbPoint
 10
264.85
 20
153.0
 30
0.0
  0
ENDBLK
  5
1019
100
AcDbEntity
  8
0
100
AcDbBlockEnd
  0
BLOCK
  5
1023
100
AcDbEntity
  8
0
100
AcDbBlockBegin
  2
*D87
 70
     1
 10
0.0
 20
0.0
 30
0.0
  3
*D87
  1

  0
LINE
  5
101B
100
AcDbEntity
  8
0
  6
BYBLOCK
 62
     0
100
AcDbLine
 10
179.35
 20
137.5
 30
0.0
 11
181.35
 21
137.5
 31
0.0
  0
LINE
  5
101C
100
AcDbEntity
  8
0
  6
BYBLOCK
 62
     0
100
AcDbLine
 10
181.35
 20
137.5
 30
0.0
 11
198.616385
 21
130.349275
 31
0.0
  0
MTEXT
  5
101D
100
AcDbEntity
  8
0
  6
BYBLOCK
 62
     0
100
AcDbMText
 10
175.1
 20
137.5
 30
0.0
 40
3.5
 41
0.0
 71
     5
 72
     1
  1
\A1;\U+220512.2
  0
SOLID
  5
101E
100
AcDbEntity
  8
0
  6
BYBLOCK
 62
     0
100
AcDbTrace
 10
198.743927
 20
130.657243
 30
0.0
 11
198.488842
 21
130.041307
 31
0.0
 12
200.464191
 22
129.584022
 32
0.0
 13
200.464191
 23
129.584022
 33
0.0
  0
LINE
  5
101F
100
AcDbEntity
  8
0
  6
BYBLOCK
 62
     0
100
AcDbLine
 10
206.0
 20
127.25
 30
0.0
 11
206.2
 21
127.25
 31
0.0
  0
LINE
  5
1020
100
AcDbEntity
  8
0
  6
BYBLOCK
 62
     0
100
AcDbLine
 10
206.1
 20
127.15
 30
0.0
 11
206.1
 21
127.35
 31
0.0
  0
POINT
  5
1021
100
AcDbEntity
  8
DEFPOINTS
  6
BYBLOCK
 62
     0
100
AcDbPoint
 10
200.464191
 20
129.584022
 30
0.0
  0
POINT
  5
1022
100
AcDbEntity
  8
DEFPOINTS
  6
BYBLOCK
 62
     0
100
AcDbPoint
 10
211.735809
 20
124.915979
 30
0.0
  0
ENDBLK
  5
1024
100
AcDbEntity
  8
0
100
AcDbBlockEnd
  0
BLOCK
  5
102E
100
AcDbEntity
  8
0
100
AcDbBlockBegin
  2
*D88
 70
     1
 10
0.0
 20
0.0
 30
0.0
  3
*D88
  1

  0
LINE
  5
1026
100
AcDbEntity
  8
0
  6
BYBLOCK
 62
     0
100
AcDbLine
 10
181.6
 20
147.25
 30
0.0
 11
183.6
 21
147.25
 31
0.0
  0
LINE
  5
1027
100
AcDbEntity
  8
0
  6
BYBLOCK
 62
     0
100
AcDbLine
 10
183.6
 20
147.25
 30
0.0
 11
198.850129
 21
133.69433
 31
0.0
  0
MTEXT
  5
1028
100
AcDbEntity
  8
0
  6
BYBLOCK
 62
     0
100
AcDbMText
 10
177.3
 20
147.25
 30
0.0
 40
3.5
 41
0.0
 71
     5
 72
     1
  1
\A1;\U+220515.4
  0
SOLID
  5
1029
100
AcDbEntity
  8
0
  6
BYBLOCK
 62
     0
100
AcDbTrace
 10
199.071584
 20
133.943466
 30
0.0
 11
198.628675
 21
133.445193
 31
0.0
 12
200.344948
 22
132.365602
 32
0.0
 13
200.344948
 23
132.365602
 33
0.0
  0
LINE
  5
102A
100
AcDbEntity
  8
0
  6
BYBLOCK
 62
     0
100
AcDbLine
 10
206.0
 20
127.25
 30
0.0
 11
206.2
 21
127.25
 31
0.0
  0
LINE
  5
102B
100
AcDbEntity
  8
0
  6
BYBLOCK
 62
     0
100
AcDbLine
 10
206.1
 20
127.15
 30
0.0
 11
206.1
 21
127.35
 31
0.0
  0
POINT
  5
102C
100
AcDbEntity
  8
DEFPOINTS
  6
BYBLOCK
 62
     0
100
AcDbPoint
 10
200.344948
 20
132.365602
 30
0.0
  0
POINT
  5
102D
100
AcDbEntity
  8
DEFPOINTS
  6
BYBLOCK
 62
     0
100
AcDbPoint
 10
211.855052
 20
122.134399
 30
0.0
  0
ENDBLK
  5
102F
100
AcDbEntity
  8
0
100
AcDbBlockEnd
  0
BLOCK
  5
1039
100
AcDbEntity
  8
0
100
AcDbBlockBegin
  2
*D89
 70
     1
 10
0.0
 20
0.0
 30
0.0
  3
*D89
  1

  0
LINE
  5
1031
100
AcDbEntity
  8
0
  6
BYBLOCK
 62
     0
100
AcDbLine
 10
182.1
 20
156.75
 30
0.0
 11
184.1
 21
156.75
 31
0.0
  0
LINE
  5
1032
100
AcDbEntity
  8
0
  6
BYBLOCK
 62
     0
100
AcDbLine
 10
184.1
 20
156.75
 30
0.0
 11
198.926114
 21
136.86953
 31
0.0
  0
MTEXT
  5
1033
100
AcDbEntity
  8
0
  6
BYBLOCK
 62
     0
100
AcDbMText
 10
179.35
 20
156.75
 30
0.0
 40
3.5
 41
0.0
 71
     5
 72
     1
  1
\A1;\U+220520
  0
SOLID
  5
1034
100
AcDbEntity
  8
0
  6
BYBLOCK
 62
     0
100
AcDbTrace
 10
199.193323
 20
137.068804
 30
0.0
 11
198.658904
 21
136.670255
 31
0.0
 12
200.121761
 22
135.266275
 32
0.0
 13
200.121761
 23
135.266275
 33
0.0
  0
LINE
  5
1035
100
AcDbEntity
  8
0
  6
BYBLOCK
 62
     0
100
AcDbLine
 10
206.0
 20
127.25
 30
0.0
 11
206.2
 21
127.25
 31
0.0
  0
LINE
  5
1036
100
AcDbEntity
  8
0
  6
BYBLOCK
 62
     0
100
AcDbLine
 10
206.1
 20
127.15
 30
0.0
 11
206.1
 21
127.35
 31
0.0
  0
POINT
  5
1037
100
AcDbEntity
  8
DEFPOINTS
  6
BYBLOCK
 62
     0
100
AcDbPoint
 10
200.121761
 20
135.266275
 30
0.0
  0
POINT
  5
1038
100
AcDbEntity
  8
DEFPOINTS
  6
BYBLOCK
 62
     0
100
AcDbPoint
 10
212.078238
 20
119.233726
 30
0.0
  0
ENDBLK
  5
103A
100
AcDbEntity
  8
0
100
AcDbBlockEnd
  0
BLOCK
  5
1044
100
AcDbEntity
  8
0
100
AcDbBlockBegin
  2
*D90
 70
     1
 10
0.0
 20
0.0
 30
0.0
  3
*D90
  1

  0
LINE
  5
103C
100
AcDbEntity
  8
0
  6
BYBLOCK
 62
     0
100
AcDbLine
 10
305.1
 20
98.75
 30
0.0
 11
303.1
 21
98.75
 31
0.0
  0
LINE
  5
103D
100
AcDbEntity
  8
0
  6
BYBLOCK
 62
     0
100
AcDbLine
 10
303.1
 20
98.75
 30
0.0
 11
289.440016
 21
117.44261
 31
0.0
  0
MTEXT
  5
103E
100
AcDbEntity
  8
0
  6
BYBLOCK
 62
     0
100
AcDbMText
 10
306.6
 20
98.75
 30
0.0
 40
3.5
 41
0.0
 71
     5
 72
     1
  1
\A1;R1
  0
SOLID
  5
103F
100
AcDbEntity
  8
0
  6
BYBLOCK
 62
     0
100
AcDbTrace
 10
290.88918
 20
116.0245
 30
0.0
 11
290.350919
 21
115.631155
 31
0.0
 12
289.440016
 22
117.44261
 32
0.0
 13
289.440016
 23
117.44261
 33
0.0
  0
LINE
  5
1040
100
AcDbEntity
  8
0
  6
BYBLOCK
 62
     0
100
AcDbLine
 10
288.75
 20
118.250001
 30
0.0
 11
288.95
 21
118.250001
 31
0.0
  0
LINE
  5
1041
100
AcDbEntity
  8
0
  6
BYBLOCK
 62
     0
100
AcDbLine
 10
288.85
 20
118.150001
 30
0.0
 11
288.85
 21
118.350001
 31
0.0
  0
POINT
  5
1042
100
AcDbEntity
  8
DEFPOINTS
  6
BYBLOCK
 62
     0
100
AcDbPoint
 10
289.440016
 20
117.44261
 30
0.0
  0
POINT
  5
1043
100
AcDbEntity
  8
DEFPOINTS
  6
BYBLOCK
 62
     0
100
AcDbPoint
 10
288.85
 20
118.250001
 30
0.0
  0
ENDBLK
  5
1045
100
AcDbEntity
  8
0
100
AcDbBlockEnd
  0
BLOCK
  5
1051
100
AcDbEntity
  8
0
100
AcDbBlockBegin
  2
*D91
 70
     1
 10
0.0
 20
0.0
 30
0.0
  3
*D91
  1

  0
LINE
  5
1047
100
AcDbEntity
  8
0
  6
BYBLOCK
 62
     0
100
AcDbLine
 10
259.85
 20
136.35
 30
0.0
 11
259.85
 21
164.7
 31
0.0
  0
LINE
  5
1048
100
AcDbEntity
  8
0
  6
BYBLOCK
 62
     0
100
AcDbLine
 10
289.85
 20
136.35
 30
0.0
 11
289.85
 21
164.7
 31
0.0
  0
LINE
  5
1049
100
AcDbEntity
  8
0
  6
BYBLOCK
 62
     0
100
AcDbLine
 10
261.85
 20
164.5
 30
0.0
 11
272.3
 21
164.5
 31
0.0
  0
LINE
  5
104A
100
AcDbEntity
  8
0
  6
BYBLOCK
 62
     0
100
AcDbLine
 10
287.85
 20
164.5
 30
0.0
 11
275.9
 21
164.5
 31
0.0
  0
SOLID
  5
104B
100
AcDbEntity
  8
0
  6
BYBLOCK
 62
     0
100
AcDbTrace
 10
261.85
 20
164.833333
 30
0.0
 11
261.85
 21
164.166666
 31
0.0
 12
259.85
 22
164.5
 32
0.0
 13
259.85
 23
164.5
 33
0.0
  0
SOLID
  5
104C
100
AcDbEntity
  8
0
  6
BYBLOCK
 62
     0
100
AcDbTrace
 10
287.85
 20
164.833333
 30
0.0
 11
287.85
 21
164.166666
 31
0.0
 12
289.85
 22
164.5
 32
0.0
 13
289.85
 23
164.5
 33
0.0
  0
MTEXT
  5
104D
100
AcDbEntity
  8
0
  6
BYBLOCK
 62
     0
100
AcDbMText
 10
274.1
 20
164.5
 30
0.0
 40
3.5
 41
0.0
 71
     5
 72
     1
  1
\A1;30
  0
POINT
  5
104E
100
AcDbEntity
  8
DEFPOINTS
  6
BYBLOCK
 62
     0
100
AcDbPoint
 10
259.85
 20
136.25
 30
0.0
  0
POINT
  5
104F
100
AcDbEntity
  8
DEFPOINTS
  6
BYBLOCK
 62
     0
100
AcDbPoint
 10
289.85
 20
136.25
 30
0.0
  0
POINT
  5
1050
100
AcDbEntity
  8
DEFPOINTS
  6
BYBLOCK
 62
     0
100
AcDbPoint
 10
289.85
 20
164.5
 30
0.0
  0
ENDBLK
  5
1052
100
AcDbEntity
  8
0
100
AcDbBlockEnd
  0
BLOCK
  5
105E
100
AcDbEntity
  8
0
100
AcDbBlockBegin
  2
*D92
 70
     1
 10
0.0
 20
0.0
 30
0.0
  3
*D92
  1

  0
LINE
  5
1054
100
AcDbEntity
  8
0
  6
BYBLOCK
 62
     0
100
AcDbLine
 10
264.85
 20
135.25
 30
0.0
 11
264.85
 21
156.95
 31
0.0
  0
LINE
  5
1055
100
AcDbEntity
  8
0
  6
BYBLOCK
 62
     0
100
AcDbLine
 10
289.85
 20
136.35
 30
0.0
 11
289.85
 21
156.95
 31
0.0
  0
LINE
  5
1056
100
AcDbEntity
  8
0
  6
BYBLOCK
 62
     0
100
AcDbLine
 10
266.85
 20
156.75
 30
0.0
 11
276.55
 21
156.75
 31
0.0
  0
LINE
  5
1057
100
AcDbEntity
  8
0
  6
BYBLOCK
 62
     0
100
AcDbLine
 10
287.85
 20
156.75
 30
0.0
 11
280.15
 21
156.75
 31
0.0
  0
SOLID
  5
1058
100
AcDbEntity
  8
0
  6
BYBLOCK
 62
     0
100
AcDbTrace
 10
266.85
 20
157.083333
 30
0.0
 11
266.85
 21
156.416666
 31
0.0
 12
264.85
 22
156.75
 32
0.0
 13
264.85
 23
156.75
 33
0.0
  0
SOLID
  5
1059
100
AcDbEntity
  8
0
  6
BYBLOCK
 62
     0
100
AcDbTrace
 10
287.85
 20
157.083333
 30
0.0
 11
287.85
 21
156.416666
 31
0.0
 12
289.85
 22
156.75
 32
0.0
 13
289.85
 23
156.75
 33
0.0
  0
MTEXT
  5
105A
100
AcDbEntity
  8
0
  6
BYBLOCK
 62
     0
100
AcDbMText
 10
278.35
 20
156.75
 30
0.0
 40
3.5
 41
0.0
 71
     5
 72
     1
  1
\A1;25
  0
POINT
  5
105B
100
AcDbEntity
  8
DEFPOINTS
  6
BYBLOCK
 62
     0
100
AcDbPoint
 10
264.85
 20
135.15
 30
0.0
  0
POINT
  5
105C
100
AcDbEntity
  8
DEFPOINTS
  6
BYBLOCK
 62
     0
100
AcDbPoint
 10
289.85
 20
136.25
 30
0.0
  0
POINT
  5
105D
100
AcDbEntity
  8
DEFPOINTS
  6
BYBLOCK
 62
     0
100
AcDbPoint
 10
289.85
 20
156.75
 30
0.0
  0
ENDBLK
  5
105F
100
AcDbEntity
  8
0
100
AcDbBlockEnd
  0
BLOCK
  5
1069
100
AcDbEntity
  8
0
100
AcDbBlockBegin
  2
*D93
 70
     1
 10
0.0
 20
0.0
 30
0.0
  3
*D93
  1

  0
LINE
  5
1061
100
AcDbEntity
  8
0
  6
BYBLOCK
 62
     0
100
AcDbLine
 10
316.85
 20
150.75
 30
0.0
 11
318.85
 21
150.75
 31
0.0
  0
LINE
  5
1062
100
AcDbEntity
  8
0
  6
BYBLOCK
 62
     0
100
AcDbLine
 10
318.85
 20
150.75
 30
0.0
 11
324.454719
 21
138.206104
 31
0.0
  0
MTEXT
  5
1063
100
AcDbEntity
  8
0
  6
BYBLOCK
 62
     0
100
AcDbMText
 10
314.1
 20
150.75
 30
0.0
 40
3.5
 41
0.0
 71
     5
 72
     1
  1
\A1;\U+220520
  0
SOLID
  5
1064
100
AcDbEntity
  8
0
  6
BYBLOCK
 62
     0
100
AcDbTrace
 10
324.759055
 20
138.342084
 30
0.0
 11
324.150383
 21
138.070124
 31
0.0
 12
325.270599
 22
136.380087
 32
0.0
 13
325.270599
 23
136.380087
 33
0.0
  0
LINE
  5
1065
100
AcDbEntity
  8
0
  6
BYBLOCK
 62
     0
100
AcDbLine
 10
329.25
 20
127.25
 30
0.0
 11
329.45
 21
127.25
 31
0.0
  0
LINE
  5
1066
100
AcDbEntity
  8
0
  6
BYBLOCK
 62
     0
100
AcDbLine
 10
329.35
 20
127.15
 30
0.0
 11
329.35
 21
127.35
 31
0.0
  0
POINT
  5
1067
100
AcDbEntity
  8
DEFPOINTS
  6
BYBLOCK
 62
     0
100
AcDbPoint
 10
325.270599
 20
136.380087
 30
0.0
  0
POINT
  5
1068
100
AcDbEntity
  8
DEFPOINTS
  6
BYBLOCK
 62
     0
100
AcDbPoint
 10
333.4294
 20
118.119914
 30
0.0
  0
ENDBLK
  5
106A
100
AcDbEntity
  8
0
100
AcDbBlockEnd
  0
BLOCK
  5
1074
100
AcDbEntity
  8
0
100
AcDbBlockBegin
  2
*D94
 70
     1
 10
0.0
 20
0.0
 30
0.0
  3
*D94
  1

  0
LINE
  5
106C
100
AcDbEntity
  8
0
  6
BYBLOCK
 62
     0
100
AcDbLine
 10
315.85
 20
142.25
 30
0.0
 11
317.85
 21
142.25
 31
0.0
  0
LINE
  5
106D
100
AcDbEntity
  8
0
  6
BYBLOCK
 62
     0
100
AcDbLine
 10
317.85
 20
142.25
 30
0.0
 11
324.421704
 21
133.678212
 31
0.0
  0
MTEXT
  5
106E
100
AcDbEntity
  8
0
  6
BYBLOCK
 62
     0
100
AcDbMText
 10
311.6
 20
142.25
 30
0.0
 40
3.5
 41
0.0
 71
     5
 72
     1
  1
\A1;\U+220512.2
  0
SOLID
  5
106F
100
AcDbEntity
  8
0
  6
BYBLOCK
 62
     0
100
AcDbTrace
 10
324.68624
 20
133.881022
 30
0.0
 11
324.157169
 21
133.475401
 31
0.0
 12
325.638567
 22
132.090999
 32
0.0
 13
325.638567
 23
132.090999
 33
0.0
  0
LINE
  5
1070
100
AcDbEntity
  8
0
  6
BYBLOCK
 62
     0
100
AcDbLine
 10
329.25
 20
127.25
 30
0.0
 11
329.45
 21
127.25
 31
0.0
  0
LINE
  5
1071
100
AcDbEntity
  8
0
  6
BYBLOCK
 62
     0
100
AcDbLine
 10
329.35
 20
127.15
 30
0.0
 11
329.35
 21
127.35
 31
0.0
  0
POINT
  5
1072
100
AcDbEntity
  8
DEFPOINTS
  6
BYBLOCK
 62
     0
100
AcDbPoint
 10
325.638567
 20
132.090999
 30
0.0
  0
POINT
  5
1073
100
AcDbEntity
  8
DEFPOINTS
  6
BYBLOCK
 62
     0
100
AcDbPoint
 10
333.061432
 20
122.409002
 30
0.0
  0
ENDBLK
  5
1075
100
AcDbEntity
  8
0
100
AcDbBlockEnd
  0
BLOCK
  5
10A1
100
AcDbEntity
  8
0
100
AcDbBlockBegin
  2
A$C1F027D50
 70
     0
 10
0.0
 20
0.0
 30
0.0
  3
A$C1F027D50
  1

  0
DIMENSION
  5
1077
100
AcDbEntity
  8
0
100
AcDbDimension
  2
*D90
 10
89.85
 20
21.250001
 30
0.0
 11
107.6
 21
1.75
 31
0.0
 12
-199.0
 22
-97.0
 32
0.0
 70
   132
  3
STANDARD
100
AcDbRadialDimension
 15
90.440016
 25
20.44261
 35
0.0
 40
0.0
1001
ACAD
1000
DSTYLE
1002
{
1070
    78
1070
     8
1070
   288
1070
     1
1070
   284
1070
     8
1070
   140
1040
2.0
1070
    73
1070
     0
1070
   272
1070
     2
1070
   147
1040
0.1
1070
    42
1040
0.1
1070
    44
1040
0.2
1070
    43
1040
0.4
1070
   271
1070
     2
1070
   141
1040
0.1
1070
    41
1040
2.0
1002
}
  0
DIMENSION
  5
1078
100
AcDbEntity
  8
0
100
AcDbDimension
  2
*D85
 10
61.85
 20
21.250001
 30
0.0
 11
45.35
 21
6.75
 31
0.0
 12
-199.0
 22
-97.0
 32
0.0
 70
   132
  3
STANDARD
100
AcDbRadialDimension
 15
61.182455
 25
20.505431
 35
0.0
 40
0.0
1001
ACAD
1000
DSTYLE
1002
{
1070
    78
1070
     8
1070
   288
1070
     1
1070
   284
1070
     8
1070
   140
1040
2.0
1070
    73
1070
     0
1070
   272
1070
     2
1070
   147
1040
0.1
1070
    42
1040
0.1
1070
    44
1040
0.2
1070
    43
1040
0.4
1070
   271
1070
     2
1070
   141
1040
0.1
1070
    41
1040
2.0
1002
}
  0
DIMENSION
  5
1079
100
AcDbEntity
  8
0
100
AcDbDimension
  2
*D89
 10
41.078238
 20
22.233726
 30
0.0
 11
8.35
 21
59.75
 31
0.0
 12
-171.0
 22
-97.0
 32
0.0
 70
   131
  3
STANDARD
100
AcDbDiametricDimension
 15
29.121761
 25
38.266274
 35
0.0
 40
0.0
1001
ACAD
1000
DSTYLE
1002
{
1070
    78
1070
     8
1070
   288
1070
     1
1070
   284
1070
     8
1070
   140
1040
2.0
1070
    73
1070
     0
1070
   272
1070
     2
1070
   147
1040
0.1
1070
    42
1040
0.1
1070
    44
1040
0.2
1070
    43
1040
0.4
1070
   271
1070
     2
1070
   141
1040
0.1
1070
    41
1040
2.0
1002
}
  0
DIMENSION
  5
107A
100
AcDbEntity
  8
0
100
AcDbDimension
  2
*D88
 10
40.855051
 20
25.134399
 30
0.0
 11
6.3
 21
50.25
 31
0.0
 12
-171.0
 22
-97.0
 32
0.0
 70
   131
  3
STANDARD
100
AcDbDiametricDimension
 15
29.344948
 25
35.365602
 35
0.0
 40
0.0
1001
ACAD
1000
DSTYLE
1002
{
1070
    78
1070
     8
1070
   288
1070
     1
1070
   284
1070
     8
1070
   140
1040
2.0
1070
    73
1070
     0
1070
   272
1070
     2
1070
   147
1040
0.1
1070
    42
1040
0.1
1070
    44
1040
0.2
1070
    43
1040
0.4
1070
   271
1070
     2
1070
   141
1040
0.1
1070
    41
1040
2.0
1002
}
  0
LINE
  5
107B
100
AcDbEntity
  8
1
100
AcDbLine
 10
35.1
 20
45.0
 30
0.0
 11
35.1
 21
15.5
 31
0.0
  0
CIRCLE
  5
107C
100
AcDbEntity
  8
3
100
AcDbCircle
 10
35.1
 20
30.25
 30
0.0
 40
9.999999
  0
LINE
  5
107D
100
AcDbEntity
  8
1
100
AcDbLine
 10
20.1
 20
30.25
 30
0.0
 11
51.1
 21
30.25
 31
0.0
  0
DIMENSION
  5
107E
100
AcDbEntity
  8
0
100
AcDbDimension
  2
*D87
 10
40.735808
 20
27.915979
 30
0.0
 11
4.1
 21
40.5
 31
0.0
 12
-171.0
 22
-97.0
 32
0.0
 70
   131
  3
STANDARD
100
AcDbDiametricDimension
 15
29.464191
 25
32.584022
 35
0.0
 40
0.0
1001
ACAD
1000
DSTYLE
1002
{
1070
    78
1070
     8
1070
   288
1070
     1
1070
   284
1070
     8
1070
   140
1040
2.0
1070
    73
1070
     0
1070
   272
1070
     2
1070
   147
1040
0.1
1070
    42
1040
0.1
1070
    44
1040
0.2
1070
    43
1040
0.4
1070
   271
1070
     2
1070
   141
1040
0.1
1070
    41
1040
2.0
1002
}
  0
CIRCLE
  5
107F
100
AcDbEntity
  8
3
100
AcDbCircle
 10
35.1
 20
30.25
 30
0.0
 40
6.1
  0
CIRCLE
  5
1080
100
AcDbEntity
  8
3
100
AcDbCircle
 10
35.1
 20
30.25
 30
0.0
 40
7.7
  0
TEXT
  5
1081
100
AcDbEntity
  8
0
100
AcDbText
 10
-0.4
 20
69.25
 30
0.0
 40
3.5
  1
MRG-10
 41
0.6
100
AcDbText
  0
DIMENSION
  5
1082
100
AcDbEntity
  8
0
100
AcDbDimension
  2
*D92
 10
90.85
 20
59.75
 30
0.0
 11
79.35
 21
59.75
 31
0.0
 12
-199.0
 22
-97.0
 32
0.0
 70
   128
  3
STANDARD
100
AcDbAlignedDimension
 13
65.85
 23
38.15
 33
0.0
 14
90.85
 24
39.25
 34
0.0
100
AcDbRotatedDimension
1001
ACAD
1000
DSTYLE
1002
{
1070
    78
1070
     8
1070
   288
1070
     1
1070
   284
1070
     8
1070
   140
1040
2.0
1070
    73
1070
     0
1070
   272
1070
     2
1070
   147
1040
0.1
1070
    42
1040
0.1
1070
    44
1040
0.2
1070
    43
1040
0.4
1070
   271
1070
     2
1070
   141
1040
0.1
1070
    41
1040
2.0
1002
}
  0
DIMENSION
  5
1083
100
AcDbEntity
  8
0
100
AcDbDimension
  2
*D91
 10
90.85
 20
67.5
 30
0.0
 11
75.1
 21
67.5
 31
0.0
 12
-199.0
 22
-97.0
 32
0.0
 70
   128
  3
STANDARD
100
AcDbAlignedDimension
 13
60.85
 23
39.25
 33
0.0
 14
90.85
 24
39.25
 34
0.0
100
AcDbRotatedDimension
1001
ACAD
1000
DSTYLE
1002
{
1070
    78
1070
     8
1070
   288
1070
     1
1070
   284
1070
     8
1070
   140
1040
2.0
1070
    73
1070
     0
1070
   272
1070
     2
1070
   147
1040
0.1
1070
    42
1040
0.1
1070
    44
1040
0.2
1070
    43
1040
0.4
1070
   271
1070
     2
1070
   141
1040
0.1
1070
    41
1040
2.0
1002
}
  0
DIMENSION
  5
1084
100
AcDbEntity
  8
0
100
AcDbDimension
  2
*D86
 10
65.85
 20
56.0
 30
0.0
 11
54.1
 21
56.0
 31
0.0
 12
-199.0
 22
-97.0
 32
0.0
 70
   128
  3
STANDARD
100
AcDbAlignedDimension
 13
60.85
 23
38.05
 33
0.0
 14
65.85
 24
38.05
 34
0.0
100
AcDbRotatedDimension
1001
ACAD
1000
DSTYLE
1002
{
1070
    78
1070
     8
1070
   288
1070
     1
1070
   284
1070
     8
1070
   140
1040
2.0
1070
    73
1070
     0
1070
   272
1070
     2
1070
   147
1040
0.1
1070
    42
1040
0.1
1070
    44
1040
0.2
1070
    43
1040
0.4
1070
   271
1070
     2
1070
   141
1040
0.1
1070
    41
1040
2.0
1002
}
  0
LINE
  5
1085
100
AcDbEntity
  8
3
100
AcDbLine
 10
89.85
 20
40.25
 30
0.0
 11
61.85
 21
40.25
 31
0.0
  0
LINE
  5
1086
100
AcDbEntity
  8
3
100
AcDbLine
 10
65.85
 20
36.35
 30
0.0
 11
90.85
 21
36.35
 31
0.0
  0
LINE
  5
1087
102
{ACAD_REACTORS
330
1089
102
}
100
AcDbEntity
  8
3
100
AcDbLine
 10
89.85
 20
20.250001
 30
0.0
 11
61.85
 21
20.250001
 31
0.0
  0
LINE
  5
1088
102
{ACAD_REACTORS
330
1089
102
}
100
AcDbEntity
  8
3
100
AcDbLine
 10
65.85
 20
24.150001
 30
0.0
 11
90.85
 21
24.150001
 31
0.0
  0
HATCH
  5
1089
100
AcDbEntity
  8
0
100
AcDbHatch
 10
0.0
 20
0.0
 30
0.0
210
0.0
220
0.0
230
1.0
  2
ANSI31
 70
     0
 71
     1
 91
        1
 92
        7
 72
     1
 73
     1
 93
        8
 10
65.8499995164567
 20
24.150000944983
 42
0.0
 10
65.84999951645667
 20
22.45000094498304
 42
0.0
 10
60.84999951645667
 20
22.45000094498304
 42
0.0
 10
60.8499995164567
 20
21.25000094498302
 42
0.4142135623730866
 10
61.84999951645671
 20
20.25000094498305
 42
0.0
 10
89.8499995164567
 20
20.25000094498305
 42
0.4142135623730951
 10
90.8499995164567
 20
21.25000094498305
 42
0.0
 10
90.8499995164567
 20
24.15000094498303
 42
0.0
 97
        8
330
1088
330
1090
330
108D
330
108F
330
108E
330
1087
330
1098
330
1097
 75
     0
 76
     1
 52
0.0
 41
3.0
 77
     0
 78
     1
 53
45.0
 43
-79.9
 44
-80.5
 45
-0.2651650429449553
 46
0.2651650429449553
 79
     0
 47
0.264601
 98
        1
 10
79.35
 20
22.5
  0
LINE
  5
108A
100
AcDbEntity
  8
1
100
AcDbLine
 10
58.6
 20
30.25
 30
0.0
 11
94.6
 21
30.25
 31
0.0
  0
LINE
  5
108B
100
AcDbEntity
  8
3
100
AcDbLine
 10
65.85
 20
24.150001
 30
0.0
 11
65.85
 21
30.250001
 31
0.0
  0
LINE
  5
108C
100
AcDbEntity
  8
3
100
AcDbLine
 10
60.85
 20
22.450001
 30
0.0
 11
60.85
 21
30.250001
 31
0.0
  0
LINE
  5
108D
102
{ACAD_REACTORS
330
1089
102
}
100
AcDbEntity
  8
3
100
AcDbLine
 10
60.85
 20
22.450001
 30
0.0
 11
65.85
 21
22.450001
 31
0.0
  0
ARC
  5
108E
102
{ACAD_REACTORS
330
1089
102
}
100
AcDbEntity
  8
3
100
AcDbCircle
 10
61.85
 20
21.250001
 30
0.0
 40
1.0
100
AcDbArc
 50
180.0
 51
270.0
  0
LINE
  5
108F
102
{ACAD_REACTORS
330
1089
102
}
100
AcDbEntity
  8
3
100
AcDbLine
 10
60.85
 20
21.250001
 30
0.0
 11
60.85
 21
22.450001
 31
0.0
  0
LINE
  5
1090
102
{ACAD_REACTORS
330
1089
102
}
100
AcDbEntity
  8
3
100
AcDbLine
 10
65.85
 20
22.450001
 30
0.0
 11
65.85
 21
24.150001
 31
0.0
  0
LINE
  5
1091
100
AcDbEntity
  8
3
100
AcDbLine
 10
60.85
 20
38.05
 30
0.0
 11
65.85
 21
38.05
 31
0.0
  0
LINE
  5
1092
100
AcDbEntity
  8
3
100
AcDbLine
 10
60.85
 20
38.05
 30
0.0
 11
60.85
 21
30.25
 31
0.0
  0
LINE
  5
1093
100
AcDbEntity
  8
3
100
AcDbLine
 10
60.85
 20
39.25
 30
0.0
 11
60.85
 21
38.05
 31
0.0
  0
ARC
  5
1094
100
AcDbEntity
  8
3
100
AcDbCircle
 10
61.85
 20
39.25
 30
0.0
 40
1.0
100
AcDbArc
 50
90.0
 51
180.0
  0
LINE
  5
1095
100
AcDbEntity
  8
3
100
AcDbLine
 10
65.85
 20
36.35
 30
0.0
 11
65.85
 21
30.25
 31
0.0
  0
LINE
  5
1096
100
AcDbEntity
  8
3
100
AcDbLine
 10
65.85
 20
38.05
 30
0.0
 11
65.85
 21
36.35
 31
0.0
  0
LINE
  5
1097
102
{ACAD_REACTORS
330
1089
102
}
100
AcDbEntity
  8
3
100
AcDbLine
 10
90.85
 20
30.25
 30
0.0
 11
90.85
 21
21.250001
 31
0.0
  0
ARC
  5
1098
102
{ACAD_REACTORS
330
1089
102
}
100
AcDbEntity
  8
3
100
AcDbCircle
 10
89.85
 20
21.250001
 30
0.0
 40
1.0
100
AcDbArc
 50
270.0
 51
0.0
  0
LINE
  5
1099
100
AcDbEntity
  8
3
100
AcDbLine
 10
90.85
 20
30.25
 30
0.0
 11
90.85
 21
39.25
 31
0.0
  0
ARC
  5
109A
100
AcDbEntity
  8
3
100
AcDbCircle
 10
89.85
 20
39.25
 30
0.0
 40
1.0
100
AcDbArc
 50
0.0
 51
90.0
  0
DIMENSION
  5
109B
100
AcDbEntity
  8
0
100
AcDbDimension
  2
*D94
 10
134.061432
 20
25.409002
 30
0.0
 11
112.6
 21
45.25
 31
0.0
 12
-199.0
 22
-97.0
 32
0.0
 70
   131
  3
STANDARD
100
AcDbDiametricDimension
 15
126.638567
 25
35.090999
 35
0.0
 40
0.0
1001
ACAD
1000
DSTYLE
1002
{
1070
    78
1070
     8
1070
   288
1070
     1
1070
   284
1070
     8
1070
   140
1040
2.0
1070
    73
1070
     0
1070
   272
1070
     2
1070
   147
1040
0.1
1070
    42
1040
0.1
1070
    44
1040
0.2
1070
    43
1040
0.4
1070
   271
1070
     2
1070
   141
1040
0.1
1070
    41
1040
2.0
1002
}
  0
DIMENSION
  5
109C
100
AcDbEntity
  8
0
100
AcDbDimension
  2
*D93
 10
134.4294
 20
21.119914
 30
0.0
 11
115.1
 21
53.75
 31
0.0
 12
-199.0
 22
-97.0
 32
0.0
 70
   131
  3
STANDARD
100
AcDbDiametricDimension
 15
126.270599
 25
39.380087
 35
0.0
 40
0.0
1001
ACAD
1000
DSTYLE
1002
{
1070
    78
1070
     8
1070
   288
1070
     1
1070
   284
1070
     8
1070
   140
1040
2.0
1070
    73
1070
     0
1070
   272
1070
     2
1070
   147
1040
0.1
1070
    42
1040
0.1
1070
    44
1040
0.2
1070
    43
1040
0.4
1070
   271
1070
     2
1070
   141
1040
0.1
1070
    41
1040
2.0
1002
}
  0
LINE
  5
109D
100
AcDbEntity
  8
1
100
AcDbLine
 10
130.35
 20
45.0
 30
0.0
 11
130.35
 21
15.5
 31
0.0
  0
LINE
  5
109E
100
AcDbEntity
  8
1
100
AcDbLine
 10
115.35
 20
30.25
 30
0.0
 11
146.35
 21
30.25
 31
0.0
  0
CIRCLE
  5
109F
100
AcDbEntity
  8
3
100
AcDbCircle
 10
130.35
 20
30.25
 30
0.0
 40
9.999999
  0
CIRCLE
  5
10A0
100
AcDbEntity
  8
3
100
AcDbCircle
 10
130.35
 20
30.25
 30
0.0
 40
6.1
  0
ENDBLK
  5
10A2
100
AcDbEntity
  8
0
100
AcDbBlockEnd
  0
BLOCK
  5
1135
100
AcDbEntity
  8
0
100
AcDbBlockBegin
  2
*D96
 70
     1
 10
0.0
 20
0.0
 30
0.0
  3
*D96
  1

  0
LINE
  5
1136
100
AcDbEntity
  8
0
  6
BYBLOCK
 62
     0
100
AcDbLine
 10
60.951576
 20
8.966968
 30
0.0
 11
62.131609
 21
7.352185
 31
0.0
  0
MTEXT
  5
1137
100
AcDbEntity
  8
0
  6
BYBLOCK
 62
     0
100
AcDbMText
 10
76.931526
 20
-8.11086
 30
0.0
 40
10.0
 41
0.0
 71
     5
 72
     1
  1
\A1;R1
  7
BIGFONT
  0
SOLID
  5
1138
100
AcDbEntity
  8
0
  6
BYBLOCK
 62
     0
100
AcDbTrace
 10
61.220706
 20
9.16364
 30
0.0
 11
60.682446
 21
8.770295
 31
0.0
 12
59.771543
 22
10.58175
 32
0.0
 13
59.771543
 23
10.58175
 33
0.0
  0
LINE
  5
1139
100
AcDbEntity
  8
0
  6
BYBLOCK
 62
     0
100
AcDbLine
 10
59.081526
 20
11.389141
 30
0.0
 11
59.281526
 21
11.389141
 31
0.0
  0
LINE
  5
113A
100
AcDbEntity
  8
0
  6
BYBLOCK
 62
     0
100
AcDbLine
 10
59.181526
 20
11.289141
 30
0.0
 11
59.181526
 21
11.489141
 31
0.0
  0
POINT
  5
113B
100
AcDbEntity
  8
DEFPOINTS
  6
BYBLOCK
 62
     0
100
AcDbPoint
 10
59.771543
 20
10.58175
 30
0.0
  0
POINT
  5
113C
100
AcDbEntity
  8
DEFPOINTS
  6
BYBLOCK
 62
     0
100
AcDbPoint
 10
59.181526
 20
11.389141
 30
0.0
  0
ENDBLK
  5
113D
100
AcDbEntity
  8
0
100
AcDbBlockEnd
  0
BLOCK
  5
113E
100
AcDbEntity
  8
0
100
AcDbBlockBegin
  2
*D97
 70
     1
 10
0.0
 20
0.0
 30
0.0
  3
*D97
  1

  0
LINE
  5
113F
100
AcDbEntity
  8
0
  6
BYBLOCK
 62
     0
100
AcDbLine
 10
29.178891
 20
9.155433
 30
0.0
 11
27.843801
 21
7.666294
 31
0.0
  0
MTEXT
  5
1140
100
AcDbEntity
  8
0
  6
BYBLOCK
 62
     0
100
AcDbMText
 10
14.681526
 20
-3.11086
 30
0.0
 40
10.0
 41
0.0
 71
     5
 72
     1
  1
\A1;R1
  7
BIGFONT
  0
SOLID
  5
1141
100
AcDbEntity
  8
0
  6
BYBLOCK
 62
     0
100
AcDbTrace
 10
28.930702
 20
9.377948
 30
0.0
 11
29.427081
 21
8.932918
 31
0.0
 12
30.513981
 22
10.644572
 32
0.0
 13
30.513981
 23
10.644572
 33
0.0
  0
LINE
  5
1142
100
AcDbEntity
  8
0
  6
BYBLOCK
 62
     0
100
AcDbLine
 10
31.081526
 20
11.389141
 30
0.0
 11
31.281526
 21
11.389141
 31
0.0
  0
LINE
  5
1143
100
AcDbEntity
  8
0
  6
BYBLOCK
 62
     0
100
AcDbLine
 10
31.181526
 20
11.289141
 30
0.0
 11
31.181526
 21
11.489141
 31
0.0
  0
POINT
  5
1144
100
AcDbEntity
  8
DEFPOINTS
  6
BYBLOCK
 62
     0
100
AcDbPoint
 10
30.513981
 20
10.644572
 30
0.0
  0
POINT
  5
1145
100
AcDbEntity
  8
DEFPOINTS
  6
BYBLOCK
 62
     0
100
AcDbPoint
 10
31.181526
 20
11.389141
 30
0.0
  0
ENDBLK
  5
1146
100
AcDbEntity
  8
0
100
AcDbBlockEnd
  0
BLOCK
  5
1147
100
AcDbEntity
  8
0
100
AcDbBlockBegin
  2
*D98
 70
     1
 10
0.0
 20
0.0
 30
0.0
  3
*D98
  1

  0
LINE
  5
1148
100
AcDbEntity
  8
0
  6
BYBLOCK
 62
     0
100
AcDbLine
 10
9.214117
 20
13.976121
 30
0.0
 11
-0.351064
 21
26.80216
 31
0.0
  0
MTEXT
  5
1149
100
AcDbEntity
  8
0
  6
BYBLOCK
 62
     0
100
AcDbMText
 10
-22.318474
 20
49.88914
 30
0.0
 40
10.0
 41
0.0
 71
     5
 72
     1
  1
\A1;\U+220520
  7
BIGFONT
  0
SOLID
  5
114A
100
AcDbEntity
  8
0
  6
BYBLOCK
 62
     0
100
AcDbTrace
 10
9.481326
 20
14.175396
 30
0.0
 11
8.946908
 21
13.776847
 31
0.0
 12
10.409765
 22
12.372866
 32
0.0
 13
10.409765
 23
12.372866
 33
0.0
  0
SOLID
  5
114B
100
AcDbEntity
  8
0
  6
BYBLOCK
 62
     0
100
AcDbTrace
 10
-0.083855
 20
27.001434
 30
0.0
 11
-0.618274
 21
26.602885
 31
0.0
 12
-1.546712
 22
28.405415
 32
0.0
 13
-1.546712
 23
28.405415
 33
0.0
  0
POINT
  5
114C
100
AcDbEntity
  8
DEFPOINTS
  6
BYBLOCK
 62
     0
100
AcDbPoint
 10
-1.546712
 20
28.405415
 30
0.0
  0
POINT
  5
114D
100
AcDbEntity
  8
DEFPOINTS
  6
BYBLOCK
 62
     0
100
AcDbPoint
 10
10.409765
 20
12.372866
 30
0.0
  0
ENDBLK
  5
114E
100
AcDbEntity
  8
0
100
AcDbBlockEnd
  0
BLOCK
  5
114F
100
AcDbEntity
  8
0
100
AcDbBlockBegin
  2
*D99
 70
     1
 10
0.0
 20
0.0
 30
0.0
  3
*D99
  1

  0
LINE
  5
1150
100
AcDbEntity
  8
0
  6
BYBLOCK
 62
     0
100
AcDbLine
 10
8.691759
 20
16.602267
 30
0.0
 11
0.171293
 21
24.176014
 31
0.0
  0
MTEXT
  5
1151
100
AcDbEntity
  8
0
  6
BYBLOCK
 62
     0
100
AcDbMText
 10
-24.368474
 20
40.38914
 30
0.0
 40
10.0
 41
0.0
 71
     5
 72
     1
  1
\A1;\U+220515.4
  7
BIGFONT
  0
SOLID
  5
1152
100
AcDbEntity
  8
0
  6
BYBLOCK
 62
     0
100
AcDbTrace
 10
8.913214
 20
16.851403
 30
0.0
 11
8.470305
 21
16.35313
 31
0.0
 12
10.186578
 22
15.273539
 32
0.0
 13
10.186578
 23
15.273539
 33
0.0
  0
SOLID
  5
1153
100
AcDbEntity
  8
0
  6
BYBLOCK
 62
     0
100
AcDbTrace
 10
0.392748
 20
24.425151
 30
0.0
 11
-0.050161
 21
23.926878
 31
0.0
 12
-1.323526
 22
25.504742
 32
0.0
 13
-1.323526
 23
25.504742
 33
0.0
  0
POINT
  5
1154
100
AcDbEntity
  8
DEFPOINTS
  6
BYBLOCK
 62
     0
100
AcDbPoint
 10
-1.323526
 20
25.504742
 30
0.0
  0
POINT
  5
1155
100
AcDbEntity
  8
DEFPOINTS
  6
BYBLOCK
 62
     0
100
AcDbPoint
 10
10.186578
 20
15.273539
 30
0.0
  0
ENDBLK
  5
1156
100
AcDbEntity
  8
0
100
AcDbBlockEnd
  0
BLOCK
  5
1157
100
AcDbEntity
  8
0
100
AcDbBlockBegin
  2
*D100
 70
     1
 10
0.0
 20
0.0
 30
0.0
  3
*D100
  1

  0
LINE
  5
1158
100
AcDbEntity
  8
0
  6
BYBLOCK
 62
     0
100
AcDbLine
 10
8.219529
 20
18.820372
 30
0.0
 11
0.643524
 21
21.957909
 31
0.0
  0
MTEXT
  5
1159
100
AcDbEntity
  8
0
  6
BYBLOCK
 62
     0
100
AcDbMText
 10
-26.568474
 20
30.63914
 30
0.0
 40
10.0
 41
0.0
 71
     5
 72
     1
  1
\A1;\U+220512.2
  7
BIGFONT
  0
SOLID
  5
115A
100
AcDbEntity
  8
0
  6
BYBLOCK
 62
     0
100
AcDbTrace
 10
8.347071
 20
19.128339
 30
0.0
 11
8.091987
 21
18.512404
 31
0.0
 12
10.067335
 22
18.055119
 32
0.0
 13
10.067335
 23
18.055119
 33
0.0
  0
SOLID
  5
115B
100
AcDbEntity
  8
0
  6
BYBLOCK
 62
     0
100
AcDbTrace
 10
0.771066
 20
22.265877
 30
0.0
 11
0.515981
 21
21.649941
 31
0.0
 12
-1.204283
 22
22.723162
 32
0.0
 13
-1.204283
 23
22.723162
 33
0.0
  0
POINT
  5
115C
100
AcDbEntity
  8
DEFPOINTS
  6
BYBLOCK
 62
     0
100
AcDbPoint
 10
-1.204283
 20
22.723162
 30
0.0
  0
POINT
  5
115D
100
AcDbEntity
  8
DEFPOINTS
  6
BYBLOCK
 62
     0
100
AcDbPoint
 10
10.067335
 20
18.055119
 30
0.0
  0
ENDBLK
  5
115E
100
AcDbEntity
  8
0
100
AcDbBlockEnd
  0
BLOCK
  5
115F
100
AcDbEntity
  8
0
100
AcDbBlockBegin
  2
*D101
 70
     1
 10
0.0
 20
0.0
 30
0.0
  3
*D101
  1

  0
LINE
  5
1160
100
AcDbEntity
  8
0
  6
BYBLOCK
 62
     0
100
AcDbLine
 10
35.181526
 20
28.38914
 30
0.0
 11
35.181526
 21
50.08914
 31
0.0
  0
LINE
  5
1161
100
AcDbEntity
  8
0
  6
BYBLOCK
 62
     0
100
AcDbLine
 10
60.181526
 20
29.48914
 30
0.0
 11
60.181526
 21
50.08914
 31
0.0
  0
LINE
  5
1162
100
AcDbEntity
  8
0
  6
BYBLOCK
 62
     0
100
AcDbLine
 10
37.181526
 20
49.88914
 30
0.0
 11
40.248193
 21
49.88914
 31
0.0
  0
LINE
  5
1163
100
AcDbEntity
  8
0
  6
BYBLOCK
 62
     0
100
AcDbLine
 10
58.181526
 20
49.88914
 30
0.0
 11
57.11486
 21
49.88914
 31
0.0
  0
MTEXT
  5
1164
100
AcDbEntity
  8
0
  6
BYBLOCK
 62
     0
100
AcDbMText
 10
48.681526
 20
49.88914
 30
0.0
 40
10.0
 41
0.0
 71
     5
 72
     1
  1
\A1;25
  7
BIGFONT
  0
SOLID
  5
1165
100
AcDbEntity
  8
0
  6
BYBLOCK
 62
     0
100
AcDbTrace
 10
37.181526
 20
50.222473
 30
0.0
 11
37.181526
 21
49.555806
 31
0.0
 12
35.181526
 22
49.88914
 32
0.0
 13
35.181526
 23
49.88914
 33
0.0
  0
SOLID
  5
1166
100
AcDbEntity
  8
0
  6
BYBLOCK
 62
     0
100
AcDbTrace
 10
58.181526
 20
50.222473
 30
0.0
 11
58.181526
 21
49.555806
 31
0.0
 12
60.181526
 22
49.88914
 32
0.0
 13
60.181526
 23
49.88914
 33
0.0
  0
POINT
  5
1167
100
AcDbEntity
  8
DEFPOINTS
  6
BYBLOCK
 62
     0
100
AcDbPoint
 10
35.181526
 20
28.28914
 30
0.0
  0
POINT
  5
1168
100
AcDbEntity
  8
DEFPOINTS
  6
BYBLOCK
 62
     0
100
AcDbPoint
 10
60.181526
 20
29.38914
 30
0.0
  0
POINT
  5
1169
100
AcDbEntity
  8
DEFPOINTS
  6
BYBLOCK
 62
     0
100
AcDbPoint
 10
60.181526
 20
49.88914
 30
0.0
  0
ENDBLK
  5
116A
100
AcDbEntity
  8
0
100
AcDbBlockEnd
  0
BLOCK
  5
116B
100
AcDbEntity
  8
0
100
AcDbBlockBegin
  2
*D102
 70
     1
 10
0.0
 20
0.0
 30
0.0
  3
*D102
  1

  0
LINE
  5
116C
100
AcDbEntity
  8
0
  6
BYBLOCK
 62
     0
100
AcDbLine
 10
30.181526
 20
29.48914
 30
0.0
 11
30.181526
 21
57.83914
 31
0.0
  0
LINE
  5
116D
100
AcDbEntity
  8
0
  6
BYBLOCK
 62
     0
100
AcDbLine
 10
60.181526
 20
29.48914
 30
0.0
 11
60.181526
 21
57.83914
 31
0.0
  0
LINE
  5
116E
100
AcDbEntity
  8
0
  6
BYBLOCK
 62
     0
100
AcDbLine
 10
32.181526
 20
57.63914
 30
0.0
 11
36.831526
 21
57.63914
 31
0.0
  0
LINE
  5
116F
100
AcDbEntity
  8
0
  6
BYBLOCK
 62
     0
100
AcDbLine
 10
58.181526
 20
57.63914
 30
0.0
 11
52.031526
 21
57.63914
 31
0.0
  0
MTEXT
  5
1170
100
AcDbEntity
  8
0
  6
BYBLOCK
 62
     0
100
AcDbMText
 10
44.431526
 20
57.63914
 30
0.0
 40
10.0
 41
0.0
 71
     5
 72
     1
  1
\A1;30
  7
BIGFONT
  0
SOLID
  5
1171
100
AcDbEntity
  8
0
  6
BYBLOCK
 62
     0
100
AcDbTrace
 10
32.181526
 20
57.972473
 30
0.0
 11
32.181526
 21
57.305806
 31
0.0
 12
30.181526
 22
57.63914
 32
0.0
 13
30.181526
 23
57.63914
 33
0.0
  0
SOLID
  5
1172
100
AcDbEntity
  8
0
  6
BYBLOCK
 62
     0
100
AcDbTrace
 10
58.181526
 20
57.972473
 30
0.0
 11
58.181526
 21
57.305806
 31
0.0
 12
60.181526
 22
57.63914
 32
0.0
 13
60.181526
 23
57.63914
 33
0.0
  0
POINT
  5
1173
100
AcDbEntity
  8
DEFPOINTS
  6
BYBLOCK
 62
     0
100
AcDbPoint
 10
30.181526
 20
29.38914
 30
0.0
  0
POINT
  5
1174
100
AcDbEntity
  8
DEFPOINTS
  6
BYBLOCK
 62
     0
100
AcDbPoint
 10
60.181526
 20
29.38914
 30
0.0
  0
POINT
  5
1175
100
AcDbEntity
  8
DEFPOINTS
  6
BYBLOCK
 62
     0
100
AcDbPoint
 10
60.181526
 20
57.63914
 30
0.0
  0
ENDBLK
  5
1176
100
AcDbEntity
  8
0
100
AcDbBlockEnd
  0
BLOCK
  5
1177
100
AcDbEntity
  8
0
100
AcDbBlockBegin
  2
*D103
 70
     1
 10
0.0
 20
0.0
 30
0.0
  3
*D103
  1

  0
LINE
  5
1178
100
AcDbEntity
  8
0
  6
BYBLOCK
 62
     0
100
AcDbLine
 10
30.181526
 20
28.28914
 30
0.0
 11
30.181526
 21
46.33914
 31
0.0
  0
LINE
  5
1179
100
AcDbEntity
  8
0
  6
BYBLOCK
 62
     0
100
AcDbLine
 10
35.181526
 20
28.28914
 30
0.0
 11
35.181526
 21
46.33914
 31
0.0
  0
LINE
  5
117A
100
AcDbEntity
  8
0
  6
BYBLOCK
 62
     0
100
AcDbLine
 10
32.181526
 20
46.13914
 30
0.0
 11
33.181526
 21
46.13914
 31
0.0
  0
MTEXT
  5
117B
100
AcDbEntity
  8
0
  6
BYBLOCK
 62
     0
100
AcDbMText
 10
23.431526
 20
46.13914
 30
0.0
 40
10.0
 41
0.0
 71
     5
 72
     1
  1
\A1;5
  7
BIGFONT
  0
SOLID
  5
117C
100
AcDbEntity
  8
0
  6
BYBLOCK
 62
     0
100
AcDbTrace
 10
32.181526
 20
46.472473
 30
0.0
 11
32.181526
 21
45.805806
 31
0.0
 12
30.181526
 22
46.13914
 32
0.0
 13
30.181526
 23
46.13914
 33
0.0
  0
SOLID
  5
117D
100
AcDbEntity
  8
0
  6
BYBLOCK
 62
     0
100
AcDbTrace
 10
33.181526
 20
46.472473
 30
0.0
 11
33.181526
 21
45.805806
 31
0.0
 12
35.181526
 22
46.13914
 32
0.0
 13
35.181526
 23
46.13914
 33
0.0
  0
POINT
  5
117E
100
AcDbEntity
  8
DEFPOINTS
  6
BYBLOCK
 62
     0
100
AcDbPoint
 10
30.181526
 20
28.18914
 30
0.0
  0
POINT
  5
117F
100
AcDbEntity
  8
DEFPOINTS
  6
BYBLOCK
 62
     0
100
AcDbPoint
 10
35.181526
 20
28.18914
 30
0.0
  0
POINT
  5
1180
100
AcDbEntity
  8
DEFPOINTS
  6
BYBLOCK
 62
     0
100
AcDbPoint
 10
35.181526
 20
46.13914
 30
0.0
  0
ENDBLK
  5
1181
100
AcDbEntity
  8
0
100
AcDbBlockEnd
  0
BLOCK
  5
1182
100
AcDbEntity
  8
0
100
AcDbBlockBegin
  2
*D104
 70
     1
 10
0.0
 20
0.0
 30
0.0
  3
*D104
  1

  0
LINE
  5
1183
100
AcDbEntity
  8
0
  6
BYBLOCK
 62
     0
100
AcDbLine
 10
102.176096
 20
17.135354
 30
0.0
 11
97.186957
 21
23.642926
 31
0.0
  0
MTEXT
  5
1184
100
AcDbEntity
  8
0
  6
BYBLOCK
 62
     0
100
AcDbMText
 10
81.931526
 20
35.38914
 30
0.0
 40
10.0
 41
0.0
 71
     5
 72
     1
  1
\A1;\U+220512.2
  7
BIGFONT
  0
SOLID
  5
1185
100
AcDbEntity
  8
0
  6
BYBLOCK
 62
     0
100
AcDbTrace
 10
102.440631
 20
17.338165
 30
0.0
 11
101.91156
 21
16.932544
 31
0.0
 12
103.392959
 22
15.548142
 32
0.0
 13
103.392959
 23
15.548142
 33
0.0
  0
SOLID
  5
1186
100
AcDbEntity
  8
0
  6
BYBLOCK
 62
     0
100
AcDbTrace
 10
97.451492
 20
23.845737
 30
0.0
 11
96.922421
 21
23.440116
 31
0.0
 12
95.970094
 22
25.230139
 32
0.0
 13
95.970094
 23
25.230139
 33
0.0
  0
POINT
  5
1187
100
AcDbEntity
  8
DEFPOINTS
  6
BYBLOCK
 62
     0
100
AcDbPoint
 10
95.970094
 20
25.230139
 30
0.0
  0
POINT
  5
1188
100
AcDbEntity
  8
DEFPOINTS
  6
BYBLOCK
 62
     0
100
AcDbPoint
 10
103.392959
 20
15.548142
 30
0.0
  0
ENDBLK
  5
1189
100
AcDbEntity
  8
0
100
AcDbBlockEnd
  0
BLOCK
  5
118A
100
AcDbEntity
  8
0
100
AcDbBlockBegin
  2
*D105
 70
     1
 10
0.0
 20
0.0
 30
0.0
  3
*D105
  1

  0
LINE
  5
118B
100
AcDbEntity
  8
0
  6
BYBLOCK
 62
     0
100
AcDbLine
 10
102.945047
 20
13.085071
 30
0.0
 11
96.418006
 21
27.693209
 31
0.0
  0
MTEXT
  5
118C
100
AcDbEntity
  8
0
  6
BYBLOCK
 62
     0
100
AcDbMText
 10
84.431526
 20
43.88914
 30
0.0
 40
10.0
 41
0.0
 71
     5
 72
     1
  1
\A1;\U+220520
  7
BIGFONT
  0
SOLID
  5
118D
100
AcDbEntity
  8
0
  6
BYBLOCK
 62
     0
100
AcDbTrace
 10
103.249383
 20
13.221051
 30
0.0
 11
102.64071
 21
12.949091
 31
0.0
 12
103.760927
 22
11.259054
 32
0.0
 13
103.760927
 23
11.259054
 33
0.0
  0
SOLID
  5
118E
100
AcDbEntity
  8
0
  6
BYBLOCK
 62
     0
100
AcDbTrace
 10
96.722342
 20
27.82919
 30
0.0
 11
96.11367
 21
27.557229
 31
0.0
 12
95.602126
 22
29.519227
 32
0.0
 13
95.602126
 23
29.519227
 33
0.0
  0
POINT
  5
118F
100
AcDbEntity
  8
DEFPOINTS
  6
BYBLOCK
 62
     0
100
AcDbPoint
 10
95.602126
 20
29.519227
 30
0.0
  0
POINT
  5
1190
100
AcDbEntity
  8
DEFPOINTS
  6
BYBLOCK
 62
     0
100
AcDbPoint
 10
103.760927
 20
11.259054
 30
0.0
  0
ENDBLK
  5
1191
100
AcDbEntity
  8
0
100
AcDbBlockEnd
  0
BLOCK
  5
119B
100
AcDbEntity
  8
0
100
AcDbBlockBegin
  2
*D106
 70
     1
 10
0.0
 20
0.0
 30
0.0
  3
*D106
  1

  0
LINE
  5
1193
100
AcDbEntity
  8
0
  6
BYBLOCK
 62
     0
100
AcDbLine
 10
86.0
 20
130.25
 30
0.0
 11
88.0
 21
130.25
 31
0.0
  0
LINE
  5
1194
100
AcDbEntity
  8
0
  6
BYBLOCK
 62
     0
100
AcDbLine
 10
88.0
 20
130.25
 30
0.0
 11
99.355127
 21
117.775354
 31
0.0
  0
MTEXT
  5
1195
100
AcDbEntity
  8
0
  6
BYBLOCK
 62
     0
100
AcDbMText
 10
83.25
 20
130.25
 30
0.0
 40
3.5
 41
0.0
 71
     5
 72
     1
  1
\A1;\U+220515
  0
SOLID
  5
1196
100
AcDbEntity
  8
0
  6
BYBLOCK
 62
     0
100
AcDbTrace
 10
99.601631
 20
117.999735
 30
0.0
 11
99.108623
 21
117.550972
 31
0.0
 12
100.701416
 22
116.296332
 32
0.0
 13
100.701416
 23
116.296332
 33
0.0
  0
LINE
  5
1197
100
AcDbEntity
  8
0
  6
BYBLOCK
 62
     0
100
AcDbLine
 10
105.65
 20
110.750001
 30
0.0
 11
105.85
 21
110.750001
 31
0.0
  0
LINE
  5
1198
100
AcDbEntity
  8
0
  6
BYBLOCK
 62
     0
100
AcDbLine
 10
105.75
 20
110.650001
 30
0.0
 11
105.75
 21
110.850001
 31
0.0
  0
POINT
  5
1199
100
AcDbEntity
  8
DEFPOINTS
  6
BYBLOCK
 62
     0
100
AcDbPoint
 10
100.701416
 20
116.296332
 30
0.0
  0
POINT
  5
119A
100
AcDbEntity
  8
DEFPOINTS
  6
BYBLOCK
 62
     0
100
AcDbPoint
 10
110.798584
 20
105.203669
 30
0.0
  0
ENDBLK
  5
119C
100
AcDbEntity
  8
0
100
AcDbBlockEnd
  0
BLOCK
  5
11A6
100
AcDbEntity
  8
0
100
AcDbBlockBegin
  2
*D107
 70
     1
 10
0.0
 20
0.0
 30
0.0
  3
*D107
  1

  0
LINE
  5
119E
100
AcDbEntity
  8
0
  6
BYBLOCK
 62
     0
100
AcDbLine
 10
204.0
 20
125.0
 30
0.0
 11
206.0
 21
125.0
 31
0.0
  0
LINE
  5
119F
100
AcDbEntity
  8
0
  6
BYBLOCK
 62
     0
100
AcDbLine
 10
206.0
 20
125.0
 30
0.0
 11
208.942156
 21
119.217141
 31
0.0
  0
MTEXT
  5
11A0
100
AcDbEntity
  8
0
  6
BYBLOCK
 62
     0
100
AcDbMText
 10
201.25
 20
125.0
 30
0.0
 40
3.5
 41
0.0
 71
     5
 72
     1
  1
\A1;\U+220515
  0
SOLID
  5
11A1
100
AcDbEntity
  8
0
  6
BYBLOCK
 62
     0
100
AcDbTrace
 10
209.239249
 20
119.368294
 30
0.0
 11
208.645064
 21
119.065989
 31
0.0
 12
209.849071
 22
117.434585
 32
0.0
 13
209.849071
 23
117.434585
 33
0.0
  0
LINE
  5
11A2
100
AcDbEntity
  8
0
  6
BYBLOCK
 62
     0
100
AcDbLine
 10
213.15
 20
110.750001
 30
0.0
 11
213.35
 21
110.750001
 31
0.0
  0
LINE
  5
11A3
100
AcDbEntity
  8
0
  6
BYBLOCK
 62
     0
100
AcDbLine
 10
213.25
 20
110.650001
 30
0.0
 11
213.25
 21
110.850001
 31
0.0
  0
POINT
  5
11A4
100
AcDbEntity
  8
DEFPOINTS
  6
BYBLOCK
 62
     0
100
AcDbPoint
 10
209.849071
 20
117.434585
 30
0.0
  0
POINT
  5
11A5
100
AcDbEntity
  8
DEFPOINTS
  6
BYBLOCK
 62
     0
100
AcDbPoint
 10
216.650929
 20
104.065416
 30
0.0
  0
ENDBLK
  5
11A7
100
AcDbEntity
  8
0
100
AcDbBlockEnd
  0
BLOCK
  5
11B1
100
AcDbEntity
  8
0
100
AcDbBlockBegin
  2
*D108
 70
     1
 10
0.0
 20
0.0
 30
0.0
  3
*D108
  1

  0
LINE
  5
11A9
100
AcDbEntity
  8
0
  6
BYBLOCK
 62
     0
100
AcDbLine
 10
202.75
 20
119.75
 30
0.0
 11
204.75
 21
119.75
 31
0.0
  0
LINE
  5
11AA
100
AcDbEntity
  8
0
  6
BYBLOCK
 62
     0
100
AcDbLine
 10
204.75
 20
119.75
 30
0.0
 11
207.757012
 21
116.566105
 31
0.0
  0
MTEXT
  5
11AB
100
AcDbEntity
  8
0
  6
BYBLOCK
 62
     0
100
AcDbMText
 10
200.0
 20
119.75
 30
0.0
 40
3.5
 41
0.0
 71
     5
 72
     1
  1
\A1;\U+220512
  0
SOLID
  5
11AC
100
AcDbEntity
  8
0
  6
BYBLOCK
 62
     0
100
AcDbTrace
 10
207.999349
 20
116.79498
 30
0.0
 11
207.514674
 21
116.337231
 31
0.0
 12
209.130259
 22
115.112079
 32
0.0
 13
209.130259
 23
115.112079
 33
0.0
  0
LINE
  5
11AD
100
AcDbEntity
  8
0
  6
BYBLOCK
 62
     0
100
AcDbLine
 10
213.15
 20
110.75
 30
0.0
 11
213.35
 21
110.75
 31
0.0
  0
LINE
  5
11AE
100
AcDbEntity
  8
0
  6
BYBLOCK
 62
     0
100
AcDbLine
 10
213.25
 20
110.65
 30
0.0
 11
213.25
 21
110.85
 31
0.0
  0
POINT
  5
11AF
100
AcDbEntity
  8
DEFPOINTS
  6
BYBLOCK
 62
     0
100
AcDbPoint
 10
209.130259
 20
115.112079
 30
0.0
  0
POINT
  5
11B0
100
AcDbEntity
  8
DEFPOINTS
  6
BYBLOCK
 62
     0
100
AcDbPoint
 10
217.369741
 20
106.387921
 30
0.0
  0
ENDBLK
  5
11B2
100
AcDbEntity
  8
0
100
AcDbBlockEnd
  0
BLOCK
  5
11BE
100
AcDbEntity
  8
0
100
AcDbBlockBegin
  2
*D109
 70
     1
 10
0.0
 20
0.0
 30
0.0
  3
*D109
  1

  0
LINE
  5
11B4
100
AcDbEntity
  8
0
  6
BYBLOCK
 62
     0
100
AcDbLine
 10
141.75
 20
118.35
 30
0.0
 11
141.75
 21
126.2
 31
0.0
  0
LINE
  5
11B5
100
AcDbEntity
  8
0
  6
BYBLOCK
 62
     0
100
AcDbLine
 10
142.75
 20
111.6
 30
0.0
 11
142.75
 21
126.2
 31
0.0
  0
LINE
  5
11B6
100
AcDbEntity
  8
0
  6
BYBLOCK
 62
     0
100
AcDbLine
 10
144.75
 20
126.0
 30
0.0
 11
146.75
 21
126.0
 31
0.0
  0
LINE
  5
11B7
100
AcDbEntity
  8
0
  6
BYBLOCK
 62
     0
100
AcDbLine
 10
139.75
 20
126.0
 30
0.0
 11
134.6
 21
126.0
 31
0.0
  0
SOLID
  5
11B8
100
AcDbEntity
  8
0
  6
BYBLOCK
 62
     0
100
AcDbTrace
 10
144.75
 20
126.333333
 30
0.0
 11
144.75
 21
125.666667
 31
0.0
 12
142.75
 22
126.0
 32
0.0
 13
142.75
 23
126.0
 33
0.0
  0
SOLID
  5
11B9
100
AcDbEntity
  8
0
  6
BYBLOCK
 62
     0
100
AcDbTrace
 10
139.75
 20
126.333333
 30
0.0
 11
139.75
 21
125.666667
 31
0.0
 12
141.75
 22
126.0
 32
0.0
 13
141.75
 23
126.0
 33
0.0
  0
MTEXT
  5
11BA
100
AcDbEntity
  8
0
  6
BYBLOCK
 62
     0
100
AcDbMText
 10
134.25
 20
126.0
 30
0.0
 40
3.5
 41
0.0
 71
     5
 72
     1
  1
\A1;1
  0
POINT
  5
11BB
100
AcDbEntity
  8
DEFPOINTS
  6
BYBLOCK
 62
     0
100
AcDbPoint
 10
141.75
 20
118.25
 30
0.0
  0
POINT
  5
11BC
100
AcDbEntity
  8
DEFPOINTS
  6
BYBLOCK
 62
     0
100
AcDbPoint
 10
142.75
 20
111.5
 30
0.0
  0
POINT
  5
11BD
100
AcDbEntity
  8
DEFPOINTS
  6
BYBLOCK
 62
     0
100
AcDbPoint
 10
142.75
 20
126.0
 30
0.0
  0
ENDBLK
  5
11BF
100
AcDbEntity
  8
0
100
AcDbBlockEnd
  0
BLOCK
  5
11CB
100
AcDbEntity
  8
0
100
AcDbBlockBegin
  2
*D110
 70
     1
 10
0.0
 20
0.0
 30
0.0
  3
*D110
  1

  0
LINE
  5
11C1
100
AcDbEntity
  8
0
  6
BYBLOCK
 62
     0
100
AcDbLine
 10
141.75
 20
118.45
 30
0.0
 11
141.75
 21
131.45
 31
0.0
  0
LINE
  5
11C2
100
AcDbEntity
  8
0
  6
BYBLOCK
 62
     0
100
AcDbLine
 10
145.75
 20
118.35
 30
0.0
 11
145.75
 21
131.45
 31
0.0
  0
LINE
  5
11C3
100
AcDbEntity
  8
0
  6
BYBLOCK
 62
     0
100
AcDbLine
 10
147.75
 20
131.25
 30
0.0
 11
149.75
 21
131.25
 31
0.0
  0
LINE
  5
11C4
100
AcDbEntity
  8
0
  6
BYBLOCK
 62
     0
100
AcDbLine
 10
139.75
 20
131.25
 30
0.0
 11
133.6
 21
131.25
 31
0.0
  0
SOLID
  5
11C5
100
AcDbEntity
  8
0
  6
BYBLOCK
 62
     0
100
AcDbTrace
 10
147.75
 20
131.583333
 30
0.0
 11
147.75
 21
130.916667
 31
0.0
 12
145.75
 22
131.25
 32
0.0
 13
145.75
 23
131.25
 33
0.0
  0
SOLID
  5
11C6
100
AcDbEntity
  8
0
  6
BYBLOCK
 62
     0
100
AcDbTrace
 10
139.75
 20
131.583333
 30
0.0
 11
139.75
 21
130.916667
 31
0.0
 12
141.75
 22
131.25
 32
0.0
 13
141.75
 23
131.25
 33
0.0
  0
MTEXT
  5
11C7
100
AcDbEntity
  8
0
  6
BYBLOCK
 62
     0
100
AcDbMText
 10
132.75
 20
131.25
 30
0.0
 40
3.5
 41
0.0
 71
     5
 72
     1
  1
\A1;4
  0
POINT
  5
11C8
100
AcDbEntity
  8
DEFPOINTS
  6
BYBLOCK
 62
     0
100
AcDbPoint
 10
141.75
 20
118.35
 30
0.0
  0
POINT
  5
11C9
100
AcDbEntity
  8
DEFPOINTS
  6
BYBLOCK
 62
     0
100
AcDbPoint
 10
145.75
 20
118.25
 30
0.0
  0
POINT
  5
11CA
100
AcDbEntity
  8
DEFPOINTS
  6
BYBLOCK
 62
     0
100
AcDbPoint
 10
145.75
 20
131.25
 30
0.0
  0
ENDBLK
  5
11CC
100
AcDbEntity
  8
0
100
AcDbBlockEnd
  0
BLOCK
  5
11D8
100
AcDbEntity
  8
0
100
AcDbBlockBegin
  2
*D111
 70
     1
 10
0.0
 20
0.0
 30
0.0
  3
*D111
  1

  0
LINE
  5
11CE
100
AcDbEntity
  8
0
  6
BYBLOCK
 62
     0
100
AcDbLine
 10
141.75
 20
118.35
 30
0.0
 11
141.75
 21
144.7
 31
0.0
  0
LINE
  5
11CF
100
AcDbEntity
  8
0
  6
BYBLOCK
 62
     0
100
AcDbLine
 10
189.75
 20
114.85
 30
0.0
 11
189.75
 21
144.7
 31
0.0
  0
LINE
  5
11D0
100
AcDbEntity
  8
0
  6
BYBLOCK
 62
     0
100
AcDbLine
 10
143.75
 20
144.5
 30
0.0
 11
163.95
 21
144.5
 31
0.0
  0
LINE
  5
11D1
100
AcDbEntity
  8
0
  6
BYBLOCK
 62
     0
100
AcDbLine
 10
187.75
 20
144.5
 30
0.0
 11
167.55
 21
144.5
 31
0.0
  0
SOLID
  5
11D2
100
AcDbEntity
  8
0
  6
BYBLOCK
 62
     0
100
AcDbTrace
 10
143.75
 20
144.833333
 30
0.0
 11
143.75
 21
144.166667
 31
0.0
 12
141.75
 22
144.5
 32
0.0
 13
141.75
 23
144.5
 33
0.0
  0
SOLID
  5
11D3
100
AcDbEntity
  8
0
  6
BYBLOCK
 62
     0
100
AcDbTrace
 10
187.75
 20
144.833333
 30
0.0
 11
187.75
 21
144.166667
 31
0.0
 12
189.75
 22
144.5
 32
0.0
 13
189.75
 23
144.5
 33
0.0
  0
MTEXT
  5
11D4
100
AcDbEntity
  8
0
  6
BYBLOCK
 62
     0
100
AcDbMText
 10
165.75
 20
144.5
 30
0.0
 40
3.5
 41
0.0
 71
     5
 72
     1
  1
\A1;48
  0
POINT
  5
11D5
100
AcDbEntity
  8
DEFPOINTS
  6
BYBLOCK
 62
     0
100
AcDbPoint
 10
141.75
 20
118.25
 30
0.0
  0
POINT
  5
11D6
100
AcDbEntity
  8
DEFPOINTS
  6
BYBLOCK
 62
     0
100
AcDbPoint
 10
189.75
 20
114.75
 30
0.0
  0
POINT
  5
11D7
100
AcDbEntity
  8
DEFPOINTS
  6
BYBLOCK
 62
     0
100
AcDbPoint
 10
189.75
 20
144.5
 30
0.0
  0
ENDBLK
  5
11D9
100
AcDbEntity
  8
0
100
AcDbBlockEnd
  0
BLOCK
  5
11E5
100
AcDbEntity
  8
0
100
AcDbBlockBegin
  2
*D112
 70
     1
 10
0.0
 20
0.0
 30
0.0
  3
*D112
  1

  0
LINE
  5
11DB
100
AcDbEntity
  8
0
  6
BYBLOCK
 62
     0
100
AcDbLine
 10
145.75
 20
118.45
 30
0.0
 11
145.75
 21
134.95
 31
0.0
  0
LINE
  5
11DC
100
AcDbEntity
  8
0
  6
BYBLOCK
 62
     0
100
AcDbLine
 10
171.75
 20
116.85
 30
0.0
 11
171.75
 21
134.95
 31
0.0
  0
LINE
  5
11DD
100
AcDbEntity
  8
0
  6
BYBLOCK
 62
     0
100
AcDbLine
 10
147.75
 20
134.75
 30
0.0
 11
156.95
 21
134.75
 31
0.0
  0
LINE
  5
11DE
100
AcDbEntity
  8
0
  6
BYBLOCK
 62
     0
100
AcDbLine
 10
169.75
 20
134.75
 30
0.0
 11
160.55
 21
134.75
 31
0.0
  0
SOLID
  5
11DF
100
AcDbEntity
  8
0
  6
BYBLOCK
 62
     0
100
AcDbTrace
 10
147.75
 20
135.083333
 30
0.0
 11
147.75
 21
134.416667
 31
0.0
 12
145.75
 22
134.75
 32
0.0
 13
145.75
 23
134.75
 33
0.0
  0
SOLID
  5
11E0
100
AcDbEntity
  8
0
  6
BYBLOCK
 62
     0
100
AcDbTrace
 10
169.75
 20
135.083333
 30
0.0
 11
169.75
 21
134.416667
 31
0.0
 12
171.75
 22
134.75
 32
0.0
 13
171.75
 23
134.75
 33
0.0
  0
MTEXT
  5
11E1
100
AcDbEntity
  8
0
  6
BYBLOCK
 62
     0
100
AcDbMText
 10
158.75
 20
134.75
 30
0.0
 40
3.5
 41
0.0
 71
     5
 72
     1
  1
\A1;26
  0
POINT
  5
11E2
100
AcDbEntity
  8
DEFPOINTS
  6
BYBLOCK
 62
     0
100
AcDbPoint
 10
145.75
 20
118.35
 30
0.0
  0
POINT
  5
11E3
100
AcDbEntity
  8
DEFPOINTS
  6
BYBLOCK
 62
     0
100
AcDbPoint
 10
171.75
 20
116.75
 30
0.0
  0
POINT
  5
11E4
100
AcDbEntity
  8
DEFPOINTS
  6
BYBLOCK
 62
     0
100
AcDbPoint
 10
171.75
 20
134.75
 30
0.0
  0
ENDBLK
  5
11E6
100
AcDbEntity
  8
0
100
AcDbBlockEnd
  0
BLOCK
  5
11F2
100
AcDbEntity
  8
0
100
AcDbBlockBegin
  2
*D113
 70
     1
 10
0.0
 20
0.0
 30
0.0
  3
*D113
  1

  0
LINE
  5
11E8
100
AcDbEntity
  8
0
  6
BYBLOCK
 62
     0
100
AcDbLine
 10
171.75
 20
116.95
 30
0.0
 11
171.75
 21
133.45
 31
0.0
  0
LINE
  5
11E9
100
AcDbEntity
  8
0
  6
BYBLOCK
 62
     0
100
AcDbLine
 10
189.75
 20
114.85
 30
0.0
 11
189.75
 21
133.45
 31
0.0
  0
LINE
  5
11EA
100
AcDbEntity
  8
0
  6
BYBLOCK
 62
     0
100
AcDbLine
 10
173.75
 20
133.25
 30
0.0
 11
179.35
 21
133.25
 31
0.0
  0
LINE
  5
11EB
100
AcDbEntity
  8
0
  6
BYBLOCK
 62
     0
100
AcDbLine
 10
187.75
 20
133.25
 30
0.0
 11
182.65
 21
133.25
 31
0.0
  0
SOLID
  5
11EC
100
AcDbEntity
  8
0
  6
BYBLOCK
 62
     0
100
AcDbTrace
 10
173.75
 20
133.583333
 30
0.0
 11
173.75
 21
132.916667
 31
0.0
 12
171.75
 22
133.25
 32
0.0
 13
171.75
 23
133.25
 33
0.0
  0
SOLID
  5
11ED
100
AcDbEntity
  8
0
  6
BYBLOCK
 62
     0
100
AcDbTrace
 10
187.75
 20
133.583333
 30
0.0
 11
187.75
 21
132.916667
 31
0.0
 12
189.75
 22
133.25
 32
0.0
 13
189.75
 23
133.25
 33
0.0
  0
MTEXT
  5
11EE
100
AcDbEntity
  8
0
  6
BYBLOCK
 62
     0
100
AcDbMText
 10
181.0
 20
133.25
 30
0.0
 40
3.5
 41
0.0
 71
     5
 72
     1
  1
\A1;18
  0
POINT
  5
11EF
100
AcDbEntity
  8
DEFPOINTS
  6
BYBLOCK
 62
     0
100
AcDbPoint
 10
171.75
 20
116.85
 30
0.0
  0
POINT
  5
11F0
100
AcDbEntity
  8
DEFPOINTS
  6
BYBLOCK
 62
     0
100
AcDbPoint
 10
189.75
 20
114.75
 30
0.0
  0
POINT
  5
11F1
100
AcDbEntity
  8
DEFPOINTS
  6
BYBLOCK
 62
     0
100
AcDbPoint
 10
189.75
 20
133.25
 30
0.0
  0
ENDBLK
  5
11F3
100
AcDbEntity
  8
0
100
AcDbBlockEnd
  0
BLOCK
  5
1200
100
AcDbEntity
  8
0
100
AcDbBlockBegin
  2
*D114
 70
     1
 10
0.0
 20
0.0
 30
0.0
  3
*D114
  1

  0
LINE
  5
11F5
100
AcDbEntity
  8
0
  6
BYBLOCK
 62
     0
100
AcDbLine
 10
141.65
 20
111.5
 30
0.0
 11
122.15
 21
111.5
 31
0.0
  0
LINE
  5
11F6
100
AcDbEntity
  8
0
  6
BYBLOCK
 62
     0
100
AcDbLine
 10
141.65
 20
110.0
 30
0.0
 11
122.15
 21
110.0
 31
0.0
  0
LINE
  5
11F7
100
AcDbEntity
  8
0
  6
BYBLOCK
 62
     0
100
AcDbLine
 10
122.35
 20
108.0
 30
0.0
 11
122.35
 21
106.0
 31
0.0
  0
LINE
  5
11F8
100
AcDbEntity
  8
0
  6
BYBLOCK
 62
     0
100
AcDbLine
 10
122.35
 20
113.5
 30
0.0
 11
122.35
 21
116.75
 31
0.0
  0
LINE
  5
11F9
100
AcDbEntity
  8
0
  6
BYBLOCK
 62
     0
100
AcDbLine
 10
122.35
 20
116.75
 30
0.0
 11
124.35
 21
116.75
 31
0.0
  0
SOLID
  5
11FA
100
AcDbEntity
  8
0
  6
BYBLOCK
 62
     0
100
AcDbTrace
 10
122.016667
 20
108.0
 30
0.0
 11
122.683333
 21
108.0
 31
0.0
 12
122.35
 22
110.0
 32
0.0
 13
122.35
 23
110.0
 33
0.0
  0
SOLID
  5
11FB
100
AcDbEntity
  8
0
  6
BYBLOCK
 62
     0
100
AcDbTrace
 10
122.016667
 20
113.5
 30
0.0
 11
122.683333
 21
113.5
 31
0.0
 12
122.35
 22
111.5
 32
0.0
 13
122.35
 23
111.5
 33
0.0
  0
MTEXT
  5
11FC
100
AcDbEntity
  8
0
  6
BYBLOCK
 62
     0
100
AcDbMText
 10
126.5
 20
116.75
 30
0.0
 40
3.5
 41
0.0
 71
     5
 72
     1
  1
\A1;1.5
  0
POINT
  5
11FD
100
AcDbEntity
  8
DEFPOINTS
  6
BYBLOCK
 62
     0
100
AcDbPoint
 10
141.75
 20
111.5
 30
0.0
  0
POINT
  5
11FE
100
AcDbEntity
  8
DEFPOINTS
  6
BYBLOCK
 62
     0
100
AcDbPoint
 10
141.75
 20
110.0
 30
0.0
  0
POINT
  5
11FF
100
AcDbEntity
  8
DEFPOINTS
  6
BYBLOCK
 62
     0
100
AcDbPoint
 10
122.35
 20
110.0
 30
0.0
  0
ENDBLK
  5
1201
100
AcDbEntity
  8
0
100
AcDbBlockEnd
  0
BLOCK
  5
1235
100
AcDbEntity
  8
0
100
AcDbBlockBegin
  2
A$C294906BD
 70
     0
 10
0.0
 20
0.0
 30
0.0
  3
A$C294906BD
  1

  0
DIMENSION
  5
1203
100
AcDbEntity
  8
0
100
AcDbDimension
  2
*D114
 10
51.2
 20
12.25
 30
0.0
 11
55.35
 21
19.0
 31
0.0
 12
-71.15
 22
-97.75
 32
0.0
 70
   128
  3
STANDARD
100
AcDbAlignedDimension
 13
70.6
 23
13.75
 33
0.0
 14
70.6
 24
12.25
 34
0.0
 50
90.0
100
AcDbRotatedDimension
1001
ACAD
1000
DSTYLE
1002
{
1070
    78
1070
     8
1070
   288
1070
     1
1070
   284
1070
     8
1070
   140
1040
2.0
1070
    73
1070
     0
1070
   272
1070
     2
1070
   147
1040
0.1
1070
    42
1040
0.1
1070
    44
1040
0.2
1070
    43
1040
0.4
1070
   271
1070
     2
1070
   141
1040
0.1
1070
    41
1040
2.0
1002
}
  0
DIMENSION
  5
1204
100
AcDbEntity
  8
0
100
AcDbDimension
  2
*D110
 10
74.6
 20
33.5
 30
0.0
 11
61.6
 21
33.5
 31
0.0
 12
-71.15
 22
-97.75
 32
0.0
 70
   128
  3
STANDARD
100
AcDbAlignedDimension
 13
70.6
 23
20.6
 33
0.0
 14
74.6
 24
20.5
 34
0.0
100
AcDbRotatedDimension
1001
ACAD
1000
DSTYLE
1002
{
1070
    78
1070
     8
1070
   288
1070
     1
1070
   284
1070
     8
1070
   140
1040
2.0
1070
    73
1070
     0
1070
   272
1070
     2
1070
   147
1040
0.1
1070
    42
1040
0.1
1070
    44
1040
0.2
1070
    43
1040
0.4
1070
   271
1070
     2
1070
   141
1040
0.1
1070
    41
1040
2.0
1002
}
  0
DIMENSION
  5
1205
100
AcDbEntity
  8
0
100
AcDbDimension
  2
*D109
 10
71.6
 20
28.25
 30
0.0
 11
63.1
 21
28.25
 31
0.0
 12
-71.15
 22
-97.75
 32
0.0
 70
   128
  3
STANDARD
100
AcDbAlignedDimension
 13
70.6
 23
20.5
 33
0.0
 14
71.6
 24
13.75
 34
0.0
100
AcDbRotatedDimension
1001
ACAD
1000
DSTYLE
1002
{
1070
    78
1070
     8
1070
   288
1070
     1
1070
   284
1070
     8
1070
   140
1040
2.0
1070
    73
1070
     0
1070
   272
1070
     2
1070
   147
1040
0.1
1070
    42
1040
0.1
1070
    44
1040
0.2
1070
    43
1040
0.4
1070
   271
1070
     2
1070
   141
1040
0.1
1070
    41
1040
2.0
1002
}
  0
LINE
  5
1206
100
AcDbEntity
  8
1
100
AcDbLine
 10
67.350001
 20
13.000001
 30
0.0
 11
121.85
 21
13.000001
 31
0.0
  0
DIMENSION
  5
1207
100
AcDbEntity
  8
0
100
AcDbDimension
  2
*D106
 10
39.648584
 20
7.453669
 30
0.0
 11
12.1
 21
32.5
 31
0.0
 12
-71.15
 22
-97.75
 32
0.0
 70
   131
  3
STANDARD
100
AcDbDiametricDimension
 15
29.551416
 25
18.546332
 35
0.0
 40
0.0
1001
ACAD
1000
DSTYLE
1002
{
1070
    78
1070
     8
1070
   288
1070
     1
1070
   284
1070
     8
1070
   140
1040
2.0
1070
    73
1070
     0
1070
   272
1070
     2
1070
   147
1040
0.1
1070
    42
1040
0.1
1070
    44
1040
0.2
1070
    43
1040
0.4
1070
   271
1070
     2
1070
   141
1040
0.1
1070
    41
1040
2.0
1002
}
  0
LINE
  5
1208
100
AcDbEntity
  8
1
100
AcDbLine
 10
45.850001
 20
13.000001
 30
0.0
 11
21.35
 21
13.000001
 31
0.0
  0
TEXT
  5
1209
100
AcDbEntity
  8
0
100
AcDbText
 10
-0.4
 20
44.5
 30
0.0
 40
3.5
  1
M10
 41
0.6
100
AcDbText
  0
CIRCLE
  5
120A
100
AcDbEntity
  8
3
100
AcDbCircle
 10
34.6
 20
13.000001
 30
0.0
 40
7.499999
  0
LINE
  5
120B
100
AcDbEntity
  8
1
100
AcDbLine
 10
34.6
 20
24.5
 30
0.0
 11
34.6
 21
0.0
 31
0.0
  0
LINE
  5
120C
100
AcDbEntity
  8
3
100
AcDbLine
 10
42.062405
 20
12.25
 30
0.0
 11
27.137595
 21
12.25
 31
0.0
  0
LINE
  5
120D
100
AcDbEntity
  8
3
100
AcDbLine
 10
42.062406
 20
13.75
 30
0.0
 11
27.137595
 21
13.75
 31
0.0
  0
DIMENSION
  5
120E
100
AcDbEntity
  8
0
100
AcDbDimension
  2
*D113
 10
118.6
 20
35.5
 30
0.0
 11
109.85
 21
35.5
 31
0.0
 12
-71.15
 22
-97.75
 32
0.0
 70
   128
  3
STANDARD
100
AcDbAlignedDimension
 13
100.6
 23
19.1
 33
0.0
 14
118.6
 24
17.0
 34
0.0
100
AcDbRotatedDimension
1001
ACAD
1000
DSTYLE
1002
{
1070
    78
1070
     8
1070
   288
1070
     1
1070
   284
1070
     8
1070
   140
1040
2.0
1070
    73
1070
     0
1070
   272
1070
     2
1070
   147
1040
0.1
1070
    42
1040
0.1
1070
    44
1040
0.2
1070
    43
1040
0.4
1070
   271
1070
     2
1070
   141
1040
0.1
1070
    41
1040
2.0
1002
}
  0
DIMENSION
  5
120F
100
AcDbEntity
  8
0
100
AcDbDimension
  2
*D111
 10
118.6
 20
46.75
 30
0.0
 11
94.6
 21
46.75
 31
0.0
 12
-71.15
 22
-97.75
 32
0.0
 70
   128
  3
STANDARD
100
AcDbAlignedDimension
 13
70.6
 23
20.5
 33
0.0
 14
118.6
 24
17.0
 34
0.0
100
AcDbRotatedDimension
1001
ACAD
1000
DSTYLE
1002
{
1070
    78
1070
     8
1070
   288
1070
     1
1070
   284
1070
     8
1070
   140
1040
2.0
1070
    73
1070
     0
1070
   272
1070
     2
1070
   147
1040
0.1
1070
    42
1040
0.1
1070
    44
1040
0.2
1070
    43
1040
0.4
1070
   271
1070
     2
1070
   141
1040
0.1
1070
    41
1040
2.0
1002
}
  0
LINE
  5
1210
100
AcDbEntity
  8
3
100
AcDbLine
 10
101.6
 20
9.0
 30
0.0
 11
118.6
 21
9.0
 31
0.0
  0
LINE
  5
1211
100
AcDbEntity
  8
3
100
AcDbLine
 10
100.6
 20
8.0
 30
0.0
 11
117.6
 21
8.0
 31
0.0
  0
LINE
  5
1212
100
AcDbEntity
  8
3
100
AcDbLine
 10
101.6
 20
17.0
 30
0.0
 11
118.6
 21
17.0
 31
0.0
  0
LINE
  5
1213
100
AcDbEntity
  8
3
100
AcDbLine
 10
100.6
 20
18.0
 30
0.0
 11
117.6
 21
18.0
 31
0.0
  0
DIMENSION
  5
1214
100
AcDbEntity
  8
0
100
AcDbDimension
  2
*D112
 10
100.6
 20
37.0
 30
0.0
 11
87.6
 21
37.0
 31
0.0
 12
-71.15
 22
-97.75
 32
0.0
 70
   128
  3
STANDARD
100
AcDbAlignedDimension
 13
74.6
 23
20.6
 33
0.0
 14
100.6
 24
19.0
 34
0.0
100
AcDbRotatedDimension
1001
ACAD
1000
DSTYLE
1002
{
1070
    78
1070
     8
1070
   288
1070
     1
1070
   284
1070
     8
1070
   140
1040
2.0
1070
    73
1070
     0
1070
   272
1070
     2
1070
   147
1040
0.1
1070
    42
1040
0.1
1070
    44
1040
0.2
1070
    43
1040
0.4
1070
   271
1070
     2
1070
   141
1040
0.1
1070
    41
1040
2.0
1002
}
  0
LINE
  5
1215
100
AcDbEntity
  8
3
100
AcDbLine
 10
100.6
 20
19.0
 30
0.0
 11
74.6
 21
19.0
 31
0.0
  0
LINE
  5
1216
100
AcDbEntity
  8
3
100
AcDbLine
 10
100.6
 20
7.0
 30
0.0
 11
74.6
 21
7.0
 31
0.0
  0
LINE
  5
1217
100
AcDbEntity
  8
3
100
AcDbLine
 10
74.6
 20
13.0
 30
0.0
 11
74.6
 21
20.5
 31
0.0
  0
LINE
  5
1218
100
AcDbEntity
  8
3
100
AcDbLine
 10
70.6
 20
20.5
 30
0.0
 11
70.6
 21
13.75
 31
0.0
  0
LINE
  5
1219
100
AcDbEntity
  8
3
100
AcDbLine
 10
70.6
 20
5.5
 30
0.0
 11
70.6
 21
12.25
 31
0.0
  0
LINE
  5
121A
100
AcDbEntity
  8
3
100
AcDbLine
 10
74.6
 20
13.0
 30
0.0
 11
74.6
 21
5.5
 31
0.0
  0
LINE
  5
121B
100
AcDbEntity
  8
3
100
AcDbLine
 10
74.6
 20
5.5
 30
0.0
 11
70.6
 21
5.5
 31
0.0
  0
LINE
  5
121C
100
AcDbEntity
  8
3
100
AcDbLine
 10
70.6
 20
13.75
 30
0.0
 11
71.6
 21
13.75
 31
0.0
  0
LINE
  5
121D
100
AcDbEntity
  8
3
100
AcDbLine
 10
70.6
 20
12.25
 30
0.0
 11
71.6
 21
12.25
 31
0.0
  0
LINE
  5
121E
100
AcDbEntity
  8
3
100
AcDbLine
 10
71.6
 20
13.75
 30
0.0
 11
71.6
 21
13.0
 31
0.0
  0
LINE
  5
121F
100
AcDbEntity
  8
3
100
AcDbLine
 10
71.6
 20
12.25
 30
0.0
 11
71.6
 21
13.0
 31
0.0
  0
LINE
  5
1220
100
AcDbEntity
  8
3
100
AcDbLine
 10
74.6
 20
20.5
 30
0.0
 11
70.6
 21
20.5
 31
0.0
  0
LINE
  5
1221
100
AcDbEntity
  8
3
100
AcDbLine
 10
101.6
 20
18.0
 30
0.0
 11
101.6
 21
13.0
 31
0.0
  0
LINE
  5
1222
100
AcDbEntity
  8
3
100
AcDbLine
 10
100.6
 20
13.0
 30
0.0
 11
100.6
 21
18.0
 31
0.0
  0
LINE
  5
1223
100
AcDbEntity
  8
3
100
AcDbLine
 10
100.6
 20
13.0
 30
0.0
 11
100.6
 21
19.0
 31
0.0
  0
LINE
  5
1224
100
AcDbEntity
  8
3
100
AcDbLine
 10
100.6
 20
13.0
 30
0.0
 11
100.6
 21
7.0
 31
0.0
  0
LINE
  5
1225
100
AcDbEntity
  8
3
100
AcDbLine
 10
100.6
 20
13.0
 30
0.0
 11
100.6
 21
8.0
 31
0.0
  0
LINE
  5
1226
100
AcDbEntity
  8
3
100
AcDbLine
 10
101.6
 20
8.0
 30
0.0
 11
101.6
 21
13.0
 31
0.0
  0
DIMENSION
  5
1227
100
AcDbEntity
  8
0
100
AcDbDimension
  2
*D108
 10
146.219742
 20
8.637921
 30
0.0
 11
128.85
 21
22.0
 31
0.0
 12
-71.15
 22
-97.75
 32
0.0
 70
   131
  3
STANDARD
100
AcDbDiametricDimension
 15
137.980259
 25
17.362079
 35
0.0
 40
0.0
1001
ACAD
1000
DSTYLE
1002
{
1070
    78
1070
     8
1070
   288
1070
     1
1070
   284
1070
     8
1070
   140
1040
2.0
1070
    73
1070
     0
1070
   272
1070
     2
1070
   147
1040
0.1
1070
    42
1040
0.1
1070
    44
1040
0.2
1070
    43
1040
0.4
1070
   271
1070
     2
1070
   141
1040
0.1
1070
    41
1040
2.0
1002
}
  0
DIMENSION
  5
1228
100
AcDbEntity
  8
0
100
AcDbDimension
  2
*D107
 10
145.500929
 20
6.315416
 30
0.0
 11
130.1
 21
27.25
 31
0.0
 12
-71.15
 22
-97.75
 32
0.0
 70
   131
  3
STANDARD
100
AcDbDiametricDimension
 15
138.699071
 25
19.684585
 35
0.0
 40
0.0
1001
ACAD
1000
DSTYLE
1002
{
1070
    78
1070
     8
1070
   288
1070
     1
1070
   284
1070
     8
1070
   140
1040
2.0
1070
    73
1070
     0
1070
   272
1070
     2
1070
   147
1040
0.1
1070
    42
1040
0.1
1070
    44
1040
0.2
1070
    43
1040
0.4
1070
   271
1070
     2
1070
   141
1040
0.1
1070
    41
1040
2.0
1002
}
  0
LINE
  5
1229
100
AcDbEntity
  8
1
100
AcDbLine
 10
153.350001
 20
13.000001
 30
0.0
 11
128.85
 21
13.000001
 31
0.0
  0
LINE
  5
122A
100
AcDbEntity
  8
3
100
AcDbLine
 10
117.6
 20
18.0
 30
0.0
 11
117.6
 21
13.0
 31
0.0
  0
LINE
  5
122B
100
AcDbEntity
  8
3
100
AcDbLine
 10
118.6
 20
17.0
 30
0.0
 11
118.6
 21
13.0
 31
0.0
  0
LINE
  5
122C
100
AcDbEntity
  8
3
100
AcDbLine
 10
117.6
 20
8.0
 30
0.0
 11
118.6
 21
9.0
 31
0.0
  0
LINE
  5
122D
100
AcDbEntity
  8
3
100
AcDbLine
 10
117.6
 20
8.0
 30
0.0
 11
117.6
 21
13.0
 31
0.0
  0
LINE
  5
122E
100
AcDbEntity
  8
3
100
AcDbLine
 10
118.6
 20
9.0
 30
0.0
 11
118.6
 21
13.0
 31
0.0
  0
LINE
  5
122F
100
AcDbEntity
  8
3
100
AcDbLine
 10
117.6
 20
18.0
 30
0.0
 11
118.6
 21
17.0
 31
0.0
  0
CIRCLE
  5
1230
100
AcDbEntity
  8
3
100
AcDbCircle
 10
142.1
 20
13.0
 30
0.0
 40
4.0
  0
CIRCLE
  5
1231
100
AcDbEntity
  8
3
100
AcDbCircle
 10
142.1
 20
13.0
 30
0.0
 40
5.0
  0
CIRCLE
  5
1232
100
AcDbEntity
  8
3
100
AcDbCircle
 10
142.1
 20
13.0
 30
0.0
 40
6.0
  0
LINE
  5
1233
100
AcDbEntity
  8
1
100
AcDbLine
 10
142.1
 20
24.5
 30
0.0
 11
142.1
 21
0.0
 31
0.0
  0
CIRCLE
  5
1234
100
AcDbEntity
  8
3
100
AcDbCircle
 10
142.1
 20
13.000001
 30
0.0
 40
7.499999
  0
ENDBLK
  5
1236
100
AcDbEntity
  8
0
100
AcDbBlockEnd
  0
BLOCK
  5
1239
100
AcDbEntity
  8
0
100
AcDbBlockBegin
  2
A$C2EA97131
 70
     0
 10
0.0
 20
0.0
 30
0.0
  3
A$C2EA97131
  1

  0
INSERT
  5
1238
100
AcDbEntity
  8
0
100
AcDbBlockReference
  2
A$C294906BD
 10
0.0
 20
-0.000001
 30
0.0
  0
ENDBLK
  5
123A
100
AcDbEntity
  8
0
100
AcDbBlockEnd
  0
BLOCK
  5
12DB
100
AcDbEntity
  8
0
100
AcDbBlockBegin
  2
*D117
 70
     1
 10
0.0
 20
0.0
 30
0.0
  3
*D117
  1

  0
LINE
  5
12DC
100
AcDbEntity
  8
0
  6
BYBLOCK
 62
     0
100
AcDbLine
 10
41.778998
 20
61.561308
 30
0.0
 11
22.278998
 21
61.561308
 31
0.0
  0
LINE
  5
12DD
100
AcDbEntity
  8
0
  6
BYBLOCK
 62
     0
100
AcDbLine
 10
41.778998
 20
60.061308
 30
0.0
 11
22.278998
 21
60.061308
 31
0.0
  0
LINE
  5
12DE
100
AcDbEntity
  8
0
  6
BYBLOCK
 62
     0
100
AcDbLine
 10
22.478998
 20
63.561308
 30
0.0
 11
22.478998
 21
65.561308
 31
0.0
  0
LINE
  5
12DF
100
AcDbEntity
  8
0
  6
BYBLOCK
 62
     0
100
AcDbLine
 10
22.478998
 20
58.061308
 30
0.0
 11
22.478998
 21
56.061308
 31
0.0
  0
MTEXT
  5
12E0
100
AcDbEntity
  8
0
  6
BYBLOCK
 62
     0
100
AcDbMText
 10
26.628998
 20
66.811308
 30
0.0
 40
10.0
 41
0.0
 71
     5
 72
     1
  1
\A1;1.5
  7
BIGFONT
  0
LINE
  5
12E1
100
AcDbEntity
  8
0
  6
BYBLOCK
 62
     0
100
AcDbLine
 10
22.478998
 20
61.561308
 30
0.0
 11
22.478998
 21
60.061308
 31
0.0
  0
SOLID
  5
12E2
100
AcDbEntity
  8
0
  6
BYBLOCK
 62
     0
100
AcDbTrace
 10
22.145664
 20
63.561308
 30
0.0
 11
22.812331
 21
63.561308
 31
0.0
 12
22.478998
 22
61.561308
 32
0.0
 13
22.478998
 23
61.561308
 33
0.0
  0
SOLID
  5
12E3
100
AcDbEntity
  8
0
  6
BYBLOCK
 62
     0
100
AcDbTrace
 10
22.145664
 20
58.061308
 30
0.0
 11
22.812331
 21
58.061308
 31
0.0
 12
22.478998
 22
60.061308
 32
0.0
 13
22.478998
 23
60.061308
 33
0.0
  0
POINT
  5
12E4
100
AcDbEntity
  8
DEFPOINTS
  6
BYBLOCK
 62
     0
100
AcDbPoint
 10
41.878998
 20
61.561308
 30
0.0
  0
POINT
  5
12E5
100
AcDbEntity
  8
DEFPOINTS
  6
BYBLOCK
 62
     0
100
AcDbPoint
 10
41.878998
 20
60.061308
 30
0.0
  0
POINT
  5
12E6
100
AcDbEntity
  8
DEFPOINTS
  6
BYBLOCK
 62
     0
100
AcDbPoint
 10
22.478998
 20
60.061308
 30
0.0
  0
ENDBLK
  5
12E7
100
AcDbEntity
  8
0
100
AcDbBlockEnd
  0
BLOCK
  5
12E8
100
AcDbEntity
  8
0
100
AcDbBlockBegin
  2
*D118
 70
     1
 10
0.0
 20
0.0
 30
0.0
  3
*D118
  1

  0
LINE
  5
12E9
100
AcDbEntity
  8
0
  6
BYBLOCK
 62
     0
100
AcDbLine
 10
41.878998
 20
68.511308
 30
0.0
 11
41.878998
 21
81.511308
 31
0.0
  0
LINE
  5
12EA
100
AcDbEntity
  8
0
  6
BYBLOCK
 62
     0
100
AcDbLine
 10
45.878998
 20
68.411308
 30
0.0
 11
45.878998
 21
81.511308
 31
0.0
  0
LINE
  5
12EB
100
AcDbEntity
  8
0
  6
BYBLOCK
 62
     0
100
AcDbLine
 10
39.878998
 20
81.311308
 30
0.0
 11
37.878998
 21
81.311308
 31
0.0
  0
LINE
  5
12EC
100
AcDbEntity
  8
0
  6
BYBLOCK
 62
     0
100
AcDbLine
 10
47.878998
 20
81.311308
 30
0.0
 11
49.878998
 21
81.311308
 31
0.0
  0
MTEXT
  5
12ED
100
AcDbEntity
  8
0
  6
BYBLOCK
 62
     0
100
AcDbMText
 10
32.878998
 20
81.311308
 30
0.0
 40
10.0
 41
0.0
 71
     5
 72
     1
  1
\A1;4
  7
BIGFONT
  0
LINE
  5
12EE
100
AcDbEntity
  8
0
  6
BYBLOCK
 62
     0
100
AcDbLine
 10
41.878998
 20
81.311308
 30
0.0
 11
45.878998
 21
81.311308
 31
0.0
  0
SOLID
  5
12EF
100
AcDbEntity
  8
0
  6
BYBLOCK
 62
     0
100
AcDbTrace
 10
39.878998
 20
81.644642
 30
0.0
 11
39.878998
 21
80.977975
 31
0.0
 12
41.878998
 22
81.311308
 32
0.0
 13
41.878998
 23
81.311308
 33
0.0
  0
SOLID
  5
12F0
100
AcDbEntity
  8
0
  6
BYBLOCK
 62
     0
100
AcDbTrace
 10
47.878998
 20
81.644642
 30
0.0
 11
47.878998
 21
80.977975
 31
0.0
 12
45.878998
 22
81.311308
 32
0.0
 13
45.878998
 23
81.311308
 33
0.0
  0
POINT
  5
12F1
100
AcDbEntity
  8
DEFPOINTS
  6
BYBLOCK
 62
     0
100
AcDbPoint
 10
41.878998
 20
68.411308
 30
0.0
  0
POINT
  5
12F2
100
AcDbEntity
  8
DEFPOINTS
  6
BYBLOCK
 62
     0
100
AcDbPoint
 10
45.878998
 20
68.311308
 30
0.0
  0
POINT
  5
12F3
100
AcDbEntity
  8
DEFPOINTS
  6
BYBLOCK
 62
     0
100
AcDbPoint
 10
45.878998
 20
81.311308
 30
0.0
  0
ENDBLK
  5
12F4
100
AcDbEntity
  8
0
100
AcDbBlockEnd
  0
BLOCK
  5
12F5
100
AcDbEntity
  8
0
100
AcDbBlockBegin
  2
*D119
 70
     1
 10
0.0
 20
0.0
 30
0.0
  3
*D119
  1

  0
LINE
  5
12F6
100
AcDbEntity
  8
0
  6
BYBLOCK
 62
     0
100
AcDbLine
 10
41.878998
 20
68.411308
 30
0.0
 11
41.878998
 21
76.261308
 31
0.0
  0
LINE
  5
12F7
100
AcDbEntity
  8
0
  6
BYBLOCK
 62
     0
100
AcDbLine
 10
42.878998
 20
61.661308
 30
0.0
 11
42.878998
 21
76.261308
 31
0.0
  0
LINE
  5
12F8
100
AcDbEntity
  8
0
  6
BYBLOCK
 62
     0
100
AcDbLine
 10
39.878998
 20
76.061308
 30
0.0
 11
37.878998
 21
76.061308
 31
0.0
  0
LINE
  5
12F9
100
AcDbEntity
  8
0
  6
BYBLOCK
 62
     0
100
AcDbLine
 10
44.878998
 20
76.061308
 30
0.0
 11
46.878998
 21
76.061308
 31
0.0
  0
MTEXT
  5
12FA
100
AcDbEntity
  8
0
  6
BYBLOCK
 62
     0
100
AcDbMText
 10
34.378998
 20
76.061308
 30
0.0
 40
10.0
 41
0.0
 71
     5
 72
     1
  1
\A1;1
  7
BIGFONT
  0
LINE
  5
12FB
100
AcDbEntity
  8
0
  6
BYBLOCK
 62
     0
100
AcDbLine
 10
41.878998
 20
76.061308
 30
0.0
 11
42.878998
 21
76.061308
 31
0.0
  0
SOLID
  5
12FC
100
AcDbEntity
  8
0
  6
BYBLOCK
 62
     0
100
AcDbTrace
 10
39.878998
 20
76.394642
 30
0.0
 11
39.878998
 21
75.727975
 31
0.0
 12
41.878998
 22
76.061308
 32
0.0
 13
41.878998
 23
76.061308
 33
0.0
  0
SOLID
  5
12FD
100
AcDbEntity
  8
0
  6
BYBLOCK
 62
     0
100
AcDbTrace
 10
44.878998
 20
76.394642
 30
0.0
 11
44.878998
 21
75.727975
 31
0.0
 12
42.878998
 22
76.061308
 32
0.0
 13
42.878998
 23
76.061308
 33
0.0
  0
POINT
  5
12FE
100
AcDbEntity
  8
DEFPOINTS
  6
BYBLOCK
 62
     0
100
AcDbPoint
 10
41.878998
 20
68.311308
 30
0.0
  0
POINT
  5
12FF
100
AcDbEntity
  8
DEFPOINTS
  6
BYBLOCK
 62
     0
100
AcDbPoint
 10
42.878998
 20
61.561308
 30
0.0
  0
POINT
  5
1300
100
AcDbEntity
  8
DEFPOINTS
  6
BYBLOCK
 62
     0
100
AcDbPoint
 10
42.878998
 20
76.061308
 30
0.0
  0
ENDBLK
  5
1301
100
AcDbEntity
  8
0
100
AcDbBlockEnd
  0
BLOCK
  5
1302
100
AcDbEntity
  8
0
100
AcDbBlockBegin
  2
*D120
 70
     1
 10
0.0
 20
0.0
 30
0.0
  3
*D120
  1

  0
LINE
  5
1303
100
AcDbEntity
  8
0
  6
BYBLOCK
 62
     0
100
AcDbLine
 10
9.581292
 20
56.743999
 30
0.0
 11
2.176703
 21
64.878618
 31
0.0
  0
MTEXT
  5
1304
100
AcDbEntity
  8
0
  6
BYBLOCK
 62
     0
100
AcDbMText
 10
-16.621002
 20
80.311308
 30
0.0
 40
10.0
 41
0.0
 71
     5
 72
     1
  1
\A1;\U+220515
  7
BIGFONT
  0
SOLID
  5
1305
100
AcDbEntity
  8
0
  6
BYBLOCK
 62
     0
100
AcDbTrace
 10
9.827796
 20
56.968381
 30
0.0
 11
9.334789
 21
56.519618
 31
0.0
 12
10.927581
 22
55.264978
 32
0.0
 13
10.927581
 23
55.264978
 33
0.0
  0
SOLID
  5
1306
100
AcDbEntity
  8
0
  6
BYBLOCK
 62
     0
100
AcDbTrace
 10
2.423206
 20
65.103
 30
0.0
 11
1.930199
 21
64.654237
 31
0.0
 12
0.830414
 22
66.35764
 32
0.0
 13
0.830414
 23
66.35764
 33
0.0
  0
POINT
  5
1307
100
AcDbEntity
  8
DEFPOINTS
  6
BYBLOCK
 62
     0
100
AcDbPoint
 10
0.830414
 20
66.35764
 30
0.0
  0
POINT
  5
1308
100
AcDbEntity
  8
DEFPOINTS
  6
BYBLOCK
 62
     0
100
AcDbPoint
 10
10.927581
 20
55.264978
 30
0.0
  0
ENDBLK
  5
1309
100
AcDbEntity
  8
0
100
AcDbBlockEnd
  0
BLOCK
  5
130A
100
AcDbEntity
  8
0
100
AcDbBlockBegin
  2
*D121
 70
     1
 10
0.0
 20
0.0
 30
0.0
  3
*D121
  1

  0
LINE
  5
130B
100
AcDbEntity
  8
0
  6
BYBLOCK
 62
     0
100
AcDbLine
 10
71.878998
 20
67.011308
 30
0.0
 11
71.878998
 21
83.511308
 31
0.0
  0
LINE
  5
130C
100
AcDbEntity
  8
0
  6
BYBLOCK
 62
     0
100
AcDbLine
 10
89.878998
 20
64.911308
 30
0.0
 11
89.878998
 21
83.511308
 31
0.0
  0
LINE
  5
130D
100
AcDbEntity
  8
0
  6
BYBLOCK
 62
     0
100
AcDbLine
 10
73.878998
 20
83.311308
 30
0.0
 11
74.362331
 21
83.311308
 31
0.0
  0
LINE
  5
130E
100
AcDbEntity
  8
0
  6
BYBLOCK
 62
     0
100
AcDbLine
 10
87.878998
 20
83.311308
 30
0.0
 11
87.778998
 21
83.311308
 31
0.0
  0
MTEXT
  5
130F
100
AcDbEntity
  8
0
  6
BYBLOCK
 62
     0
100
AcDbMText
 10
81.128998
 20
83.311308
 30
0.0
 40
10.0
 41
0.0
 71
     5
 72
     1
  1
\A1;18
  7
BIGFONT
  0
SOLID
  5
1310
100
AcDbEntity
  8
0
  6
BYBLOCK
 62
     0
100
AcDbTrace
 10
73.878998
 20
83.644642
 30
0.0
 11
73.878998
 21
82.977975
 31
0.0
 12
71.878998
 22
83.311308
 32
0.0
 13
71.878998
 23
83.311308
 33
0.0
  0
SOLID
  5
1311
100
AcDbEntity
  8
0
  6
BYBLOCK
 62
     0
100
AcDbTrace
 10
87.878998
 20
83.644642
 30
0.0
 11
87.878998
 21
82.977975
 31
0.0
 12
89.878998
 22
83.311308
 32
0.0
 13
89.878998
 23
83.311308
 33
0.0
  0
POINT
  5
1312
100
AcDbEntity
  8
DEFPOINTS
  6
BYBLOCK
 62
     0
100
AcDbPoint
 10
71.878998
 20
66.911308
 30
0.0
  0
POINT
  5
1313
100
AcDbEntity
  8
DEFPOINTS
  6
BYBLOCK
 62
     0
100
AcDbPoint
 10
89.878998
 20
64.811308
 30
0.0
  0
POINT
  5
1314
100
AcDbEntity
  8
DEFPOINTS
  6
BYBLOCK
 62
     0
100
AcDbPoint
 10
89.878998
 20
83.311308
 30
0.0
  0
ENDBLK
  5
1315
100
AcDbEntity
  8
0
100
AcDbBlockEnd
  0
BLOCK
  5
1316
100
AcDbEntity
  8
0
100
AcDbBlockBegin
  2
*D122
 70
     1
 10
0.0
 20
0.0
 30
0.0
  3
*D122
  1

  0
LINE
  5
1317
100
AcDbEntity
  8
0
  6
BYBLOCK
 62
     0
100
AcDbLine
 10
41.878998
 20
68.411308
 30
0.0
 11
41.878998
 21
94.761308
 31
0.0
  0
LINE
  5
1318
100
AcDbEntity
  8
0
  6
BYBLOCK
 62
     0
100
AcDbLine
 10
89.878998
 20
64.911308
 30
0.0
 11
89.878998
 21
94.761308
 31
0.0
  0
LINE
  5
1319
100
AcDbEntity
  8
0
  6
BYBLOCK
 62
     0
100
AcDbLine
 10
43.878998
 20
94.561308
 30
0.0
 11
57.445664
 21
94.561308
 31
0.0
  0
LINE
  5
131A
100
AcDbEntity
  8
0
  6
BYBLOCK
 62
     0
100
AcDbLine
 10
87.878998
 20
94.561308
 30
0.0
 11
74.312331
 21
94.561308
 31
0.0
  0
MTEXT
  5
131B
100
AcDbEntity
  8
0
  6
BYBLOCK
 62
     0
100
AcDbMText
 10
65.878998
 20
94.561308
 30
0.0
 40
10.0
 41
0.0
 71
     5
 72
     1
  1
\A1;48
  7
BIGFONT
  0
SOLID
  5
131C
100
AcDbEntity
  8
0
  6
BYBLOCK
 62
     0
100
AcDbTrace
 10
43.878998
 20
94.894642
 30
0.0
 11
43.878998
 21
94.227975
 31
0.0
 12
41.878998
 22
94.561308
 32
0.0
 13
41.878998
 23
94.561308
 33
0.0
  0
SOLID
  5
131D
100
AcDbEntity
  8
0
  6
BYBLOCK
 62
     0
100
AcDbTrace
 10
87.878998
 20
94.894642
 30
0.0
 11
87.878998
 21
94.227975
 31
0.0
 12
89.878998
 22
94.561308
 32
0.0
 13
89.878998
 23
94.561308
 33
0.0
  0
POINT
  5
131E
100
AcDbEntity
  8
DEFPOINTS
  6
BYBLOCK
 62
     0
100
AcDbPoint
 10
41.878998
 20
68.311308
 30
0.0
  0
POINT
  5
131F
100
AcDbEntity
  8
DEFPOINTS
  6
BYBLOCK
 62
     0
100
AcDbPoint
 10
89.878998
 20
64.811308
 30
0.0
  0
POINT
  5
1320
100
AcDbEntity
  8
DEFPOINTS
  6
BYBLOCK
 62
     0
100
AcDbPoint
 10
89.878998
 20
94.561308
 30
0.0
  0
ENDBLK
  5
1321
100
AcDbEntity
  8
0
100
AcDbBlockEnd
  0
BLOCK
  5
1322
100
AcDbEntity
  8
0
100
AcDbBlockBegin
  2
*D123
 70
     1
 10
0.0
 20
0.0
 30
0.0
  3
*D123
  1

  0
LINE
  5
1323
100
AcDbEntity
  8
0
  6
BYBLOCK
 62
     0
100
AcDbLine
 10
45.878998
 20
68.511308
 30
0.0
 11
45.878998
 21
85.011308
 31
0.0
  0
LINE
  5
1324
100
AcDbEntity
  8
0
  6
BYBLOCK
 62
     0
100
AcDbLine
 10
71.878998
 20
66.911308
 30
0.0
 11
71.878998
 21
85.011308
 31
0.0
  0
LINE
  5
1325
100
AcDbEntity
  8
0
  6
BYBLOCK
 62
     0
100
AcDbLine
 10
47.878998
 20
84.811308
 30
0.0
 11
50.445664
 21
84.811308
 31
0.0
  0
LINE
  5
1326
100
AcDbEntity
  8
0
  6
BYBLOCK
 62
     0
100
AcDbLine
 10
69.878998
 20
84.811308
 30
0.0
 11
67.312331
 21
84.811308
 31
0.0
  0
MTEXT
  5
1327
100
AcDbEntity
  8
0
  6
BYBLOCK
 62
     0
100
AcDbMText
 10
58.878998
 20
84.811308
 30
0.0
 40
10.0
 41
0.0
 71
     5
 72
     1
  1
\A1;26
  7
BIGFONT
  0
SOLID
  5
1328
100
AcDbEntity
  8
0
  6
BYBLOCK
 62
     0
100
AcDbTrace
 10
47.878998
 20
85.144642
 30
0.0
 11
47.878998
 21
84.477975
 31
0.0
 12
45.878998
 22
84.811308
 32
0.0
 13
45.878998
 23
84.811308
 33
0.0
  0
SOLID
  5
1329
100
AcDbEntity
  8
0
  6
BYBLOCK
 62
     0
100
AcDbTrace
 10
69.878998
 20
85.144642
 30
0.0
 11
69.878998
 21
84.477975
 31
0.0
 12
71.878998
 22
84.811308
 32
0.0
 13
71.878998
 23
84.811308
 33
0.0
  0
POINT
  5
132A
100
AcDbEntity
  8
DEFPOINTS
  6
BYBLOCK
 62
     0
100
AcDbPoint
 10
45.878998
 20
68.411308
 30
0.0
  0
POINT
  5
132B
100
AcDbEntity
  8
DEFPOINTS
  6
BYBLOCK
 62
     0
100
AcDbPoint
 10
71.878998
 20
66.811308
 30
0.0
  0
POINT
  5
132C
100
AcDbEntity
  8
DEFPOINTS
  6
BYBLOCK
 62
     0
100
AcDbPoint
 10
71.878998
 20
84.811308
 30
0.0
  0
ENDBLK
  5
132D
100
AcDbEntity
  8
0
100
AcDbBlockEnd
  0
BLOCK
  5
132E
100
AcDbEntity
  8
0
100
AcDbBlockBegin
  2
*D124
 70
     1
 10
0.0
 20
0.0
 30
0.0
  3
*D124
  1

  0
LINE
  5
132F
100
AcDbEntity
  8
0
  6
BYBLOCK
 62
     0
100
AcDbLine
 10
116.125492
 20
57.903256
 30
0.0
 11
110.632503
 21
63.719361
 31
0.0
  0
MTEXT
  5
1330
100
AcDbEntity
  8
0
  6
BYBLOCK
 62
     0
100
AcDbMText
 10
100.128998
 20
69.811308
 30
0.0
 40
10.0
 41
0.0
 71
     5
 72
     1
  1
\A1;\U+220512
  7
BIGFONT
  0
SOLID
  5
1331
100
AcDbEntity
  8
0
  6
BYBLOCK
 62
     0
100
AcDbTrace
 10
116.367829
 20
58.13213
 30
0.0
 11
115.883154
 21
57.674381
 31
0.0
 12
117.498739
 22
56.449229
 32
0.0
 13
117.498739
 23
56.449229
 33
0.0
  0
SOLID
  5
1332
100
AcDbEntity
  8
0
  6
BYBLOCK
 62
     0
100
AcDbTrace
 10
110.874841
 20
63.948235
 30
0.0
 11
110.390166
 21
63.490486
 31
0.0
 12
109.259256
 22
65.173387
 32
0.0
 13
109.259256
 23
65.173387
 33
0.0
  0
POINT
  5
1333
100
AcDbEntity
  8
DEFPOINTS
  6
BYBLOCK
 62
     0
100
AcDbPoint
 10
109.259256
 20
65.173387
 30
0.0
  0
POINT
  5
1334
100
AcDbEntity
  8
DEFPOINTS
  6
BYBLOCK
 62
     0
100
AcDbPoint
 10
117.498739
 20
56.449229
 30
0.0
  0
ENDBLK
  5
1335
100
AcDbEntity
  8
0
100
AcDbBlockEnd
  0
BLOCK
  5
1336
100
AcDbEntity
  8
0
100
AcDbBlockBegin
  2
*D125
 70
     1
 10
0.0
 20
0.0
 30
0.0
  3
*D125
  1

  0
LINE
  5
1337
100
AcDbEntity
  8
0
  6
BYBLOCK
 62
     0
100
AcDbLine
 10
115.873012
 20
55.90928
 30
0.0
 11
110.884983
 21
65.713337
 31
0.0
  0
MTEXT
  5
1338
100
AcDbEntity
  8
0
  6
BYBLOCK
 62
     0
100
AcDbMText
 10
101.378998
 20
75.061308
 30
0.0
 40
10.0
 41
0.0
 71
     5
 72
     1
  1
\A1;\U+220515
  7
BIGFONT
  0
SOLID
  5
1339
100
AcDbEntity
  8
0
  6
BYBLOCK
 62
     0
100
AcDbTrace
 10
116.170105
 20
56.060433
 30
0.0
 11
115.575919
 21
55.758128
 31
0.0
 12
116.779927
 22
54.126724
 32
0.0
 13
116.779927
 23
54.126724
 33
0.0
  0
SOLID
  5
133A
100
AcDbEntity
  8
0
  6
BYBLOCK
 62
     0
100
AcDbTrace
 10
111.182076
 20
65.86449
 30
0.0
 11
110.58789
 21
65.562185
 31
0.0
 12
109.978068
 22
67.495893
 32
0.0
 13
109.978068
 23
67.495893
 33
0.0
  0
POINT
  5
133B
100
AcDbEntity
  8
DEFPOINTS
  6
BYBLOCK
 62
     0
100
AcDbPoint
 10
109.978068
 20
67.495893
 30
0.0
  0
POINT
  5
133C
100
AcDbEntity
  8
DEFPOINTS
  6
BYBLOCK
 62
     0
100
AcDbPoint
 10
116.779927
 20
54.126724
 30
0.0
  0
ENDBLK
  5
133D
100
AcDbEntity
  8
0
100
AcDbBlockEnd
  0
ENDSEC
  0
SECTION
  2
ENTITIES
  0
LINE
  5
10A8
100
AcDbEntity
  8
1
100
AcDbLine
 10
4.431526
 20
35.13914
 30
0.0
 11
4.431526
 21
5.63914
 31
0.0
  0
CIRCLE
  5
10A9
100
AcDbEntity
  8
3
100
AcDbCircle
 10
4.431526
 20
20.38914
 30
0.0
 40
9.999999
  0
LINE
  5
10AA
100
AcDbEntity
  8
1
100
AcDbLine
 10
-10.568474
 20
20.38914
 30
0.0
 11
20.431526
 21
20.38914
 31
0.0
  0
LINE
  5
10B2
100
AcDbEntity
  8
3
100
AcDbLine
 10
59.181526
 20
30.38914
 30
0.0
 11
31.181526
 21
30.38914
 31
0.0
  0
LINE
  5
10B4
100
AcDbEntity
  8
3
100
AcDbLine
 10
59.181526
 20
10.389141
 30
0.0
 11
31.181526
 21
10.389141
 31
0.0
  0
LINE
  5
10B7
100
AcDbEntity
  8
1
100
AcDbLine
 10
27.931527
 20
20.38914
 30
0.0
 11
63.931526
 21
20.38914
 31
0.0
  0
LINE
  5
10B9
100
AcDbEntity
  8
3
100
AcDbLine
 10
30.181526
 20
12.589141
 30
0.0
 11
30.181526
 21
20.389141
 31
0.0
  0
ARC
  5
10BB
100
AcDbEntity
  8
3
100
AcDbCircle
 10
31.181526
 20
11.389141
 30
0.0
 40
1.0
100
AcDbArc
 50
180.0
 51
270.0
  0
LINE
  5
10BC
100
AcDbEntity
  8
3
100
AcDbLine
 10
30.181526
 20
11.389141
 30
0.0
 11
30.181526
 21
12.589141
 31
0.0
  0
LINE
  5
10BF
100
AcDbEntity
  8
3
100
AcDbLine
 10
30.181526
 20
28.18914
 30
0.0
 11
30.181526
 21
20.38914
 31
0.0
  0
LINE
  5
10C0
100
AcDbEntity
  8
3
100
AcDbLine
 10
30.181526
 20
29.38914
 30
0.0
 11
30.181526
 21
28.18914
 31
0.0
  0
ARC
  5
10C1
100
AcDbEntity
  8
3
100
AcDbCircle
 10
31.181526
 20
29.38914
 30
0.0
 40
1.0
100
AcDbArc
 50
90.0
 51
180.0
  0
LINE
  5
10C4
100
AcDbEntity
  8
3
100
AcDbLine
 10
60.181526
 20
20.38914
 30
0.0
 11
60.181526
 21
11.389141
 31
0.0
  0
ARC
  5
10C5
100
AcDbEntity
  8
3
100
AcDbCircle
 10
59.181526
 20
11.389141
 30
0.0
 40
1.0
100
AcDbArc
 50
270.0
 51
0.0
  0
LINE
  5
10C6
100
AcDbEntity
  8
3
100
AcDbLine
 10
60.181526
 20
20.38914
 30
0.0
 11
60.181526
 21
29.38914
 31
0.0
  0
ARC
  5
10C7
100
AcDbEntity
  8
3
100
AcDbCircle
 10
59.181526
 20
29.38914
 30
0.0
 40
1.0
100
AcDbArc
 50
0.0
 51
90.0
  0
LINE
  5
10CA
100
AcDbEntity
  8
1
100
AcDbLine
 10
99.681526
 20
35.13914
 30
0.0
 11
99.681526
 21
5.63914
 31
0.0
  0
LINE
  5
10CB
100
AcDbEntity
  8
1
100
AcDbLine
 10
84.681526
 20
20.38914
 30
0.0
 11
115.681526
 21
20.38914
 31
0.0
  0
CIRCLE
  5
10CC
100
AcDbEntity
  8
3
100
AcDbCircle
 10
99.681526
 20
20.38914
 30
0.0
 40
9.999999
  0
CIRCLE
  5
1244
100
AcDbEntity
  8
3
100
AcDbCircle
 10
4.431526
 20
20.38914
 30
0.0
 40
7.499999
  0
LINE
  5
1246
100
AcDbEntity
  8
3
100
AcDbLine
 10
11.893931
 20
19.63914
 30
0.0
 11
-3.030879
 21
19.63914
 31
0.0
  0
LINE
  5
1247
100
AcDbEntity
  8
3
100
AcDbLine
 10
11.893932
 20
21.13914
 30
0.0
 11
-3.030879
 21
21.13914
 31
0.0
  0
LINE
  5
124A
100
AcDbEntity
  8
3
100
AcDbLine
 10
62.181526
 20
16.38914
 30
0.0
 11
79.181526
 21
16.38914
 31
0.0
  0
LINE
  5
124B
100
AcDbEntity
  8
3
100
AcDbLine
 10
61.181526
 20
15.38914
 30
0.0
 11
78.181526
 21
15.38914
 31
0.0
  0
LINE
  5
124C
100
AcDbEntity
  8
3
100
AcDbLine
 10
62.181526
 20
24.38914
 30
0.0
 11
79.181526
 21
24.38914
 31
0.0
  0
LINE
  5
124D
100
AcDbEntity
  8
3
100
AcDbLine
 10
61.181526
 20
25.38914
 30
0.0
 11
78.181526
 21
25.38914
 31
0.0
  0
LINE
  5
124F
100
AcDbEntity
  8
3
100
AcDbLine
 10
61.181526
 20
26.38914
 30
0.0
 11
60.181526
 21
26.38914
 31
0.0
  0
LINE
  5
1250
100
AcDbEntity
  8
3
100
AcDbLine
 10
61.181526
 20
14.38914
 30
0.0
 11
60.181526
 21
14.38914
 31
0.0
  0
LINE
  5
125B
100
AcDbEntity
  8
3
100
AcDbLine
 10
62.181526
 20
25.38914
 30
0.0
 11
62.181526
 21
20.38914
 31
0.0
  0
LINE
  5
125C
100
AcDbEntity
  8
3
100
AcDbLine
 10
61.181526
 20
20.38914
 30
0.0
 11
61.181526
 21
25.38914
 31
0.0
  0
LINE
  5
125D
100
AcDbEntity
  8
3
100
AcDbLine
 10
61.181526
 20
20.38914
 30
0.0
 11
61.181526
 21
26.38914
 31
0.0
  0
LINE
  5
125E
100
AcDbEntity
  8
3
100
AcDbLine
 10
61.181526
 20
20.38914
 30
0.0
 11
61.181526
 21
14.38914
 31
0.0
  0
LINE
  5
125F
100
AcDbEntity
  8
3
100
AcDbLine
 10
61.181526
 20
20.38914
 30
0.0
 11
61.181526
 21
15.38914
 31
0.0
  0
LINE
  5
1260
100
AcDbEntity
  8
3
100
AcDbLine
 10
62.181526
 20
15.38914
 30
0.0
 11
62.181526
 21
20.38914
 31
0.0
  0
LINE
  5
1264
100
AcDbEntity
  8
3
100
AcDbLine
 10
78.181526
 20
25.38914
 30
0.0
 11
78.181526
 21
20.38914
 31
0.0
  0
LINE
  5
1265
100
AcDbEntity
  8
3
100
AcDbLine
 10
79.181526
 20
24.38914
 30
0.0
 11
79.181526
 21
20.38914
 31
0.0
  0
LINE
  5
1266
100
AcDbEntity
  8
3
100
AcDbLine
 10
78.181526
 20
15.38914
 30
0.0
 11
79.181526
 21
16.38914
 31
0.0
  0
LINE
  5
1267
100
AcDbEntity
  8
3
100
AcDbLine
 10
78.181526
 20
15.38914
 30
0.0
 11
78.181526
 21
20.38914
 31
0.0
  0
LINE
  5
1268
100
AcDbEntity
  8
3
100
AcDbLine
 10
79.181526
 20
16.38914
 30
0.0
 11
79.181526
 21
20.38914
 31
0.0
  0
LINE
  5
1269
100
AcDbEntity
  8
3
100
AcDbLine
 10
78.181526
 20
25.38914
 30
0.0
 11
79.181526
 21
24.38914
 31
0.0
  0
CIRCLE
  5
126A
100
AcDbEntity
  8
3
100
AcDbCircle
 10
99.681526
 20
20.38914
 30
0.0
 40
4.0
  0
CIRCLE
  5
126B
100
AcDbEntity
  8
3
100
AcDbCircle
 10
99.681526
 20
20.38914
 30
0.0
 40
5.0
  0
CIRCLE
  5
126C
100
AcDbEntity
  8
3
100
AcDbCircle
 10
99.681526
 20
20.38914
 30
0.0
 40
6.0
  0
CIRCLE
  5
126E
100
AcDbEntity
  8
3
100
AcDbCircle
 10
99.681526
 20
20.38914
 30
0.0
 40
7.499999
  0
LINE
  5
133E
100
AcDbEntity
  8
2
100
AcDbLine
 10
30.181526
 20
28.18914
 30
0.0
 11
35.181526
 21
28.18914
 31
0.0
  0
LINE
  5
133F
100
AcDbEntity
  8
2
100
AcDbLine
 10
35.181526
 20
28.18914
 30
0.0
 11
35.181526
 21
12.589141
 31
0.0
  0
LINE
  5
1340
100
AcDbEntity
  8
2
100
AcDbLine
 10
35.181526
 20
12.589141
 30
0.0
 11
30.181526
 21
12.589141
 31
0.0
  0
LINE
  5
1341
100
AcDbEntity
  8
2
100
AcDbLine
 10
35.181526
 20
27.88914
 30
0.0
 11
31.181526
 21
27.88914
 31
0.0
  0
LINE
  5
1342
100
AcDbEntity
  8
2
100
AcDbLine
 10
31.181526
 20
27.88914
 30
0.0
 11
31.181526
 21
21.13914
 31
0.0
  0
LINE
  5
1343
100
AcDbEntity
  8
2
100
AcDbLine
 10
31.181526
 20
21.13914
 30
0.0
 11
32.181526
 21
21.13914
 31
0.0
  0
LINE
  5
1344
100
AcDbEntity
  8
2
100
AcDbLine
 10
32.181526
 20
21.13914
 30
0.0
 11
32.181526
 21
19.63914
 31
0.0
  0
LINE
  5
1345
100
AcDbEntity
  8
2
100
AcDbLine
 10
32.181526
 20
19.63914
 30
0.0
 11
31.181526
 21
19.63914
 31
0.0
  0
LINE
  5
1346
100
AcDbEntity
  8
2
100
AcDbLine
 10
31.181526
 20
19.63914
 30
0.0
 11
31.181526
 21
12.88914
 31
0.0
  0
LINE
  5
1347
100
AcDbEntity
  8
2
100
AcDbLine
 10
31.181526
 20
12.88914
 30
0.0
 11
35.181526
 21
12.88914
 31
0.0
  0
LINE
  5
1348
100
AcDbEntity
  8
2
100
AcDbLine
 10
35.181526
 20
26.38914
 30
0.0
 11
60.181526
 21
26.38914
 31
0.0
  0
LINE
  5
1349
100
AcDbEntity
  8
2
100
AcDbLine
 10
35.181526
 20
14.38914
 30
0.0
 11
60.181526
 21
14.38914
 31
0.0
  0
ENDSEC
  0
SECTION
  2
OBJECTS
  0
DICTIONARY
  5
20B
100
AcDbDictionary
  3
ACAD_GROUP
350
20C
  3
ACAD_MLINESTYLE
350
219
  3
ACDBVARIABLEDICTIONARY
350
228
  0
DICTIONARY
  5
2C7
100
AcDbDictionary
280
     1
  3
ACAD_XREC_ROUNDTRIP
360
2C8
  0
DICTIONARY
  5
20C
102
{ACAD_REACTORS
330
20B
102
}
100
AcDbDictionary
  0
DICTIONARY
  5
219
102
{ACAD_REACTORS
330
20B
102
}
100
AcDbDictionary
  3
STANDARD
350
21A
  0
DICTIONARY
  5
228
102
{ACAD_REACTORS
330
20B
102
}
100
AcDbDictionary
  3
DIMADEC
350
229
  0
XRECORD
  5
2C8
102
{ACAD_REACTORS
330
2C7
102
}
100
AcDbXrecord
102
PLOTBIT
280
     0
  0
MLINESTYLE
  5
21A
102
{ACAD_REACTORS
330
219
102
}
100
AcDbMlineStyle
  2
STANDARD
 70
     0
  3

 62
   256
 51
90.0
 52
90.0
 71
     2
 49
0.5
 62
   256
  6
BYLAYER
 49
-0.5
 62
   256
  6
BYLAYER
  0
DICTIONARYVAR
  5
229
102
{ACAD_REACTORS
330
228
102
}
100
DictionaryVariables
280
     0
  1
0
  0
ENDSEC
  0
EOF
