  0
SECTION
  2
HEADER
  9
$ACADVER
  1
AC1015
  9
$ACADMAINTVER
 70
    13
  9
$DWGCODEPAGE
  3
ANSI_932
  9
$INSBASE
 10
0.0
 20
0.0
 30
0.0
  9
$EXTMIN
 10
37.686453
 20
38.27621699999999
 30
0.0
  9
$EXTMAX
 10
140.686453
 20
57.026217
 30
0.0
  9
$LIMMIN
 10
0.0
 20
0.0
  9
$LIMMAX
 10
250.0
 20
150.0
  9
$ORTHOMODE
 70
     1
  9
$REGENMODE
 70
     1
  9
$FILLMODE
 70
     1
  9
$QTEXTMODE
 70
     0
  9
$MIRRTEXT
 70
     1
  9
$LTSCALE
 40
1.0
  9
$ATTMODE
 70
     1
  9
$TEXTSIZE
 40
10.0
  9
$TRACEWID
 40
0.05
  9
$TEXTSTYLE
  7
BIGFONT
  9
$CLAYER
  8
2
  9
$CELTYPE
  6
BYLAYER
  9
$CECOLOR
 62
   256
  9
$CELTSCALE
 40
1.0
  9
$DISPSILH
 70
     0
  9
$DIMSCALE
 40
1.0
  9
$DIMASZ
 40
0.18
  9
$DIMEXO
 40
0.0625
  9
$DIMDLI
 40
0.38
  9
$DIMRND
 40
0.0
  9
$DIMDLE
 40
0.0
  9
$DIMEXE
 40
0.18
  9
$DIMTP
 40
0.0
  9
$DIMTM
 40
0.0
  9
$DIMTXT
 40
0.18
  9
$DIMCEN
 40
0.09
  9
$DIMTSZ
 40
0.0
  9
$DIMTOL
 70
     0
  9
$DIMLIM
 70
     0
  9
$DIMTIH
 70
     1
  9
$DIMTOH
 70
     1
  9
$DIMSE1
 70
     0
  9
$DIMSE2
 70
     0
  9
$DIMTAD
 70
     0
  9
$DIMZIN
 70
     0
  9
$DIMBLK
  1

  9
$DIMASO
 70
     1
  9
$DIMSHO
 70
     1
  9
$DIMPOST
  1

  9
$DIMAPOST
  1

  9
$DIMALT
 70
     0
  9
$DIMALTD
 70
     2
  9
$DIMALTF
 40
25.4
  9
$DIMLFAC
 40
1.0
  9
$DIMTOFL
 70
     0
  9
$DIMTVP
 40
0.0
  9
$DIMTIX
 70
     0
  9
$DIMSOXD
 70
     0
  9
$DIMSAH
 70
     0
  9
$DIMBLK1
  1

  9
$DIMBLK2
  1

  9
$DIMSTYLE
  2
STANDARD
  9
$DIMCLRD
 70
     0
  9
$DIMCLRE
 70
     0
  9
$DIMCLRT
 70
     0
  9
$DIMTFAC
 40
1.0
  9
$DIMGAP
 40
0.09
  9
$DIMJUST
 70
     0
  9
$DIMSD1
 70
     0
  9
$DIMSD2
 70
     0
  9
$DIMTOLJ
 70
     1
  9
$DIMTZIN
 70
     0
  9
$DIMALTZ
 70
     0
  9
$DIMALTTZ
 70
     0
  9
$DIMUPT
 70
     0
  9
$DIMDEC
 70
     4
  9
$DIMTDEC
 70
     4
  9
$DIMALTU
 70
     2
  9
$DIMALTTD
 70
     2
  9
$DIMTXSTY
  7
BIGFONT
  9
$DIMAUNIT
 70
     0
  9
$DIMADEC
 70
     0
  9
$DIMALTRND
 40
0.0
  9
$DIMAZIN
 70
     0
  9
$DIMDSEP
 70
    46
  9
$DIMATFIT
 70
     3
  9
$DIMFRAC
 70
     0
  9
$DIMLDRBLK
  1

  9
$DIMLUNIT
 70
     2
  9
$DIMLWD
 70
    -2
  9
$DIMLWE
 70
    -2
  9
$DIMTMOVE
 70
     0
  9
$LUNITS
 70
     2
  9
$LUPREC
 70
     4
  9
$SKETCHINC
 40
0.1
  9
$FILLETRAD
 40
0.0
  9
$AUNITS
 70
     0
  9
$AUPREC
 70
     0
  9
$MENU
  1
acad
  9
$ELEVATION
 40
0.0
  9
$PELEVATION
 40
0.0
  9
$THICKNESS
 40
0.0
  9
$LIMCHECK
 70
     0
  9
$CHAMFERA
 40
0.0
  9
$CHAMFERB
 40
0.0
  9
$CHAMFERC
 40
0.0
  9
$CHAMFERD
 40
0.0
  9
$SKPOLY
 70
     0
  9
$TDCREATE
 40
2450870.978377083
  9
$TDUCREATE
 40
2450870.603377083
  9
$TDUPDATE
 40
2456532.592526215
  9
$TDUUPDATE
 40
2456532.217526215
  9
$TDINDWG
 40
0.0163554282
  9
$TDUSRTIMER
 40
0.0163554282
  9
$USRTIMER
 70
     1
  9
$ANGBASE
 50
0.0
  9
$ANGDIR
 70
     0
  9
$PDMODE
 70
     0
  9
$PDSIZE
 40
0.0
  9
$PLINEWID
 40
0.0
  9
$SPLFRAME
 70
     0
  9
$SPLINETYPE
 70
     6
  9
$SPLINESEGS
 70
     8
  9
$HANDSEED
  5
8D5
  9
$SURFTAB1
 70
     6
  9
$SURFTAB2
 70
     6
  9
$SURFTYPE
 70
     6
  9
$SURFU
 70
     6
  9
$SURFV
 70
     6
  9
$UCSBASE
  2

  9
$UCSNAME
  2

  9
$UCSORG
 10
0.0
 20
0.0
 30
0.0
  9
$UCSXDIR
 10
1.0
 20
0.0
 30
0.0
  9
$UCSYDIR
 10
0.0
 20
1.0
 30
0.0
  9
$UCSORTHOREF
  2

  9
$UCSORTHOVIEW
 70
     0
  9
$UCSORGTOP
 10
0.0
 20
0.0
 30
0.0
  9
$UCSORGBOTTOM
 10
0.0
 20
0.0
 30
0.0
  9
$UCSORGLEFT
 10
0.0
 20
0.0
 30
0.0
  9
$UCSORGRIGHT
 10
0.0
 20
0.0
 30
0.0
  9
$UCSORGFRONT
 10
0.0
 20
0.0
 30
0.0
  9
$UCSORGBACK
 10
0.0
 20
0.0
 30
0.0
  9
$PUCSBASE
  2

  9
$PUCSNAME
  2

  9
$PUCSORG
 10
0.0
 20
0.0
 30
0.0
  9
$PUCSXDIR
 10
1.0
 20
0.0
 30
0.0
  9
$PUCSYDIR
 10
0.0
 20
1.0
 30
0.0
  9
$PUCSORTHOREF
  2

  9
$PUCSORTHOVIEW
 70
     0
  9
$PUCSORGTOP
 10
0.0
 20
0.0
 30
0.0
  9
$PUCSORGBOTTOM
 10
0.0
 20
0.0
 30
0.0
  9
$PUCSORGLEFT
 10
0.0
 20
0.0
 30
0.0
  9
$PUCSORGRIGHT
 10
0.0
 20
0.0
 30
0.0
  9
$PUCSORGFRONT
 10
0.0
 20
0.0
 30
0.0
  9
$PUCSORGBACK
 10
0.0
 20
0.0
 30
0.0
  9
$USERI1
 70
     0
  9
$USERI2
 70
     0
  9
$USERI3
 70
     0
  9
$USERI4
 70
     0
  9
$USERI5
 70
     0
  9
$USERR1
 40
0.0
  9
$USERR2
 40
0.0
  9
$USERR3
 40
0.0
  9
$USERR4
 40
0.0
  9
$USERR5
 40
0.0
  9
$WORLDVIEW
 70
     1
  9
$SHADEDGE
 70
     3
  9
$SHADEDIF
 70
    70
  9
$TILEMODE
 70
     1
  9
$MAXACTVP
 70
    16
  9
$PINSBASE
 10
0.0
 20
0.0
 30
0.0
  9
$PLIMCHECK
 70
     0
  9
$PEXTMIN
 10
1.000000000000000E+20
 20
1.000000000000000E+20
 30
1.000000000000000E+20
  9
$PEXTMAX
 10
-1.000000000000000E+20
 20
-1.000000000000000E+20
 30
-1.000000000000000E+20
  9
$PLIMMIN
 10
0.0
 20
0.0
  9
$PLIMMAX
 10
12.0
 20
9.0
  9
$UNITMODE
 70
     0
  9
$VISRETAIN
 70
     0
  9
$PLINEGEN
 70
     0
  9
$PSLTSCALE
 70
     1
  9
$TREEDEPTH
 70
  3020
  9
$CMLSTYLE
  2
STANDARD
  9
$CMLJUST
 70
     0
  9
$CMLSCALE
 40
1.0
  9
$PROXYGRAPHICS
 70
     1
  9
$MEASUREMENT
 70
     0
  9
$CELWEIGHT
370
    -1
  9
$ENDCAPS
280
     0
  9
$JOINSTYLE
280
     0
  9
$LWDISPLAY
290
     0
  9
$INSUNITS
 70
     0
  9
$HYPERLINKBASE
  1

  9
$STYLESHEET
  1

  9
$XEDIT
290
     1
  9
$CEPSNTYPE
380
     0
  9
$PSTYLEMODE
290
     1
  9
$FINGERPRINTGUID
  2
{C20261BE-C58E-4263-90BD-B9AE3BD9D4B0}
  9
$VERSIONGUID
  2
{A7159370-59B7-4873-A9C2-3300D4C39140}
  9
$EXTNAMES
290
     1
  9
$PSVPSCALE
 40
0.0
  9
$OLESTARTUP
290
     0
  0
ENDSEC
  0
SECTION
  2
CLASSES
  0
CLASS
  1
DICTIONARYVAR
  2
AcDbDictionaryVar
  3
AutoCAD 2000
 90
        0
280
     0
281
     0
  0
CLASS
  1
XRECORD
  2
AcDbXrecord
  3
AutoCAD 2000
 90
    32768
280
     0
281
     0
  0
CLASS
  1
HATCH
  2
AcDbHatch
  3
AutoCAD 2000
 90
    32768
280
     0
281
     1
  0
CLASS
  1
ACDBDICTIONARYWDFLT
  2
AcDbDictionaryWithDefault
  3
AutoCAD 2000
 90
        0
280
     0
281
     0
  0
CLASS
  1
ACDBPLACEHOLDER
  2
AcDbPlaceHolder
  3
AutoCAD 2000
 90
        0
280
     0
281
     0
  0
CLASS
  1
LAYOUT
  2
AcDbLayout
  3
AutoCAD 2000
 90
        0
280
     0
281
     0
  0
CLASS
  1
AMGSETTINGSOBJ
  2
AmgSettingsObj
  3
"AcadM|Product Description: AutoCAD Mechanical 2000|Company: Autodesk"
 90
        0
280
     0
281
     0
  0
CLASS
  1
ACME_DOCUMENT
  2
AcMeDbDoc
  3
AcMeServices
 90
        0
280
     0
281
     0
  0
CLASS
  1
ACMESCOPE
  2
AcMeScope
  3
AcMeServices
 90
        0
280
     0
281
     0
  0
CLASS
  1
ACMECOMMANDHISTORY
  2
AcMeCommandHistory
  3
AcMeServices
 90
        0
280
     0
281
     0
  0
CLASS
  1
ACIMSYSVARMAN
  2
AcImSysVarManager
  3
AcMeServices
 90
        0
280
     0
281
     0
  0
CLASS
  1
ACIMREALSYSVAR
  2
AcImRealSysVar
  3
AcMeServices
 90
        0
280
     0
281
     0
  0
CLASS
  1
ACIMINTSYSVAR
  2
AcImIntSysVar
  3
AcMeServices
 90
        0
280
     0
281
     0
  0
CLASS
  1
ACMEDRAWINGMAN
  2
AcMeDrawingMan
  3
AcMeServices
 90
        0
280
     0
281
     0
  0
CLASS
  1
ACMEVIEW
  2
AcMeView
  3
AcMeServices
 90
        0
280
     0
281
     0
  0
CLASS
  1
ACDBENTITYCACHE
  2
AcMeEntityCache
  3
AcMeServices
 90
        0
280
     0
281
     0
  0
CLASS
  1
GSMANAGER
  2
AcMeGSManager
  3
AcMeServices
 90
        0
280
     0
281
     0
  0
CLASS
  1
AMDTINTERNALREACTOR
  2
AmdtInternalReactor
  3
AcMeServices
 90
        0
280
     0
281
     0
  0
CLASS
  1
ACMESTATEMGR
  2
AcMeStateMgr
  3
AcMeServices
 90
        0
280
     0
281
     0
  0
CLASS
  1
ACGREFMASTER
  2
AcGrefMaster
  3
AcAttribServices
 90
        0
280
     0
281
     0
  0
CLASS
  1
AM_DRAWING_MGR
  2
AcDmDwgMgr
  3
AcMechDwgViewMgmt
 90
        0
280
     0
281
     0
  0
CLASS
  1
AM_DWG_DOCUMENT
  2
AcDmDwgDocument
  3
AcMechDwgViewMgmt
 90
        0
280
     0
281
     0
  0
CLASS
  1
AM_DWG_SHEET
  2
AcDmSheet
  3
AcMechDwgViewMgmt
 90
        0
280
     0
281
     0
  0
CLASS
  1
AM_VIEWDIMPARMAP
  2
AcDmViewDimParMap
  3
AcMechDwgViewMgmt
 90
        0
280
     0
281
     0
  0
CLASS
  1
AM_DWGMGR_NAME
  2
AcDmDwgMgrName
  3
AcMechDwgViewMgmt
 90
        0
280
     0
281
     0
  0
CLASS
  1
ACME_DATABASE
  2
AcMeDbDatabase
  3
AcMeServices
 90
        0
280
     0
281
     0
  0
CLASS
  1
ACRFINSADJUSTERMGR
  2
AcRfInsAdjusterMgr
  3
AcMeServices
 90
        0
280
     0
281
     0
  0
CLASS
  1
ACGREFACADMASTER
  2
AcGrefacadMaster
  3
AcGrefServices
 90
        0
280
     0
281
     0
  0
CLASS
  1
AMDTMENUSTATEMGR
  2
AmdtMenuStateMgr
  3
McadcomServices
 90
        0
280
     0
281
     0
  0
CLASS
  1
AMDTMCOMMENUSTATE
  2
AmdtMcomMenuState
  3
McadcomServices
 90
        0
280
     0
281
     0
  0
CLASS
  1
AMIMASTER
  2
AmiMaster
  3
AmiServices
 90
        0
280
     0
281
     0
  0
CLASS
  1
ASAPP
  2
AcAsAppObject
  3
AutoSurfServices
 90
        0
280
     0
281
     0
  0
CLASS
  1
IM_STATIC_MAN
  2
AcImStaticVarManager
  3
AcMeServices
 90
        0
280
     0
281
     0
  0
CLASS
  1
ACIMSTRSYSVAR
  2
AcImStrSysVar
  3
AcMeServices
 90
        0
280
     0
281
     0
  0
CLASS
  1
ACIMDBLSTATICVAR
  2
AcImDblStaticVar
  3
AcMeServices
 90
        0
280
     0
281
     0
  0
CLASS
  1
ACIMSTRSTATICVAR
  2
AcImStrStaticVar
  3
AcMeServices
 90
        0
280
     0
281
     0
  0
CLASS
  1
ACIMINTSTATICVAR
  2
AcImIntStaticVar
  3
AcMeServices
 90
        0
280
     0
281
     0
  0
CLASS
  1
ACASGREFMASTER
  2
AcAsGrefMaster
  3
AutoSurfResolverServices
 90
        0
280
     0
281
     0
  0
CLASS
  1
ACADGREFMODULE
  2
AcAdGrefModule
  3
AdGrefServices
 90
        0
280
     0
281
     0
  0
CLASS
  1
AMDTMAPISURFMOUDULE
  2
AmdtMApiSurfModule
  3
MApiSurfServices
 90
        0
280
     0
281
     0
  0
CLASS
  1
MAPIAMMOUDLE
  2
MApiAmModule
  3
MApiAmServices
 90
        0
280
     0
281
     0
  0
CLASS
  1
AMDTADMENUSTATE
  2
AmdtAdMenuState
  3
DesignerServices
 90
        0
280
     0
281
     0
  0
CLASS
  1
ADAPPL
  2
AcAdAppl
  3
DesignerServices
 90
        0
280
     0
281
     0
  0
CLASS
  1
DEPMGR
  2
AcAdDepMgr
  3
DesignerServices
 90
        0
280
     0
281
     0
  0
CLASS
  1
PARAMMGR
  2
AcAdParamMgr
  3
DesignerServices
 90
        0
280
     0
281
     0
  0
CLASS
  1
PARAMSCOPE
  2
AcAdParamScope
  3
DesignerServices
 90
        0
280
     0
281
     0
  0
CLASS
  1
NAMEDAPPL
  2
AcAdNamedAppl
  3
DesignerServices
 90
        0
280
     0
281
     0
  0
CLASS
  1
AMDTDMMENUSTATE
  2
AmdtDmMenuState
  3
AcMechDwgViewMgmt
 90
        0
280
     0
281
     0
  0
CLASS
  1
MAPIADMODULE
  2
MApiAdModule
  3
MApiAdServices
 90
        0
280
     0
281
     0
  0
CLASS
  1
AMDTAMMENUSTATE
  2
AmdtAmMenuState
  3
DesignerAssemblies
 90
        0
280
     0
281
     0
  0
CLASS
  1
ACAMPROJECT
  2
AcAmProject
  3
DesignerAssemblies
 90
        0
280
     0
281
     0
  0
CLASS
  1
ACAMGRCOMPDEF
  2
AcAmGrCompDef
  3
DesignerAssemblies
 90
        0
280
     0
281
     0
  0
CLASS
  1
ACCMCONTEXT
  2
AcCmContext
  3
DesignerAssemblies
 90
        0
280
     0
281
     0
  0
CLASS
  1
ACAMCOMPDEF
  2
AcAmCompDef
  3
DesignerAssemblies
 90
        0
280
     0
281
     0
  0
CLASS
  1
ACAMCOMPDEFMGR
  2
AcAmCompDefMgr
  3
DesignerAssemblies
 90
        0
280
     0
281
     0
  0
CLASS
  1
AMCONTEXTMGR
  2
AcAmContextMgr
  3
DesignerAssemblies
 90
        0
280
     0
281
     0
  0
CLASS
  1
ACAMCONTEXTMODELER
  2
AcAmContextModeler
  3
DesignerAssemblies
 90
        0
280
     0
281
     0
  0
CLASS
  1
ACMDATADICTIONARY
  2
AcmDataDictionary
  3
"AcmSymBB|Product Description: AutoCAD Mechanical 2000|Company: Autodesk"
 90
        0
280
     0
281
     0
  0
CLASS
  1
ACMDATAENTRYBLOCK
  2
AcmDataEntryBlock
  3
"AcmSymBB|Product Description: AutoCAD Mechanical 2000|Company: Autodesk"
 90
        0
280
     0
281
     0
  0
CLASS
  1
CATALOGSTATE
  2
AcAmCatalogState
  3
DesignerAssemblies
 90
        0
280
     0
281
     0
  0
CLASS
  1
ACAMGRCOMPDEFSET
  2
AcAmGrCompDefSet
  3
DesignerAssemblies
 90
        0
280
     0
281
     0
  0
CLASS
  1
AMDTBROWSERDBTAB
  2
AmdtBrowserDbTab
  3
McadcomServices
 90
        0
280
     0
281
     0
  0
CLASS
  1
CBROWSERAPPOBJECT
  2
CBrowserAppObject
  3
McadcomServices
 90
        0
280
     0
281
     0
  0
CLASS
  1
DM_PLACEHOLDER
  2
AcDmSelsetPlaceholder
  3
AcMechDwgViewMgmt
 90
        0
280
     0
281
     0
  0
CLASS
  1
AMGOBJPROPCFG
  2
AmgObjPropCfg
  3
"AmgLay|Product Description: AutoCAD Mechanical 2000|Company: Autodesk"
 90
        1
280
     0
281
     0
  0
CLASS
  1
LAYER_INDEX
  2
AcDbLayerIndex
  3
AutoCAD 2000
 90
        0
280
     0
281
     0
  0
CLASS
  1
IDBUFFER
  2
AcDbIdBuffer
  3
AutoCAD 2000
 90
        0
280
     0
281
     0
  0
CLASS
  1
ACAMGFILTERDAT
  2
AcAmgFilterDat
  3
"AcadM|Product Description: AutoCAD Mechanical 2000|Company: Autodesk"
 90
        0
280
     0
281
     0
  0
ENDSEC
  0
SECTION
  2
TABLES
  0
TABLE
  2
VPORT
  5
207
330
0
100
AcDbSymbolTable
 70
     6
  0
VPORT
  5
8D4
330
207
100
AcDbSymbolTableRecord
100
AcDbViewportTableRecord
  2
*Active
 70
     0
 10
0.0
 20
0.0
 11
1.0
 21
1.0
 12
0.0
 22
0.0
 13
0.0
 23
0.0
 14
10.0
 24
10.0
 15
20.0
 25
20.0
 16
0.0
 26
0.0
 36
1.0
 17
103.96526594504
 27
61.56015899999999
 37
0.0
 40
98.310363
 41
1.489721886336154
 42
50.0
 43
0.0
 44
0.0
 50
0.0
 51
0.0
 71
     0
 72
 20000
 73
     1
 74
     1
 75
     0
 76
     0
 77
     0
 78
     0
281
     0
 65
     0
110
0.0
120
0.0
130
0.0
111
1.0
121
0.0
131
0.0
112
0.0
122
1.0
132
0.0
 79
     0
146
0.0
  0
ENDTAB
  0
TABLE
  2
LTYPE
  5
204
330
0
100
AcDbSymbolTable
 70
    20
  0
LTYPE
  5
210
330
204
100
AcDbSymbolTableRecord
100
AcDbLinetypeTableRecord
  2
BYBLOCK
 70
     0
  3

 72
    65
 73
     0
 40
0.0
  0
LTYPE
  5
211
330
204
100
AcDbSymbolTableRecord
100
AcDbLinetypeTableRecord
  2
BYLAYER
 70
     0
  3

 72
    65
 73
     0
 40
0.0
  0
LTYPE
  5
212
330
204
100
AcDbSymbolTableRecord
100
AcDbLinetypeTableRecord
  2
CONTINUOUS
 70
     0
  3
Solid line
 72
    65
 73
     0
 40
0.0
  0
LTYPE
  5
21C
330
204
100
AcDbSymbolTableRecord
100
AcDbLinetypeTableRecord
  2
TENSEN1
 70
     0
  3

 72
    65
 73
     2
 40
0.4
 49
0.3
 74
     0
 49
-0.1
 74
     0
  0
LTYPE
  5
21D
330
204
100
AcDbSymbolTableRecord
100
AcDbLinetypeTableRecord
  2
ITTEN1
 70
     0
  3

 72
    65
 73
     4
 40
8.199999999999999
 49
5.0
 74
     0
 49
-1.0
 74
     0
 49
1.199999999999999
 74
     0
 49
-1.0
 74
     0
  0
LTYPE
  5
21E
330
204
100
AcDbSymbolTableRecord
100
AcDbLinetypeTableRecord
  2
TENSEN2
 70
     0
  3

 72
    65
 73
     2
 40
2.1
 49
1.5
 74
     0
 49
-0.6
 74
     0
  0
LTYPE
  5
2C5
330
204
100
AcDbSymbolTableRecord
100
AcDbLinetypeTableRecord
  2
ITTEN
 70
     0
  3

 72
    65
 73
     4
 40
5.5
 49
2.5
 74
     0
 49
-1.0
 74
     0
 49
1.0
 74
     0
 49
-1.0
 74
     0
  0
LTYPE
  5
805
330
204
100
AcDbSymbolTableRecord
100
AcDbLinetypeTableRecord
  2
HIDDEN
 70
     0
  3
Hidden __ __ __ __ __ __ __ __ __ __ __ __ __ _
 72
    65
 73
     2
 40
0.375
 49
0.25
 74
     0
 49
-0.125
 74
     0
  0
LTYPE
  5
806
330
204
100
AcDbSymbolTableRecord
100
AcDbLinetypeTableRecord
  2
PHANTOM2
 70
     0
  3
Phantom (.5x) ___ _ _ ___ _ _ ___ _ _ ___ _ _
 72
    65
 73
     6
 40
1.25
 49
0.625
 74
     0
 49
-0.125
 74
     0
 49
0.125
 74
     0
 49
-0.125
 74
     0
 49
0.125
 74
     0
 49
-0.125
 74
     0
  0
LTYPE
  5
807
330
204
100
AcDbSymbolTableRecord
100
AcDbLinetypeTableRecord
  2
CENTER
 70
     0
  3
Center ____ _ ____ _ ____ _ ____ _ ____ _ ____
 72
    65
 73
     4
 40
2.0
 49
1.25
 74
     0
 49
-0.25
 74
     0
 49
0.25
 74
     0
 49
-0.25
 74
     0
  0
LTYPE
  5
869
330
204
100
AcDbSymbolTableRecord
100
AcDbLinetypeTableRecord
  2
ASULTYPE
 70
     0
  3
実線
 72
    65
 73
     2
 40
3.0
 49
2.5
 74
     0
 49
0.5
 74
     0
  0
LTYPE
  5
86A
330
204
100
AcDbSymbolTableRecord
100
AcDbLinetypeTableRecord
  2
ASVLTYPE
 70
     0
  3
__ __ __ __ __ __ __ __ __ __ __ __ __ __ __ __ __ __ __ __ __
 72
    65
 73
     2
 40
0.75
 49
0.5
 74
     0
 49
-0.25
 74
     0
  0
LTYPE
  5
8AB
330
204
100
AcDbSymbolTableRecord
100
AcDbLinetypeTableRecord
  2
AM_ISO02W050
 70
     0
  3
__ __ __ __ __ __ __ __ __ __ __ __ __ __ __
 72
    65
 73
     2
 40
7.5
 49
6.0
 74
     0
 49
-1.5
 74
     0
  0
LTYPE
  5
8AC
330
204
100
AcDbSymbolTableRecord
100
AcDbLinetypeTableRecord
  2
AM_ISO08W050
 70
     0
  3
____ . ____ . ____ . ____ . ____ . ____ . ____
 72
    65
 73
     4
 40
18.0
 49
12.0
 74
     0
 49
-1.5
 74
     0
 49
3.0
 74
     0
 49
-1.5
 74
     0
  0
LTYPE
  5
8AD
330
204
100
AcDbSymbolTableRecord
100
AcDbLinetypeTableRecord
  2
AM_ISO09W050
 70
     0
  3
_____ . . _____ . . _____ . . ____ .. ____
 72
    65
 73
     6
 40
22.5
 49
12.0
 74
     0
 49
-1.5
 74
     0
 49
3.0
 74
     0
 49
-1.5
 74
     0
 49
3.0
 74
     0
 49
-1.5
 74
     0
  0
LTYPE
  5
8AE
330
204
100
AcDbSymbolTableRecord
100
AcDbLinetypeTableRecord
  2
Amconstr
 70
     0
  3
_______________________
 72
    65
 73
     2
 40
9999.0
 49
9999.0
 74
     0
 49
0.0
 74
     0
  0
LTYPE
  5
8AF
330
204
100
AcDbSymbolTableRecord
100
AcDbLinetypeTableRecord
  2
AM_ISO08W050x2
 70
     0
  3
__ . __ . __ . __ . __ . __
 72
    65
 73
     4
 40
9.0
 49
6.0
 74
     0
 49
-0.75
 74
     0
 49
1.5
 74
     0
 49
-0.75
 74
     0
  0
LTYPE
  5
8B0
330
204
100
AcDbSymbolTableRecord
100
AcDbLinetypeTableRecord
  2
AM_ISO02W050x2
 70
     0
  3
 _ _ _ _ _ _ _ _ _ _ _ _
 72
    65
 73
     2
 40
3.75
 49
3.0
 74
     0
 49
-0.75
 74
     0
  0
LTYPE
  5
8B3
330
204
100
AcDbSymbolTableRecord
100
AcDbLinetypeTableRecord
  2
Amzigzag
 70
     0
  3
/\/-/\/-/\/-/\/-/\/-/\/
 72
    65
 73
     2
 40
11.00009999999999
 49
0.0001
 74
     4
 75
   135
340
8B2
 46
0.04
 50
0.0
 44
0.0
 45
0.0
 49
-11.0
 74
     0
  0
LTYPE
  5
8B4
330
204
100
AcDbSymbolTableRecord
100
AcDbLinetypeTableRecord
  2
CENTER2
 70
     0
  3
Center (.5x) ___ _ ___ _ ___ _ ___ _ ___ _ ___
 72
    65
 73
     4
 40
1.125
 49
0.75
 74
     0
 49
-0.125
 74
     0
 49
0.125
 74
     0
 49
-0.125
 74
     0
  0
LTYPE
  5
8B5
330
204
100
AcDbSymbolTableRecord
100
AcDbLinetypeTableRecord
  2
HIDDEN2
 70
     0
  3
Hidden (.5x) _ _ _ _ _ _ _ _ _ _ _ _ _ _ _ _ _
 72
    65
 73
     2
 40
0.1875
 49
0.125
 74
     0
 49
-0.0625
 74
     0
  0
LTYPE
  5
8B6
330
204
100
AcDbSymbolTableRecord
100
AcDbLinetypeTableRecord
  2
Amzigzag2
 70
     0
  3
/\/-/\/-/\/-/\/-/\/-/\/
 72
    65
 73
     2
 40
0.4401
 49
0.0001
 74
     4
 75
   135
340
8B2
 46
0.0016
 50
0.0
 44
0.0
 45
0.0
 49
-0.4400000000000001
 74
     0
  0
ENDTAB
  0
TABLE
  2
LAYER
  5
201
330
0
100
AcDbSymbolTable
 70
     5
  0
LAYER
  5
20D
330
201
100
AcDbSymbolTableRecord
100
AcDbLayerTableRecord
  2
0
 70
     0
 62
     7
  6
CONTINUOUS
370
    -3
390
7D9
  0
LAYER
  5
221
330
201
100
AcDbSymbolTableRecord
100
AcDbLayerTableRecord
  2
1
 70
     0
 62
     1
  6
ITTEN1
370
    -3
390
7D9
  0
LAYER
  5
222
330
201
100
AcDbSymbolTableRecord
100
AcDbLayerTableRecord
  2
2
 70
     0
 62
     7
  6
TENSEN2
370
    -3
390
7D9
  0
LAYER
  5
223
330
201
100
AcDbSymbolTableRecord
100
AcDbLayerTableRecord
  2
3
 70
     0
 62
     5
  6
CONTINUOUS
370
    -3
390
7D9
  0
LAYER
  5
2C6
330
201
100
AcDbSymbolTableRecord
100
AcDbLayerTableRecord
  2
DEFPOINTS
 70
     0
 62
     7
  6
CONTINUOUS
290
     0
370
    -3
390
7D9
  0
ENDTAB
  0
TABLE
  2
STYLE
  5
202
330
0
100
AcDbSymbolTable
 70
     3
  0
STYLE
  5
20E
330
202
100
AcDbSymbolTableRecord
100
AcDbTextStyleTableRecord
  2
STANDARD
 70
     0
 40
0.0
 41
1.0
 50
0.0
 71
     0
 42
0.2
  3
txt
  4

  0
STYLE
  5
21B
330
202
100
AcDbSymbolTableRecord
100
AcDbTextStyleTableRecord
  2
BIGFONT
 70
     0
 40
10.0
 41
1.0
 50
0.0
 71
     0
 42
10.0
  3
txt.shx
  4
bigfont
  0
STYLE
  5
8B2
330
202
100
AcDbSymbolTableRecord
100
AcDbTextStyleTableRecord
  2

 70
     1
 40
0.0
 41
1.0
 50
0.0
 71
     0
 42
10.0
  3
ltypeshp.shx
  4

  0
ENDTAB
  0
TABLE
  2
VIEW
  5
205
330
0
100
AcDbSymbolTable
 70
     0
  0
ENDTAB
  0
TABLE
  2
UCS
  5
206
330
0
100
AcDbSymbolTable
 70
     0
  0
ENDTAB
  0
TABLE
  2
APPID
  5
208
330
0
100
AcDbSymbolTable
 70
    12
  0
APPID
  5
20F
330
208
100
AcDbSymbolTableRecord
100
AcDbRegAppTableRecord
  2
ACAD
 70
     0
  0
APPID
  5
7E4
330
208
100
AcDbSymbolTableRecord
100
AcDbRegAppTableRecord
  2
GENIUS_GENDIM_13
 70
     0
  0
APPID
  5
7E5
330
208
100
AcDbSymbolTableRecord
100
AcDbRegAppTableRecord
  2
GENIUS_GENDTOL_13
 70
     0
  0
APPID
  5
7E6
330
208
100
AcDbSymbolTableRecord
100
AcDbRegAppTableRecord
  2
GENIUS_GE3DTOL_13
 70
     0
  0
APPID
  5
7E8
330
208
100
AcDbSymbolTableRecord
100
AcDbRegAppTableRecord
  2
MCAD_NO_VIS
 70
     0
  0
APPID
  5
7E9
330
208
100
AcDbSymbolTableRecord
100
AcDbRegAppTableRecord
  2
ACAD_TEMP_GRAPHIC
 70
     0
  0
APPID
  5
81C
330
208
100
AcDbSymbolTableRecord
100
AcDbRegAppTableRecord
  2
AD_DRAW
 70
     0
  0
APPID
  5
81F
330
208
100
AcDbSymbolTableRecord
100
AcDbRegAppTableRecord
  2
ACATTRIBSERVICES
 70
     0
  0
APPID
  5
86B
330
208
100
AcDbSymbolTableRecord
100
AcDbRegAppTableRecord
  2
ASURF_PCURVE_APPNAME
 70
     0
  0
APPID
  5
89A
330
208
100
AcDbSymbolTableRecord
100
AcDbRegAppTableRecord
  2
DESIGNERASSEMBLIES
 70
     0
  0
APPID
  5
8A2
330
208
100
AcDbSymbolTableRecord
100
AcDbRegAppTableRecord
  2
ACADM_DIM_EDIT
 70
     0
  0
APPID
  5
8A3
330
208
100
AcDbSymbolTableRecord
100
AcDbRegAppTableRecord
  2
AMDT_DM_ADJ
 70
     0
  0
ENDTAB
  0
TABLE
  2
DIMSTYLE
  5
209
330
0
100
AcDbSymbolTable
 70
     1
100
AcDbDimStyleTable
 71
     0
  0
DIMSTYLE
105
220
102
{ACAD_REACTORS
330
2CE
330
2CF
330
2DA
330
2E7
330
2E8
330
2E9
330
2ED
330
2EE
330
2F9
330
2FA
330
310
330
311
330
498
330
499
330
49B
330
531
330
537
330
634
330
635
330
636
330
637
330
63D
330
63E
330
63F
330
641
330
642
330
643
330
764
102
}
330
209
100
AcDbSymbolTableRecord
100
AcDbDimStyleTableRecord
  2
STANDARD
 70
     0
340
21B
  0
ENDTAB
  0
TABLE
  2
BLOCK_RECORD
  5
200
330
0
100
AcDbSymbolTable
 70
    62
  0
BLOCK_RECORD
  5
216
102
{ACAD_XDICTIONARY
360
8B8
102
}
330
200
100
AcDbSymbolTableRecord
100
AcDbBlockTableRecord
  2
*MODEL_SPACE
340
7DC
  0
BLOCK_RECORD
  5
213
330
200
100
AcDbSymbolTableRecord
100
AcDbBlockTableRecord
  2
*PAPER_SPACE
340
7DD
  0
BLOCK_RECORD
  5
238
330
200
100
AcDbSymbolTableRecord
100
AcDbBlockTableRecord
  2
*D0
340
0
  0
BLOCK_RECORD
  5
243
330
200
100
AcDbSymbolTableRecord
100
AcDbBlockTableRecord
  2
*D1
340
0
  0
BLOCK_RECORD
  5
24E
330
200
100
AcDbSymbolTableRecord
100
AcDbBlockTableRecord
  2
*D2
340
0
  0
BLOCK_RECORD
  5
259
330
200
100
AcDbSymbolTableRecord
100
AcDbBlockTableRecord
  2
*D3
340
0
  0
BLOCK_RECORD
  5
266
330
200
100
AcDbSymbolTableRecord
100
AcDbBlockTableRecord
  2
*D4
340
0
  0
BLOCK_RECORD
  5
273
330
200
100
AcDbSymbolTableRecord
100
AcDbBlockTableRecord
  2
*D5
340
0
  0
BLOCK_RECORD
  5
280
330
200
100
AcDbSymbolTableRecord
100
AcDbBlockTableRecord
  2
*D6
340
0
  0
BLOCK_RECORD
  5
28B
330
200
100
AcDbSymbolTableRecord
100
AcDbBlockTableRecord
  2
*D7
340
0
  0
BLOCK_RECORD
  5
296
330
200
100
AcDbSymbolTableRecord
100
AcDbBlockTableRecord
  2
*D8
340
0
  0
BLOCK_RECORD
  5
2A1
330
200
100
AcDbSymbolTableRecord
100
AcDbBlockTableRecord
  2
*D9
340
0
  0
BLOCK_RECORD
  5
2AC
330
200
100
AcDbSymbolTableRecord
100
AcDbBlockTableRecord
  2
*D10
340
0
  0
BLOCK_RECORD
  5
2BA
330
200
100
AcDbSymbolTableRecord
100
AcDbBlockTableRecord
  2
*D11
340
0
  0
BLOCK_RECORD
  5
2C9
330
200
100
AcDbSymbolTableRecord
100
AcDbBlockTableRecord
  2
A$C502C4094
340
0
  0
BLOCK_RECORD
  5
371
330
200
100
AcDbSymbolTableRecord
100
AcDbBlockTableRecord
  2
*D13
340
0
  0
BLOCK_RECORD
  5
37E
330
200
100
AcDbSymbolTableRecord
100
AcDbBlockTableRecord
  2
*D14
340
0
  0
BLOCK_RECORD
  5
38B
330
200
100
AcDbSymbolTableRecord
100
AcDbBlockTableRecord
  2
*D15
340
0
  0
BLOCK_RECORD
  5
399
330
200
100
AcDbSymbolTableRecord
100
AcDbBlockTableRecord
  2
*D16
340
0
  0
BLOCK_RECORD
  5
3A2
330
200
100
AcDbSymbolTableRecord
100
AcDbBlockTableRecord
  2
*D17
340
0
  0
BLOCK_RECORD
  5
3AB
330
200
100
AcDbSymbolTableRecord
100
AcDbBlockTableRecord
  2
*D18
340
0
  0
BLOCK_RECORD
  5
3B4
330
200
100
AcDbSymbolTableRecord
100
AcDbBlockTableRecord
  2
*D19
340
0
  0
BLOCK_RECORD
  5
3C2
330
200
100
AcDbSymbolTableRecord
100
AcDbBlockTableRecord
  2
*D20
340
0
  0
BLOCK_RECORD
  5
3CC
330
200
100
AcDbSymbolTableRecord
100
AcDbBlockTableRecord
  2
*D21
340
0
  0
BLOCK_RECORD
  5
3D6
330
200
100
AcDbSymbolTableRecord
100
AcDbBlockTableRecord
  2
*D22
340
0
  0
BLOCK_RECORD
  5
3DF
330
200
100
AcDbSymbolTableRecord
100
AcDbBlockTableRecord
  2
*D23
340
0
  0
BLOCK_RECORD
  5
3E8
330
200
100
AcDbSymbolTableRecord
100
AcDbBlockTableRecord
  2
*D24
340
0
  0
BLOCK_RECORD
  5
46F
330
200
100
AcDbSymbolTableRecord
100
AcDbBlockTableRecord
  2
*D25
340
0
  0
BLOCK_RECORD
  5
47A
330
200
100
AcDbSymbolTableRecord
100
AcDbBlockTableRecord
  2
*D26
340
0
  0
BLOCK_RECORD
  5
485
330
200
100
AcDbSymbolTableRecord
100
AcDbBlockTableRecord
  2
*D27
340
0
  0
BLOCK_RECORD
  5
492
330
200
100
AcDbSymbolTableRecord
100
AcDbBlockTableRecord
  2
A$C12173F50
340
0
  0
BLOCK_RECORD
  5
4DA
330
200
100
AcDbSymbolTableRecord
100
AcDbBlockTableRecord
  2
*D29
340
0
  0
BLOCK_RECORD
  5
4E3
330
200
100
AcDbSymbolTableRecord
100
AcDbBlockTableRecord
  2
*D30
340
0
  0
BLOCK_RECORD
  5
4EC
330
200
100
AcDbSymbolTableRecord
100
AcDbBlockTableRecord
  2
*D31
340
0
  0
BLOCK_RECORD
  5
517
330
200
100
AcDbSymbolTableRecord
100
AcDbBlockTableRecord
  2
*D32
340
0
  0
BLOCK_RECORD
  5
525
330
200
100
AcDbSymbolTableRecord
100
AcDbBlockTableRecord
  2
*D33
340
0
  0
BLOCK_RECORD
  5
530
330
200
100
AcDbSymbolTableRecord
100
AcDbBlockTableRecord
  2
A$C748B7793
340
0
  0
BLOCK_RECORD
  5
584
330
200
100
AcDbSymbolTableRecord
100
AcDbBlockTableRecord
  2
*D35
340
0
  0
BLOCK_RECORD
  5
592
330
200
100
AcDbSymbolTableRecord
100
AcDbBlockTableRecord
  2
*D36
340
0
  0
BLOCK_RECORD
  5
5BF
330
200
100
AcDbSymbolTableRecord
100
AcDbBlockTableRecord
  2
*D37
340
0
  0
BLOCK_RECORD
  5
5CA
330
200
100
AcDbSymbolTableRecord
100
AcDbBlockTableRecord
  2
*D38
340
0
  0
BLOCK_RECORD
  5
5D5
330
200
100
AcDbSymbolTableRecord
100
AcDbBlockTableRecord
  2
*D39
340
0
  0
BLOCK_RECORD
  5
5E0
330
200
100
AcDbSymbolTableRecord
100
AcDbBlockTableRecord
  2
*D40
340
0
  0
BLOCK_RECORD
  5
5EB
330
200
100
AcDbSymbolTableRecord
100
AcDbBlockTableRecord
  2
*D41
340
0
  0
BLOCK_RECORD
  5
5F6
330
200
100
AcDbSymbolTableRecord
100
AcDbBlockTableRecord
  2
*D42
340
0
  0
BLOCK_RECORD
  5
603
330
200
100
AcDbSymbolTableRecord
100
AcDbBlockTableRecord
  2
*D43
340
0
  0
BLOCK_RECORD
  5
610
330
200
100
AcDbSymbolTableRecord
100
AcDbBlockTableRecord
  2
*D44
340
0
  0
BLOCK_RECORD
  5
61D
330
200
100
AcDbSymbolTableRecord
100
AcDbBlockTableRecord
  2
*D45
340
0
  0
BLOCK_RECORD
  5
628
330
200
100
AcDbSymbolTableRecord
100
AcDbBlockTableRecord
  2
*D46
340
0
  0
BLOCK_RECORD
  5
633
330
200
100
AcDbSymbolTableRecord
100
AcDbBlockTableRecord
  2
A$C3A00351B
340
0
  0
BLOCK_RECORD
  5
689
330
200
100
AcDbSymbolTableRecord
100
AcDbBlockTableRecord
  2
*D48
340
0
  0
BLOCK_RECORD
  5
693
330
200
100
AcDbSymbolTableRecord
100
AcDbBlockTableRecord
  2
*D49
340
0
  0
BLOCK_RECORD
  5
69C
330
200
100
AcDbSymbolTableRecord
100
AcDbBlockTableRecord
  2
*D50
340
0
  0
BLOCK_RECORD
  5
6A5
330
200
100
AcDbSymbolTableRecord
100
AcDbBlockTableRecord
  2
*D51
340
0
  0
BLOCK_RECORD
  5
6AE
330
200
100
AcDbSymbolTableRecord
100
AcDbBlockTableRecord
  2
*D52
340
0
  0
BLOCK_RECORD
  5
6B8
330
200
100
AcDbSymbolTableRecord
100
AcDbBlockTableRecord
  2
*D53
340
0
  0
BLOCK_RECORD
  5
6C1
330
200
100
AcDbSymbolTableRecord
100
AcDbBlockTableRecord
  2
*D54
340
0
  0
BLOCK_RECORD
  5
6CA
330
200
100
AcDbSymbolTableRecord
100
AcDbBlockTableRecord
  2
*D55
340
0
  0
BLOCK_RECORD
  5
6D7
330
200
100
AcDbSymbolTableRecord
100
AcDbBlockTableRecord
  2
*D56
340
0
  0
BLOCK_RECORD
  5
6E3
330
200
100
AcDbSymbolTableRecord
100
AcDbBlockTableRecord
  2
*D57
340
0
  0
BLOCK_RECORD
  5
74D
330
200
100
AcDbSymbolTableRecord
100
AcDbBlockTableRecord
  2
*D58
340
0
  0
BLOCK_RECORD
  5
75B
330
200
100
AcDbSymbolTableRecord
100
AcDbBlockTableRecord
  2
A$C549C4216
340
0
  0
BLOCK_RECORD
  5
7AF
330
200
100
AcDbSymbolTableRecord
100
AcDbBlockTableRecord
  2
*D60
340
0
  0
BLOCK_RECORD
  5
891
330
200
100
AcDbSymbolTableRecord
100
AcDbBlockTableRecord
  2
*U61
340
0
  0
ENDTAB
  0
ENDSEC
  0
SECTION
  2
BLOCKS
  0
BLOCK
  5
226
330
216
100
AcDbEntity
  8
0
100
AcDbBlockBegin
  2
*MODEL_SPACE
 70
     0
 10
0.0
 20
0.0
 30
0.0
  3
*MODEL_SPACE
  1

  0
ENDBLK
  5
227
330
216
100
AcDbEntity
  8
0
100
AcDbBlockEnd
  0
BLOCK
  5
224
330
213
100
AcDbEntity
 67
     1
  8
0
100
AcDbBlockBegin
  2
*PAPER_SPACE
 70
     0
 10
0.0
 20
0.0
 30
0.0
  3
*PAPER_SPACE
  1

  0
ENDBLK
  5
225
330
213
100
AcDbEntity
 67
     1
  8
0
100
AcDbBlockEnd
  0
BLOCK
  5
241
330
238
100
AcDbEntity
  8
0
100
AcDbBlockBegin
  2
*D0
 70
     1
 10
0.0
 20
0.0
 30
0.0
  3
*D0
  1

  0
LINE
  5
239
330
238
100
AcDbEntity
  8
0
  6
ByBlock
 62
     0
100
AcDbLine
 10
79.0
 20
129.0
 30
0.0
 11
81.0
 21
129.0
 31
0.0
  0
LINE
  5
23A
330
238
100
AcDbEntity
  8
0
  6
ByBlock
 62
     0
100
AcDbLine
 10
81.0
 20
129.0
 30
0.0
 11
86.588475
 21
121.8148179999999
 31
0.0
  0
MTEXT
  5
23B
330
238
100
AcDbEntity
  8
0
  6
ByBlock
 62
     0
100
AcDbMText
 10
76.25
 20
129.0
 30
0.0
 40
3.5
 41
0.0
 71
     5
 72
     1
  1
\A1;\U+220512
 73
     1
 44
1.0
  0
SOLID
  5
23C
330
238
100
AcDbEntity
  8
0
  6
ByBlock
 62
     0
100
AcDbTrace
 10
86.851593
 20
122.019465
 30
0.0
 11
86.32535799999999
 21
121.610171
 31
0.0
 12
87.81635599999999
 22
120.2361129999999
 32
0.0
 13
87.81635599999999
 23
120.2361129999999
 33
0.0
  0
LINE
  5
23D
330
238
100
AcDbEntity
  8
0
  6
ByBlock
 62
     0
100
AcDbLine
 10
91.4
 20
115.5
 30
0.0
 11
91.6
 21
115.5
 31
0.0
  0
LINE
  5
23E
330
238
100
AcDbEntity
  8
0
  6
ByBlock
 62
     0
100
AcDbLine
 10
91.5
 20
115.4
 30
0.0
 11
91.5
 21
115.5999999999999
 31
0.0
  0
POINT
  5
23F
330
238
100
AcDbEntity
  8
DEFPOINTS
  6
ByBlock
 62
     0
100
AcDbPoint
 10
87.81635599999999
 20
120.2361129999999
 30
0.0
  0
POINT
  5
240
330
238
100
AcDbEntity
  8
DEFPOINTS
  6
ByBlock
 62
     0
100
AcDbPoint
 10
95.18364400000001
 20
110.763887
 30
0.0
  0
ENDBLK
  5
242
330
238
100
AcDbEntity
  8
0
100
AcDbBlockEnd
  0
BLOCK
  5
24C
330
243
100
AcDbEntity
  8
0
100
AcDbBlockBegin
  2
*D1
 70
     1
 10
0.0
 20
0.0
 30
0.0
  3
*D1
  1

  0
LINE
  5
244
330
243
100
AcDbEntity
  8
0
  6
ByBlock
 62
     0
100
AcDbLine
 10
79.25
 20
124.0
 30
0.0
 11
81.25
 21
124.0
 31
0.0
  0
LINE
  5
245
330
243
100
AcDbEntity
  8
0
  6
ByBlock
 62
     0
100
AcDbLine
 10
81.25
 20
124.0
 30
0.0
 11
86.727501
 21
119.457683
 31
0.0
  0
MTEXT
  5
246
330
243
100
AcDbEntity
  8
0
  6
ByBlock
 62
     0
100
AcDbMText
 10
75.95
 20
124.0
 30
0.0
 40
3.5
 41
0.0
 71
     5
 72
     1
  1
\A1;\U+22058.4
 73
     1
 44
1.0
  0
SOLID
  5
247
330
243
100
AcDbEntity
  8
0
  6
ByBlock
 62
     0
100
AcDbTrace
 10
86.940279
 20
119.7142689999999
 30
0.0
 11
86.51472199999998
 21
119.201097
 31
0.0
 12
88.267017
 22
118.181011
 32
0.0
 13
88.267017
 23
118.181011
 33
0.0
  0
LINE
  5
248
330
243
100
AcDbEntity
  8
0
  6
ByBlock
 62
     0
100
AcDbLine
 10
91.4
 20
115.5
 30
0.0
 11
91.6
 21
115.5
 31
0.0
  0
LINE
  5
249
330
243
100
AcDbEntity
  8
0
  6
ByBlock
 62
     0
100
AcDbLine
 10
91.5
 20
115.4
 30
0.0
 11
91.5
 21
115.5999999999999
 31
0.0
  0
POINT
  5
24A
330
243
100
AcDbEntity
  8
DEFPOINTS
  6
ByBlock
 62
     0
100
AcDbPoint
 10
88.267017
 20
118.181011
 30
0.0
  0
POINT
  5
24B
330
243
100
AcDbEntity
  8
DEFPOINTS
  6
ByBlock
 62
     0
100
AcDbPoint
 10
94.73298299999999
 20
112.8189899999999
 30
0.0
  0
ENDBLK
  5
24D
330
243
100
AcDbEntity
  8
0
100
AcDbBlockEnd
  0
BLOCK
  5
257
330
24E
100
AcDbEntity
  8
0
100
AcDbBlockBegin
  2
*D2
 70
     1
 10
0.0
 20
0.0
 30
0.0
  3
*D2
  1

  0
LINE
  5
24F
330
24E
100
AcDbEntity
  8
0
  6
ByBlock
 62
     0
100
AcDbLine
 10
79.75
 20
110.0
 30
0.0
 11
81.75
 21
110.0
 31
0.0
  0
LINE
  5
250
330
24E
100
AcDbEntity
  8
0
  6
ByBlock
 62
     0
100
AcDbLine
 10
81.75
 20
110.0
 30
0.0
 11
87.05800999999999
 21
112.994262
 31
0.0
  0
MTEXT
  5
251
330
24E
100
AcDbEntity
  8
0
  6
ByBlock
 62
     0
100
AcDbMText
 10
76.5
 20
110.0
 30
0.0
 40
3.5
 41
0.0
 71
     5
 72
     1
  1
\A1;\U+22056.2
 73
     1
 44
1.0
  0
SOLID
  5
252
330
24E
100
AcDbEntity
  8
0
  6
ByBlock
 62
     0
100
AcDbTrace
 10
86.89423599999999
 20
113.2845879999999
 30
0.0
 11
87.221784
 21
112.703936
 31
0.0
 12
88.79996700000001
 22
113.9769049999999
 32
0.0
 13
88.79996700000001
 23
113.9769049999999
 33
0.0
  0
LINE
  5
253
330
24E
100
AcDbEntity
  8
0
  6
ByBlock
 62
     0
100
AcDbLine
 10
91.4
 20
115.5
 30
0.0
 11
91.6
 21
115.5
 31
0.0
  0
LINE
  5
254
330
24E
100
AcDbEntity
  8
0
  6
ByBlock
 62
     0
100
AcDbLine
 10
91.5
 20
115.4
 30
0.0
 11
91.5
 21
115.5999999999999
 31
0.0
  0
POINT
  5
255
330
24E
100
AcDbEntity
  8
DEFPOINTS
  6
ByBlock
 62
     0
100
AcDbPoint
 10
88.79996700000001
 20
113.9769049999999
 30
0.0
  0
POINT
  5
256
330
24E
100
AcDbEntity
  8
DEFPOINTS
  6
ByBlock
 62
     0
100
AcDbPoint
 10
94.20003299999999
 20
117.023096
 30
0.0
  0
ENDBLK
  5
258
330
24E
100
AcDbEntity
  8
0
100
AcDbBlockEnd
  0
BLOCK
  5
264
330
259
100
AcDbEntity
  8
0
100
AcDbBlockBegin
  2
*D3
 70
     1
 10
0.0
 20
0.0
 30
0.0
  3
*D3
  1

  0
LINE
  5
25A
330
259
100
AcDbEntity
  8
0
  6
ByBlock
 62
     0
100
AcDbLine
 10
128.2499999999999
 20
120.5999999999999
 30
0.0
 11
128.2499999999999
 21
143.9499999999999
 31
0.0
  0
LINE
  5
25B
330
259
100
AcDbEntity
  8
0
  6
ByBlock
 62
     0
100
AcDbLine
 10
146.25
 20
120.5999999999999
 30
0.0
 11
146.25
 21
143.9499999999999
 31
0.0
  0
LINE
  5
25C
330
259
100
AcDbEntity
  8
0
  6
ByBlock
 62
     0
100
AcDbLine
 10
130.2499999999999
 20
143.75
 30
0.0
 11
135.3499999999999
 21
143.75
 31
0.0
  0
LINE
  5
25D
330
259
100
AcDbEntity
  8
0
  6
ByBlock
 62
     0
100
AcDbLine
 10
144.25
 20
143.75
 30
0.0
 11
138.65
 21
143.75
 31
0.0
  0
SOLID
  5
25E
330
259
100
AcDbEntity
  8
0
  6
ByBlock
 62
     0
100
AcDbTrace
 10
130.2499999999999
 20
144.083333
 30
0.0
 11
130.2499999999999
 21
143.4166669999999
 31
0.0
 12
128.2499999999999
 22
143.75
 32
0.0
 13
128.2499999999999
 23
143.75
 33
0.0
  0
SOLID
  5
25F
330
259
100
AcDbEntity
  8
0
  6
ByBlock
 62
     0
100
AcDbTrace
 10
144.25
 20
144.083333
 30
0.0
 11
144.25
 21
143.4166669999999
 31
0.0
 12
146.25
 22
143.75
 32
0.0
 13
146.25
 23
143.75
 33
0.0
  0
MTEXT
  5
260
330
259
100
AcDbEntity
  8
0
  6
ByBlock
 62
     0
100
AcDbMText
 10
137.0
 20
143.75
 30
0.0
 40
3.5
 41
0.0
 71
     5
 72
     1
  1
\A1;18
 73
     1
 44
1.0
  0
POINT
  5
261
330
259
100
AcDbEntity
  8
DEFPOINTS
  6
ByBlock
 62
     0
100
AcDbPoint
 10
128.2499999999999
 20
120.5
 30
0.0
  0
POINT
  5
262
330
259
100
AcDbEntity
  8
DEFPOINTS
  6
ByBlock
 62
     0
100
AcDbPoint
 10
146.25
 20
120.5
 30
0.0
  0
POINT
  5
263
330
259
100
AcDbEntity
  8
DEFPOINTS
  6
ByBlock
 62
     0
100
AcDbPoint
 10
146.25
 20
143.75
 30
0.0
  0
ENDBLK
  5
265
330
259
100
AcDbEntity
  8
0
100
AcDbBlockEnd
  0
BLOCK
  5
271
330
266
100
AcDbEntity
  8
0
100
AcDbBlockBegin
  2
*D4
 70
     1
 10
0.0
 20
0.0
 30
0.0
  3
*D4
  1

  0
LINE
  5
267
330
266
100
AcDbEntity
  8
0
  6
ByBlock
 62
     0
100
AcDbLine
 10
128.2499999999999
 20
120.5999999999999
 30
0.0
 11
128.2499999999999
 21
137.7
 31
0.0
  0
LINE
  5
268
330
266
100
AcDbEntity
  8
0
  6
ByBlock
 62
     0
100
AcDbLine
 10
131.25
 20
119.7999999999999
 30
0.0
 11
131.25
 21
137.7
 31
0.0
  0
LINE
  5
269
330
266
100
AcDbEntity
  8
0
  6
ByBlock
 62
     0
100
AcDbLine
 10
126.2499999999999
 20
137.5
 30
0.0
 11
124.2499999999999
 21
137.5
 31
0.0
  0
LINE
  5
26A
330
266
100
AcDbEntity
  8
0
  6
ByBlock
 62
     0
100
AcDbLine
 10
133.25
 20
137.5
 30
0.0
 11
135.25
 21
137.5
 31
0.0
  0
SOLID
  5
26B
330
266
100
AcDbEntity
  8
0
  6
ByBlock
 62
     0
100
AcDbTrace
 10
126.2499999999999
 20
137.833333
 30
0.0
 11
126.2499999999999
 21
137.1666669999999
 31
0.0
 12
128.2499999999999
 22
137.5
 32
0.0
 13
128.2499999999999
 23
137.5
 33
0.0
  0
SOLID
  5
26C
330
266
100
AcDbEntity
  8
0
  6
ByBlock
 62
     0
100
AcDbTrace
 10
133.25
 20
137.833333
 30
0.0
 11
133.25
 21
137.1666669999999
 31
0.0
 12
131.25
 22
137.5
 32
0.0
 13
131.25
 23
137.5
 33
0.0
  0
MTEXT
  5
26D
330
266
100
AcDbEntity
  8
0
  6
ByBlock
 62
     0
100
AcDbMText
 10
129.75
 20
137.5
 30
0.0
 40
3.5
 41
0.0
 71
     5
 72
     1
  1
\A1;3
 73
     1
 44
1.0
  0
POINT
  5
26E
330
266
100
AcDbEntity
  8
DEFPOINTS
  6
ByBlock
 62
     0
100
AcDbPoint
 10
128.2499999999999
 20
120.5
 30
0.0
  0
POINT
  5
26F
330
266
100
AcDbEntity
  8
DEFPOINTS
  6
ByBlock
 62
     0
100
AcDbPoint
 10
131.25
 20
119.7
 30
0.0
  0
POINT
  5
270
330
266
100
AcDbEntity
  8
DEFPOINTS
  6
ByBlock
 62
     0
100
AcDbPoint
 10
131.25
 20
137.5
 30
0.0
  0
ENDBLK
  5
272
330
266
100
AcDbEntity
  8
0
100
AcDbBlockEnd
  0
BLOCK
  5
27E
330
273
100
AcDbEntity
  8
0
100
AcDbBlockBegin
  2
*D5
 70
     1
 10
0.0
 20
0.0
 30
0.0
  3
*D5
  1

  0
LINE
  5
274
330
273
100
AcDbEntity
  8
0
  6
ByBlock
 62
     0
100
AcDbLine
 10
131.25
 20
119.7999999999999
 30
0.0
 11
131.25
 21
134.6999999999999
 31
0.0
  0
LINE
  5
275
330
273
100
AcDbEntity
  8
0
  6
ByBlock
 62
     0
100
AcDbLine
 10
146.25
 20
120.5999999999999
 30
0.0
 11
146.25
 21
134.6999999999999
 31
0.0
  0
LINE
  5
276
330
273
100
AcDbEntity
  8
0
  6
ByBlock
 62
     0
100
AcDbLine
 10
133.25
 20
134.4999999999999
 30
0.0
 11
137.0999999999999
 21
134.4999999999999
 31
0.0
  0
LINE
  5
277
330
273
100
AcDbEntity
  8
0
  6
ByBlock
 62
     0
100
AcDbLine
 10
144.25
 20
134.4999999999999
 30
0.0
 11
140.4
 21
134.4999999999999
 31
0.0
  0
SOLID
  5
278
330
273
100
AcDbEntity
  8
0
  6
ByBlock
 62
     0
100
AcDbTrace
 10
133.25
 20
134.833333
 30
0.0
 11
133.25
 21
134.1666669999999
 31
0.0
 12
131.25
 22
134.4999999999999
 32
0.0
 13
131.25
 23
134.4999999999999
 33
0.0
  0
SOLID
  5
279
330
273
100
AcDbEntity
  8
0
  6
ByBlock
 62
     0
100
AcDbTrace
 10
144.25
 20
134.833333
 30
0.0
 11
144.25
 21
134.1666669999999
 31
0.0
 12
146.25
 22
134.4999999999999
 32
0.0
 13
146.25
 23
134.4999999999999
 33
0.0
  0
MTEXT
  5
27A
330
273
100
AcDbEntity
  8
0
  6
ByBlock
 62
     0
100
AcDbMText
 10
138.7499999999999
 20
134.4999999999999
 30
0.0
 40
3.5
 41
0.0
 71
     5
 72
     1
  1
\A1;15
 73
     1
 44
1.0
  0
POINT
  5
27B
330
273
100
AcDbEntity
  8
DEFPOINTS
  6
ByBlock
 62
     0
100
AcDbPoint
 10
131.25
 20
119.7
 30
0.0
  0
POINT
  5
27C
330
273
100
AcDbEntity
  8
DEFPOINTS
  6
ByBlock
 62
     0
100
AcDbPoint
 10
146.25
 20
120.5
 30
0.0
  0
POINT
  5
27D
330
273
100
AcDbEntity
  8
DEFPOINTS
  6
ByBlock
 62
     0
100
AcDbPoint
 10
146.25
 20
134.4999999999999
 30
0.0
  0
ENDBLK
  5
27F
330
273
100
AcDbEntity
  8
0
100
AcDbBlockEnd
  0
BLOCK
  5
289
330
280
100
AcDbEntity
  8
0
100
AcDbBlockBegin
  2
*D6
 70
     1
 10
0.0
 20
0.0
 30
0.0
  3
*D6
  1

  0
LINE
  5
281
330
280
100
AcDbEntity
  8
0
  6
ByBlock
 62
     0
100
AcDbLine
 10
119.75
 20
104.0
 30
0.0
 11
121.75
 21
104.0
 31
0.0
  0
LINE
  5
282
330
280
100
AcDbEntity
  8
0
  6
ByBlock
 62
     0
100
AcDbLine
 10
121.75
 20
104.0
 30
0.0
 11
128.494311
 21
109.8450689999999
 31
0.0
  0
MTEXT
  5
283
330
280
100
AcDbEntity
  8
0
  6
ByBlock
 62
     0
100
AcDbMText
 10
118.25
 20
104.0
 30
0.0
 40
3.5
 41
0.0
 71
     5
 72
     1
  1
\A1;R1
 73
     1
 44
1.0
  0
SOLID
  5
284
330
280
100
AcDbEntity
  8
0
  6
ByBlock
 62
     0
100
AcDbTrace
 10
126.7646229999999
 20
108.787105
 30
0.0
 11
127.2012429999999
 21
108.283312
 31
0.0
 12
128.494311
 22
109.8450689999999
 32
0.0
 13
128.494311
 23
109.8450689999999
 33
0.0
  0
LINE
  5
285
330
280
100
AcDbEntity
  8
0
  6
ByBlock
 62
     0
100
AcDbLine
 10
129.15
 20
110.4999999999999
 30
0.0
 11
129.3499999999999
 21
110.4999999999999
 31
0.0
  0
LINE
  5
286
330
280
100
AcDbEntity
  8
0
  6
ByBlock
 62
     0
100
AcDbLine
 10
129.2499999999999
 20
110.4
 30
0.0
 11
129.2499999999999
 21
110.5999999999999
 31
0.0
  0
POINT
  5
287
330
280
100
AcDbEntity
  8
DEFPOINTS
  6
ByBlock
 62
     0
100
AcDbPoint
 10
128.494311
 20
109.8450689999999
 30
0.0
  0
POINT
  5
288
330
280
100
AcDbEntity
  8
DEFPOINTS
  6
ByBlock
 62
     0
100
AcDbPoint
 10
129.2499999999999
 20
110.4999999999999
 30
0.0
  0
ENDBLK
  5
28A
330
280
100
AcDbEntity
  8
0
100
AcDbBlockEnd
  0
BLOCK
  5
294
330
28B
100
AcDbEntity
  8
0
100
AcDbBlockBegin
  2
*D7
 70
     1
 10
0.0
 20
0.0
 30
0.0
  3
*D7
  1

  0
LINE
  5
28C
330
28B
100
AcDbEntity
  8
0
  6
ByBlock
 62
     0
100
AcDbLine
 10
154.4999999999999
 20
96.75
 30
0.0
 11
152.5
 21
96.75
 31
0.0
  0
LINE
  5
28D
330
28B
100
AcDbEntity
  8
0
  6
ByBlock
 62
     0
100
AcDbLine
 10
152.5
 20
96.75
 30
0.0
 11
145.716409
 21
109.6154309999999
 31
0.0
  0
MTEXT
  5
28E
330
28B
100
AcDbEntity
  8
0
  6
ByBlock
 62
     0
100
AcDbMText
 10
156.0
 20
96.75
 30
0.0
 40
3.5
 41
0.0
 71
     5
 72
     1
  1
\A1;R1
 73
     1
 44
1.0
  0
SOLID
  5
28F
330
28B
100
AcDbEntity
  8
0
  6
ByBlock
 62
     0
100
AcDbTrace
 10
146.944084
 20
108.001762
 30
0.0
 11
146.3543709999999
 21
107.6908229999999
 31
0.0
 12
145.716409
 22
109.6154309999999
 32
0.0
 13
145.716409
 23
109.6154309999999
 33
0.0
  0
LINE
  5
290
330
28B
100
AcDbEntity
  8
0
  6
ByBlock
 62
     0
100
AcDbLine
 10
145.15
 20
110.4999999999999
 30
0.0
 11
145.35
 21
110.4999999999999
 31
0.0
  0
LINE
  5
291
330
28B
100
AcDbEntity
  8
0
  6
ByBlock
 62
     0
100
AcDbLine
 10
145.25
 20
110.4
 30
0.0
 11
145.25
 21
110.5999999999999
 31
0.0
  0
POINT
  5
292
330
28B
100
AcDbEntity
  8
DEFPOINTS
  6
ByBlock
 62
     0
100
AcDbPoint
 10
145.716409
 20
109.6154309999999
 30
0.0
  0
POINT
  5
293
330
28B
100
AcDbEntity
  8
DEFPOINTS
  6
ByBlock
 62
     0
100
AcDbPoint
 10
145.25
 20
110.4999999999999
 30
0.0
  0
ENDBLK
  5
295
330
28B
100
AcDbEntity
  8
0
100
AcDbBlockEnd
  0
BLOCK
  5
29F
330
296
100
AcDbEntity
  8
0
100
AcDbBlockBegin
  2
*D8
 70
     1
 10
0.0
 20
0.0
 30
0.0
  3
*D8
  1

  0
LINE
  5
297
330
296
100
AcDbEntity
  8
0
  6
ByBlock
 62
     0
100
AcDbLine
 10
169.7499999999999
 20
129.75
 30
0.0
 11
171.75
 21
129.75
 31
0.0
  0
LINE
  5
298
330
296
100
AcDbEntity
  8
0
  6
ByBlock
 62
     0
100
AcDbLine
 10
171.75
 20
129.75
 30
0.0
 11
176.9825289999999
 21
122.102458
 31
0.0
  0
MTEXT
  5
299
330
296
100
AcDbEntity
  8
0
  6
ByBlock
 62
     0
100
AcDbMText
 10
167.0
 20
129.75
 30
0.0
 40
3.5
 41
0.0
 71
     5
 72
     1
  1
\A1;\U+220512
 73
     1
 44
1.0
  0
SOLID
  5
29A
330
296
100
AcDbEntity
  8
0
  6
ByBlock
 62
     0
100
AcDbTrace
 10
177.2576309999999
 20
122.290686
 30
0.0
 11
176.707426
 21
121.91423
 31
0.0
 12
178.111897
 22
120.4518439999999
 32
0.0
 13
178.111897
 23
120.4518439999999
 33
0.0
  0
LINE
  5
29B
330
296
100
AcDbEntity
  8
0
  6
ByBlock
 62
     0
100
AcDbLine
 10
181.4
 20
115.5
 30
0.0
 11
181.6
 21
115.5
 31
0.0
  0
LINE
  5
29C
330
296
100
AcDbEntity
  8
0
  6
ByBlock
 62
     0
100
AcDbLine
 10
181.4999999999999
 20
115.4
 30
0.0
 11
181.4999999999999
 21
115.5999999999999
 31
0.0
  0
POINT
  5
29D
330
296
100
AcDbEntity
  8
DEFPOINTS
  6
ByBlock
 62
     0
100
AcDbPoint
 10
178.111897
 20
120.4518439999999
 30
0.0
  0
POINT
  5
29E
330
296
100
AcDbEntity
  8
DEFPOINTS
  6
ByBlock
 62
     0
100
AcDbPoint
 10
184.888103
 20
110.548157
 30
0.0
  0
ENDBLK
  5
2A0
330
296
100
AcDbEntity
  8
0
100
AcDbBlockEnd
  0
BLOCK
  5
2AA
330
2A1
100
AcDbEntity
  8
0
100
AcDbBlockBegin
  2
*D9
 70
     1
 10
0.0
 20
0.0
 30
0.0
  3
*D9
  1

  0
LINE
  5
2A2
330
2A1
100
AcDbEntity
  8
0
  6
ByBlock
 62
     0
100
AcDbLine
 10
169.0
 20
121.25
 30
0.0
 11
171.0
 21
121.25
 31
0.0
  0
LINE
  5
2A3
330
2A1
100
AcDbEntity
  8
0
  6
ByBlock
 62
     0
100
AcDbLine
 10
171.0
 20
121.25
 30
0.0
 11
177.026809
 21
117.949605
 31
0.0
  0
MTEXT
  5
2A4
330
2A1
100
AcDbEntity
  8
0
  6
ByBlock
 62
     0
100
AcDbMText
 10
165.7499999999999
 20
121.25
 30
0.0
 40
3.5
 41
0.0
 71
     5
 72
     1
  1
\A1;\U+22056.2
 73
     1
 44
1.0
  0
SOLID
  5
2A5
330
2A1
100
AcDbEntity
  8
0
  6
ByBlock
 62
     0
100
AcDbTrace
 10
177.1869139999999
 20
118.24197
 30
0.0
 11
176.8667039999999
 21
117.657239
 31
0.0
 12
178.781002
 22
116.988976
 32
0.0
 13
178.781002
 23
116.988976
 33
0.0
  0
LINE
  5
2A6
330
2A1
100
AcDbEntity
  8
0
  6
ByBlock
 62
     0
100
AcDbLine
 10
181.4
 20
115.5
 30
0.0
 11
181.6
 21
115.5
 31
0.0
  0
LINE
  5
2A7
330
2A1
100
AcDbEntity
  8
0
  6
ByBlock
 62
     0
100
AcDbLine
 10
181.4999999999999
 20
115.4
 30
0.0
 11
181.4999999999999
 21
115.5999999999999
 31
0.0
  0
POINT
  5
2A8
330
2A1
100
AcDbEntity
  8
DEFPOINTS
  6
ByBlock
 62
     0
100
AcDbPoint
 10
178.781002
 20
116.988976
 30
0.0
  0
POINT
  5
2A9
330
2A1
100
AcDbEntity
  8
DEFPOINTS
  6
ByBlock
 62
     0
100
AcDbPoint
 10
184.218998
 20
114.0110249999999
 30
0.0
  0
ENDBLK
  5
2AB
330
2A1
100
AcDbEntity
  8
0
100
AcDbBlockEnd
  0
BLOCK
  5
2B8
330
2AC
100
AcDbEntity
  8
0
100
AcDbBlockBegin
  2
*D10
 70
     1
 10
0.0
 20
0.0
 30
0.0
  3
*D10
  1

  0
LINE
  5
2AD
330
2AC
100
AcDbEntity
  8
0
  6
ByBlock
 62
     0
100
AcDbLine
 10
129.15
 20
79.25
 30
0.0
 11
109.8999999999999
 21
79.25
 31
0.0
  0
LINE
  5
2AE
330
2AC
100
AcDbEntity
  8
0
  6
ByBlock
 62
     0
100
AcDbLine
 10
129.15
 20
77.75
 30
0.0
 11
109.8999999999999
 21
77.75
 31
0.0
  0
LINE
  5
2AF
330
2AC
100
AcDbEntity
  8
0
  6
ByBlock
 62
     0
100
AcDbLine
 10
110.0999999999999
 20
75.75
 30
0.0
 11
110.0999999999999
 21
73.75
 31
0.0
  0
LINE
  5
2B0
330
2AC
100
AcDbEntity
  8
0
  6
ByBlock
 62
     0
100
AcDbLine
 10
110.0999999999999
 20
81.25
 30
0.0
 11
110.0999999999999
 21
84.0
 31
0.0
  0
LINE
  5
2B1
330
2AC
100
AcDbEntity
  8
0
  6
ByBlock
 62
     0
100
AcDbLine
 10
110.0999999999999
 20
84.0
 30
0.0
 11
112.0999999999999
 21
84.0
 31
0.0
  0
SOLID
  5
2B2
330
2AC
100
AcDbEntity
  8
0
  6
ByBlock
 62
     0
100
AcDbTrace
 10
109.7666669999999
 20
75.75
 30
0.0
 11
110.433333
 21
75.75
 31
0.0
 12
110.0999999999999
 22
77.75
 32
0.0
 13
110.0999999999999
 23
77.75
 33
0.0
  0
SOLID
  5
2B3
330
2AC
100
AcDbEntity
  8
0
  6
ByBlock
 62
     0
100
AcDbTrace
 10
109.7666669999999
 20
81.25
 30
0.0
 11
110.433333
 21
81.25
 31
0.0
 12
110.0999999999999
 22
79.25
 32
0.0
 13
110.0999999999999
 23
79.25
 33
0.0
  0
MTEXT
  5
2B4
330
2AC
100
AcDbEntity
  8
0
  6
ByBlock
 62
     0
100
AcDbMText
 10
114.25
 20
84.0
 30
0.0
 40
3.5
 41
0.0
 71
     5
 72
     1
  1
\A1;1.5
 73
     1
 44
1.0
  0
POINT
  5
2B5
330
2AC
100
AcDbEntity
  8
DEFPOINTS
  6
ByBlock
 62
     0
100
AcDbPoint
 10
129.2499999999999
 20
79.25
 30
0.0
  0
POINT
  5
2B6
330
2AC
100
AcDbEntity
  8
DEFPOINTS
  6
ByBlock
 62
     0
100
AcDbPoint
 10
129.2499999999999
 20
77.75
 30
0.0
  0
POINT
  5
2B7
330
2AC
100
AcDbEntity
  8
DEFPOINTS
  6
ByBlock
 62
     0
100
AcDbPoint
 10
110.0999999999999
 20
77.75
 30
0.0
  0
ENDBLK
  5
2B9
330
2AC
100
AcDbEntity
  8
0
100
AcDbBlockEnd
  0
BLOCK
  5
2C3
330
2BA
100
AcDbEntity
  8
0
100
AcDbBlockBegin
  2
*D11
 70
     1
 10
0.0
 20
0.0
 30
0.0
  3
*D11
  1

  0
LINE
  5
2BB
330
2BA
100
AcDbEntity
  8
0
  6
ByBlock
 62
     0
100
AcDbLine
 10
183.4999999999999
 20
86.25
 30
0.0
 11
185.5
 21
86.25
 31
0.0
  0
LINE
  5
2BC
330
2BA
100
AcDbEntity
  8
0
  6
ByBlock
 62
     0
100
AcDbLine
 10
185.5
 20
86.25
 30
0.0
 11
190.917398
 21
81.71109900000001
 31
0.0
  0
MTEXT
  5
2BD
330
2BA
100
AcDbEntity
  8
0
  6
ByBlock
 62
     0
100
AcDbMText
 10
181.75
 20
86.25
 30
0.0
 40
3.5
 41
0.0
 71
     5
 72
     1
  1
\A1;\U+22056
 73
     1
 44
1.0
  0
SOLID
  5
2BE
330
2BA
100
AcDbEntity
  8
0
  6
ByBlock
 62
     0
100
AcDbTrace
 10
191.131471
 20
81.96660599999999
 30
0.0
 11
190.703324
 21
81.455592
 31
0.0
 12
192.4504389999999
 22
80.42665900000001
 32
0.0
 13
192.4504389999999
 23
80.42665900000001
 33
0.0
  0
LINE
  5
2BF
330
2BA
100
AcDbEntity
  8
0
  6
ByBlock
 62
     0
100
AcDbLine
 10
194.65
 20
78.5
 30
0.0
 11
194.8499999999999
 21
78.5
 31
0.0
  0
LINE
  5
2C0
330
2BA
100
AcDbEntity
  8
0
  6
ByBlock
 62
     0
100
AcDbLine
 10
194.7499999999999
 20
78.4
 30
0.0
 11
194.7499999999999
 21
78.59999999999999
 31
0.0
  0
POINT
  5
2C1
330
2BA
100
AcDbEntity
  8
DEFPOINTS
  6
ByBlock
 62
     0
100
AcDbPoint
 10
192.4504389999999
 20
80.42665900000001
 30
0.0
  0
POINT
  5
2C2
330
2BA
100
AcDbEntity
  8
DEFPOINTS
  6
ByBlock
 62
     0
100
AcDbPoint
 10
197.049562
 20
76.57334
 30
0.0
  0
ENDBLK
  5
2C4
330
2BA
100
AcDbEntity
  8
0
100
AcDbBlockEnd
  0
BLOCK
  5
31C
330
2C9
100
AcDbEntity
  8
0
100
AcDbBlockBegin
  2
A$C502C4094
 70
     0
 10
0.0
 20
0.0
 30
0.0
  3
A$C502C4094
  1

  0
LINE
  5
2CA
330
2C9
100
AcDbEntity
  8
1
100
AcDbLine
 10
53.15
 20
5.25
 30
0.0
 11
77.40000000000001
 21
5.25
 31
0.0
  0
LINE
  5
2CB
330
2C9
100
AcDbEntity
  8
3
100
AcDbLine
 10
75.4
 20
2.25
 30
0.0
 11
59.4
 21
2.25
 31
0.0
  0
LINE
  5
2CC
330
2C9
100
AcDbEntity
  8
3
100
AcDbLine
 10
75.4
 20
8.25
 30
0.0
 11
59.4
 21
8.25
 31
0.0
  0
HATCH
  5
2CD
330
2C9
100
AcDbEntity
  8
0
100
AcDbHatch
 10
0.0
 20
0.0
 30
0.0
210
0.0
220
0.0
230
1.0
  2
ANSI31
 70
     0
 71
     1
 91
        1
 92
        7
 72
     1
 73
     1
 93
        8
 10
72.40000000000001
 20
36.25
 42
0.4142135623730951
 10
73.4
 20
37.25
 42
0.0
 10
73.39999999999999
 20
39.15
 42
0.0
 10
58.39999999999999
 20
39.15
 42
0.0
 10
58.40000000000001
 20
38.04999999999999
 42
0.0
 10
55.4
 20
38.04999999999999
 42
0.0
 10
55.4
 20
37.25
 42
0.4142135623730972
 10
56.4
 20
36.25
 42
0.0
 97
        8
330
317
330
2D0
330
2F3
330
2F1
330
2F0
330
2F2
330
2D1
330
316
 75
     0
 76
     1
 52
0.0
 41
3.0
 77
     0
 78
     1
 53
45.0
 43
-72.85
 44
-73.25
 45
-0.2651650429449553
 46
0.2651650429449553
 79
     0
 47
0.136474
 98
        1
 10
65.4
 20
37.25
  0
DIMENSION
  5
2CE
330
2C9
100
AcDbEntity
  8
0
100
AcDbDimension
  2
*D5
 10
73.4
 20
61.25
 30
0.0
 11
65.9
 21
61.25
 31
0.0
 12
-72.85
 22
-73.25
 32
0.0
 70
   128
 71
     5
 42
-1.0
  3
STANDARD
100
AcDbAlignedDimension
 13
58.39999999999999
 23
46.45
 33
0.0
 14
73.4
 24
47.25
 34
0.0
100
AcDbRotatedDimension
1001
ACAD
1000
DSTYLE
1002
{
1070
    78
1070
     8
1070
   288
1070
     1
1070
   284
1070
     8
1070
   140
1040
2.0
1070
    73
1070
     0
1070
   272
1070
     2
1070
   147
1040
0.1
1070
    42
1040
0.1
1070
    44
1040
0.2
1070
    43
1040
0.4
1070
   271
1070
     2
1070
   141
1040
0.1
1070
    41
1040
2.0
1002
}
  0
DIMENSION
  5
2CF
330
2C9
100
AcDbEntity
  8
0
100
AcDbDimension
  2
*D3
 10
73.4
 20
70.5
 30
0.0
 11
64.15
 21
70.5
 31
0.0
 12
-72.85
 22
-73.25
 32
0.0
 70
   128
 71
     5
 42
-1.0
  3
STANDARD
100
AcDbAlignedDimension
 13
55.4
 23
47.25
 33
0.0
 14
73.4
 24
47.25
 34
0.0
100
AcDbRotatedDimension
1001
ACAD
1000
DSTYLE
1002
{
1070
    78
1070
     8
1070
   288
1070
     1
1070
   284
1070
     8
1070
   140
1040
2.0
1070
    73
1070
     0
1070
   272
1070
     2
1070
   147
1040
0.1
1070
    42
1040
0.1
1070
    44
1040
0.2
1070
    43
1040
0.4
1070
   271
1070
     2
1070
   141
1040
0.1
1070
    41
1040
2.0
1002
}
  0
LINE
  5
2D0
102
{ACAD_REACTORS
330
2CD
102
}
330
2C9
100
AcDbEntity
  8
3
100
AcDbLine
 10
73.4
 20
39.15
 30
0.0
 11
58.39999999999999
 21
39.15
 31
0.0
  0
LINE
  5
2D1
102
{ACAD_REACTORS
330
2CD
102
}
330
2C9
100
AcDbEntity
  8
3
100
AcDbLine
 10
56.4
 20
36.25
 30
0.0
 11
72.40000000000001
 21
36.25
 31
0.0
  0
LINE
  5
2D2
330
2C9
100
AcDbEntity
  8
3
100
AcDbLine
 10
73.4
 20
45.35
 30
0.0
 11
58.39999999999999
 21
45.35
 31
0.0
  0
LINE
  5
2D3
330
2C9
100
AcDbEntity
  8
3
100
AcDbLine
 10
56.4
 20
48.25
 30
0.0
 11
72.40000000000001
 21
48.25
 31
0.0
  0
LINE
  5
2D4
330
2C9
100
AcDbEntity
  8
1
100
AcDbLine
 10
52.14999999999999
 20
42.25000099999999
 30
0.0
 11
76.4
 21
42.25000099999999
 31
0.0
  0
CIRCLE
  5
2D5
330
2C9
100
AcDbEntity
  8
3
100
AcDbCircle
 10
16.89999999999999
 20
5.25
 30
0.0
 40
4.0
  0
LINE
  5
2D6
330
2C9
100
AcDbEntity
  8
1
100
AcDbLine
 10
16.89999999999999
 20
10.25
 30
0.0
 11
16.89999999999999
 21
0.0
 31
0.0
  0
LINE
  5
2D7
330
2C9
100
AcDbEntity
  8
1
100
AcDbLine
 10
11.4
 20
5.25
 30
0.0
 11
22.65
 21
5.25
 31
0.0
  0
LINE
  5
2D8
330
2C9
100
AcDbEntity
  8
3
100
AcDbLine
 10
20.829059
 20
6.0
 30
0.0
 11
12.970942
 21
6.0
 31
0.0
  0
LINE
  5
2D9
330
2C9
100
AcDbEntity
  8
3
100
AcDbLine
 10
20.829059
 20
4.5
 30
0.0
 11
12.970942
 21
4.5
 31
0.0
  0
DIMENSION
  5
2DA
330
2C9
100
AcDbEntity
  8
0
100
AcDbDimension
  2
*D10
 10
37.25
 20
4.5
 30
0.0
 11
41.39999999999999
 21
10.74999999999999
 31
0.0
 12
-72.85
 22
-73.25
 32
0.0
 70
   128
 71
     5
 42
-1.0
  3
STANDARD
100
AcDbAlignedDimension
 13
56.4
 23
6.0
 33
0.0
 14
56.4
 24
4.5
 34
0.0
 50
90.0
100
AcDbRotatedDimension
1001
ACAD
1000
DSTYLE
1002
{
1070
    78
1070
     8
1070
   288
1070
     1
1070
   284
1070
     8
1070
   140
1040
2.0
1070
    73
1070
     0
1070
   272
1070
     2
1070
   147
1040
0.1
1070
    42
1040
0.1
1070
    44
1040
0.2
1070
    43
1040
0.4
1070
   271
1070
     2
1070
   141
1040
0.1
1070
    41
1040
2.0
1002
}
  0
LINE
  5
2DB
330
2C9
100
AcDbEntity
  8
3
100
AcDbLine
 10
59.4
 20
5.25
 30
0.0
 11
59.4
 21
9.25
 31
0.0
  0
LINE
  5
2DC
330
2C9
100
AcDbEntity
  8
3
100
AcDbLine
 10
56.4
 20
9.25
 30
0.0
 11
56.4
 21
6.0
 31
0.0
  0
LINE
  5
2DD
330
2C9
100
AcDbEntity
  8
3
100
AcDbLine
 10
59.4
 20
5.25
 30
0.0
 11
59.4
 21
1.25
 31
0.0
  0
LINE
  5
2DE
330
2C9
100
AcDbEntity
  8
3
100
AcDbLine
 10
56.4
 20
1.25
 30
0.0
 11
56.4
 21
4.5
 31
0.0
  0
LINE
  5
2DF
330
2C9
100
AcDbEntity
  8
3
100
AcDbLine
 10
59.4
 20
1.25
 30
0.0
 11
56.4
 21
1.25
 31
0.0
  0
LINE
  5
2E0
330
2C9
100
AcDbEntity
  8
3
100
AcDbLine
 10
57.4
 20
4.5
 30
0.0
 11
57.4
 21
5.25
 31
0.0
  0
LINE
  5
2E1
330
2C9
100
AcDbEntity
  8
3
100
AcDbLine
 10
56.4
 20
4.5
 30
0.0
 11
57.4
 21
4.5
 31
0.0
  0
LINE
  5
2E2
330
2C9
100
AcDbEntity
  8
3
100
AcDbLine
 10
57.4
 20
6.0
 30
0.0
 11
57.4
 21
5.25
 31
0.0
  0
LINE
  5
2E3
330
2C9
100
AcDbEntity
  8
3
100
AcDbLine
 10
56.4
 20
6.0
 30
0.0
 11
57.4
 21
6.0
 31
0.0
  0
LINE
  5
2E4
330
2C9
100
AcDbEntity
  8
3
100
AcDbLine
 10
59.4
 20
9.25
 30
0.0
 11
56.4
 21
9.25
 31
0.0
  0
CIRCLE
  5
2E5
330
2C9
100
AcDbEntity
  8
3
100
AcDbCircle
 10
18.65
 20
42.25000099999999
 30
0.0
 40
6.0
  0
LINE
  5
2E6
330
2C9
100
AcDbEntity
  8
1
100
AcDbLine
 10
27.65
 20
42.25000099999999
 30
0.0
 11
8.65
 21
42.25000099999999
 31
0.0
  0
DIMENSION
  5
2E7
330
2C9
100
AcDbEntity
  8
0
100
AcDbDimension
  2
*D0
 10
22.333644
 20
37.513888
 30
0.0
 11
3.399999999999999
 21
55.75
 31
0.0
 12
-72.85
 22
-73.25
 32
0.0
 70
   131
 71
     5
 42
-1.0
  3
STANDARD
100
AcDbDiametricDimension
 15
14.966356
 25
46.98611399999999
 35
0.0
 40
0.0
1001
ACAD
1000
DSTYLE
1002
{
1070
    78
1070
     8
1070
   288
1070
     1
1070
   284
1070
     8
1070
   140
1040
2.0
1070
    73
1070
     0
1070
   272
1070
     2
1070
   147
1040
0.1
1070
    42
1040
0.1
1070
    44
1040
0.2
1070
    43
1040
0.4
1070
   271
1070
     2
1070
   141
1040
0.1
1070
    41
1040
2.0
1002
}
  0
DIMENSION
  5
2E8
330
2C9
100
AcDbEntity
  8
0
100
AcDbDimension
  2
*D2
 10
21.350033
 20
43.773096
 30
0.0
 11
3.649999999999999
 21
36.75
 31
0.0
 12
-72.85
 22
-73.25
 32
0.0
 70
   131
 71
     5
 42
-1.0
  3
STANDARD
100
AcDbDiametricDimension
 15
15.949967
 25
40.726905
 35
0.0
 40
0.0
1001
ACAD
1000
DSTYLE
1002
{
1070
    78
1070
     8
1070
   288
1070
     1
1070
   284
1070
     8
1070
   140
1040
2.0
1070
    73
1070
     0
1070
   272
1070
     2
1070
   147
1040
0.1
1070
    42
1040
0.1
1070
    44
1040
0.2
1070
    43
1040
0.4
1070
   271
1070
     2
1070
   141
1040
0.1
1070
    41
1040
2.0
1002
}
  0
DIMENSION
  5
2E9
330
2C9
100
AcDbEntity
  8
0
100
AcDbDimension
  2
*D1
 10
21.882984
 20
39.56898999999999
 30
0.0
 11
3.1
 21
50.75
 31
0.0
 12
-72.85
 22
-73.25
 32
0.0
 70
   131
 71
     5
 42
-1.0
  3
STANDARD
100
AcDbDiametricDimension
 15
15.417017
 25
44.93101099999999
 35
0.0
 40
0.0
1001
ACAD
1000
DSTYLE
1002
{
1070
    78
1070
     8
1070
   288
1070
     1
1070
   284
1070
     8
1070
   140
1040
2.0
1070
    73
1070
     0
1070
   272
1070
     2
1070
   147
1040
0.1
1070
    42
1040
0.1
1070
    44
1040
0.2
1070
    43
1040
0.4
1070
   271
1070
     2
1070
   141
1040
0.1
1070
    41
1040
2.0
1002
}
  0
CIRCLE
  5
2EA
330
2C9
100
AcDbEntity
  8
3
100
AcDbCircle
 10
18.65
 20
42.25000099999999
 30
0.0
 40
3.1
  0
CIRCLE
  5
2EB
330
2C9
100
AcDbEntity
  8
3
100
AcDbCircle
 10
18.65
 20
42.25000099999999
 30
0.0
 40
4.2
  0
LINE
  5
2EC
330
2C9
100
AcDbEntity
  8
1
100
AcDbLine
 10
18.65
 20
51.5
 30
0.0
 11
18.65
 21
33.0
 31
0.0
  0
DIMENSION
  5
2ED
330
2C9
100
AcDbEntity
  8
0
100
AcDbDimension
  2
*D4
 10
58.39999999999999
 20
64.25
 30
0.0
 11
56.9
 21
64.25
 31
0.0
 12
-72.85
 22
-73.25
 32
0.0
 70
   128
 71
     5
 42
-1.0
  3
STANDARD
100
AcDbAlignedDimension
 13
55.4
 23
47.25
 33
0.0
 14
58.39999999999999
 24
46.45
 34
0.0
100
AcDbRotatedDimension
1001
ACAD
1000
DSTYLE
1002
{
1070
    78
1070
     8
1070
   288
1070
     1
1070
   284
1070
     8
1070
   140
1040
2.0
1070
    73
1070
     0
1070
   272
1070
     2
1070
   147
1040
0.1
1070
    42
1040
0.1
1070
    44
1040
0.2
1070
    43
1040
0.4
1070
   271
1070
     2
1070
   141
1040
0.1
1070
    41
1040
2.0
1002
}
  0
DIMENSION
  5
2EE
330
2C9
100
AcDbEntity
  8
0
100
AcDbDimension
  2
*D6
 10
56.4
 20
37.25
 30
0.0
 11
45.4
 21
30.75
 31
0.0
 12
-72.85
 22
-73.25
 32
0.0
 70
   132
 71
     5
 42
-1.0
  3
STANDARD
100
AcDbRadialDimension
 15
55.644311
 25
36.59507
 35
0.0
 40
0.0
1001
ACAD
1000
DSTYLE
1002
{
1070
    78
1070
     8
1070
   288
1070
     1
1070
   284
1070
     8
1070
   140
1040
2.0
1070
    73
1070
     0
1070
   272
1070
     2
1070
   147
1040
0.1
1070
    42
1040
0.1
1070
    44
1040
0.2
1070
    43
1040
0.4
1070
   271
1070
     2
1070
   141
1040
0.1
1070
    41
1040
2.0
1002
}
  0
LINE
  5
2EF
330
2C9
100
AcDbEntity
  8
3
100
AcDbLine
 10
58.39999999999999
 20
39.15
 30
0.0
 11
58.39999999999999
 21
42.25
 31
0.0
  0
LINE
  5
2F0
102
{ACAD_REACTORS
330
2CD
102
}
330
2C9
100
AcDbEntity
  8
3
100
AcDbLine
 10
55.4
 20
37.25
 30
0.0
 11
55.4
 21
42.25
 31
0.0
  0
LINE
  5
2F1
102
{ACAD_REACTORS
330
2CD
102
}
330
2C9
100
AcDbEntity
  8
3
100
AcDbLine
 10
58.39999999999999
 20
38.04999999999999
 30
0.0
 11
55.4
 21
38.04999999999999
 31
0.0
  0
ARC
  5
2F2
102
{ACAD_REACTORS
330
2CD
102
}
330
2C9
100
AcDbEntity
  8
3
100
AcDbCircle
 10
56.4
 20
37.25
 30
0.0
 40
1.0
100
AcDbArc
 50
180.0
 51
270.0
  0
LINE
  5
2F3
102
{ACAD_REACTORS
330
2CD
102
}
330
2C9
100
AcDbEntity
  8
3
100
AcDbLine
 10
58.39999999999999
 20
39.15
 30
0.0
 11
58.39999999999999
 21
38.04999999999999
 31
0.0
  0
ARC
  5
2F4
330
2C9
100
AcDbEntity
  8
3
100
AcDbCircle
 10
56.4
 20
47.25
 30
0.0
 40
1.0
100
AcDbArc
 50
90.0
 51
180.0
  0
LINE
  5
2F5
330
2C9
100
AcDbEntity
  8
3
100
AcDbLine
 10
58.39999999999999
 20
46.45
 30
0.0
 11
55.4
 21
46.45
 31
0.0
  0
LINE
  5
2F6
330
2C9
100
AcDbEntity
  8
3
100
AcDbLine
 10
55.4
 20
47.25
 30
0.0
 11
55.4
 21
42.25
 31
0.0
  0
LINE
  5
2F7
330
2C9
100
AcDbEntity
  8
3
100
AcDbLine
 10
58.39999999999999
 20
45.35
 30
0.0
 11
58.39999999999999
 21
42.25
 31
0.0
  0
LINE
  5
2F8
330
2C9
100
AcDbEntity
  8
3
100
AcDbLine
 10
58.39999999999999
 20
45.35
 30
0.0
 11
58.39999999999999
 21
46.45
 31
0.0
  0
DIMENSION
  5
2F9
330
2C9
100
AcDbEntity
  8
0
100
AcDbDimension
  2
*D7
 10
72.40000000000001
 20
37.25
 30
0.0
 11
83.15000000000001
 21
23.5
 31
0.0
 12
-72.85
 22
-73.25
 32
0.0
 70
   132
 71
     5
 42
-1.0
  3
STANDARD
100
AcDbRadialDimension
 15
72.86640899999999
 25
36.365431
 35
0.0
 40
0.0
1001
ACAD
1000
DSTYLE
1002
{
1070
    78
1070
     8
1070
   288
1070
     1
1070
   284
1070
     8
1070
   140
1040
2.0
1070
    73
1070
     0
1070
   272
1070
     2
1070
   147
1040
0.1
1070
    42
1040
0.1
1070
    44
1040
0.2
1070
    43
1040
0.4
1070
   271
1070
     2
1070
   141
1040
0.1
1070
    41
1040
2.0
1002
}
  0
DIMENSION
  5
2FA
330
2C9
100
AcDbEntity
  8
0
100
AcDbDimension
  2
*D11
 10
124.199562
 20
3.323339999999999
 30
0.0
 11
108.9
 21
13.0
 31
0.0
 12
-72.85
 22
-73.25
 32
0.0
 70
   131
 71
     5
 42
-1.0
  3
STANDARD
100
AcDbDiametricDimension
 15
119.6004389999999
 25
7.17666
 35
0.0
 40
0.0
1001
ACAD
1000
DSTYLE
1002
{
1070
    78
1070
     8
1070
   288
1070
     1
1070
   284
1070
     8
1070
   140
1040
2.0
1070
    73
1070
     0
1070
   272
1070
     2
1070
   147
1040
0.1
1070
    42
1040
0.1
1070
    44
1040
0.2
1070
    43
1040
0.4
1070
   271
1070
     2
1070
   141
1040
0.1
1070
    41
1040
2.0
1002
}
  0
LINE
  5
2FB
330
2C9
100
AcDbEntity
  8
1
100
AcDbLine
 10
77.65
 20
5.25
 30
0.0
 11
85.90000000000001
 21
5.25
 31
0.0
  0
LINE
  5
2FC
330
2C9
100
AcDbEntity
  8
3
100
AcDbLine
 10
83.40000000000001
 20
2.75
 30
0.0
 11
75.4
 21
2.75
 31
0.0
  0
LINE
  5
2FD
330
2C9
100
AcDbEntity
  8
3
100
AcDbLine
 10
84.15
 20
3.5
 30
0.0
 11
76.15000000000001
 21
3.5
 31
0.0
  0
LINE
  5
2FE
330
2C9
100
AcDbEntity
  8
3
100
AcDbLine
 10
84.15
 20
7.0
 30
0.0
 11
76.15000000000001
 21
7.0
 31
0.0
  0
LINE
  5
2FF
330
2C9
100
AcDbEntity
  8
3
100
AcDbLine
 10
83.40000000000001
 20
7.75
 30
0.0
 11
75.4
 21
7.75
 31
0.0
  0
LINE
  5
300
330
2C9
100
AcDbEntity
  8
3
100
AcDbLine
 10
76.15000000000001
 20
5.25
 30
0.0
 11
76.15000000000001
 21
2.75
 31
0.0
  0
LINE
  5
301
330
2C9
100
AcDbEntity
  8
3
100
AcDbLine
 10
75.4
 20
5.25
 30
0.0
 11
75.4
 21
2.25
 31
0.0
  0
LINE
  5
302
330
2C9
100
AcDbEntity
  8
3
100
AcDbLine
 10
75.4
 20
5.25
 30
0.0
 11
75.4
 21
8.25
 31
0.0
  0
LINE
  5
303
330
2C9
100
AcDbEntity
  8
3
100
AcDbLine
 10
76.15000000000001
 20
5.25
 30
0.0
 11
76.15000000000001
 21
7.75
 31
0.0
  0
LINE
  5
304
330
2C9
100
AcDbEntity
  8
3
100
AcDbLine
 10
84.40000000000001
 20
6.75
 30
0.0
 11
83.40000000000001
 21
7.75
 31
0.0
  0
LINE
  5
305
330
2C9
100
AcDbEntity
  8
3
100
AcDbLine
 10
84.40000000000001
 20
3.75
 30
0.0
 11
83.40000000000001
 21
2.75
 31
0.0
  0
LINE
  5
306
330
2C9
100
AcDbEntity
  8
3
100
AcDbLine
 10
83.40000000000001
 20
5.25
 30
0.0
 11
83.40000000000001
 21
2.75
 31
0.0
  0
LINE
  5
307
330
2C9
100
AcDbEntity
  8
3
100
AcDbLine
 10
83.40000000000001
 20
5.25
 30
0.0
 11
83.40000000000001
 21
7.75
 31
0.0
  0
LINE
  5
308
330
2C9
100
AcDbEntity
  8
3
100
AcDbLine
 10
84.40000000000001
 20
5.25
 30
0.0
 11
84.40000000000001
 21
3.75
 31
0.0
  0
LINE
  5
309
330
2C9
100
AcDbEntity
  8
3
100
AcDbLine
 10
84.40000000000001
 20
5.25
 30
0.0
 11
84.40000000000001
 21
6.75
 31
0.0
  0
LINE
  5
30A
330
2C9
100
AcDbEntity
  8
1
100
AcDbLine
 10
121.9
 20
10.25
 30
0.0
 11
121.9
 21
0.0
 31
0.0
  0
CIRCLE
  5
30B
330
2C9
100
AcDbEntity
  8
3
100
AcDbCircle
 10
121.9
 20
5.25
 30
0.0
 40
4.0
  0
LINE
  5
30C
330
2C9
100
AcDbEntity
  8
1
100
AcDbLine
 10
116.4
 20
5.25
 30
0.0
 11
127.65
 21
5.25
 31
0.0
  0
CIRCLE
  5
30D
330
2C9
100
AcDbEntity
  8
3
100
AcDbCircle
 10
121.9
 20
5.25
 30
0.0
 40
2.5
  0
CIRCLE
  5
30E
330
2C9
100
AcDbEntity
  8
3
100
AcDbCircle
 10
121.9
 20
5.25
 30
0.0
 40
1.75
  0
CIRCLE
  5
30F
330
2C9
100
AcDbEntity
  8
3
100
AcDbCircle
 10
121.9
 20
5.25
 30
0.0
 40
3.0
  0
DIMENSION
  5
310
330
2C9
100
AcDbEntity
  8
0
100
AcDbDimension
  2
*D9
 10
111.368999
 20
40.761025
 30
0.0
 11
92.9
 21
48.0
 31
0.0
 12
-72.85
 22
-73.25
 32
0.0
 70
   131
 71
     5
 42
-1.0
  3
STANDARD
100
AcDbDiametricDimension
 15
105.931002
 25
43.738976
 35
0.0
 40
0.0
1001
ACAD
1000
DSTYLE
1002
{
1070
    78
1070
     8
1070
   288
1070
     1
1070
   284
1070
     8
1070
   140
1040
2.0
1070
    73
1070
     0
1070
   272
1070
     2
1070
   147
1040
0.1
1070
    42
1040
0.1
1070
    44
1040
0.2
1070
    43
1040
0.4
1070
   271
1070
     2
1070
   141
1040
0.1
1070
    41
1040
2.0
1002
}
  0
DIMENSION
  5
311
330
2C9
100
AcDbEntity
  8
0
100
AcDbDimension
  2
*D8
 10
112.038103
 20
37.298157
 30
0.0
 11
94.15
 21
56.5
 31
0.0
 12
-72.85
 22
-73.25
 32
0.0
 70
   131
 71
     5
 42
-1.0
  3
STANDARD
100
AcDbDiametricDimension
 15
105.2618969999999
 25
47.20184399999999
 35
0.0
 40
0.0
1001
ACAD
1000
DSTYLE
1002
{
1070
    78
1070
     8
1070
   288
1070
     1
1070
   284
1070
     8
1070
   140
1040
2.0
1070
    73
1070
     0
1070
   272
1070
     2
1070
   147
1040
0.1
1070
    42
1040
0.1
1070
    44
1040
0.2
1070
    43
1040
0.4
1070
   271
1070
     2
1070
   141
1040
0.1
1070
    41
1040
2.0
1002
}
  0
LINE
  5
312
330
2C9
100
AcDbEntity
  8
1
100
AcDbLine
 10
117.65
 20
42.25000099999999
 30
0.0
 11
98.65000000000001
 21
42.25000099999999
 31
0.0
  0
CIRCLE
  5
313
330
2C9
100
AcDbEntity
  8
3
100
AcDbCircle
 10
108.65
 20
42.25000099999999
 30
0.0
 40
6.0
  0
CIRCLE
  5
314
330
2C9
100
AcDbEntity
  8
3
100
AcDbCircle
 10
108.65
 20
42.25000099999999
 30
0.0
 40
3.1
  0
LINE
  5
315
330
2C9
100
AcDbEntity
  8
3
100
AcDbLine
 10
73.4
 20
39.15
 30
0.0
 11
73.4
 21
42.25
 31
0.0
  0
ARC
  5
316
102
{ACAD_REACTORS
330
2CD
102
}
330
2C9
100
AcDbEntity
  8
3
100
AcDbCircle
 10
72.40000000000001
 20
37.25
 30
0.0
 40
1.0
100
AcDbArc
 50
270.0
 51
0.0
  0
LINE
  5
317
102
{ACAD_REACTORS
330
2CD
102
}
330
2C9
100
AcDbEntity
  8
3
100
AcDbLine
 10
73.4
 20
37.25
 30
0.0
 11
73.4
 21
39.15
 31
0.0
  0
LINE
  5
318
330
2C9
100
AcDbEntity
  8
3
100
AcDbLine
 10
73.4
 20
47.25
 30
0.0
 11
73.4
 21
45.35
 31
0.0
  0
LINE
  5
319
330
2C9
100
AcDbEntity
  8
3
100
AcDbLine
 10
73.4
 20
45.35
 30
0.0
 11
73.4
 21
42.25
 31
0.0
  0
ARC
  5
31A
330
2C9
100
AcDbEntity
  8
3
100
AcDbCircle
 10
72.40000000000001
 20
47.25
 30
0.0
 40
1.0
100
AcDbArc
 50
0.0
 51
90.0
  0
LINE
  5
31B
330
2C9
100
AcDbEntity
  8
1
100
AcDbLine
 10
108.65
 20
51.5
 30
0.0
 11
108.65
 21
33.0
 31
0.0
  0
ENDBLK
  5
31D
330
2C9
100
AcDbEntity
  8
0
100
AcDbBlockEnd
  0
BLOCK
  5
3F1
330
371
100
AcDbEntity
  8
0
100
AcDbBlockBegin
  2
*D13
 70
     1
 10
0.0
 20
0.0
 30
0.0
  3
*D13
  1

  0
LINE
  5
3F2
330
371
100
AcDbEntity
  8
0
  6
ByBlock
 62
     0
100
AcDbLine
 10
114.3172999999999
 20
82.315081
 30
0.0
 11
114.3172999999999
 21
97.21508100000001
 31
0.0
  0
LINE
  5
3F3
330
371
100
AcDbEntity
  8
0
  6
ByBlock
 62
     0
100
AcDbLine
 10
129.3172999999999
 20
83.11508100000001
 30
0.0
 11
129.3172999999999
 21
97.21508100000001
 31
0.0
  0
LINE
  5
3F4
330
371
100
AcDbEntity
  8
0
  6
ByBlock
 62
     0
100
AcDbLine
 10
116.3173
 20
97.01508100000001
 30
0.0
 11
116.4172999999999
 21
97.01508100000001
 31
0.0
  0
LINE
  5
3F5
330
371
100
AcDbEntity
  8
0
  6
ByBlock
 62
     0
100
AcDbLine
 10
127.3173
 20
97.01508100000001
 30
0.0
 11
127.2172999999999
 21
97.01508100000001
 31
0.0
  0
MTEXT
  5
3F6
330
371
100
AcDbEntity
  8
0
  6
ByBlock
 62
     0
100
AcDbMText
 10
121.8172999999999
 20
97.01508100000001
 30
0.0
 40
10.0
 41
0.0
 71
     5
 72
     1
  1
\A1;15
  7
BIGFONT
 73
     1
 44
1.0
  0
SOLID
  5
3F7
330
371
100
AcDbEntity
  8
0
  6
ByBlock
 62
     0
100
AcDbTrace
 10
116.3173
 20
97.348414
 30
0.0
 11
116.3173
 21
96.681748
 31
0.0
 12
114.3172999999999
 22
97.01508100000001
 32
0.0
 13
114.3172999999999
 23
97.01508100000001
 33
0.0
  0
SOLID
  5
3F8
330
371
100
AcDbEntity
  8
0
  6
ByBlock
 62
     0
100
AcDbTrace
 10
127.3173
 20
97.348414
 30
0.0
 11
127.3173
 21
96.681748
 31
0.0
 12
129.3172999999999
 22
97.01508100000001
 32
0.0
 13
129.3172999999999
 23
97.01508100000001
 33
0.0
  0
POINT
  5
3F9
330
371
100
AcDbEntity
  8
DEFPOINTS
  6
ByBlock
 62
     0
100
AcDbPoint
 10
114.3172999999999
 20
82.21508100000001
 30
0.0
  0
POINT
  5
3FA
330
371
100
AcDbEntity
  8
DEFPOINTS
  6
ByBlock
 62
     0
100
AcDbPoint
 10
129.3172999999999
 20
83.01508100000001
 30
0.0
  0
POINT
  5
3FB
330
371
100
AcDbEntity
  8
DEFPOINTS
  6
ByBlock
 62
     0
100
AcDbPoint
 10
129.3172999999999
 20
97.01508100000001
 30
0.0
  0
ENDBLK
  5
3FC
330
371
100
AcDbEntity
  8
0
100
AcDbBlockEnd
  0
BLOCK
  5
3FD
330
37E
100
AcDbEntity
  8
0
100
AcDbBlockBegin
  2
*D14
 70
     1
 10
0.0
 20
0.0
 30
0.0
  3
*D14
  1

  0
LINE
  5
3FE
330
37E
100
AcDbEntity
  8
0
  6
ByBlock
 62
     0
100
AcDbLine
 10
111.3172999999999
 20
83.11508100000001
 30
0.0
 11
111.3172999999999
 21
106.465081
 31
0.0
  0
LINE
  5
3FF
330
37E
100
AcDbEntity
  8
0
  6
ByBlock
 62
     0
100
AcDbLine
 10
129.3172999999999
 20
83.11508100000001
 30
0.0
 11
129.3172999999999
 21
106.465081
 31
0.0
  0
LINE
  5
400
330
37E
100
AcDbEntity
  8
0
  6
ByBlock
 62
     0
100
AcDbLine
 10
113.3172999999999
 20
106.265081
 30
0.0
 11
113.4173
 21
106.265081
 31
0.0
  0
LINE
  5
401
330
37E
100
AcDbEntity
  8
0
  6
ByBlock
 62
     0
100
AcDbLine
 10
127.3173
 20
106.265081
 30
0.0
 11
126.8339659999999
 21
106.265081
 31
0.0
  0
MTEXT
  5
402
330
37E
100
AcDbEntity
  8
0
  6
ByBlock
 62
     0
100
AcDbMText
 10
120.0673
 20
106.265081
 30
0.0
 40
10.0
 41
0.0
 71
     5
 72
     1
  1
\A1;18
  7
BIGFONT
 73
     1
 44
1.0
  0
SOLID
  5
403
330
37E
100
AcDbEntity
  8
0
  6
ByBlock
 62
     0
100
AcDbTrace
 10
113.3172999999999
 20
106.5984139999999
 30
0.0
 11
113.3172999999999
 21
105.931748
 31
0.0
 12
111.3172999999999
 22
106.265081
 32
0.0
 13
111.3172999999999
 23
106.265081
 33
0.0
  0
SOLID
  5
404
330
37E
100
AcDbEntity
  8
0
  6
ByBlock
 62
     0
100
AcDbTrace
 10
127.3173
 20
106.5984139999999
 30
0.0
 11
127.3173
 21
105.931748
 31
0.0
 12
129.3172999999999
 22
106.265081
 32
0.0
 13
129.3172999999999
 23
106.265081
 33
0.0
  0
POINT
  5
405
330
37E
100
AcDbEntity
  8
DEFPOINTS
  6
ByBlock
 62
     0
100
AcDbPoint
 10
111.3172999999999
 20
83.01508100000001
 30
0.0
  0
POINT
  5
406
330
37E
100
AcDbEntity
  8
DEFPOINTS
  6
ByBlock
 62
     0
100
AcDbPoint
 10
129.3172999999999
 20
83.01508100000001
 30
0.0
  0
POINT
  5
407
330
37E
100
AcDbEntity
  8
DEFPOINTS
  6
ByBlock
 62
     0
100
AcDbPoint
 10
129.3172999999999
 20
106.265081
 30
0.0
  0
ENDBLK
  5
408
330
37E
100
AcDbEntity
  8
0
100
AcDbBlockEnd
  0
BLOCK
  5
409
330
38B
100
AcDbEntity
  8
0
100
AcDbBlockBegin
  2
*D15
 70
     1
 10
0.0
 20
0.0
 30
0.0
  3
*D15
  1

  0
LINE
  5
40A
330
38B
100
AcDbEntity
  8
0
  6
ByBlock
 62
     0
100
AcDbLine
 10
112.2172999999999
 20
41.765081
 30
0.0
 11
92.9673
 21
41.765081
 31
0.0
  0
LINE
  5
40B
330
38B
100
AcDbEntity
  8
0
  6
ByBlock
 62
     0
100
AcDbLine
 10
112.2172999999999
 20
40.265081
 30
0.0
 11
92.9673
 21
40.265081
 31
0.0
  0
LINE
  5
40C
330
38B
100
AcDbEntity
  8
0
  6
ByBlock
 62
     0
100
AcDbLine
 10
93.16729999999999
 20
43.765081
 30
0.0
 11
93.16729999999999
 21
45.765081
 31
0.0
  0
LINE
  5
40D
330
38B
100
AcDbEntity
  8
0
  6
ByBlock
 62
     0
100
AcDbLine
 10
93.16729999999999
 20
38.265081
 30
0.0
 11
93.16729999999999
 21
36.265081
 31
0.0
  0
MTEXT
  5
40E
330
38B
100
AcDbEntity
  8
0
  6
ByBlock
 62
     0
100
AcDbMText
 10
97.3173
 20
46.515081
 30
0.0
 40
10.0
 41
0.0
 71
     5
 72
     1
  1
\A1;1.5
  7
BIGFONT
 73
     1
 44
1.0
  0
LINE
  5
40F
330
38B
100
AcDbEntity
  8
0
  6
ByBlock
 62
     0
100
AcDbLine
 10
93.16729999999999
 20
41.765081
 30
0.0
 11
93.16729999999999
 21
40.265081
 31
0.0
  0
SOLID
  5
410
330
38B
100
AcDbEntity
  8
0
  6
ByBlock
 62
     0
100
AcDbTrace
 10
92.83396600000001
 20
43.765081
 30
0.0
 11
93.500633
 21
43.765081
 31
0.0
 12
93.16729999999999
 22
41.765081
 32
0.0
 13
93.16729999999999
 23
41.765081
 33
0.0
  0
SOLID
  5
411
330
38B
100
AcDbEntity
  8
0
  6
ByBlock
 62
     0
100
AcDbTrace
 10
92.83396600000001
 20
38.265081
 30
0.0
 11
93.500633
 21
38.265081
 31
0.0
 12
93.16729999999999
 22
40.265081
 32
0.0
 13
93.16729999999999
 23
40.265081
 33
0.0
  0
POINT
  5
412
330
38B
100
AcDbEntity
  8
DEFPOINTS
  6
ByBlock
 62
     0
100
AcDbPoint
 10
112.3172999999999
 20
41.765081
 30
0.0
  0
POINT
  5
413
330
38B
100
AcDbEntity
  8
DEFPOINTS
  6
ByBlock
 62
     0
100
AcDbPoint
 10
112.3172999999999
 20
40.265081
 30
0.0
  0
POINT
  5
414
330
38B
100
AcDbEntity
  8
DEFPOINTS
  6
ByBlock
 62
     0
100
AcDbPoint
 10
93.16729999999999
 20
40.265081
 30
0.0
  0
ENDBLK
  5
415
330
38B
100
AcDbEntity
  8
0
100
AcDbBlockEnd
  0
BLOCK
  5
416
330
399
100
AcDbEntity
  8
0
100
AcDbBlockBegin
  2
*D16
 70
     1
 10
0.0
 20
0.0
 30
0.0
  3
*D16
  1

  0
LINE
  5
417
330
399
100
AcDbEntity
  8
0
  6
ByBlock
 62
     0
100
AcDbLine
 10
77.02306199999999
 20
74.85767299999999
 30
0.0
 11
72.111537
 21
81.17248999999999
 31
0.0
  0
MTEXT
  5
418
330
399
100
AcDbEntity
  8
0
  6
ByBlock
 62
     0
100
AcDbMText
 10
59.3173
 20
91.515081
 30
0.0
 40
10.0
 41
0.0
 71
     5
 72
     1
  1
\A1;\U+220512
  7
BIGFONT
 73
     1
 44
1.0
  0
SOLID
  5
419
330
399
100
AcDbEntity
  8
0
  6
ByBlock
 62
     0
100
AcDbTrace
 10
77.286179
 20
75.06231899999999
 30
0.0
 11
76.75994399999999
 21
74.653026
 31
0.0
 12
78.250943
 22
73.27896800000001
 32
0.0
 13
78.250943
 23
73.27896800000001
 33
0.0
  0
SOLID
  5
41A
330
399
100
AcDbEntity
  8
0
  6
ByBlock
 62
     0
100
AcDbTrace
 10
72.374655
 20
81.377137
 30
0.0
 11
71.84841999999999
 21
80.96784300000001
 31
0.0
 12
70.883656
 22
82.75119399999999
 32
0.0
 13
70.883656
 23
82.75119399999999
 33
0.0
  0
POINT
  5
41B
330
399
100
AcDbEntity
  8
DEFPOINTS
  6
ByBlock
 62
     0
100
AcDbPoint
 10
70.883656
 20
82.75119399999999
 30
0.0
  0
POINT
  5
41C
330
399
100
AcDbEntity
  8
DEFPOINTS
  6
ByBlock
 62
     0
100
AcDbPoint
 10
78.250943
 20
73.27896800000001
 30
0.0
  0
ENDBLK
  5
41D
330
399
100
AcDbEntity
  8
0
100
AcDbBlockEnd
  0
BLOCK
  5
41E
330
3A2
100
AcDbEntity
  8
0
100
AcDbBlockBegin
  2
*D17
 70
     1
 10
0.0
 20
0.0
 30
0.0
  3
*D17
  1

  0
LINE
  5
41F
330
3A2
100
AcDbEntity
  8
0
  6
ByBlock
 62
     0
100
AcDbLine
 10
75.52537599999999
 20
78.55553399999999
 30
0.0
 11
73.609223
 21
77.474628
 31
0.0
  0
MTEXT
  5
420
330
3A2
100
AcDbEntity
  8
0
  6
ByBlock
 62
     0
100
AcDbMText
 10
59.5673
 20
72.51508100000001
 30
0.0
 40
10.0
 41
0.0
 71
     5
 72
     1
  1
\A1;\U+22056.2
  7
BIGFONT
 73
     1
 44
1.0
  0
SOLID
  5
421
330
3A2
100
AcDbEntity
  8
0
  6
ByBlock
 62
     0
100
AcDbTrace
 10
75.36160200000001
 20
78.84586099999999
 30
0.0
 11
75.68915
 21
78.265208
 31
0.0
 12
77.26733299999999
 22
79.538177
 32
0.0
 13
77.26733299999999
 23
79.538177
 33
0.0
  0
SOLID
  5
422
330
3A2
100
AcDbEntity
  8
0
  6
ByBlock
 62
     0
100
AcDbTrace
 10
73.44544899999999
 20
77.764954
 30
0.0
 11
73.772997
 21
77.184302
 31
0.0
 12
71.867266
 22
76.491985
 32
0.0
 13
71.867266
 23
76.491985
 33
0.0
  0
POINT
  5
423
330
3A2
100
AcDbEntity
  8
DEFPOINTS
  6
ByBlock
 62
     0
100
AcDbPoint
 10
71.867266
 20
76.491985
 30
0.0
  0
POINT
  5
424
330
3A2
100
AcDbEntity
  8
DEFPOINTS
  6
ByBlock
 62
     0
100
AcDbPoint
 10
77.26733299999999
 20
79.538177
 30
0.0
  0
ENDBLK
  5
425
330
3A2
100
AcDbEntity
  8
0
100
AcDbBlockEnd
  0
BLOCK
  5
426
330
3AB
100
AcDbEntity
  8
0
100
AcDbBlockBegin
  2
*D18
 70
     1
 10
0.0
 20
0.0
 30
0.0
  3
*D18
  1

  0
LINE
  5
427
330
3AB
100
AcDbEntity
  8
0
  6
ByBlock
 62
     0
100
AcDbLine
 10
76.260767
 20
76.610742
 30
0.0
 11
72.87383199999999
 21
79.41942
 31
0.0
  0
MTEXT
  5
428
330
3AB
100
AcDbEntity
  8
0
  6
ByBlock
 62
     0
100
AcDbMText
 10
59.0173
 20
86.515081
 30
0.0
 40
10.0
 41
0.0
 71
     5
 72
     1
  1
\A1;\U+22058.4
  7
BIGFONT
 73
     1
 44
1.0
  0
SOLID
  5
429
330
3AB
100
AcDbEntity
  8
0
  6
ByBlock
 62
     0
100
AcDbTrace
 10
76.47354599999999
 20
76.867328
 30
0.0
 11
76.04798800000001
 21
76.354156
 31
0.0
 12
77.80028299999999
 22
75.33407099999999
 32
0.0
 13
77.80028299999999
 23
75.33407099999999
 33
0.0
  0
SOLID
  5
42A
330
3AB
100
AcDbEntity
  8
0
  6
ByBlock
 62
     0
100
AcDbTrace
 10
73.08661100000001
 20
79.676006
 30
0.0
 11
72.66105300000001
 21
79.16283400000001
 31
0.0
 12
71.334316
 22
80.696092
 32
0.0
 13
71.334316
 23
80.696092
 33
0.0
  0
POINT
  5
42B
330
3AB
100
AcDbEntity
  8
DEFPOINTS
  6
ByBlock
 62
     0
100
AcDbPoint
 10
71.334316
 20
80.696092
 30
0.0
  0
POINT
  5
42C
330
3AB
100
AcDbEntity
  8
DEFPOINTS
  6
ByBlock
 62
     0
100
AcDbPoint
 10
77.80028299999999
 20
75.33407099999999
 30
0.0
  0
ENDBLK
  5
42D
330
3AB
100
AcDbEntity
  8
0
100
AcDbBlockEnd
  0
BLOCK
  5
42E
330
3B4
100
AcDbEntity
  8
0
100
AcDbBlockBegin
  2
*D19
 70
     1
 10
0.0
 20
0.0
 30
0.0
  3
*D19
  1

  0
LINE
  5
42F
330
3B4
100
AcDbEntity
  8
0
  6
ByBlock
 62
     0
100
AcDbLine
 10
111.3172999999999
 20
83.11508100000001
 30
0.0
 11
111.3172999999999
 21
100.215081
 31
0.0
  0
LINE
  5
430
330
3B4
100
AcDbEntity
  8
0
  6
ByBlock
 62
     0
100
AcDbLine
 10
114.3172999999999
 20
82.315081
 30
0.0
 11
114.3172999999999
 21
100.215081
 31
0.0
  0
LINE
  5
431
330
3B4
100
AcDbEntity
  8
0
  6
ByBlock
 62
     0
100
AcDbLine
 10
109.3172999999999
 20
100.015081
 30
0.0
 11
107.3173
 21
100.015081
 31
0.0
  0
LINE
  5
432
330
3B4
100
AcDbEntity
  8
0
  6
ByBlock
 62
     0
100
AcDbLine
 10
116.3173
 20
100.015081
 30
0.0
 11
118.3173
 21
100.015081
 31
0.0
  0
MTEXT
  5
433
330
3B4
100
AcDbEntity
  8
0
  6
ByBlock
 62
     0
100
AcDbMText
 10
112.8173
 20
100.015081
 30
0.0
 40
10.0
 41
0.0
 71
     5
 72
     1
  1
\A1;3
  7
BIGFONT
 73
     1
 44
1.0
  0
LINE
  5
434
330
3B4
100
AcDbEntity
  8
0
  6
ByBlock
 62
     0
100
AcDbLine
 10
111.3172999999999
 20
100.015081
 30
0.0
 11
114.3172999999999
 21
100.015081
 31
0.0
  0
SOLID
  5
435
330
3B4
100
AcDbEntity
  8
0
  6
ByBlock
 62
     0
100
AcDbTrace
 10
109.3172999999999
 20
100.348414
 30
0.0
 11
109.3172999999999
 21
99.68174799999999
 31
0.0
 12
111.3172999999999
 22
100.015081
 32
0.0
 13
111.3172999999999
 23
100.015081
 33
0.0
  0
SOLID
  5
436
330
3B4
100
AcDbEntity
  8
0
  6
ByBlock
 62
     0
100
AcDbTrace
 10
116.3173
 20
100.348414
 30
0.0
 11
116.3173
 21
99.68174799999999
 31
0.0
 12
114.3172999999999
 22
100.015081
 32
0.0
 13
114.3172999999999
 23
100.015081
 33
0.0
  0
POINT
  5
437
330
3B4
100
AcDbEntity
  8
DEFPOINTS
  6
ByBlock
 62
     0
100
AcDbPoint
 10
111.3172999999999
 20
83.01508100000001
 30
0.0
  0
POINT
  5
438
330
3B4
100
AcDbEntity
  8
DEFPOINTS
  6
ByBlock
 62
     0
100
AcDbPoint
 10
114.3172999999999
 20
82.21508100000001
 30
0.0
  0
POINT
  5
439
330
3B4
100
AcDbEntity
  8
DEFPOINTS
  6
ByBlock
 62
     0
100
AcDbPoint
 10
114.3172999999999
 20
100.015081
 30
0.0
  0
ENDBLK
  5
43A
330
3B4
100
AcDbEntity
  8
0
100
AcDbBlockEnd
  0
BLOCK
  5
43B
330
3C2
100
AcDbEntity
  8
0
100
AcDbBlockBegin
  2
*D20
 70
     1
 10
0.0
 20
0.0
 30
0.0
  3
*D20
  1

  0
LINE
  5
43C
330
3C2
100
AcDbEntity
  8
0
  6
ByBlock
 62
     0
100
AcDbLine
 10
110.050232
 20
71.050289
 30
0.0
 11
108.538854
 21
69.74042800000001
 31
0.0
  0
MTEXT
  5
43D
330
3C2
100
AcDbEntity
  8
0
  6
ByBlock
 62
     0
100
AcDbMText
 10
101.3173
 20
66.515081
 30
0.0
 40
10.0
 41
0.0
 71
     5
 72
     1
  1
\A1;R1
  7
BIGFONT
 73
     1
 44
1.0
  0
SOLID
  5
43E
330
3C2
100
AcDbEntity
  8
0
  6
ByBlock
 62
     0
100
AcDbTrace
 10
109.831922
 20
71.30218599999999
 30
0.0
 11
110.268542
 21
70.798393
 31
0.0
 12
111.56161
 22
72.36015
 32
0.0
 13
111.56161
 23
72.36015
 33
0.0
  0
LINE
  5
43F
330
3C2
100
AcDbEntity
  8
0
  6
ByBlock
 62
     0
100
AcDbLine
 10
112.2172999999999
 20
73.01508100000001
 30
0.0
 11
112.4173
 21
73.01508100000001
 31
0.0
  0
LINE
  5
440
330
3C2
100
AcDbEntity
  8
0
  6
ByBlock
 62
     0
100
AcDbLine
 10
112.3172999999999
 20
72.915081
 30
0.0
 11
112.3172999999999
 21
73.11508100000001
 31
0.0
  0
POINT
  5
441
330
3C2
100
AcDbEntity
  8
DEFPOINTS
  6
ByBlock
 62
     0
100
AcDbPoint
 10
111.56161
 20
72.36015
 30
0.0
  0
POINT
  5
442
330
3C2
100
AcDbEntity
  8
DEFPOINTS
  6
ByBlock
 62
     0
100
AcDbPoint
 10
112.3172999999999
 20
73.01508100000001
 30
0.0
  0
ENDBLK
  5
443
330
3C2
100
AcDbEntity
  8
0
100
AcDbBlockEnd
  0
BLOCK
  5
444
330
3CC
100
AcDbEntity
  8
0
100
AcDbBlockBegin
  2
*D21
 70
     1
 10
0.0
 20
0.0
 30
0.0
  3
*D21
  1

  0
LINE
  5
445
330
3CC
100
AcDbEntity
  8
0
  6
ByBlock
 62
     0
100
AcDbLine
 10
129.716527
 20
70.361374
 30
0.0
 11
130.6493449999999
 21
68.592235
 31
0.0
  0
MTEXT
  5
446
330
3CC
100
AcDbEntity
  8
0
  6
ByBlock
 62
     0
100
AcDbMText
 10
139.0672999999999
 20
59.265081
 30
0.0
 40
10.0
 41
0.0
 71
     5
 72
     1
  1
\A1;R1
  7
BIGFONT
 73
     1
 44
1.0
  0
SOLID
  5
447
330
3CC
100
AcDbEntity
  8
0
  6
ByBlock
 62
     0
100
AcDbTrace
 10
130.0113829999999
 20
70.51684300000001
 30
0.0
 11
129.421671
 21
70.205904
 31
0.0
 12
128.783709
 22
72.13051199999999
 32
0.0
 13
128.783709
 23
72.13051199999999
 33
0.0
  0
LINE
  5
448
330
3CC
100
AcDbEntity
  8
0
  6
ByBlock
 62
     0
100
AcDbLine
 10
128.2173
 20
73.01508100000001
 30
0.0
 11
128.4173
 21
73.01508100000001
 31
0.0
  0
LINE
  5
449
330
3CC
100
AcDbEntity
  8
0
  6
ByBlock
 62
     0
100
AcDbLine
 10
128.3172999999999
 20
72.915081
 30
0.0
 11
128.3172999999999
 21
73.11508100000001
 31
0.0
  0
POINT
  5
44A
330
3CC
100
AcDbEntity
  8
DEFPOINTS
  6
ByBlock
 62
     0
100
AcDbPoint
 10
128.783709
 20
72.13051199999999
 30
0.0
  0
POINT
  5
44B
330
3CC
100
AcDbEntity
  8
DEFPOINTS
  6
ByBlock
 62
     0
100
AcDbPoint
 10
128.3172999999999
 20
73.01508100000001
 30
0.0
  0
ENDBLK
  5
44C
330
3CC
100
AcDbEntity
  8
0
100
AcDbBlockEnd
  0
BLOCK
  5
44D
330
3D6
100
AcDbEntity
  8
0
100
AcDbBlockBegin
  2
*D22
 70
     1
 10
0.0
 20
0.0
 30
0.0
  3
*D22
  1

  0
LINE
  5
44E
330
3D6
100
AcDbEntity
  8
0
  6
ByBlock
 62
     0
100
AcDbLine
 10
178.58382
 20
40.372861
 30
0.0
 11
177.050779
 21
41.65729999999999
 31
0.0
  0
MTEXT
  5
44F
330
3D6
100
AcDbEntity
  8
0
  6
ByBlock
 62
     0
100
AcDbMText
 10
164.8172999999999
 20
48.765081
 30
0.0
 40
10.0
 41
0.0
 71
     5
 72
     1
  1
\A1;\U+22056
  7
BIGFONT
 73
     1
 44
1.0
  0
SOLID
  5
450
330
3D6
100
AcDbEntity
  8
0
  6
ByBlock
 62
     0
100
AcDbTrace
 10
178.7978929999999
 20
40.628368
 30
0.0
 11
178.3697469999999
 21
40.117354
 31
0.0
 12
180.1168609999999
 22
39.088421
 32
0.0
 13
180.1168609999999
 23
39.088421
 33
0.0
  0
SOLID
  5
451
330
3D6
100
AcDbEntity
  8
0
  6
ByBlock
 62
     0
100
AcDbTrace
 10
177.2648519999999
 20
41.912807
 30
0.0
 11
176.8367059999999
 21
41.401794
 31
0.0
 12
175.5177379999999
 22
42.94174
 32
0.0
 13
175.5177379999999
 23
42.94174
 33
0.0
  0
POINT
  5
452
330
3D6
100
AcDbEntity
  8
DEFPOINTS
  6
ByBlock
 62
     0
100
AcDbPoint
 10
175.5177379999999
 20
42.94174
 30
0.0
  0
POINT
  5
453
330
3D6
100
AcDbEntity
  8
DEFPOINTS
  6
ByBlock
 62
     0
100
AcDbPoint
 10
180.1168609999999
 20
39.088421
 30
0.0
  0
ENDBLK
  5
454
330
3D6
100
AcDbEntity
  8
0
100
AcDbBlockEnd
  0
BLOCK
  5
455
330
3DF
100
AcDbEntity
  8
0
100
AcDbBlockBegin
  2
*D23
 70
     1
 10
0.0
 20
0.0
 30
0.0
  3
*D23
  1

  0
LINE
  5
456
330
3DF
100
AcDbEntity
  8
0
  6
ByBlock
 62
     0
100
AcDbLine
 10
165.5321049999999
 20
77.48673499999999
 30
0.0
 11
163.602494
 21
78.54342700000001
 31
0.0
  0
MTEXT
  5
457
330
3DF
100
AcDbEntity
  8
0
  6
ByBlock
 62
     0
100
AcDbMText
 10
148.8172999999999
 20
83.765081
 30
0.0
 40
10.0
 41
0.0
 71
     5
 72
     1
  1
\A1;\U+22056.2
  7
BIGFONT
 73
     1
 44
1.0
  0
SOLID
  5
458
330
3DF
100
AcDbEntity
  8
0
  6
ByBlock
 62
     0
100
AcDbTrace
 10
165.69221
 20
77.7791
 30
0.0
 11
165.372001
 21
77.19436999999999
 31
0.0
 12
167.2862979999999
 22
76.526106
 32
0.0
 13
167.2862979999999
 23
76.526106
 33
0.0
  0
SOLID
  5
459
330
3DF
100
AcDbEntity
  8
0
  6
ByBlock
 62
     0
100
AcDbTrace
 10
163.7625979999999
 20
78.835793
 30
0.0
 11
163.4423889999999
 21
78.251062
 31
0.0
 12
161.848301
 22
79.504056
 32
0.0
 13
161.848301
 23
79.504056
 33
0.0
  0
POINT
  5
45A
330
3DF
100
AcDbEntity
  8
DEFPOINTS
  6
ByBlock
 62
     0
100
AcDbPoint
 10
161.848301
 20
79.504056
 30
0.0
  0
POINT
  5
45B
330
3DF
100
AcDbEntity
  8
DEFPOINTS
  6
ByBlock
 62
     0
100
AcDbPoint
 10
167.2862979999999
 20
76.526106
 30
0.0
  0
ENDBLK
  5
45C
330
3DF
100
AcDbEntity
  8
0
100
AcDbBlockEnd
  0
BLOCK
  5
45D
330
3E8
100
AcDbEntity
  8
0
100
AcDbBlockBegin
  2
*D24
 70
     1
 10
0.0
 20
0.0
 30
0.0
  3
*D24
  1

  0
LINE
  5
45E
330
3E8
100
AcDbEntity
  8
0
  6
ByBlock
 62
     0
100
AcDbLine
 10
166.826035
 20
74.713852
 30
0.0
 11
162.308564
 21
81.31631
 31
0.0
  0
MTEXT
  5
45F
330
3E8
100
AcDbEntity
  8
0
  6
ByBlock
 62
     0
100
AcDbMText
 10
150.0672999999999
 20
92.26508100000001
 30
0.0
 40
10.0
 41
0.0
 71
     5
 72
     1
  1
\A1;\U+220512
  7
BIGFONT
 73
     1
 44
1.0
  0
SOLID
  5
460
330
3E8
100
AcDbEntity
  8
0
  6
ByBlock
 62
     0
100
AcDbTrace
 10
167.101137
 20
74.90207999999999
 30
0.0
 11
166.550933
 21
74.52562399999999
 31
0.0
 12
167.955403
 22
73.063238
 32
0.0
 13
167.955403
 23
73.063238
 33
0.0
  0
SOLID
  5
461
330
3E8
100
AcDbEntity
  8
0
  6
ByBlock
 62
     0
100
AcDbTrace
 10
162.583666
 20
81.50453799999999
 30
0.0
 11
162.033462
 21
81.12808199999999
 31
0.0
 12
161.1791959999999
 22
82.96692400000001
 32
0.0
 13
161.1791959999999
 23
82.96692400000001
 33
0.0
  0
POINT
  5
462
330
3E8
100
AcDbEntity
  8
DEFPOINTS
  6
ByBlock
 62
     0
100
AcDbPoint
 10
161.1791959999999
 20
82.96692400000001
 30
0.0
  0
POINT
  5
463
330
3E8
100
AcDbEntity
  8
DEFPOINTS
  6
ByBlock
 62
     0
100
AcDbPoint
 10
167.955403
 20
73.063238
 30
0.0
  0
ENDBLK
  5
464
330
3E8
100
AcDbEntity
  8
0
100
AcDbBlockEnd
  0
BLOCK
  5
478
330
46F
100
AcDbEntity
  8
0
100
AcDbBlockBegin
  2
*D25
 70
     1
 10
0.0
 20
0.0
 30
0.0
  3
*D25
  1

  0
LINE
  5
470
330
46F
100
AcDbEntity
  8
0
  6
ByBlock
 62
     0
100
AcDbLine
 10
184.4999999999999
 20
123.0
 30
0.0
 11
186.5
 21
123.0
 31
0.0
  0
LINE
  5
471
330
46F
100
AcDbEntity
  8
0
  6
ByBlock
 62
     0
100
AcDbLine
 10
186.5
 20
123.0
 30
0.0
 11
189.151686
 21
116.812733
 31
0.0
  0
MTEXT
  5
472
330
46F
100
AcDbEntity
  8
0
  6
ByBlock
 62
     0
100
AcDbMText
 10
181.75
 20
123.0
 30
0.0
 40
3.5
 41
0.0
 71
     5
 72
     1
  1
\A1;\U+220513
 73
     1
 44
1.0
  0
SOLID
  5
473
330
46F
100
AcDbEntity
  8
0
  6
ByBlock
 62
     0
100
AcDbTrace
 10
189.4580679999999
 20
116.9440389999999
 30
0.0
 11
188.8453039999999
 21
116.6814259999999
 31
0.0
 12
189.9395249999999
 22
114.9744429999999
 32
0.0
 13
189.9395249999999
 23
114.9744429999999
 33
0.0
  0
LINE
  5
474
330
46F
100
AcDbEntity
  8
0
  6
ByBlock
 62
     0
100
AcDbLine
 10
192.4
 20
109.0
 30
0.0
 11
192.5999999999999
 21
109.0
 31
0.0
  0
LINE
  5
475
330
46F
100
AcDbEntity
  8
0
  6
ByBlock
 62
     0
100
AcDbLine
 10
192.5
 20
108.9
 30
0.0
 11
192.5
 21
109.0999999999999
 31
0.0
  0
POINT
  5
476
330
46F
100
AcDbEntity
  8
DEFPOINTS
  6
ByBlock
 62
     0
100
AcDbPoint
 10
189.9395249999999
 20
114.9744429999999
 30
0.0
  0
POINT
  5
477
330
46F
100
AcDbEntity
  8
DEFPOINTS
  6
ByBlock
 62
     0
100
AcDbPoint
 10
195.060475
 20
103.025557
 30
0.0
  0
ENDBLK
  5
479
330
46F
100
AcDbEntity
  8
0
100
AcDbBlockEnd
  0
BLOCK
  5
483
330
47A
100
AcDbEntity
  8
0
100
AcDbBlockBegin
  2
*D26
 70
     1
 10
0.0
 20
0.0
 30
0.0
  3
*D26
  1

  0
LINE
  5
47B
330
47A
100
AcDbEntity
  8
0
  6
ByBlock
 62
     0
100
AcDbLine
 10
183.75
 20
117.5
 30
0.0
 11
185.7499999999999
 21
117.5
 31
0.0
  0
LINE
  5
47C
330
47A
100
AcDbEntity
  8
0
  6
ByBlock
 62
     0
100
AcDbLine
 10
185.7499999999999
 20
117.5
 30
0.0
 11
188.7065189999999
 21
113.776976
 31
0.0
  0
MTEXT
  5
47D
330
47A
100
AcDbEntity
  8
0
  6
ByBlock
 62
     0
100
AcDbMText
 10
180.4999999999999
 20
117.5
 30
0.0
 40
3.5
 41
0.0
 71
     5
 72
     1
  1
\A1;\U+22058.2
 73
     1
 44
1.0
  0
SOLID
  5
47E
330
47A
100
AcDbEntity
  8
0
  6
ByBlock
 62
     0
100
AcDbTrace
 10
188.967556
 20
113.9842699999999
 30
0.0
 11
188.445482
 21
113.5696819999999
 31
0.0
 12
189.950283
 22
112.210754
 32
0.0
 13
189.950283
 23
112.210754
 33
0.0
  0
LINE
  5
47F
330
47A
100
AcDbEntity
  8
0
  6
ByBlock
 62
     0
100
AcDbLine
 10
192.4
 20
109.0
 30
0.0
 11
192.5999999999999
 21
109.0
 31
0.0
  0
LINE
  5
480
330
47A
100
AcDbEntity
  8
0
  6
ByBlock
 62
     0
100
AcDbLine
 10
192.5
 20
108.9
 30
0.0
 11
192.5
 21
109.0999999999999
 31
0.0
  0
POINT
  5
481
330
47A
100
AcDbEntity
  8
DEFPOINTS
  6
ByBlock
 62
     0
100
AcDbPoint
 10
189.950283
 20
112.210754
 30
0.0
  0
POINT
  5
482
330
47A
100
AcDbEntity
  8
DEFPOINTS
  6
ByBlock
 62
     0
100
AcDbPoint
 10
195.049717
 20
105.7892459999999
 30
0.0
  0
ENDBLK
  5
484
330
47A
100
AcDbEntity
  8
0
100
AcDbBlockEnd
  0
BLOCK
  5
490
330
485
100
AcDbEntity
  8
0
100
AcDbBlockBegin
  2
*D27
 70
     1
 10
0.0
 20
0.0
 30
0.0
  3
*D27
  1

  0
LINE
  5
486
330
485
100
AcDbEntity
  8
0
  6
ByBlock
 62
     0
100
AcDbLine
 10
145.0
 20
114.5999999999999
 30
0.0
 11
145.0
 21
128.4499999999999
 31
0.0
  0
LINE
  5
487
330
485
100
AcDbEntity
  8
0
  6
ByBlock
 62
     0
100
AcDbLine
 10
148.0
 20
114.3
 30
0.0
 11
148.0
 21
128.4499999999999
 31
0.0
  0
LINE
  5
488
330
485
100
AcDbEntity
  8
0
  6
ByBlock
 62
     0
100
AcDbLine
 10
143.0
 20
128.2499999999999
 30
0.0
 11
141.0
 21
128.2499999999999
 31
0.0
  0
LINE
  5
489
330
485
100
AcDbEntity
  8
0
  6
ByBlock
 62
     0
100
AcDbLine
 10
150.0
 20
128.2499999999999
 30
0.0
 11
152.0
 21
128.2499999999999
 31
0.0
  0
SOLID
  5
48A
330
485
100
AcDbEntity
  8
0
  6
ByBlock
 62
     0
100
AcDbTrace
 10
143.0
 20
128.583333
 30
0.0
 11
143.0
 21
127.9166669999999
 31
0.0
 12
145.0
 22
128.2499999999999
 32
0.0
 13
145.0
 23
128.2499999999999
 33
0.0
  0
SOLID
  5
48B
330
485
100
AcDbEntity
  8
0
  6
ByBlock
 62
     0
100
AcDbTrace
 10
150.0
 20
128.583333
 30
0.0
 11
150.0
 21
127.9166669999999
 31
0.0
 12
148.0
 22
128.2499999999999
 32
0.0
 13
148.0
 23
128.2499999999999
 33
0.0
  0
MTEXT
  5
48C
330
485
100
AcDbEntity
  8
0
  6
ByBlock
 62
     0
100
AcDbMText
 10
146.5
 20
128.2499999999999
 30
0.0
 40
3.5
 41
0.0
 71
     5
 72
     1
  1
\A1;3
 73
     1
 44
1.0
  0
POINT
  5
48D
330
485
100
AcDbEntity
  8
DEFPOINTS
  6
ByBlock
 62
     0
100
AcDbPoint
 10
145.0
 20
114.5
 30
0.0
  0
POINT
  5
48E
330
485
100
AcDbEntity
  8
DEFPOINTS
  6
ByBlock
 62
     0
100
AcDbPoint
 10
148.0
 20
114.2
 30
0.0
  0
POINT
  5
48F
330
485
100
AcDbEntity
  8
DEFPOINTS
  6
ByBlock
 62
     0
100
AcDbPoint
 10
148.0
 20
128.2499999999999
 30
0.0
  0
ENDBLK
  5
491
330
485
100
AcDbEntity
  8
0
100
AcDbBlockEnd
  0
BLOCK
  5
4B5
330
492
100
AcDbEntity
  8
0
100
AcDbBlockBegin
  2
A$C12173F50
 70
     0
 10
0.0
 20
0.0
 30
0.0
  3
A$C12173F50
  1

  0
CIRCLE
  5
493
330
492
100
AcDbEntity
  8
3
100
AcDbCircle
 10
11.75
 20
9.25
 30
0.0
 40
5.2
  0
CIRCLE
  5
494
330
492
100
AcDbEntity
  8
3
100
AcDbCircle
 10
11.75
 20
9.25
 30
0.0
 40
6.5
  0
LINE
  5
495
330
492
100
AcDbEntity
  8
1
100
AcDbLine
 10
23.75
 20
9.25
 30
0.0
 11
0.0
 21
9.25
 31
0.0
  0
CIRCLE
  5
496
330
492
100
AcDbEntity
  8
3
100
AcDbCircle
 10
11.75
 20
9.25
 30
0.0
 40
4.099999999999999
  0
LINE
  5
497
330
492
100
AcDbEntity
  8
1
100
AcDbLine
 10
11.75
 20
18.75
 30
0.0
 11
11.75
 21
0.0
 31
0.0
  0
DIMENSION
  5
498
330
492
100
AcDbEntity
  8
0
100
AcDbDimension
  2
*D26
 10
93.549717
 20
6.039244999999999
 30
0.0
 11
79.0
 21
17.75
 31
0.0
 12
-101.5
 22
-99.75000000000001
 32
0.0
 70
   131
 71
     5
 42
-1.0
  3
STANDARD
100
AcDbDiametricDimension
 15
88.450283
 25
12.460754
 35
0.0
 40
0.0
1001
ACAD
1000
DSTYLE
1002
{
1070
    78
1070
     8
1070
   288
1070
     1
1070
   284
1070
     8
1070
   140
1040
2.0
1070
    73
1070
     0
1070
   272
1070
     2
1070
   147
1040
0.1
1070
    42
1040
0.1
1070
    44
1040
0.2
1070
    43
1040
0.4
1070
   271
1070
     2
1070
   141
1040
0.1
1070
    41
1040
2.0
1002
}
  0
DIMENSION
  5
499
330
492
100
AcDbEntity
  8
0
100
AcDbDimension
  2
*D25
 10
93.560476
 20
3.275557
 30
0.0
 11
80.25
 21
23.25
 31
0.0
 12
-101.5
 22
-99.75000000000001
 32
0.0
 70
   131
 71
     5
 42
-1.0
  3
STANDARD
100
AcDbDiametricDimension
 15
88.439525
 25
15.224442
 35
0.0
 40
0.0
1001
ACAD
1000
DSTYLE
1002
{
1070
    78
1070
     8
1070
   288
1070
     1
1070
   284
1070
     8
1070
   140
1040
2.0
1070
    73
1070
     0
1070
   272
1070
     2
1070
   147
1040
0.1
1070
    42
1040
0.1
1070
    44
1040
0.2
1070
    43
1040
0.4
1070
   271
1070
     2
1070
   141
1040
0.1
1070
    41
1040
2.0
1002
}
  0
LINE
  5
49A
330
492
100
AcDbEntity
  8
1
100
AcDbLine
 10
103.0
 20
9.25
 30
0.0
 11
79.25
 21
9.25
 31
0.0
  0
DIMENSION
  5
49B
330
492
100
AcDbEntity
  8
0
100
AcDbDimension
  2
*D27
 10
46.5
 20
28.5
 30
0.0
 11
45.0
 21
28.5
 31
0.0
 12
-101.5
 22
-99.75000000000001
 32
0.0
 70
   128
 71
     5
 42
-1.0
  3
STANDARD
100
AcDbAlignedDimension
 13
43.5
 23
14.75
 33
0.0
 14
46.5
 24
14.45
 34
0.0
100
AcDbRotatedDimension
1001
ACAD
1000
DSTYLE
1002
{
1070
    78
1070
     8
1070
   288
1070
     1
1070
   284
1070
     8
1070
   140
1040
2.0
1070
    73
1070
     0
1070
   272
1070
     2
1070
   147
1040
0.1
1070
    42
1040
0.1
1070
    44
1040
0.2
1070
    43
1040
0.4
1070
   271
1070
     2
1070
   141
1040
0.1
1070
    41
1040
2.0
1002
}
  0
HATCH
  5
49C
330
492
100
AcDbEntity
  8
0
100
AcDbHatch
 10
0.0
 20
0.0
 30
0.0
210
0.0
220
0.0
230
1.0
  2
ANSI31
 70
     0
 71
     1
 91
        1
 92
        7
 72
     1
 73
     1
 93
        8
 10
46.50000000000001
 20
5.15
 42
0.0
 10
46.5
 20
4.049999999999999
 42
0.0
 10
43.5
 20
4.049999999999998
 42
0.0
 10
43.5
 20
3.75
 42
0.4142135623730951
 10
44.5
 20
2.75
 42
0.0
 10
60.5
 20
2.75
 42
0.4142135623730951
 10
61.5
 20
3.75
 42
0.0
 10
61.5
 20
5.149999999999999
 42
0.0
 97
        8
330
49D
330
4A8
330
4A6
330
4A5
330
4A7
330
49E
330
4AF
330
4AE
 75
     0
 76
     1
 52
0.0
 41
3.0
 77
     0
 78
     1
 53
45.0
 43
-101.5
 44
-99.75000000000001
 45
-0.2651650429449553
 46
0.2651650429449553
 79
     0
 47
0.119472
 98
        1
 10
51.75
 20
4.0
  0
LINE
  5
49D
102
{ACAD_REACTORS
330
49C
102
}
330
492
100
AcDbEntity
  8
3
100
AcDbLine
 10
61.5
 20
5.15
 30
0.0
 11
46.5
 21
5.15
 31
0.0
  0
LINE
  5
49E
102
{ACAD_REACTORS
330
49C
102
}
330
492
100
AcDbEntity
  8
3
100
AcDbLine
 10
44.5
 20
2.75
 30
0.0
 11
60.5
 21
2.75
 31
0.0
  0
LINE
  5
49F
330
492
100
AcDbEntity
  8
3
100
AcDbLine
 10
61.5
 20
13.34999999999999
 30
0.0
 11
46.5
 21
13.34999999999999
 31
0.0
  0
LINE
  5
4A0
330
492
100
AcDbEntity
  8
3
100
AcDbLine
 10
44.5
 20
15.75
 30
0.0
 11
60.5
 21
15.75
 31
0.0
  0
LINE
  5
4A1
330
492
100
AcDbEntity
  8
1
100
AcDbLine
 10
40.75
 20
9.25
 30
0.0
 11
64.5
 21
9.25
 31
0.0
  0
LINE
  5
4A2
330
492
100
AcDbEntity
  8
3
100
AcDbLine
 10
46.5
 20
13.34999999999999
 30
0.0
 11
46.5
 21
9.25
 31
0.0
  0
LINE
  5
4A3
330
492
100
AcDbEntity
  8
3
100
AcDbLine
 10
43.5
 20
14.75
 30
0.0
 11
43.5
 21
9.25
 31
0.0
  0
LINE
  5
4A4
330
492
100
AcDbEntity
  8
3
100
AcDbLine
 10
46.5
 20
5.15
 30
0.0
 11
46.5
 21
9.25
 31
0.0
  0
LINE
  5
4A5
102
{ACAD_REACTORS
330
49C
102
}
330
492
100
AcDbEntity
  8
3
100
AcDbLine
 10
43.5
 20
3.75
 30
0.0
 11
43.5
 21
9.25
 31
0.0
  0
LINE
  5
4A6
102
{ACAD_REACTORS
330
49C
102
}
330
492
100
AcDbEntity
  8
3
100
AcDbLine
 10
46.5
 20
4.049999999999999
 30
0.0
 11
43.5
 21
4.049999999999999
 31
0.0
  0
ARC
  5
4A7
102
{ACAD_REACTORS
330
49C
102
}
330
492
100
AcDbEntity
  8
3
100
AcDbCircle
 10
44.5
 20
3.75
 30
0.0
 40
1.0
100
AcDbArc
 50
180.0
 51
270.0
  0
LINE
  5
4A8
102
{ACAD_REACTORS
330
49C
102
}
330
492
100
AcDbEntity
  8
3
100
AcDbLine
 10
46.5
 20
5.15
 30
0.0
 11
46.5
 21
4.049999999999999
 31
0.0
  0
ARC
  5
4A9
330
492
100
AcDbEntity
  8
3
100
AcDbCircle
 10
44.5
 20
14.75
 30
0.0
 40
1.0
100
AcDbArc
 50
90.0
 51
180.0
  0
LINE
  5
4AA
330
492
100
AcDbEntity
  8
3
100
AcDbLine
 10
46.5
 20
14.45
 30
0.0
 11
43.5
 21
14.45
 31
0.0
  0
LINE
  5
4AB
330
492
100
AcDbEntity
  8
3
100
AcDbLine
 10
46.5
 20
13.34999999999999
 30
0.0
 11
46.5
 21
14.45
 31
0.0
  0
LINE
  5
4AC
330
492
100
AcDbEntity
  8
3
100
AcDbLine
 10
61.5
 20
13.34999999999999
 30
0.0
 11
61.5
 21
9.25
 31
0.0
  0
LINE
  5
4AD
330
492
100
AcDbEntity
  8
3
100
AcDbLine
 10
61.5
 20
5.15
 30
0.0
 11
61.5
 21
9.25
 31
0.0
  0
LINE
  5
4AE
102
{ACAD_REACTORS
330
49C
102
}
330
492
100
AcDbEntity
  8
3
100
AcDbLine
 10
61.5
 20
3.75
 30
0.0
 11
61.5
 21
5.15
 31
0.0
  0
ARC
  5
4AF
102
{ACAD_REACTORS
330
49C
102
}
330
492
100
AcDbEntity
  8
3
100
AcDbCircle
 10
60.5
 20
3.75
 30
0.0
 40
1.0
100
AcDbArc
 50
270.0
 51
0.0
  0
ARC
  5
4B0
330
492
100
AcDbEntity
  8
3
100
AcDbCircle
 10
60.5
 20
14.75
 30
0.0
 40
1.0
100
AcDbArc
 50
0.0
 51
90.0
  0
LINE
  5
4B1
330
492
100
AcDbEntity
  8
3
100
AcDbLine
 10
61.5
 20
14.75
 30
0.0
 11
61.5
 21
13.34999999999999
 31
0.0
  0
LINE
  5
4B2
330
492
100
AcDbEntity
  8
1
100
AcDbLine
 10
91.0
 20
18.75
 30
0.0
 11
91.0
 21
0.0
 31
0.0
  0
CIRCLE
  5
4B3
330
492
100
AcDbEntity
  8
3
100
AcDbCircle
 10
91.0
 20
9.25
 30
0.0
 40
6.5
  0
CIRCLE
  5
4B4
330
492
100
AcDbEntity
  8
3
100
AcDbCircle
 10
91.0
 20
9.25
 30
0.0
 40
4.099999999999999
  0
ENDBLK
  5
4B6
330
492
100
AcDbEntity
  8
0
100
AcDbBlockEnd
  0
BLOCK
  5
4FA
330
4DA
100
AcDbEntity
  8
0
100
AcDbBlockBegin
  2
*D29
 70
     1
 10
0.0
 20
0.0
 30
0.0
  3
*D29
  1

  0
LINE
  5
4FB
330
4DA
100
AcDbEntity
  8
0
  6
ByBlock
 62
     0
100
AcDbLine
 10
151.947886
 20
60.325113
 30
0.0
 11
149.335981
 21
63.614178
 31
0.0
  0
MTEXT
  5
4FC
330
4DA
100
AcDbEntity
  8
0
  6
ByBlock
 62
     0
100
AcDbMText
 10
138.641933
 20
70.46964599999999
 30
0.0
 40
10.0
 41
0.0
 71
     5
 72
     1
  1
\A1;\U+22058.2
  7
BIGFONT
 73
     1
 44
1.0
  0
SOLID
  5
4FD
330
4DA
100
AcDbEntity
  8
0
  6
ByBlock
 62
     0
100
AcDbTrace
 10
152.2089229999999
 20
60.53240699999999
 30
0.0
 11
151.686849
 21
60.11781899999999
 31
0.0
 12
153.19165
 22
58.75889100000001
 32
0.0
 13
153.19165
 23
58.75889100000001
 33
0.0
  0
SOLID
  5
4FE
330
4DA
100
AcDbEntity
  8
0
  6
ByBlock
 62
     0
100
AcDbTrace
 10
149.597018
 20
63.821472
 30
0.0
 11
149.0749439999999
 21
63.406884
 31
0.0
 12
148.0922159999999
 22
65.1804
 32
0.0
 13
148.0922159999999
 23
65.1804
 33
0.0
  0
POINT
  5
4FF
330
4DA
100
AcDbEntity
  8
DEFPOINTS
  6
ByBlock
 62
     0
100
AcDbPoint
 10
148.0922159999999
 20
65.1804
 30
0.0
  0
POINT
  5
500
330
4DA
100
AcDbEntity
  8
DEFPOINTS
  6
ByBlock
 62
     0
100
AcDbPoint
 10
153.19165
 20
58.75889100000001
 30
0.0
  0
ENDBLK
  5
501
330
4DA
100
AcDbEntity
  8
0
100
AcDbBlockEnd
  0
BLOCK
  5
502
330
4E3
100
AcDbEntity
  8
0
100
AcDbBlockBegin
  2
*D30
 70
     1
 10
0.0
 20
0.0
 30
0.0
  3
*D30
  1

  0
LINE
  5
503
330
4E3
100
AcDbEntity
  8
0
  6
ByBlock
 62
     0
100
AcDbLine
 10
152.41457
 20
57.83349300000001
 30
0.0
 11
148.8692959999999
 21
66.105798
 31
0.0
  0
MTEXT
  5
504
330
4E3
100
AcDbEntity
  8
0
  6
ByBlock
 62
     0
100
AcDbMText
 10
139.891933
 20
75.96964599999999
 30
0.0
 40
10.0
 41
0.0
 71
     5
 72
     1
  1
\A1;\U+220513
  7
BIGFONT
 73
     1
 44
1.0
  0
SOLID
  5
505
330
4E3
100
AcDbEntity
  8
0
  6
ByBlock
 62
     0
100
AcDbTrace
 10
152.720952
 20
57.964799
 30
0.0
 11
152.1081879999999
 21
57.702187
 31
0.0
 12
153.202409
 22
55.995203
 32
0.0
 13
153.202409
 23
55.995203
 33
0.0
  0
SOLID
  5
506
330
4E3
100
AcDbEntity
  8
0
  6
ByBlock
 62
     0
100
AcDbTrace
 10
149.175678
 20
66.237105
 30
0.0
 11
148.562915
 21
65.97449199999999
 31
0.0
 12
148.081458
 22
67.94408799999999
 32
0.0
 13
148.081458
 23
67.94408799999999
 33
0.0
  0
POINT
  5
507
330
4E3
100
AcDbEntity
  8
DEFPOINTS
  6
ByBlock
 62
     0
100
AcDbPoint
 10
148.081458
 20
67.94408799999999
 30
0.0
  0
POINT
  5
508
330
4E3
100
AcDbEntity
  8
DEFPOINTS
  6
ByBlock
 62
     0
100
AcDbPoint
 10
153.202409
 20
55.995203
 30
0.0
  0
ENDBLK
  5
509
330
4E3
100
AcDbEntity
  8
0
100
AcDbBlockEnd
  0
BLOCK
  5
50A
330
4EC
100
AcDbEntity
  8
0
100
AcDbBlockBegin
  2
*D31
 70
     1
 10
0.0
 20
0.0
 30
0.0
  3
*D31
  1

  0
LINE
  5
50B
330
4EC
100
AcDbEntity
  8
0
  6
ByBlock
 62
     0
100
AcDbLine
 10
103.1419329999999
 20
67.56964599999999
 30
0.0
 11
103.1419329999999
 21
81.41964599999999
 31
0.0
  0
LINE
  5
50C
330
4EC
100
AcDbEntity
  8
0
  6
ByBlock
 62
     0
100
AcDbLine
 10
106.141933
 20
67.26964599999999
 30
0.0
 11
106.141933
 21
81.41964599999999
 31
0.0
  0
LINE
  5
50D
330
4EC
100
AcDbEntity
  8
0
  6
ByBlock
 62
     0
100
AcDbLine
 10
101.141933
 20
81.219646
 30
0.0
 11
99.141933
 21
81.219646
 31
0.0
  0
LINE
  5
50E
330
4EC
100
AcDbEntity
  8
0
  6
ByBlock
 62
     0
100
AcDbLine
 10
108.141933
 20
81.219646
 30
0.0
 11
110.141933
 21
81.219646
 31
0.0
  0
MTEXT
  5
50F
330
4EC
100
AcDbEntity
  8
0
  6
ByBlock
 62
     0
100
AcDbMText
 10
104.6419329999999
 20
81.219646
 30
0.0
 40
10.0
 41
0.0
 71
     5
 72
     1
  1
\A1;3
  7
BIGFONT
 73
     1
 44
1.0
  0
LINE
  5
510
330
4EC
100
AcDbEntity
  8
0
  6
ByBlock
 62
     0
100
AcDbLine
 10
103.1419329999999
 20
81.219646
 30
0.0
 11
106.141933
 21
81.219646
 31
0.0
  0
SOLID
  5
511
330
4EC
100
AcDbEntity
  8
0
  6
ByBlock
 62
     0
100
AcDbTrace
 10
101.141933
 20
81.552979
 30
0.0
 11
101.141933
 21
80.886312
 31
0.0
 12
103.1419329999999
 22
81.219646
 32
0.0
 13
103.1419329999999
 23
81.219646
 33
0.0
  0
SOLID
  5
512
330
4EC
100
AcDbEntity
  8
0
  6
ByBlock
 62
     0
100
AcDbTrace
 10
108.141933
 20
81.552979
 30
0.0
 11
108.141933
 21
80.886312
 31
0.0
 12
106.141933
 22
81.219646
 32
0.0
 13
106.141933
 23
81.219646
 33
0.0
  0
POINT
  5
513
330
4EC
100
AcDbEntity
  8
DEFPOINTS
  6
ByBlock
 62
     0
100
AcDbPoint
 10
103.1419329999999
 20
67.469646
 30
0.0
  0
POINT
  5
514
330
4EC
100
AcDbEntity
  8
DEFPOINTS
  6
ByBlock
 62
     0
100
AcDbPoint
 10
106.141933
 20
67.169646
 30
0.0
  0
POINT
  5
515
330
4EC
100
AcDbEntity
  8
DEFPOINTS
  6
ByBlock
 62
     0
100
AcDbPoint
 10
106.141933
 20
81.219646
 30
0.0
  0
ENDBLK
  5
516
330
4EC
100
AcDbEntity
  8
0
100
AcDbBlockEnd
  0
BLOCK
  5
523
330
517
100
AcDbEntity
  8
0
100
AcDbBlockBegin
  2
*D32
 70
     1
 10
0.0
 20
0.0
 30
0.0
  3
*D32
  1

  0
LINE
  5
518
330
517
100
AcDbEntity
  8
0
  6
ByBlock
 62
     0
100
AcDbLine
 10
144.9
 20
109.7499999999999
 30
0.0
 11
126.15
 21
109.7499999999999
 31
0.0
  0
LINE
  5
519
330
517
100
AcDbEntity
  8
0
  6
ByBlock
 62
     0
100
AcDbLine
 10
144.9
 20
108.25
 30
0.0
 11
126.15
 21
108.25
 31
0.0
  0
LINE
  5
51A
330
517
100
AcDbEntity
  8
0
  6
ByBlock
 62
     0
100
AcDbLine
 10
126.35
 20
106.25
 30
0.0
 11
126.35
 21
104.2499999999999
 31
0.0
  0
LINE
  5
51B
330
517
100
AcDbEntity
  8
0
  6
ByBlock
 62
     0
100
AcDbLine
 10
126.35
 20
111.7499999999999
 30
0.0
 11
126.35
 21
115.0
 31
0.0
  0
LINE
  5
51C
330
517
100
AcDbEntity
  8
0
  6
ByBlock
 62
     0
100
AcDbLine
 10
126.35
 20
115.0
 30
0.0
 11
128.3499999999999
 21
115.0
 31
0.0
  0
SOLID
  5
51D
330
517
100
AcDbEntity
  8
0
  6
ByBlock
 62
     0
100
AcDbTrace
 10
126.016667
 20
106.25
 30
0.0
 11
126.683333
 21
106.25
 31
0.0
 12
126.35
 22
108.25
 32
0.0
 13
126.35
 23
108.25
 33
0.0
  0
SOLID
  5
51E
330
517
100
AcDbEntity
  8
0
  6
ByBlock
 62
     0
100
AcDbTrace
 10
126.016667
 20
111.7499999999999
 30
0.0
 11
126.683333
 21
111.7499999999999
 31
0.0
 12
126.35
 22
109.7499999999999
 32
0.0
 13
126.35
 23
109.7499999999999
 33
0.0
  0
MTEXT
  5
51F
330
517
100
AcDbEntity
  8
0
  6
ByBlock
 62
     0
100
AcDbMText
 10
130.4999999999999
 20
115.0
 30
0.0
 40
3.5
 41
0.0
 71
     5
 72
     1
  1
\A1;1.5
 73
     1
 44
1.0
  0
POINT
  5
520
330
517
100
AcDbEntity
  8
DEFPOINTS
  6
ByBlock
 62
     0
100
AcDbPoint
 10
145.0
 20
109.7499999999999
 30
0.0
  0
POINT
  5
521
330
517
100
AcDbEntity
  8
DEFPOINTS
  6
ByBlock
 62
     0
100
AcDbPoint
 10
145.0
 20
108.25
 30
0.0
  0
POINT
  5
522
330
517
100
AcDbEntity
  8
DEFPOINTS
  6
ByBlock
 62
     0
100
AcDbPoint
 10
126.35
 20
108.25
 30
0.0
  0
ENDBLK
  5
524
330
517
100
AcDbEntity
  8
0
100
AcDbBlockEnd
  0
BLOCK
  5
52E
330
525
100
AcDbEntity
  8
0
100
AcDbBlockBegin
  2
*D33
 70
     1
 10
0.0
 20
0.0
 30
0.0
  3
*D33
  1

  0
LINE
  5
526
330
525
100
AcDbEntity
  8
0
  6
ByBlock
 62
     0
100
AcDbLine
 10
182.75
 20
115.25
 30
0.0
 11
184.75
 21
115.25
 31
0.0
  0
LINE
  5
527
330
525
100
AcDbEntity
  8
0
  6
ByBlock
 62
     0
100
AcDbLine
 10
184.75
 20
115.25
 30
0.0
 11
187.45554
 21
112.9176379999999
 31
0.0
  0
MTEXT
  5
528
330
525
100
AcDbEntity
  8
0
  6
ByBlock
 62
     0
100
AcDbMText
 10
181.0
 20
115.25
 30
0.0
 40
3.5
 41
0.0
 71
     5
 72
     1
  1
\A1;\U+22058
 73
     1
 44
1.0
  0
SOLID
  5
529
330
525
100
AcDbEntity
  8
0
  6
ByBlock
 62
     0
100
AcDbTrace
 10
187.673187
 20
113.170108
 30
0.0
 11
187.2378939999999
 21
112.6651679999999
 31
0.0
 12
188.9703599999999
 22
111.611758
 32
0.0
 13
188.9703599999999
 23
111.611758
 33
0.0
  0
LINE
  5
52A
330
525
100
AcDbEntity
  8
0
  6
ByBlock
 62
     0
100
AcDbLine
 10
191.9
 20
109.0
 30
0.0
 11
192.1
 21
109.0
 31
0.0
  0
LINE
  5
52B
330
525
100
AcDbEntity
  8
0
  6
ByBlock
 62
     0
100
AcDbLine
 10
192.0
 20
108.9
 30
0.0
 11
192.0
 21
109.0999999999999
 31
0.0
  0
POINT
  5
52C
330
525
100
AcDbEntity
  8
DEFPOINTS
  6
ByBlock
 62
     0
100
AcDbPoint
 10
188.9703599999999
 20
111.611758
 30
0.0
  0
POINT
  5
52D
330
525
100
AcDbEntity
  8
DEFPOINTS
  6
ByBlock
 62
     0
100
AcDbPoint
 10
195.02964
 20
106.3882419999999
 30
0.0
  0
ENDBLK
  5
52F
330
525
100
AcDbEntity
  8
0
100
AcDbBlockEnd
  0
BLOCK
  5
559
330
530
100
AcDbEntity
  8
0
100
AcDbBlockBegin
  2
A$C748B7793
 70
     0
 10
0.0
 20
0.0
 30
0.0
  3
A$C748B7793
  1

  0
DIMENSION
  5
531
330
530
100
AcDbEntity
  8
0
100
AcDbDimension
  2
*D32
 10
23.6
 20
7.75
 30
0.0
 11
27.75
 21
14.5
 31
0.0
 12
-102.75
 22
-100.5
 32
0.0
 70
   128
 71
     5
 42
-1.0
  3
STANDARD
100
AcDbAlignedDimension
 13
42.25
 23
9.25
 33
0.0
 14
42.25
 24
7.75
 34
0.0
 50
90.0
100
AcDbRotatedDimension
1001
ACAD
1000
DSTYLE
1002
{
1070
    78
1070
     8
1070
   288
1070
     1
1070
   284
1070
     8
1070
   140
1040
2.0
1070
    73
1070
     0
1070
   272
1070
     2
1070
   147
1040
0.1
1070
    42
1040
0.1
1070
    44
1040
0.2
1070
    43
1040
0.4
1070
   271
1070
     2
1070
   141
1040
0.1
1070
    41
1040
2.0
1002
}
  0
LINE
  5
532
330
530
100
AcDbEntity
  8
1
100
AcDbLine
 10
0.0
 20
8.5
 30
0.0
 11
16.5
 21
8.5
 31
0.0
  0
LINE
  5
533
330
530
100
AcDbEntity
  8
1
100
AcDbLine
 10
8.5
 20
16.25
 30
0.0
 11
8.5
 21
0.0
 31
0.0
  0
CIRCLE
  5
534
330
530
100
AcDbEntity
  8
3
100
AcDbCircle
 10
8.5
 20
8.5
 30
0.0
 40
5.0
  0
LINE
  5
535
330
530
100
AcDbEntity
  8
3
100
AcDbLine
 10
3.556569999999999
 20
7.75
 30
0.0
 11
13.44343
 21
7.75
 31
0.0
  0
LINE
  5
536
330
530
100
AcDbEntity
  8
3
100
AcDbLine
 10
3.556569999999999
 20
9.25
 30
0.0
 11
13.44343
 21
9.25
 31
0.0
  0
DIMENSION
  5
537
330
530
100
AcDbEntity
  8
0
100
AcDbDimension
  2
*D33
 10
92.27964
 20
5.888241
 30
0.0
 11
78.25
 21
14.75
 31
0.0
 12
-102.75
 22
-100.5
 32
0.0
 70
   131
 71
     5
 42
-1.0
  3
STANDARD
100
AcDbDiametricDimension
 15
86.22035999999999
 25
11.111758
 35
0.0
 40
0.0
1001
ACAD
1000
DSTYLE
1002
{
1070
    78
1070
     8
1070
   288
1070
     1
1070
   284
1070
     8
1070
   140
1040
2.0
1070
    73
1070
     0
1070
   272
1070
     2
1070
   147
1040
0.1
1070
    42
1040
0.1
1070
    44
1040
0.2
1070
    43
1040
0.4
1070
   271
1070
     2
1070
   141
1040
0.1
1070
    41
1040
2.0
1002
}
  0
LINE
  5
538
330
530
100
AcDbEntity
  8
1
100
AcDbLine
 10
80.75000000000001
 20
8.5
 30
0.0
 11
97.25000000000001
 21
8.5
 31
0.0
  0
LINE
  5
539
330
530
100
AcDbEntity
  8
3
100
AcDbLine
 10
61.25
 20
12.499999
 30
0.0
 11
45.25
 21
12.499999
 31
0.0
  0
LINE
  5
53A
330
530
100
AcDbEntity
  8
1
100
AcDbLine
 10
39.5
 20
8.5
 30
0.0
 11
74.5
 21
8.5
 31
0.0
  0
LINE
  5
53B
330
530
100
AcDbEntity
  8
3
100
AcDbLine
 10
61.25
 20
4.5
 30
0.0
 11
45.25
 21
4.5
 31
0.0
  0
LINE
  5
53C
330
530
100
AcDbEntity
  8
3
100
AcDbLine
 10
45.25
 20
8.5
 30
0.0
 11
45.25
 21
13.5
 31
0.0
  0
LINE
  5
53D
330
530
100
AcDbEntity
  8
3
100
AcDbLine
 10
42.25
 20
13.5
 30
0.0
 11
42.25
 21
9.25
 31
0.0
  0
LINE
  5
53E
330
530
100
AcDbEntity
  8
3
100
AcDbLine
 10
42.25
 20
3.5
 30
0.0
 11
42.25
 21
7.75
 31
0.0
  0
LINE
  5
53F
330
530
100
AcDbEntity
  8
3
100
AcDbLine
 10
45.25
 20
8.5
 30
0.0
 11
45.25
 21
3.5
 31
0.0
  0
LINE
  5
540
330
530
100
AcDbEntity
  8
3
100
AcDbLine
 10
45.25
 20
3.5
 30
0.0
 11
42.25
 21
3.5
 31
0.0
  0
LINE
  5
541
330
530
100
AcDbEntity
  8
3
100
AcDbLine
 10
42.25
 20
9.25
 30
0.0
 11
43.25
 21
9.25
 31
0.0
  0
LINE
  5
542
330
530
100
AcDbEntity
  8
3
100
AcDbLine
 10
42.25
 20
7.75
 30
0.0
 11
43.25
 21
7.75
 31
0.0
  0
LINE
  5
543
330
530
100
AcDbEntity
  8
3
100
AcDbLine
 10
43.25
 20
7.75
 30
0.0
 11
43.25
 21
8.5
 31
0.0
  0
LINE
  5
544
330
530
100
AcDbEntity
  8
3
100
AcDbLine
 10
43.25
 20
9.25
 30
0.0
 11
43.25
 21
8.5
 31
0.0
  0
LINE
  5
545
330
530
100
AcDbEntity
  8
3
100
AcDbLine
 10
45.25
 20
13.5
 30
0.0
 11
42.25
 21
13.5
 31
0.0
  0
LINE
  5
546
330
530
100
AcDbEntity
  8
3
100
AcDbLine
 10
61.25
 20
8.499999
 30
0.0
 11
61.25
 21
12.499999
 31
0.0
  0
LINE
  5
547
330
530
100
AcDbEntity
  8
3
100
AcDbLine
 10
61.25
 20
5.5
 30
0.0
 11
72.25
 21
5.5
 31
0.0
  0
LINE
  5
548
330
530
100
AcDbEntity
  8
3
100
AcDbLine
 10
62.0
 20
6.25
 30
0.0
 11
73.0
 21
6.25
 31
0.0
  0
LINE
  5
549
330
530
100
AcDbEntity
  8
3
100
AcDbLine
 10
62.0
 20
10.74999999999999
 30
0.0
 11
73.0
 21
10.74999999999999
 31
0.0
  0
LINE
  5
54A
330
530
100
AcDbEntity
  8
3
100
AcDbLine
 10
61.25
 20
11.5
 30
0.0
 11
72.25
 21
11.5
 31
0.0
  0
LINE
  5
54B
330
530
100
AcDbEntity
  8
3
100
AcDbLine
 10
61.25
 20
8.5
 30
0.0
 11
61.25
 21
4.5
 31
0.0
  0
LINE
  5
54C
330
530
100
AcDbEntity
  8
3
100
AcDbLine
 10
62.0
 20
5.5
 30
0.0
 11
62.0
 21
8.5
 31
0.0
  0
LINE
  5
54D
330
530
100
AcDbEntity
  8
3
100
AcDbLine
 10
62.0
 20
11.5
 30
0.0
 11
62.0
 21
8.5
 31
0.0
  0
LINE
  5
54E
330
530
100
AcDbEntity
  8
3
100
AcDbLine
 10
72.25
 20
5.5
 30
0.0
 11
72.25
 21
8.5
 31
0.0
  0
LINE
  5
54F
330
530
100
AcDbEntity
  8
3
100
AcDbLine
 10
73.25
 20
6.5
 30
0.0
 11
73.25
 21
8.5
 31
0.0
  0
LINE
  5
550
330
530
100
AcDbEntity
  8
3
100
AcDbLine
 10
72.25
 20
5.5
 30
0.0
 11
73.25
 21
6.5
 31
0.0
  0
LINE
  5
551
330
530
100
AcDbEntity
  8
3
100
AcDbLine
 10
72.25
 20
11.5
 30
0.0
 11
73.25
 21
10.5
 31
0.0
  0
LINE
  5
552
330
530
100
AcDbEntity
  8
3
100
AcDbLine
 10
72.25
 20
11.5
 30
0.0
 11
72.25
 21
8.5
 31
0.0
  0
LINE
  5
553
330
530
100
AcDbEntity
  8
3
100
AcDbLine
 10
73.25
 20
10.5
 30
0.0
 11
73.25
 21
8.5
 31
0.0
  0
CIRCLE
  5
554
330
530
100
AcDbEntity
  8
3
100
AcDbCircle
 10
89.25
 20
8.5
 30
0.0
 40
4.0
  0
CIRCLE
  5
555
330
530
100
AcDbEntity
  8
3
100
AcDbCircle
 10
89.25
 20
8.5
 30
0.0
 40
5.0
  0
LINE
  5
556
330
530
100
AcDbEntity
  8
1
100
AcDbLine
 10
89.25
 20
16.25
 30
0.0
 11
89.25
 21
0.0
 31
0.0
  0
CIRCLE
  5
557
330
530
100
AcDbEntity
  8
3
100
AcDbCircle
 10
89.25
 20
8.5
 30
0.0
 40
3.0
  0
CIRCLE
  5
558
330
530
100
AcDbEntity
  8
3
100
AcDbCircle
 10
89.25
 20
8.5
 30
0.0
 40
2.25
  0
ENDBLK
  5
55A
330
530
100
AcDbEntity
  8
0
100
AcDbBlockEnd
  0
BLOCK
  5
59B
330
584
100
AcDbEntity
  8
0
100
AcDbBlockBegin
  2
*D35
 70
     1
 10
0.0
 20
0.0
 30
0.0
  3
*D35
  1

  0
LINE
  5
59C
330
584
100
AcDbEntity
  8
0
  6
ByBlock
 62
     0
100
AcDbLine
 10
104.3803709999999
 20
91.509897
 30
0.0
 11
85.630371
 21
91.509897
 31
0.0
  0
LINE
  5
59D
330
584
100
AcDbEntity
  8
0
  6
ByBlock
 62
     0
100
AcDbLine
 10
104.3803709999999
 20
90.00989799999999
 30
0.0
 11
85.630371
 21
90.00989799999999
 31
0.0
  0
LINE
  5
59E
330
584
100
AcDbEntity
  8
0
  6
ByBlock
 62
     0
100
AcDbLine
 10
85.830371
 20
93.50989699999999
 30
0.0
 11
85.830371
 21
95.509897
 31
0.0
  0
LINE
  5
59F
330
584
100
AcDbEntity
  8
0
  6
ByBlock
 62
     0
100
AcDbLine
 10
85.830371
 20
88.00989799999999
 30
0.0
 11
85.830371
 21
86.00989799999998
 31
0.0
  0
MTEXT
  5
5A0
330
584
100
AcDbEntity
  8
0
  6
ByBlock
 62
     0
100
AcDbMText
 10
89.98037099999999
 20
96.75989799999999
 30
0.0
 40
10.0
 41
0.0
 71
     5
 72
     1
  1
\A1;1.5
  7
BIGFONT
 73
     1
 44
1.0
  0
LINE
  5
5A1
330
584
100
AcDbEntity
  8
0
  6
ByBlock
 62
     0
100
AcDbLine
 10
85.830371
 20
91.509897
 30
0.0
 11
85.830371
 21
90.00989799999999
 31
0.0
  0
SOLID
  5
5A2
330
584
100
AcDbEntity
  8
0
  6
ByBlock
 62
     0
100
AcDbTrace
 10
85.497037
 20
93.50989699999999
 30
0.0
 11
86.163704
 21
93.50989699999999
 31
0.0
 12
85.830371
 22
91.509897
 32
0.0
 13
85.830371
 23
91.509897
 33
0.0
  0
SOLID
  5
5A3
330
584
100
AcDbEntity
  8
0
  6
ByBlock
 62
     0
100
AcDbTrace
 10
85.497037
 20
88.00989799999999
 30
0.0
 11
86.163704
 21
88.00989799999999
 31
0.0
 12
85.830371
 22
90.00989799999999
 32
0.0
 13
85.830371
 23
90.00989799999999
 33
0.0
  0
POINT
  5
5A4
330
584
100
AcDbEntity
  8
DEFPOINTS
  6
ByBlock
 62
     0
100
AcDbPoint
 10
104.4803709999999
 20
91.509897
 30
0.0
  0
POINT
  5
5A5
330
584
100
AcDbEntity
  8
DEFPOINTS
  6
ByBlock
 62
     0
100
AcDbPoint
 10
104.4803709999999
 20
90.00989799999999
 30
0.0
  0
POINT
  5
5A6
330
584
100
AcDbEntity
  8
DEFPOINTS
  6
ByBlock
 62
     0
100
AcDbPoint
 10
85.830371
 20
90.00989799999999
 30
0.0
  0
ENDBLK
  5
5A7
330
584
100
AcDbEntity
  8
0
100
AcDbBlockEnd
  0
BLOCK
  5
5A8
330
592
100
AcDbEntity
  8
0
100
AcDbBlockBegin
  2
*D36
 70
     1
 10
0.0
 20
0.0
 30
0.0
  3
*D36
  1

  0
LINE
  5
5A9
330
592
100
AcDbEntity
  8
0
  6
ByBlock
 62
     0
100
AcDbLine
 10
152.9951899999999
 20
89.45401899999998
 30
0.0
 11
149.965551
 21
92.065777
 31
0.0
  0
MTEXT
  5
5AA
330
592
100
AcDbEntity
  8
0
  6
ByBlock
 62
     0
100
AcDbMText
 10
140.4803709999999
 20
97.009898
 30
0.0
 40
10.0
 41
0.0
 71
     5
 72
     1
  1
\A1;\U+22058
  7
BIGFONT
 73
     1
 44
1.0
  0
SOLID
  5
5AB
330
592
100
AcDbEntity
  8
0
  6
ByBlock
 62
     0
100
AcDbTrace
 10
153.212837
 20
89.706489
 30
0.0
 11
152.777544
 21
89.20154899999999
 31
0.0
 12
154.51001
 22
88.148139
 32
0.0
 13
154.51001
 23
88.148139
 33
0.0
  0
SOLID
  5
5AC
330
592
100
AcDbEntity
  8
0
  6
ByBlock
 62
     0
100
AcDbTrace
 10
150.183197
 20
92.318247
 30
0.0
 11
149.7479039999999
 21
91.813307
 31
0.0
 12
148.450731
 22
93.371656
 32
0.0
 13
148.450731
 23
93.371656
 33
0.0
  0
POINT
  5
5AD
330
592
100
AcDbEntity
  8
DEFPOINTS
  6
ByBlock
 62
     0
100
AcDbPoint
 10
148.450731
 20
93.371656
 30
0.0
  0
POINT
  5
5AE
330
592
100
AcDbEntity
  8
DEFPOINTS
  6
ByBlock
 62
     0
100
AcDbPoint
 10
154.51001
 20
88.148139
 30
0.0
  0
ENDBLK
  5
5AF
330
592
100
AcDbEntity
  8
0
100
AcDbBlockEnd
  0
BLOCK
  5
5C8
330
5BF
100
AcDbEntity
  8
0
100
AcDbBlockBegin
  2
*D37
 70
     1
 10
0.0
 20
0.0
 30
0.0
  3
*D37
  1

  0
LINE
  5
5C0
330
5BF
100
AcDbEntity
  8
0
  6
ByBlock
 62
     0
100
AcDbLine
 10
99.50000000000001
 20
120.5
 30
0.0
 11
101.5
 21
120.5
 31
0.0
  0
LINE
  5
5C1
330
5BF
100
AcDbEntity
  8
0
  6
ByBlock
 62
     0
100
AcDbLine
 10
101.5
 20
120.5
 30
0.0
 11
108.104385
 21
114.036134
 31
0.0
  0
MTEXT
  5
5C2
330
5BF
100
AcDbEntity
  8
0
  6
ByBlock
 62
     0
100
AcDbMText
 10
95.20000000000001
 20
120.5
 30
0.0
 40
3.5
 41
0.0
 71
     5
 72
     1
  1
\A1;\U+220510.4
 73
     1
 44
1.0
  0
SOLID
  5
5C3
330
5BF
100
AcDbEntity
  8
0
  6
ByBlock
 62
     0
100
AcDbTrace
 10
108.337539
 20
114.274357
 30
0.0
 11
107.871231
 21
113.797911
 31
0.0
 12
109.533722
 22
112.637208
 32
0.0
 13
109.533722
 23
112.637208
 33
0.0
  0
LINE
  5
5C4
330
5BF
100
AcDbEntity
  8
0
  6
ByBlock
 62
     0
100
AcDbLine
 10
113.15
 20
109.0
 30
0.0
 11
113.3499999999999
 21
109.0
 31
0.0
  0
LINE
  5
5C5
330
5BF
100
AcDbEntity
  8
0
  6
ByBlock
 62
     0
100
AcDbLine
 10
113.25
 20
108.9
 30
0.0
 11
113.25
 21
109.0999999999999
 31
0.0
  0
POINT
  5
5C6
330
5BF
100
AcDbEntity
  8
DEFPOINTS
  6
ByBlock
 62
     0
100
AcDbPoint
 10
109.533722
 20
112.637208
 30
0.0
  0
POINT
  5
5C7
330
5BF
100
AcDbEntity
  8
DEFPOINTS
  6
ByBlock
 62
     0
100
AcDbPoint
 10
116.966278
 20
105.362792
 30
0.0
  0
ENDBLK
  5
5C9
330
5BF
100
AcDbEntity
  8
0
100
AcDbBlockEnd
  0
BLOCK
  5
5D3
330
5CA
100
AcDbEntity
  8
0
100
AcDbBlockBegin
  2
*D38
 70
     1
 10
0.0
 20
0.0
 30
0.0
  3
*D38
  1

  0
LINE
  5
5CB
330
5CA
100
AcDbEntity
  8
0
  6
ByBlock
 62
     0
100
AcDbLine
 10
98.75
 20
113.25
 30
0.0
 11
100.75
 21
113.25
 31
0.0
  0
LINE
  5
5CC
330
5CA
100
AcDbEntity
  8
0
  6
ByBlock
 62
     0
100
AcDbLine
 10
100.75
 20
113.25
 30
0.0
 11
107.474686
 21
110.963607
 31
0.0
  0
MTEXT
  5
5CD
330
5CA
100
AcDbEntity
  8
0
  6
ByBlock
 62
     0
100
AcDbMText
 10
95.5
 20
113.25
 30
0.0
 40
3.5
 41
0.0
 71
     5
 72
     1
  1
\A1;\U+22058.2
 73
     1
 44
1.0
  0
SOLID
  5
5CE
330
5CA
100
AcDbEntity
  8
0
  6
ByBlock
 62
     0
100
AcDbTrace
 10
107.581987
 20
111.2791979999999
 30
0.0
 11
107.367385
 21
110.648016
 31
0.0
 12
109.368232
 22
110.319801
 32
0.0
 13
109.368232
 23
110.319801
 33
0.0
  0
LINE
  5
5CF
330
5CA
100
AcDbEntity
  8
0
  6
ByBlock
 62
     0
100
AcDbLine
 10
113.15
 20
109.0
 30
0.0
 11
113.3499999999999
 21
109.0
 31
0.0
  0
LINE
  5
5D0
330
5CA
100
AcDbEntity
  8
0
  6
ByBlock
 62
     0
100
AcDbLine
 10
113.25
 20
108.9
 30
0.0
 11
113.25
 21
109.0999999999999
 31
0.0
  0
POINT
  5
5D1
330
5CA
100
AcDbEntity
  8
DEFPOINTS
  6
ByBlock
 62
     0
100
AcDbPoint
 10
109.368232
 20
110.319801
 30
0.0
  0
POINT
  5
5D2
330
5CA
100
AcDbEntity
  8
DEFPOINTS
  6
ByBlock
 62
     0
100
AcDbPoint
 10
117.131768
 20
107.680199
 30
0.0
  0
ENDBLK
  5
5D4
330
5CA
100
AcDbEntity
  8
0
100
AcDbBlockEnd
  0
BLOCK
  5
5DE
330
5D5
100
AcDbEntity
  8
0
100
AcDbBlockBegin
  2
*D39
 70
     1
 10
0.0
 20
0.0
 30
0.0
  3
*D39
  1

  0
LINE
  5
5D6
330
5D5
100
AcDbEntity
  8
0
  6
ByBlock
 62
     0
100
AcDbLine
 10
183.75
 20
117.5
 30
0.0
 11
185.7499999999999
 21
117.5
 31
0.0
  0
LINE
  5
5D7
330
5D5
100
AcDbEntity
  8
0
  6
ByBlock
 62
     0
100
AcDbLine
 10
185.7499999999999
 20
117.5
 30
0.0
 11
188.7065189999999
 21
113.776976
 31
0.0
  0
MTEXT
  5
5D8
330
5D5
100
AcDbEntity
  8
0
  6
ByBlock
 62
     0
100
AcDbMText
 10
180.4999999999999
 20
117.5
 30
0.0
 40
3.5
 41
0.0
 71
     5
 72
     1
  1
\A1;\U+22058.2
 73
     1
 44
1.0
  0
SOLID
  5
5D9
330
5D5
100
AcDbEntity
  8
0
  6
ByBlock
 62
     0
100
AcDbTrace
 10
188.967556
 20
113.9842699999999
 30
0.0
 11
188.445482
 21
113.5696819999999
 31
0.0
 12
189.950283
 22
112.210754
 32
0.0
 13
189.950283
 23
112.210754
 33
0.0
  0
LINE
  5
5DA
330
5D5
100
AcDbEntity
  8
0
  6
ByBlock
 62
     0
100
AcDbLine
 10
192.4
 20
109.0
 30
0.0
 11
192.5999999999999
 21
109.0
 31
0.0
  0
LINE
  5
5DB
330
5D5
100
AcDbEntity
  8
0
  6
ByBlock
 62
     0
100
AcDbLine
 10
192.5
 20
108.9
 30
0.0
 11
192.5
 21
109.0999999999999
 31
0.0
  0
POINT
  5
5DC
330
5D5
100
AcDbEntity
  8
DEFPOINTS
  6
ByBlock
 62
     0
100
AcDbPoint
 10
189.950283
 20
112.210754
 30
0.0
  0
POINT
  5
5DD
330
5D5
100
AcDbEntity
  8
DEFPOINTS
  6
ByBlock
 62
     0
100
AcDbPoint
 10
195.049717
 20
105.7892459999999
 30
0.0
  0
ENDBLK
  5
5DF
330
5D5
100
AcDbEntity
  8
0
100
AcDbBlockEnd
  0
BLOCK
  5
5E9
330
5E0
100
AcDbEntity
  8
0
100
AcDbBlockBegin
  2
*D40
 70
     1
 10
0.0
 20
0.0
 30
0.0
  3
*D40
  1

  0
LINE
  5
5E1
330
5E0
100
AcDbEntity
  8
0
  6
ByBlock
 62
     0
100
AcDbLine
 10
134.0
 20
92.75
 30
0.0
 11
136.0
 21
92.75
 31
0.0
  0
LINE
  5
5E2
330
5E0
100
AcDbEntity
  8
0
  6
ByBlock
 62
     0
100
AcDbLine
 10
136.0
 20
92.75
 30
0.0
 11
145.318896
 21
102.7678129999999
 31
0.0
  0
MTEXT
  5
5E3
330
5E0
100
AcDbEntity
  8
0
  6
ByBlock
 62
     0
100
AcDbMText
 10
132.4999999999999
 20
92.75
 30
0.0
 40
3.5
 41
0.0
 71
     5
 72
     1
  1
\A1;R1
 73
     1
 44
1.0
  0
SOLID
  5
5E4
330
5E0
100
AcDbEntity
  8
0
  6
ByBlock
 62
     0
100
AcDbTrace
 10
143.712626
 20
101.5304739999999
 30
0.0
 11
144.20075
 21
101.076405
 31
0.0
 12
145.318896
 22
102.7678129999999
 32
0.0
 13
145.318896
 23
102.7678129999999
 33
0.0
  0
LINE
  5
5E5
330
5E0
100
AcDbEntity
  8
0
  6
ByBlock
 62
     0
100
AcDbLine
 10
145.9
 20
103.4999999999999
 30
0.0
 11
146.1
 21
103.4999999999999
 31
0.0
  0
LINE
  5
5E6
330
5E0
100
AcDbEntity
  8
0
  6
ByBlock
 62
     0
100
AcDbLine
 10
146.0
 20
103.4
 30
0.0
 11
146.0
 21
103.6
 31
0.0
  0
POINT
  5
5E7
330
5E0
100
AcDbEntity
  8
DEFPOINTS
  6
ByBlock
 62
     0
100
AcDbPoint
 10
145.318896
 20
102.7678129999999
 30
0.0
  0
POINT
  5
5E8
330
5E0
100
AcDbEntity
  8
DEFPOINTS
  6
ByBlock
 62
     0
100
AcDbPoint
 10
146.0
 20
103.4999999999999
 30
0.0
  0
ENDBLK
  5
5EA
330
5E0
100
AcDbEntity
  8
0
100
AcDbBlockEnd
  0
BLOCK
  5
5F4
330
5EB
100
AcDbEntity
  8
0
100
AcDbBlockBegin
  2
*D41
 70
     1
 10
0.0
 20
0.0
 30
0.0
  3
*D41
  1

  0
LINE
  5
5EC
330
5EB
100
AcDbEntity
  8
0
  6
ByBlock
 62
     0
100
AcDbLine
 10
172.5
 20
91.5
 30
0.0
 11
170.5
 21
91.5
 31
0.0
  0
LINE
  5
5ED
330
5EB
100
AcDbEntity
  8
0
  6
ByBlock
 62
     0
100
AcDbLine
 10
170.5
 20
91.5
 30
0.0
 11
162.5780169999999
 21
102.683976
 31
0.0
  0
MTEXT
  5
5EE
330
5EB
100
AcDbEntity
  8
0
  6
ByBlock
 62
     0
100
AcDbMText
 10
174.0
 20
91.5
 30
0.0
 40
3.5
 41
0.0
 71
     5
 72
     1
  1
\A1;R1
 73
     1
 44
1.0
  0
SOLID
  5
5EF
330
5EB
100
AcDbEntity
  8
0
  6
ByBlock
 62
     0
100
AcDbTrace
 10
164.00606
 20
101.244599
 30
0.0
 11
163.4620439999999
 21
100.8592539999999
 31
0.0
 12
162.5780169999999
 22
102.683976
 32
0.0
 13
162.5780169999999
 23
102.683976
 33
0.0
  0
LINE
  5
5F0
330
5EB
100
AcDbEntity
  8
0
  6
ByBlock
 62
     0
100
AcDbLine
 10
161.8999999999999
 20
103.4999999999999
 30
0.0
 11
162.0999999999999
 21
103.4999999999999
 31
0.0
  0
LINE
  5
5F1
330
5EB
100
AcDbEntity
  8
0
  6
ByBlock
 62
     0
100
AcDbLine
 10
162.0
 20
103.4
 30
0.0
 11
162.0
 21
103.6
 31
0.0
  0
POINT
  5
5F2
330
5EB
100
AcDbEntity
  8
DEFPOINTS
  6
ByBlock
 62
     0
100
AcDbPoint
 10
162.5780169999999
 20
102.683976
 30
0.0
  0
POINT
  5
5F3
330
5EB
100
AcDbEntity
  8
DEFPOINTS
  6
ByBlock
 62
     0
100
AcDbPoint
 10
162.0
 20
103.4999999999999
 30
0.0
  0
ENDBLK
  5
5F5
330
5EB
100
AcDbEntity
  8
0
100
AcDbBlockEnd
  0
BLOCK
  5
601
330
5F6
100
AcDbEntity
  8
0
100
AcDbBlockBegin
  2
*D42
 70
     1
 10
0.0
 20
0.0
 30
0.0
  3
*D42
  1

  0
LINE
  5
5F7
330
5F6
100
AcDbEntity
  8
0
  6
ByBlock
 62
     0
100
AcDbLine
 10
148.0
 20
114.3
 30
0.0
 11
148.0
 21
132.6999999999999
 31
0.0
  0
LINE
  5
5F8
330
5F6
100
AcDbEntity
  8
0
  6
ByBlock
 62
     0
100
AcDbLine
 10
163.0
 20
114.5999999999999
 30
0.0
 11
163.0
 21
132.6999999999999
 31
0.0
  0
LINE
  5
5F9
330
5F6
100
AcDbEntity
  8
0
  6
ByBlock
 62
     0
100
AcDbLine
 10
150.0
 20
132.4999999999999
 30
0.0
 11
154.3499999999999
 21
132.4999999999999
 31
0.0
  0
LINE
  5
5FA
330
5F6
100
AcDbEntity
  8
0
  6
ByBlock
 62
     0
100
AcDbLine
 10
161.0
 20
132.4999999999999
 30
0.0
 11
157.65
 21
132.4999999999999
 31
0.0
  0
SOLID
  5
5FB
330
5F6
100
AcDbEntity
  8
0
  6
ByBlock
 62
     0
100
AcDbTrace
 10
150.0
 20
132.833333
 30
0.0
 11
150.0
 21
132.1666669999999
 31
0.0
 12
148.0
 22
132.4999999999999
 32
0.0
 13
148.0
 23
132.4999999999999
 33
0.0
  0
SOLID
  5
5FC
330
5F6
100
AcDbEntity
  8
0
  6
ByBlock
 62
     0
100
AcDbTrace
 10
161.0
 20
132.833333
 30
0.0
 11
161.0
 21
132.1666669999999
 31
0.0
 12
163.0
 22
132.4999999999999
 32
0.0
 13
163.0
 23
132.4999999999999
 33
0.0
  0
MTEXT
  5
5FD
330
5F6
100
AcDbEntity
  8
0
  6
ByBlock
 62
     0
100
AcDbMText
 10
156.0
 20
132.4999999999999
 30
0.0
 40
3.5
 41
0.0
 71
     5
 72
     1
  1
\A1;15
 73
     1
 44
1.0
  0
POINT
  5
5FE
330
5F6
100
AcDbEntity
  8
DEFPOINTS
  6
ByBlock
 62
     0
100
AcDbPoint
 10
148.0
 20
114.2
 30
0.0
  0
POINT
  5
5FF
330
5F6
100
AcDbEntity
  8
DEFPOINTS
  6
ByBlock
 62
     0
100
AcDbPoint
 10
163.0
 20
114.5
 30
0.0
  0
POINT
  5
600
330
5F6
100
AcDbEntity
  8
DEFPOINTS
  6
ByBlock
 62
     0
100
AcDbPoint
 10
163.0
 20
132.4999999999999
 30
0.0
  0
ENDBLK
  5
602
330
5F6
100
AcDbEntity
  8
0
100
AcDbBlockEnd
  0
BLOCK
  5
60E
330
603
100
AcDbEntity
  8
0
100
AcDbBlockBegin
  2
*D43
 70
     1
 10
0.0
 20
0.0
 30
0.0
  3
*D43
  1

  0
LINE
  5
604
330
603
100
AcDbEntity
  8
0
  6
ByBlock
 62
     0
100
AcDbLine
 10
143.0
 20
115.1
 30
0.0
 11
143.0
 21
126.4499999999999
 31
0.0
  0
LINE
  5
605
330
603
100
AcDbEntity
  8
0
  6
ByBlock
 62
     0
100
AcDbLine
 10
148.0
 20
114.3
 30
0.0
 11
148.0
 21
126.4499999999999
 31
0.0
  0
LINE
  5
606
330
603
100
AcDbEntity
  8
0
  6
ByBlock
 62
     0
100
AcDbLine
 10
145.0
 20
126.2499999999999
 30
0.0
 11
145.1
 21
126.2499999999999
 31
0.0
  0
LINE
  5
607
330
603
100
AcDbEntity
  8
0
  6
ByBlock
 62
     0
100
AcDbLine
 10
146.0
 20
126.2499999999999
 30
0.0
 11
145.9
 21
126.2499999999999
 31
0.0
  0
SOLID
  5
608
330
603
100
AcDbEntity
  8
0
  6
ByBlock
 62
     0
100
AcDbTrace
 10
145.0
 20
126.583333
 30
0.0
 11
145.0
 21
125.9166669999999
 31
0.0
 12
143.0
 22
126.2499999999999
 32
0.0
 13
143.0
 23
126.2499999999999
 33
0.0
  0
SOLID
  5
609
330
603
100
AcDbEntity
  8
0
  6
ByBlock
 62
     0
100
AcDbTrace
 10
146.0
 20
126.583333
 30
0.0
 11
146.0
 21
125.9166669999999
 31
0.0
 12
148.0
 22
126.2499999999999
 32
0.0
 13
148.0
 23
126.2499999999999
 33
0.0
  0
MTEXT
  5
60A
330
603
100
AcDbEntity
  8
0
  6
ByBlock
 62
     0
100
AcDbMText
 10
145.25
 20
126.2499999999999
 30
0.0
 40
3.5
 41
0.0
 71
     5
 72
     1
  1
\A1;5
 73
     1
 44
1.0
  0
POINT
  5
60B
330
603
100
AcDbEntity
  8
DEFPOINTS
  6
ByBlock
 62
     0
100
AcDbPoint
 10
143.0
 20
115.0
 30
0.0
  0
POINT
  5
60C
330
603
100
AcDbEntity
  8
DEFPOINTS
  6
ByBlock
 62
     0
100
AcDbPoint
 10
148.0
 20
114.2
 30
0.0
  0
POINT
  5
60D
330
603
100
AcDbEntity
  8
DEFPOINTS
  6
ByBlock
 62
     0
100
AcDbPoint
 10
148.0
 20
126.2499999999999
 30
0.0
  0
ENDBLK
  5
60F
330
603
100
AcDbEntity
  8
0
100
AcDbBlockEnd
  0
BLOCK
  5
61B
330
610
100
AcDbEntity
  8
0
100
AcDbBlockBegin
  2
*D44
 70
     1
 10
0.0
 20
0.0
 30
0.0
  3
*D44
  1

  0
LINE
  5
611
330
610
100
AcDbEntity
  8
0
  6
ByBlock
 62
     0
100
AcDbLine
 10
143.0
 20
115.1
 30
0.0
 11
143.0
 21
138.9499999999999
 31
0.0
  0
LINE
  5
612
330
610
100
AcDbEntity
  8
0
  6
ByBlock
 62
     0
100
AcDbLine
 10
163.0
 20
115.1
 30
0.0
 11
163.0
 21
138.9499999999999
 31
0.0
  0
LINE
  5
613
330
610
100
AcDbEntity
  8
0
  6
ByBlock
 62
     0
100
AcDbLine
 10
145.0
 20
138.7499999999999
 30
0.0
 11
150.9499999999999
 21
138.7499999999999
 31
0.0
  0
LINE
  5
614
330
610
100
AcDbEntity
  8
0
  6
ByBlock
 62
     0
100
AcDbLine
 10
161.0
 20
138.7499999999999
 30
0.0
 11
154.55
 21
138.7499999999999
 31
0.0
  0
SOLID
  5
615
330
610
100
AcDbEntity
  8
0
  6
ByBlock
 62
     0
100
AcDbTrace
 10
145.0
 20
139.083333
 30
0.0
 11
145.0
 21
138.4166669999999
 31
0.0
 12
143.0
 22
138.7499999999999
 32
0.0
 13
143.0
 23
138.7499999999999
 33
0.0
  0
SOLID
  5
616
330
610
100
AcDbEntity
  8
0
  6
ByBlock
 62
     0
100
AcDbTrace
 10
161.0
 20
139.083333
 30
0.0
 11
161.0
 21
138.4166669999999
 31
0.0
 12
163.0
 22
138.7499999999999
 32
0.0
 13
163.0
 23
138.7499999999999
 33
0.0
  0
MTEXT
  5
617
330
610
100
AcDbEntity
  8
0
  6
ByBlock
 62
     0
100
AcDbMText
 10
152.75
 20
138.7499999999999
 30
0.0
 40
3.5
 41
0.0
 71
     5
 72
     1
  1
\A1;20
 73
     1
 44
1.0
  0
POINT
  5
618
330
610
100
AcDbEntity
  8
DEFPOINTS
  6
ByBlock
 62
     0
100
AcDbPoint
 10
143.0
 20
115.0
 30
0.0
  0
POINT
  5
619
330
610
100
AcDbEntity
  8
DEFPOINTS
  6
ByBlock
 62
     0
100
AcDbPoint
 10
163.0
 20
115.0
 30
0.0
  0
POINT
  5
61A
330
610
100
AcDbEntity
  8
DEFPOINTS
  6
ByBlock
 62
     0
100
AcDbPoint
 10
163.0
 20
138.7499999999999
 30
0.0
  0
ENDBLK
  5
61C
330
610
100
AcDbEntity
  8
0
100
AcDbBlockEnd
  0
BLOCK
  5
626
330
61D
100
AcDbEntity
  8
0
100
AcDbBlockBegin
  2
*D45
 70
     1
 10
0.0
 20
0.0
 30
0.0
  3
*D45
  1

  0
LINE
  5
61E
330
61D
100
AcDbEntity
  8
0
  6
ByBlock
 62
     0
100
AcDbLine
 10
99.0
 20
128.2499999999999
 30
0.0
 11
101.0
 21
128.2499999999999
 31
0.0
  0
LINE
  5
61F
330
61D
100
AcDbEntity
  8
0
  6
ByBlock
 62
     0
100
AcDbLine
 10
101.0
 20
128.2499999999999
 30
0.0
 11
108.418121
 21
116.592953
 31
0.0
  0
MTEXT
  5
620
330
61D
100
AcDbEntity
  8
0
  6
ByBlock
 62
     0
100
AcDbMText
 10
96.2
 20
128.2499999999999
 30
0.0
 40
3.5
 41
0.0
 71
     5
 72
     1
  1
\A1;\U+220514
 73
     1
 44
1.0
  0
SOLID
  5
621
330
61D
100
AcDbEntity
  8
0
  6
ByBlock
 62
     0
100
AcDbTrace
 10
108.6993409999999
 20
116.771912
 30
0.0
 11
108.1369
 21
116.413995
 31
0.0
 12
109.491872
 22
114.90563
 32
0.0
 13
109.491872
 23
114.90563
 33
0.0
  0
LINE
  5
622
330
61D
100
AcDbEntity
  8
0
  6
ByBlock
 62
     0
100
AcDbLine
 10
113.15
 20
109.0
 30
0.0
 11
113.3499999999999
 21
109.0
 31
0.0
  0
LINE
  5
623
330
61D
100
AcDbEntity
  8
0
  6
ByBlock
 62
     0
100
AcDbLine
 10
113.25
 20
108.9
 30
0.0
 11
113.25
 21
109.0999999999999
 31
0.0
  0
POINT
  5
624
330
61D
100
AcDbEntity
  8
DEFPOINTS
  6
ByBlock
 62
     0
100
AcDbPoint
 10
109.491872
 20
114.90563
 30
0.0
  0
POINT
  5
625
330
61D
100
AcDbEntity
  8
DEFPOINTS
  6
ByBlock
 62
     0
100
AcDbPoint
 10
117.008128
 20
103.0943699999999
 30
0.0
  0
ENDBLK
  5
627
330
61D
100
AcDbEntity
  8
0
100
AcDbBlockEnd
  0
BLOCK
  5
631
330
628
100
AcDbEntity
  8
0
100
AcDbBlockBegin
  2
*D46
 70
     1
 10
0.0
 20
0.0
 30
0.0
  3
*D46
  1

  0
LINE
  5
629
330
628
100
AcDbEntity
  8
0
  6
ByBlock
 62
     0
100
AcDbLine
 10
181.75
 20
124.0
 30
0.0
 11
183.75
 21
124.0
 31
0.0
  0
LINE
  5
62A
330
628
100
AcDbEntity
  8
0
  6
ByBlock
 62
     0
100
AcDbLine
 10
183.75
 20
124.0
 30
0.0
 11
187.965161
 21
116.77401
 31
0.0
  0
MTEXT
  5
62B
330
628
100
AcDbEntity
  8
0
  6
ByBlock
 62
     0
100
AcDbMText
 10
178.9499999999999
 20
124.0
 30
0.0
 40
3.5
 41
0.0
 71
     5
 72
     1
  1
\A1;\U+220514
 73
     1
 44
1.0
  0
SOLID
  5
62C
330
628
100
AcDbEntity
  8
0
  6
ByBlock
 62
     0
100
AcDbTrace
 10
188.253087
 20
116.9419669999999
 30
0.0
 11
187.677234
 21
116.6060529999999
 31
0.0
 12
188.9729029999999
 22
115.046452
 32
0.0
 13
188.9729029999999
 23
115.046452
 33
0.0
  0
LINE
  5
62D
330
628
100
AcDbEntity
  8
0
  6
ByBlock
 62
     0
100
AcDbLine
 10
192.4
 20
109.0
 30
0.0
 11
192.5999999999999
 21
109.0
 31
0.0
  0
LINE
  5
62E
330
628
100
AcDbEntity
  8
0
  6
ByBlock
 62
     0
100
AcDbLine
 10
192.5
 20
108.9
 30
0.0
 11
192.5
 21
109.0999999999999
 31
0.0
  0
POINT
  5
62F
330
628
100
AcDbEntity
  8
DEFPOINTS
  6
ByBlock
 62
     0
100
AcDbPoint
 10
188.9729029999999
 20
115.046452
 30
0.0
  0
POINT
  5
630
330
628
100
AcDbEntity
  8
DEFPOINTS
  6
ByBlock
 62
     0
100
AcDbPoint
 10
196.027097
 20
102.953548
 30
0.0
  0
ENDBLK
  5
632
330
628
100
AcDbEntity
  8
0
100
AcDbBlockEnd
  0
BLOCK
  5
65D
330
633
100
AcDbEntity
  8
0
100
AcDbBlockBegin
  2
A$C3A00351B
 70
     0
 10
0.0
 20
0.0
 30
0.0
  3
A$C3A00351B
  1

  0
DIMENSION
  5
634
330
633
100
AcDbEntity
  8
0
100
AcDbDimension
  2
*D40
 10
52.9
 20
13.75
 30
0.0
 11
39.39999999999999
 21
3.0
 31
0.0
 12
-93.1
 22
-89.74999999999999
 32
0.0
 70
   132
 71
     5
 42
-1.0
  3
STANDARD
100
AcDbRadialDimension
 15
52.218896
 25
13.017813
 35
0.0
 40
0.0
1001
ACAD
1000
DSTYLE
1002
{
1070
    78
1070
     8
1070
   288
1070
     1
1070
   284
1070
     8
1070
   140
1040
2.0
1070
    73
1070
     0
1070
   272
1070
     2
1070
   147
1040
0.1
1070
    42
1040
0.1
1070
    44
1040
0.2
1070
    43
1040
0.4
1070
   271
1070
     2
1070
   141
1040
0.1
1070
    41
1040
2.0
1002
}
  0
DIMENSION
  5
635
330
633
100
AcDbEntity
  8
0
100
AcDbDimension
  2
*D45
 10
25.908128
 20
14.34437
 30
0.0
 11
5.099999999999999
 21
39.5
 31
0.0
 12
-91.09999999999999
 22
-88.75
 32
0.0
 70
   131
 71
     5
 42
-1.0
  3
STANDARD
100
AcDbDiametricDimension
 15
18.391871
 25
26.15562999999999
 35
0.0
 40
0.0
1001
ACAD
1000
DSTYLE
1002
{
1070
    78
1070
     8
1070
   288
1070
     1
1070
   284
1070
     8
1070
   140
1040
2.0
1070
    73
1070
     0
1070
   272
1070
     2
1070
   147
1040
0.1
1070
    42
1040
0.1
1070
    44
1040
0.2
1070
    43
1040
0.4
1070
   271
1070
     2
1070
   141
1040
0.1
1070
    41
1040
2.0
1002
}
  0
DIMENSION
  5
636
330
633
100
AcDbEntity
  8
0
100
AcDbDimension
  2
*D38
 10
26.03176799999999
 20
18.93019899999999
 30
0.0
 11
4.4
 21
24.5
 31
0.0
 12
-91.09999999999999
 22
-88.75
 32
0.0
 70
   131
 71
     5
 42
-1.0
  3
STANDARD
100
AcDbDiametricDimension
 15
18.268231
 25
21.569801
 35
0.0
 40
0.0
1001
ACAD
1000
DSTYLE
1002
{
1070
    78
1070
     8
1070
   288
1070
     1
1070
   284
1070
     8
1070
   140
1040
2.0
1070
    73
1070
     0
1070
   272
1070
     2
1070
   147
1040
0.1
1070
    42
1040
0.1
1070
    44
1040
0.2
1070
    43
1040
0.4
1070
   271
1070
     2
1070
   141
1040
0.1
1070
    41
1040
2.0
1002
}
  0
DIMENSION
  5
637
330
633
100
AcDbEntity
  8
0
100
AcDbDimension
  2
*D37
 10
25.866277
 20
16.612792
 30
0.0
 11
4.099999999999999
 21
31.75
 31
0.0
 12
-91.09999999999999
 22
-88.75
 32
0.0
 70
   131
 71
     5
 42
-1.0
  3
STANDARD
100
AcDbDiametricDimension
 15
18.433722
 25
23.88720799999999
 35
0.0
 40
0.0
1001
ACAD
1000
DSTYLE
1002
{
1070
    78
1070
     8
1070
   288
1070
     1
1070
   284
1070
     8
1070
   140
1040
2.0
1070
    73
1070
     0
1070
   272
1070
     2
1070
   147
1040
0.1
1070
    42
1040
0.1
1070
    44
1040
0.2
1070
    43
1040
0.4
1070
   271
1070
     2
1070
   141
1040
0.1
1070
    41
1040
2.0
1002
}
  0
CIRCLE
  5
638
330
633
100
AcDbEntity
  8
3
100
AcDbCircle
 10
22.14999999999999
 20
20.24999999999999
 30
0.0
 40
7.0
  0
CIRCLE
  5
639
330
633
100
AcDbEntity
  8
3
100
AcDbCircle
 10
22.14999999999999
 20
20.24999999999999
 30
0.0
 40
5.2
  0
LINE
  5
63A
330
633
100
AcDbEntity
  8
1
100
AcDbLine
 10
34.15
 20
20.24999999999999
 30
0.0
 11
10.4
 21
20.24999999999999
 31
0.0
  0
CIRCLE
  5
63B
330
633
100
AcDbEntity
  8
3
100
AcDbCircle
 10
22.14999999999999
 20
20.24999999999999
 30
0.0
 40
4.099999999999999
  0
LINE
  5
63C
330
633
100
AcDbEntity
  8
1
100
AcDbLine
 10
22.14999999999999
 20
29.75
 30
0.0
 11
22.14999999999999
 21
11.0
 31
0.0
  0
DIMENSION
  5
63D
330
633
100
AcDbEntity
  8
0
100
AcDbDimension
  2
*D41
 10
70.9
 20
13.75
 30
0.0
 11
82.9
 21
1.75
 31
0.0
 12
-91.09999999999999
 22
-89.74999999999999
 32
0.0
 70
   132
 71
     5
 42
-1.0
  3
STANDARD
100
AcDbRadialDimension
 15
71.47801700000001
 25
12.933976
 35
0.0
 40
0.0
1001
ACAD
1000
DSTYLE
1002
{
1070
    78
1070
     8
1070
   288
1070
     1
1070
   284
1070
     8
1070
   140
1040
2.0
1070
    73
1070
     0
1070
   272
1070
     2
1070
   147
1040
0.1
1070
    42
1040
0.1
1070
    44
1040
0.2
1070
    43
1040
0.4
1070
   271
1070
     2
1070
   141
1040
0.1
1070
    41
1040
2.0
1002
}
  0
DIMENSION
  5
63E
330
633
100
AcDbEntity
  8
0
100
AcDbDimension
  2
*D46
 10
104.927097
 20
14.203548
 30
0.0
 11
87.85
 21
35.25
 31
0.0
 12
-91.09999999999999
 22
-88.75
 32
0.0
 70
   131
 71
     5
 42
-1.0
  3
STANDARD
100
AcDbDiametricDimension
 15
97.87290200000001
 25
26.296452
 35
0.0
 40
0.0
1001
ACAD
1000
DSTYLE
1002
{
1070
    78
1070
     8
1070
   288
1070
     1
1070
   284
1070
     8
1070
   140
1040
2.0
1070
    73
1070
     0
1070
   272
1070
     2
1070
   147
1040
0.1
1070
    42
1040
0.1
1070
    44
1040
0.2
1070
    43
1040
0.4
1070
   271
1070
     2
1070
   141
1040
0.1
1070
    41
1040
2.0
1002
}
  0
DIMENSION
  5
63F
330
633
100
AcDbEntity
  8
0
100
AcDbDimension
  2
*D39
 10
103.949716
 20
17.03924599999999
 30
0.0
 11
89.40000000000001
 21
28.75
 31
0.0
 12
-91.09999999999999
 22
-88.75
 32
0.0
 70
   131
 71
     5
 42
-1.0
  3
STANDARD
100
AcDbDiametricDimension
 15
98.850283
 25
23.460754
 35
0.0
 40
0.0
1001
ACAD
1000
DSTYLE
1002
{
1070
    78
1070
     8
1070
   288
1070
     1
1070
   284
1070
     8
1070
   140
1040
2.0
1070
    73
1070
     0
1070
   272
1070
     2
1070
   147
1040
0.1
1070
    42
1040
0.1
1070
    44
1040
0.2
1070
    43
1040
0.4
1070
   271
1070
     2
1070
   141
1040
0.1
1070
    41
1040
2.0
1002
}
  0
LINE
  5
640
330
633
100
AcDbEntity
  8
1
100
AcDbLine
 10
113.4
 20
20.24999999999999
 30
0.0
 11
89.65000000000001
 21
20.24999999999999
 31
0.0
  0
DIMENSION
  5
641
330
633
100
AcDbEntity
  8
0
100
AcDbDimension
  2
*D44
 10
71.90000000000001
 20
50.0
 30
0.0
 11
61.65
 21
50.0
 31
0.0
 12
-91.09999999999999
 22
-88.75
 32
0.0
 70
   128
 71
     5
 42
-1.0
  3
STANDARD
100
AcDbAlignedDimension
 13
51.9
 23
26.25
 33
0.0
 14
71.90000000000001
 24
26.25
 34
0.0
100
AcDbRotatedDimension
1001
ACAD
1000
DSTYLE
1002
{
1070
    78
1070
     8
1070
   288
1070
     1
1070
   284
1070
     8
1070
   140
1040
2.0
1070
    73
1070
     0
1070
   272
1070
     2
1070
   147
1040
0.1
1070
    42
1040
0.1
1070
    44
1040
0.2
1070
    43
1040
0.4
1070
   271
1070
     2
1070
   141
1040
0.1
1070
    41
1040
2.0
1002
}
  0
DIMENSION
  5
642
330
633
100
AcDbEntity
  8
0
100
AcDbDimension
  2
*D43
 10
56.9
 20
37.5
 30
0.0
 11
54.15
 21
37.5
 31
0.0
 12
-91.09999999999999
 22
-88.75
 32
0.0
 70
   128
 71
     5
 42
-1.0
  3
STANDARD
100
AcDbAlignedDimension
 13
51.9
 23
26.25
 33
0.0
 14
56.9
 24
25.44999999999999
 34
0.0
100
AcDbRotatedDimension
1001
ACAD
1000
DSTYLE
1002
{
1070
    78
1070
     8
1070
   288
1070
     1
1070
   284
1070
     8
1070
   140
1040
2.0
1070
    73
1070
     0
1070
   272
1070
     2
1070
   147
1040
0.1
1070
    42
1040
0.1
1070
    44
1040
0.2
1070
    43
1040
0.4
1070
   271
1070
     2
1070
   141
1040
0.1
1070
    41
1040
2.0
1002
}
  0
DIMENSION
  5
643
330
633
100
AcDbEntity
  8
0
100
AcDbDimension
  2
*D42
 10
71.90000000000001
 20
43.75
 30
0.0
 11
64.90000000000001
 21
43.75
 31
0.0
 12
-91.09999999999999
 22
-88.75
 32
0.0
 70
   128
 71
     5
 42
-1.0
  3
STANDARD
100
AcDbAlignedDimension
 13
56.9
 23
25.44999999999999
 33
0.0
 14
71.90000000000001
 24
25.75
 34
0.0
100
AcDbRotatedDimension
1001
ACAD
1000
DSTYLE
1002
{
1070
    78
1070
     8
1070
   288
1070
     1
1070
   284
1070
     8
1070
   140
1040
2.0
1070
    73
1070
     0
1070
   272
1070
     2
1070
   147
1040
0.1
1070
    42
1040
0.1
1070
    44
1040
0.2
1070
    43
1040
0.4
1070
   271
1070
     2
1070
   141
1040
0.1
1070
    41
1040
2.0
1002
}
  0
HATCH
  5
644
330
633
100
AcDbEntity
  8
0
100
AcDbHatch
 10
0.0
 20
0.0
 30
0.0
210
0.0
220
0.0
230
1.0
  2
ANSI31
 70
     0
 71
     1
 91
        1
 92
        7
 72
     1
 73
     1
 93
        8
 10
56.9
 20
16.15
 42
0.0
 10
56.89999999999999
 20
15.04999999999999
 42
0.0
 10
51.9
 20
15.04999999999999
 42
0.0
 10
51.9
 20
14.25
 42
0.4142135623730951
 10
52.9
 20
13.25
 42
0.0
 10
70.9
 20
13.25
 42
0.4142135623730951
 10
71.90000000000001
 20
14.25
 42
0.0
 10
71.90000000000001
 20
16.15
 42
0.0
 97
        8
330
645
330
650
330
64E
330
64D
330
64F
330
646
330
657
330
656
 75
     0
 76
     1
 52
0.0
 41
3.0
 77
     0
 78
     1
 53
45.0
 43
-91.09999999999999
 44
-88.75
 45
-0.2651650429449553
 46
0.2651650429449553
 79
     0
 47
0.125921
 98
        1
 10
62.65
 20
15.0
  0
LINE
  5
645
102
{ACAD_REACTORS
330
644
102
}
330
633
100
AcDbEntity
  8
3
100
AcDbLine
 10
71.90000000000001
 20
16.15
 30
0.0
 11
56.9
 21
16.15
 31
0.0
  0
LINE
  5
646
102
{ACAD_REACTORS
330
644
102
}
330
633
100
AcDbEntity
  8
3
100
AcDbLine
 10
52.9
 20
13.25
 30
0.0
 11
70.9
 21
13.25
 31
0.0
  0
LINE
  5
647
330
633
100
AcDbEntity
  8
3
100
AcDbLine
 10
71.90000000000001
 20
24.35
 30
0.0
 11
56.9
 21
24.35
 31
0.0
  0
LINE
  5
648
330
633
100
AcDbEntity
  8
3
100
AcDbLine
 10
52.9
 20
27.25
 30
0.0
 11
70.9
 21
27.25
 31
0.0
  0
LINE
  5
649
330
633
100
AcDbEntity
  8
1
100
AcDbLine
 10
49.15
 20
20.24999999999999
 30
0.0
 11
74.90000000000001
 21
20.24999999999999
 31
0.0
  0
LINE
  5
64A
330
633
100
AcDbEntity
  8
3
100
AcDbLine
 10
56.9
 20
24.35
 30
0.0
 11
56.9
 21
20.24999999999999
 31
0.0
  0
LINE
  5
64B
330
633
100
AcDbEntity
  8
3
100
AcDbLine
 10
51.9
 20
26.25
 30
0.0
 11
51.9
 21
20.24999999999999
 31
0.0
  0
LINE
  5
64C
330
633
100
AcDbEntity
  8
3
100
AcDbLine
 10
56.9
 20
16.15
 30
0.0
 11
56.9
 21
20.24999999999999
 31
0.0
  0
LINE
  5
64D
102
{ACAD_REACTORS
330
644
102
}
330
633
100
AcDbEntity
  8
3
100
AcDbLine
 10
51.9
 20
14.25
 30
0.0
 11
51.9
 21
20.24999999999999
 31
0.0
  0
LINE
  5
64E
102
{ACAD_REACTORS
330
644
102
}
330
633
100
AcDbEntity
  8
3
100
AcDbLine
 10
56.9
 20
15.05
 30
0.0
 11
51.9
 21
15.05
 31
0.0
  0
ARC
  5
64F
102
{ACAD_REACTORS
330
644
102
}
330
633
100
AcDbEntity
  8
3
100
AcDbCircle
 10
52.9
 20
14.25
 30
0.0
 40
1.0
100
AcDbArc
 50
180.0
 51
270.0
  0
LINE
  5
650
102
{ACAD_REACTORS
330
644
102
}
330
633
100
AcDbEntity
  8
3
100
AcDbLine
 10
56.9
 20
16.15
 30
0.0
 11
56.9
 21
15.05
 31
0.0
  0
LINE
  5
651
330
633
100
AcDbEntity
  8
3
100
AcDbLine
 10
56.9
 20
25.44999999999999
 30
0.0
 11
51.9
 21
25.44999999999999
 31
0.0
  0
ARC
  5
652
330
633
100
AcDbEntity
  8
3
100
AcDbCircle
 10
52.9
 20
26.25
 30
0.0
 40
1.0
100
AcDbArc
 50
90.0
 51
180.0
  0
LINE
  5
653
330
633
100
AcDbEntity
  8
3
100
AcDbLine
 10
56.9
 20
24.35
 30
0.0
 11
56.9
 21
25.44999999999999
 31
0.0
  0
LINE
  5
654
330
633
100
AcDbEntity
  8
3
100
AcDbLine
 10
71.90000000000001
 20
24.35
 30
0.0
 11
71.90000000000001
 21
20.24999999999999
 31
0.0
  0
LINE
  5
655
330
633
100
AcDbEntity
  8
3
100
AcDbLine
 10
71.90000000000001
 20
16.15
 30
0.0
 11
71.90000000000001
 21
20.24999999999999
 31
0.0
  0
LINE
  5
656
102
{ACAD_REACTORS
330
644
102
}
330
633
100
AcDbEntity
  8
3
100
AcDbLine
 10
71.90000000000001
 20
14.25
 30
0.0
 11
71.90000000000001
 21
16.15
 31
0.0
  0
ARC
  5
657
102
{ACAD_REACTORS
330
644
102
}
330
633
100
AcDbEntity
  8
3
100
AcDbCircle
 10
70.9
 20
14.25
 30
0.0
 40
1.0
100
AcDbArc
 50
270.0
 51
0.0
  0
ARC
  5
658
330
633
100
AcDbEntity
  8
3
100
AcDbCircle
 10
70.9
 20
26.25
 30
0.0
 40
1.0
100
AcDbArc
 50
0.0
 51
90.0
  0
LINE
  5
659
330
633
100
AcDbEntity
  8
3
100
AcDbLine
 10
71.90000000000001
 20
26.25
 30
0.0
 11
71.90000000000001
 21
24.35
 31
0.0
  0
CIRCLE
  5
65A
330
633
100
AcDbEntity
  8
3
100
AcDbCircle
 10
101.4
 20
20.24999999999999
 30
0.0
 40
7.0
  0
LINE
  5
65B
330
633
100
AcDbEntity
  8
1
100
AcDbLine
 10
101.4
 20
29.75
 30
0.0
 11
101.4
 21
11.0
 31
0.0
  0
CIRCLE
  5
65C
330
633
100
AcDbEntity
  8
3
100
AcDbCircle
 10
101.4
 20
20.24999999999999
 30
0.0
 40
4.099999999999999
  0
ENDBLK
  5
65E
330
633
100
AcDbEntity
  8
0
100
AcDbBlockEnd
  0
BLOCK
  5
6F0
330
689
100
AcDbEntity
  8
0
100
AcDbBlockBegin
  2
*D48
 70
     1
 10
0.0
 20
0.0
 30
0.0
  3
*D48
  1

  0
LINE
  5
6F1
330
689
100
AcDbEntity
  8
0
  6
ByBlock
 62
     0
100
AcDbLine
 10
78.143141
 20
38.82965699999999
 30
0.0
 11
76.78093299999999
 21
37.365284
 31
0.0
  0
MTEXT
  5
6F2
330
689
100
AcDbEntity
  8
0
  6
ByBlock
 62
     0
100
AcDbMText
 10
66.686453
 20
30.276217
 30
0.0
 40
10.0
 41
0.0
 71
     5
 72
     1
  1
\A1;R1
  7
BIGFONT
 73
     1
 44
1.0
  0
SOLID
  5
6F3
330
689
100
AcDbEntity
  8
0
  6
ByBlock
 62
     0
100
AcDbTrace
 10
77.899079
 20
39.056692
 30
0.0
 11
78.387203
 21
38.602623
 31
0.0
 12
79.505349
 22
40.29403099999999
 32
0.0
 13
79.505349
 23
40.29403099999999
 33
0.0
  0
LINE
  5
6F4
330
689
100
AcDbEntity
  8
0
  6
ByBlock
 62
     0
100
AcDbLine
 10
80.08645300000001
 20
41.02621699999999
 30
0.0
 11
80.286453
 21
41.02621699999999
 31
0.0
  0
LINE
  5
6F5
330
689
100
AcDbEntity
  8
0
  6
ByBlock
 62
     0
100
AcDbLine
 10
80.18645300000001
 20
40.926217
 30
0.0
 11
80.18645300000001
 21
41.126217
 31
0.0
  0
POINT
  5
6F6
330
689
100
AcDbEntity
  8
DEFPOINTS
  6
ByBlock
 62
     0
100
AcDbPoint
 10
79.505349
 20
40.29403099999999
 30
0.0
  0
POINT
  5
6F7
330
689
100
AcDbEntity
  8
DEFPOINTS
  6
ByBlock
 62
     0
100
AcDbPoint
 10
80.18645300000001
 20
41.02621699999999
 30
0.0
  0
ENDBLK
  5
6F8
330
689
100
AcDbEntity
  8
0
100
AcDbBlockEnd
  0
BLOCK
  5
6F9
330
693
100
AcDbEntity
  8
0
100
AcDbBlockBegin
  2
*D49
 70
     1
 10
0.0
 20
0.0
 30
0.0
  3
*D49
  1

  0
LINE
  5
6FA
330
693
100
AcDbEntity
  8
0
  6
ByBlock
 62
     0
100
AcDbLine
 10
52.12082999999999
 20
43.30791
 30
0.0
 11
46.752076
 21
51.74452500000001
 31
0.0
  0
MTEXT
  5
6FB
330
693
100
AcDbEntity
  8
0
  6
ByBlock
 62
     0
100
AcDbMText
 10
32.386453
 20
66.776217
 30
0.0
 40
10.0
 41
0.0
 71
     5
 72
     1
  1
\A1;\U+220514
  7
BIGFONT
 73
     1
 44
1.0
  0
SOLID
  5
6FC
330
693
100
AcDbEntity
  8
0
  6
ByBlock
 62
     0
100
AcDbTrace
 10
52.402051
 20
43.486868
 30
0.0
 11
51.83961
 21
43.128951
 31
0.0
 12
53.19458100000001
 22
41.620587
 32
0.0
 13
53.19458100000001
 23
41.620587
 33
0.0
  0
SOLID
  5
6FD
330
693
100
AcDbEntity
  8
0
  6
ByBlock
 62
     0
100
AcDbTrace
 10
47.03329599999999
 20
51.923483
 30
0.0
 11
46.470855
 21
51.565566
 31
0.0
 12
45.678325
 22
53.43184799999999
 32
0.0
 13
45.678325
 23
53.43184799999999
 33
0.0
  0
POINT
  5
6FE
330
693
100
AcDbEntity
  8
DEFPOINTS
  6
ByBlock
 62
     0
100
AcDbPoint
 10
45.678325
 20
53.43184799999999
 30
0.0
  0
POINT
  5
6FF
330
693
100
AcDbEntity
  8
DEFPOINTS
  6
ByBlock
 62
     0
100
AcDbPoint
 10
53.19458100000001
 20
41.620587
 30
0.0
  0
ENDBLK
  5
700
330
693
100
AcDbEntity
  8
0
100
AcDbBlockEnd
  0
BLOCK
  5
701
330
69C
100
AcDbEntity
  8
0
100
AcDbBlockBegin
  2
*D50
 70
     1
 10
0.0
 20
0.0
 30
0.0
  3
*D50
  1

  0
LINE
  5
702
330
69C
100
AcDbEntity
  8
0
  6
ByBlock
 62
     0
100
AcDbLine
 10
51.42467599999999
 20
46.85022199999999
 30
0.0
 11
47.44823
 21
48.202213
 31
0.0
  0
MTEXT
  5
703
330
69C
100
AcDbEntity
  8
0
  6
ByBlock
 62
     0
100
AcDbMText
 10
31.686453
 20
51.77621699999999
 30
0.0
 40
10.0
 41
0.0
 71
     5
 72
     1
  1
\A1;\U+22058.2
  7
BIGFONT
 73
     1
 44
1.0
  0
SOLID
  5
704
330
69C
100
AcDbEntity
  8
0
  6
ByBlock
 62
     0
100
AcDbTrace
 10
51.531977
 20
47.165813
 30
0.0
 11
51.31737499999999
 21
46.53463099999999
 31
0.0
 12
53.318221
 22
46.20641599999999
 32
0.0
 13
53.318221
 23
46.20641599999999
 33
0.0
  0
SOLID
  5
705
330
69C
100
AcDbEntity
  8
0
  6
ByBlock
 62
     0
100
AcDbTrace
 10
47.555531
 20
48.51780399999999
 30
0.0
 11
47.34092899999999
 21
47.886622
 31
0.0
 12
45.55468499999999
 22
48.84601899999999
 32
0.0
 13
45.55468499999999
 23
48.84601899999999
 33
0.0
  0
POINT
  5
706
330
69C
100
AcDbEntity
  8
DEFPOINTS
  6
ByBlock
 62
     0
100
AcDbPoint
 10
45.55468499999999
 20
48.84601899999999
 30
0.0
  0
POINT
  5
707
330
69C
100
AcDbEntity
  8
DEFPOINTS
  6
ByBlock
 62
     0
100
AcDbPoint
 10
53.318221
 20
46.20641599999999
 30
0.0
  0
ENDBLK
  5
708
330
69C
100
AcDbEntity
  8
0
100
AcDbBlockEnd
  0
BLOCK
  5
709
330
6A5
100
AcDbEntity
  8
0
100
AcDbBlockBegin
  2
*D51
 70
     1
 10
0.0
 20
0.0
 30
0.0
  3
*D51
  1

  0
LINE
  5
70A
330
6A5
100
AcDbEntity
  8
0
  6
ByBlock
 62
     0
100
AcDbLine
 10
51.723393
 20
45.287936
 30
0.0
 11
47.149513
 21
49.764499
 31
0.0
  0
MTEXT
  5
70B
330
6A5
100
AcDbEntity
  8
0
  6
ByBlock
 62
     0
100
AcDbMText
 10
31.386453
 20
59.026217
 30
0.0
 40
10.0
 41
0.0
 71
     5
 72
     1
  1
\A1;\U+220510.4
  7
BIGFONT
 73
     1
 44
1.0
  0
SOLID
  5
70C
330
6A5
100
AcDbEntity
  8
0
  6
ByBlock
 62
     0
100
AcDbTrace
 10
51.956547
 20
45.526159
 30
0.0
 11
51.490239
 21
45.049713
 31
0.0
 12
53.152731
 22
43.88900999999999
 32
0.0
 13
53.152731
 23
43.88900999999999
 33
0.0
  0
SOLID
  5
70D
330
6A5
100
AcDbEntity
  8
0
  6
ByBlock
 62
     0
100
AcDbTrace
 10
47.38266699999999
 20
50.002722
 30
0.0
 11
46.916359
 21
49.526276
 31
0.0
 12
45.720175
 22
51.163425
 32
0.0
 13
45.720175
 23
51.163425
 33
0.0
  0
POINT
  5
70E
330
6A5
100
AcDbEntity
  8
DEFPOINTS
  6
ByBlock
 62
     0
100
AcDbPoint
 10
45.720175
 20
51.163425
 30
0.0
  0
POINT
  5
70F
330
6A5
100
AcDbEntity
  8
DEFPOINTS
  6
ByBlock
 62
     0
100
AcDbPoint
 10
53.152731
 20
43.88900999999999
 30
0.0
  0
ENDBLK
  5
710
330
6A5
100
AcDbEntity
  8
0
100
AcDbBlockEnd
  0
BLOCK
  5
711
330
6AE
100
AcDbEntity
  8
0
100
AcDbBlockBegin
  2
*D52
 70
     1
 10
0.0
 20
0.0
 30
0.0
  3
*D52
  1

  0
LINE
  5
712
330
6AE
100
AcDbEntity
  8
0
  6
ByBlock
 62
     0
100
AcDbLine
 10
99.92050500000001
 20
38.578144
 30
0.0
 11
101.07654
 21
36.946095
 31
0.0
  0
MTEXT
  5
713
330
6AE
100
AcDbEntity
  8
0
  6
ByBlock
 62
     0
100
AcDbMText
 10
110.186453
 20
29.026217
 30
0.0
 40
10.0
 41
0.0
 71
     5
 72
     1
  1
\A1;R1
  7
BIGFONT
 73
     1
 44
1.0
  0
SOLID
  5
714
330
6AE
100
AcDbEntity
  8
0
  6
ByBlock
 62
     0
100
AcDbTrace
 10
100.192513
 20
38.77081599999999
 30
0.0
 11
99.648497
 21
38.385471
 31
0.0
 12
98.76446999999998
 22
40.21019299999999
 32
0.0
 13
98.76446999999998
 23
40.21019299999999
 33
0.0
  0
LINE
  5
715
330
6AE
100
AcDbEntity
  8
0
  6
ByBlock
 62
     0
100
AcDbLine
 10
98.08645300000002
 20
41.02621699999999
 30
0.0
 11
98.28645300000001
 21
41.02621699999999
 31
0.0
  0
LINE
  5
716
330
6AE
100
AcDbEntity
  8
0
  6
ByBlock
 62
     0
100
AcDbLine
 10
98.186453
 20
40.926217
 30
0.0
 11
98.186453
 21
41.126217
 31
0.0
  0
POINT
  5
717
330
6AE
100
AcDbEntity
  8
DEFPOINTS
  6
ByBlock
 62
     0
100
AcDbPoint
 10
98.76446999999998
 20
40.21019299999999
 30
0.0
  0
POINT
  5
718
330
6AE
100
AcDbEntity
  8
DEFPOINTS
  6
ByBlock
 62
     0
100
AcDbPoint
 10
98.186453
 20
41.02621699999999
 30
0.0
  0
ENDBLK
  5
719
330
6AE
100
AcDbEntity
  8
0
100
AcDbBlockEnd
  0
BLOCK
  5
71A
330
6B8
100
AcDbEntity
  8
0
100
AcDbBlockBegin
  2
*D53
 70
     1
 10
0.0
 20
0.0
 30
0.0
  3
*D53
  1

  0
LINE
  5
71B
330
6B8
100
AcDbEntity
  8
0
  6
ByBlock
 62
     0
100
AcDbLine
 10
131.205808
 20
43.20732299999999
 30
0.0
 11
126.1670979999999
 21
51.845112
 31
0.0
  0
MTEXT
  5
71C
330
6B8
100
AcDbEntity
  8
0
  6
ByBlock
 62
     0
100
AcDbMText
 10
115.136453
 20
62.526217
 30
0.0
 40
10.0
 41
0.0
 71
     5
 72
     1
  1
\A1;\U+220514
  7
BIGFONT
 73
     1
 44
1.0
  0
SOLID
  5
71D
330
6B8
100
AcDbEntity
  8
0
  6
ByBlock
 62
     0
100
AcDbTrace
 10
131.493734
 20
43.37527999999999
 30
0.0
 11
130.917882
 21
43.03936599999999
 31
0.0
 12
132.2135499999999
 22
41.479765
 32
0.0
 13
132.2135499999999
 23
41.479765
 33
0.0
  0
SOLID
  5
71E
330
6B8
100
AcDbEntity
  8
0
  6
ByBlock
 62
     0
100
AcDbTrace
 10
126.4550239999999
 20
52.013069
 30
0.0
 11
125.879172
 21
51.67715499999999
 31
0.0
 12
125.159356
 22
53.57267
 32
0.0
 13
125.159356
 23
53.57267
 33
0.0
  0
POINT
  5
71F
330
6B8
100
AcDbEntity
  8
DEFPOINTS
  6
ByBlock
 62
     0
100
AcDbPoint
 10
125.159356
 20
53.57267
 30
0.0
  0
POINT
  5
720
330
6B8
100
AcDbEntity
  8
DEFPOINTS
  6
ByBlock
 62
     0
100
AcDbPoint
 10
132.2135499999999
 20
41.479765
 30
0.0
  0
ENDBLK
  5
721
330
6B8
100
AcDbEntity
  8
0
100
AcDbBlockEnd
  0
BLOCK
  5
722
330
6C1
100
AcDbEntity
  8
0
100
AcDbBlockBegin
  2
*D54
 70
     1
 10
0.0
 20
0.0
 30
0.0
  3
*D54
  1

  0
LINE
  5
723
330
6C1
100
AcDbEntity
  8
0
  6
ByBlock
 62
     0
100
AcDbLine
 10
129.992406
 20
45.881685
 30
0.0
 11
127.380501
 21
49.17075
 31
0.0
  0
MTEXT
  5
724
330
6C1
100
AcDbEntity
  8
0
  6
ByBlock
 62
     0
100
AcDbMText
 10
116.686453
 20
56.026217
 30
0.0
 40
10.0
 41
0.0
 71
     5
 72
     1
  1
\A1;\U+22058.2
  7
BIGFONT
 73
     1
 44
1.0
  0
SOLID
  5
725
330
6C1
100
AcDbEntity
  8
0
  6
ByBlock
 62
     0
100
AcDbTrace
 10
130.2534419999999
 20
46.08897899999999
 30
0.0
 11
129.7313689999999
 21
45.674391
 31
0.0
 12
131.2361699999999
 22
44.31546299999999
 32
0.0
 13
131.2361699999999
 23
44.31546299999999
 33
0.0
  0
SOLID
  5
726
330
6C1
100
AcDbEntity
  8
0
  6
ByBlock
 62
     0
100
AcDbTrace
 10
127.641537
 20
49.378044
 30
0.0
 11
127.119464
 21
48.963456
 31
0.0
 12
126.136736
 22
50.73697199999999
 32
0.0
 13
126.136736
 23
50.73697199999999
 33
0.0
  0
POINT
  5
727
330
6C1
100
AcDbEntity
  8
DEFPOINTS
  6
ByBlock
 62
     0
100
AcDbPoint
 10
126.136736
 20
50.73697199999999
 30
0.0
  0
POINT
  5
728
330
6C1
100
AcDbEntity
  8
DEFPOINTS
  6
ByBlock
 62
     0
100
AcDbPoint
 10
131.2361699999999
 20
44.31546299999999
 30
0.0
  0
ENDBLK
  5
729
330
6C1
100
AcDbEntity
  8
0
100
AcDbBlockEnd
  0
BLOCK
  5
72A
330
6CA
100
AcDbEntity
  8
0
100
AcDbBlockBegin
  2
*D55
 70
     1
 10
0.0
 20
0.0
 30
0.0
  3
*D55
  1

  0
LINE
  5
72B
330
6CA
100
AcDbEntity
  8
0
  6
ByBlock
 62
     0
100
AcDbLine
 10
79.186453
 20
53.626217
 30
0.0
 11
79.186453
 21
77.476217
 31
0.0
  0
LINE
  5
72C
330
6CA
100
AcDbEntity
  8
0
  6
ByBlock
 62
     0
100
AcDbLine
 10
99.18645300000001
 20
53.626217
 30
0.0
 11
99.18645300000001
 21
77.476217
 31
0.0
  0
LINE
  5
72D
330
6CA
100
AcDbEntity
  8
0
  6
ByBlock
 62
     0
100
AcDbLine
 10
81.186453
 20
77.276217
 30
0.0
 11
81.33645300000001
 21
77.276217
 31
0.0
  0
LINE
  5
72E
330
6CA
100
AcDbEntity
  8
0
  6
ByBlock
 62
     0
100
AcDbLine
 10
97.186453
 20
77.276217
 30
0.0
 11
96.536453
 21
77.276217
 31
0.0
  0
MTEXT
  5
72F
330
6CA
100
AcDbEntity
  8
0
  6
ByBlock
 62
     0
100
AcDbMText
 10
88.93645300000001
 20
77.276217
 30
0.0
 40
10.0
 41
0.0
 71
     5
 72
     1
  1
\A1;20
  7
BIGFONT
 73
     1
 44
1.0
  0
SOLID
  5
730
330
6CA
100
AcDbEntity
  8
0
  6
ByBlock
 62
     0
100
AcDbTrace
 10
81.186453
 20
77.609551
 30
0.0
 11
81.186453
 21
76.94288399999999
 31
0.0
 12
79.186453
 22
77.276217
 32
0.0
 13
79.186453
 23
77.276217
 33
0.0
  0
SOLID
  5
731
330
6CA
100
AcDbEntity
  8
0
  6
ByBlock
 62
     0
100
AcDbTrace
 10
97.186453
 20
77.609551
 30
0.0
 11
97.186453
 21
76.94288399999999
 31
0.0
 12
99.18645300000001
 22
77.276217
 32
0.0
 13
99.18645300000001
 23
77.276217
 33
0.0
  0
POINT
  5
732
330
6CA
100
AcDbEntity
  8
DEFPOINTS
  6
ByBlock
 62
     0
100
AcDbPoint
 10
79.186453
 20
53.526217
 30
0.0
  0
POINT
  5
733
330
6CA
100
AcDbEntity
  8
DEFPOINTS
  6
ByBlock
 62
     0
100
AcDbPoint
 10
99.18645300000001
 20
53.526217
 30
0.0
  0
POINT
  5
734
330
6CA
100
AcDbEntity
  8
DEFPOINTS
  6
ByBlock
 62
     0
100
AcDbPoint
 10
99.18645300000001
 20
77.276217
 30
0.0
  0
ENDBLK
  5
735
330
6CA
100
AcDbEntity
  8
0
100
AcDbBlockEnd
  0
BLOCK
  5
736
330
6D7
100
AcDbEntity
  8
0
100
AcDbBlockBegin
  2
*D56
 70
     1
 10
0.0
 20
0.0
 30
0.0
  3
*D56
  1

  0
LINE
  5
737
330
6D7
100
AcDbEntity
  8
0
  6
ByBlock
 62
     0
100
AcDbLine
 10
79.186453
 20
53.626217
 30
0.0
 11
79.186453
 21
64.976217
 31
0.0
  0
LINE
  5
738
330
6D7
100
AcDbEntity
  8
0
  6
ByBlock
 62
     0
100
AcDbLine
 10
84.18645299999999
 20
52.826217
 30
0.0
 11
84.18645299999999
 21
64.976217
 31
0.0
  0
LINE
  5
739
330
6D7
100
AcDbEntity
  8
0
  6
ByBlock
 62
     0
100
AcDbLine
 10
81.186453
 20
64.776217
 30
0.0
 11
82.186453
 21
64.776217
 31
0.0
  0
MTEXT
  5
73A
330
6D7
100
AcDbEntity
  8
0
  6
ByBlock
 62
     0
100
AcDbMText
 10
81.43645300000001
 20
64.776217
 30
0.0
 40
10.0
 41
0.0
 71
     5
 72
     1
  1
\A1;5
  7
BIGFONT
 73
     1
 44
1.0
  0
SOLID
  5
73B
330
6D7
100
AcDbEntity
  8
0
  6
ByBlock
 62
     0
100
AcDbTrace
 10
81.186453
 20
65.109551
 30
0.0
 11
81.186453
 21
64.44288399999999
 31
0.0
 12
79.186453
 22
64.776217
 32
0.0
 13
79.186453
 23
64.776217
 33
0.0
  0
SOLID
  5
73C
330
6D7
100
AcDbEntity
  8
0
  6
ByBlock
 62
     0
100
AcDbTrace
 10
82.186453
 20
65.109551
 30
0.0
 11
82.186453
 21
64.44288399999999
 31
0.0
 12
84.18645299999999
 22
64.776217
 32
0.0
 13
84.18645299999999
 23
64.776217
 33
0.0
  0
POINT
  5
73D
330
6D7
100
AcDbEntity
  8
DEFPOINTS
  6
ByBlock
 62
     0
100
AcDbPoint
 10
79.186453
 20
53.526217
 30
0.0
  0
POINT
  5
73E
330
6D7
100
AcDbEntity
  8
DEFPOINTS
  6
ByBlock
 62
     0
100
AcDbPoint
 10
84.18645299999999
 20
52.72621700000001
 30
0.0
  0
POINT
  5
73F
330
6D7
100
AcDbEntity
  8
DEFPOINTS
  6
ByBlock
 62
     0
100
AcDbPoint
 10
84.18645299999999
 20
64.776217
 30
0.0
  0
ENDBLK
  5
740
330
6D7
100
AcDbEntity
  8
0
100
AcDbBlockEnd
  0
BLOCK
  5
741
330
6E3
100
AcDbEntity
  8
0
100
AcDbBlockBegin
  2
*D57
 70
     1
 10
0.0
 20
0.0
 30
0.0
  3
*D57
  1

  0
LINE
  5
742
330
6E3
100
AcDbEntity
  8
0
  6
ByBlock
 62
     0
100
AcDbLine
 10
84.18645299999999
 20
52.826217
 30
0.0
 11
84.18645299999999
 21
71.226217
 31
0.0
  0
LINE
  5
743
330
6E3
100
AcDbEntity
  8
0
  6
ByBlock
 62
     0
100
AcDbLine
 10
99.18645300000001
 20
53.12621700000001
 30
0.0
 11
99.18645300000001
 21
71.226217
 31
0.0
  0
LINE
  5
744
330
6E3
100
AcDbEntity
  8
0
  6
ByBlock
 62
     0
100
AcDbLine
 10
86.186453
 20
71.026217
 30
0.0
 11
86.286453
 21
71.026217
 31
0.0
  0
LINE
  5
745
330
6E3
100
AcDbEntity
  8
0
  6
ByBlock
 62
     0
100
AcDbLine
 10
97.186453
 20
71.026217
 30
0.0
 11
97.086453
 21
71.026217
 31
0.0
  0
MTEXT
  5
746
330
6E3
100
AcDbEntity
  8
0
  6
ByBlock
 62
     0
100
AcDbMText
 10
92.186453
 20
71.026217
 30
0.0
 40
10.0
 41
0.0
 71
     5
 72
     1
  1
\A1;15
  7
BIGFONT
 73
     1
 44
1.0
  0
SOLID
  5
747
330
6E3
100
AcDbEntity
  8
0
  6
ByBlock
 62
     0
100
AcDbTrace
 10
86.186453
 20
71.359551
 30
0.0
 11
86.186453
 21
70.69288399999999
 31
0.0
 12
84.18645299999999
 22
71.026217
 32
0.0
 13
84.18645299999999
 23
71.026217
 33
0.0
  0
SOLID
  5
748
330
6E3
100
AcDbEntity
  8
0
  6
ByBlock
 62
     0
100
AcDbTrace
 10
97.186453
 20
71.359551
 30
0.0
 11
97.186453
 21
70.69288399999999
 31
0.0
 12
99.18645300000001
 22
71.026217
 32
0.0
 13
99.18645300000001
 23
71.026217
 33
0.0
  0
POINT
  5
749
330
6E3
100
AcDbEntity
  8
DEFPOINTS
  6
ByBlock
 62
     0
100
AcDbPoint
 10
84.18645299999999
 20
52.72621700000001
 30
0.0
  0
POINT
  5
74A
330
6E3
100
AcDbEntity
  8
DEFPOINTS
  6
ByBlock
 62
     0
100
AcDbPoint
 10
99.18645300000001
 20
53.026217
 30
0.0
  0
POINT
  5
74B
330
6E3
100
AcDbEntity
  8
DEFPOINTS
  6
ByBlock
 62
     0
100
AcDbPoint
 10
99.18645300000001
 20
71.026217
 30
0.0
  0
ENDBLK
  5
74C
330
6E3
100
AcDbEntity
  8
0
100
AcDbBlockEnd
  0
BLOCK
  5
759
330
74D
100
AcDbEntity
  8
0
100
AcDbBlockBegin
  2
*D58
 70
     1
 10
0.0
 20
0.0
 30
0.0
  3
*D58
  1

  0
LINE
  5
74E
330
74D
100
AcDbEntity
  8
0
  6
ByBlock
 62
     0
100
AcDbLine
 10
128.15
 20
116.25
 30
0.0
 11
108.9
 21
116.25
 31
0.0
  0
LINE
  5
74F
330
74D
100
AcDbEntity
  8
0
  6
ByBlock
 62
     0
100
AcDbLine
 10
128.15
 20
114.7499999999999
 30
0.0
 11
108.9
 21
114.7499999999999
 31
0.0
  0
LINE
  5
750
330
74D
100
AcDbEntity
  8
0
  6
ByBlock
 62
     0
100
AcDbLine
 10
109.0999999999999
 20
112.7499999999999
 30
0.0
 11
109.0999999999999
 21
110.7499999999999
 31
0.0
  0
LINE
  5
751
330
74D
100
AcDbEntity
  8
0
  6
ByBlock
 62
     0
100
AcDbLine
 10
109.0999999999999
 20
118.25
 30
0.0
 11
109.0999999999999
 21
121.0
 31
0.0
  0
LINE
  5
752
330
74D
100
AcDbEntity
  8
0
  6
ByBlock
 62
     0
100
AcDbLine
 10
109.0999999999999
 20
121.0
 30
0.0
 11
111.0999999999999
 21
121.0
 31
0.0
  0
SOLID
  5
753
330
74D
100
AcDbEntity
  8
0
  6
ByBlock
 62
     0
100
AcDbTrace
 10
108.7666669999999
 20
112.7499999999999
 30
0.0
 11
109.4333329999999
 21
112.7499999999999
 31
0.0
 12
109.0999999999999
 22
114.7499999999999
 32
0.0
 13
109.0999999999999
 23
114.7499999999999
 33
0.0
  0
SOLID
  5
754
330
74D
100
AcDbEntity
  8
0
  6
ByBlock
 62
     0
100
AcDbTrace
 10
108.7666669999999
 20
118.25
 30
0.0
 11
109.4333329999999
 21
118.25
 31
0.0
 12
109.0999999999999
 22
116.25
 32
0.0
 13
109.0999999999999
 23
116.25
 33
0.0
  0
MTEXT
  5
755
330
74D
100
AcDbEntity
  8
0
  6
ByBlock
 62
     0
100
AcDbMText
 10
113.25
 20
121.0
 30
0.0
 40
3.5
 41
0.0
 71
     5
 72
     1
  1
\A1;1.5
 73
     1
 44
1.0
  0
POINT
  5
756
330
74D
100
AcDbEntity
  8
DEFPOINTS
  6
ByBlock
 62
     0
100
AcDbPoint
 10
128.2499999999999
 20
116.25
 30
0.0
  0
POINT
  5
757
330
74D
100
AcDbEntity
  8
DEFPOINTS
  6
ByBlock
 62
     0
100
AcDbPoint
 10
128.2499999999999
 20
114.7499999999999
 30
0.0
  0
POINT
  5
758
330
74D
100
AcDbEntity
  8
DEFPOINTS
  6
ByBlock
 62
     0
100
AcDbPoint
 10
109.0999999999999
 20
114.7499999999999
 30
0.0
  0
ENDBLK
  5
75A
330
74D
100
AcDbEntity
  8
0
100
AcDbBlockEnd
  0
BLOCK
  5
784
330
75B
100
AcDbEntity
  8
0
100
AcDbBlockBegin
  2
A$C549C4216
 70
     0
 10
0.0
 20
0.0
 30
0.0
  3
A$C549C4216
  1

  0
LINE
  5
75C
330
75B
100
AcDbEntity
  8
3
100
AcDbLine
 10
64.0
 20
8.25
 30
0.0
 11
48.0
 21
8.25
 31
0.0
  0
LINE
  5
75D
330
75B
100
AcDbEntity
  8
3
100
AcDbLine
 10
64.0
 20
2.25
 30
0.0
 11
48.0
 21
2.25
 31
0.0
  0
LINE
  5
75E
330
75B
100
AcDbEntity
  8
1
100
AcDbLine
 10
41.74999999999999
 20
5.25
 30
0.0
 11
66.0
 21
5.25
 31
0.0
  0
LINE
  5
75F
330
75B
100
AcDbEntity
  8
1
100
AcDbLine
 10
5.5
 20
10.25
 30
0.0
 11
5.5
 21
0.0
 31
0.0
  0
CIRCLE
  5
760
330
75B
100
AcDbEntity
  8
3
100
AcDbCircle
 10
5.5
 20
5.25
 30
0.0
 40
4.0
  0
LINE
  5
761
330
75B
100
AcDbEntity
  8
3
100
AcDbLine
 10
9.429059
 20
4.5
 30
0.0
 11
1.570942
 21
4.5
 31
0.0
  0
LINE
  5
762
330
75B
100
AcDbEntity
  8
3
100
AcDbLine
 10
9.429059
 20
6.0
 30
0.0
 11
1.570942
 21
6.0
 31
0.0
  0
LINE
  5
763
330
75B
100
AcDbEntity
  8
1
100
AcDbLine
 10
0.0
 20
5.25
 30
0.0
 11
11.25
 21
5.25
 31
0.0
  0
DIMENSION
  5
764
330
75B
100
AcDbEntity
  8
0
100
AcDbDimension
  2
*D58
 10
25.85
 20
4.5
 30
0.0
 11
30.0
 21
10.74999999999999
 31
0.0
 12
-83.25000000000001
 22
-110.25
 32
0.0
 70
   128
 71
     5
 42
-1.0
  3
STANDARD
100
AcDbAlignedDimension
 13
45.0
 23
6.0
 33
0.0
 14
45.0
 24
4.5
 34
0.0
 50
90.0
100
AcDbRotatedDimension
1001
ACAD
1000
DSTYLE
1002
{
1070
    78
1070
     8
1070
   288
1070
     1
1070
   284
1070
     8
1070
   140
1040
2.0
1070
    73
1070
     0
1070
   272
1070
     2
1070
   147
1040
0.1
1070
    42
1040
0.1
1070
    44
1040
0.2
1070
    43
1040
0.4
1070
   271
1070
     2
1070
   141
1040
0.1
1070
    41
1040
2.0
1002
}
  0
LINE
  5
765
330
75B
100
AcDbEntity
  8
3
100
AcDbLine
 10
45.0
 20
1.25
 30
0.0
 11
45.0
 21
4.5
 31
0.0
  0
LINE
  5
766
330
75B
100
AcDbEntity
  8
3
100
AcDbLine
 10
48.0
 20
5.25
 30
0.0
 11
48.0
 21
1.25
 31
0.0
  0
LINE
  5
767
330
75B
100
AcDbEntity
  8
3
100
AcDbLine
 10
48.0
 20
1.25
 30
0.0
 11
45.0
 21
1.25
 31
0.0
  0
LINE
  5
768
330
75B
100
AcDbEntity
  8
3
100
AcDbLine
 10
45.0
 20
6.0
 30
0.0
 11
46.0
 21
6.0
 31
0.0
  0
LINE
  5
769
330
75B
100
AcDbEntity
  8
3
100
AcDbLine
 10
48.0
 20
9.25
 30
0.0
 11
45.0
 21
9.25
 31
0.0
  0
LINE
  5
76A
330
75B
100
AcDbEntity
  8
3
100
AcDbLine
 10
45.0
 20
4.5
 30
0.0
 11
46.0
 21
4.5
 31
0.0
  0
LINE
  5
76B
330
75B
100
AcDbEntity
  8
3
100
AcDbLine
 10
45.0
 20
9.25
 30
0.0
 11
45.0
 21
6.0
 31
0.0
  0
LINE
  5
76C
330
75B
100
AcDbEntity
  8
3
100
AcDbLine
 10
48.0
 20
5.25
 30
0.0
 11
48.0
 21
9.25
 31
0.0
  0
LINE
  5
76D
330
75B
100
AcDbEntity
  8
3
100
AcDbLine
 10
46.0
 20
6.0
 30
0.0
 11
46.0
 21
5.25
 31
0.0
  0
LINE
  5
76E
330
75B
100
AcDbEntity
  8
3
100
AcDbLine
 10
46.0
 20
4.5
 30
0.0
 11
46.0
 21
5.25
 31
0.0
  0
LINE
  5
76F
330
75B
100
AcDbEntity
  8
3
100
AcDbLine
 10
64.0
 20
5.25
 30
0.0
 11
64.0
 21
2.25
 31
0.0
  0
LINE
  5
770
330
75B
100
AcDbEntity
  8
3
100
AcDbLine
 10
72.0
 20
7.75
 30
0.0
 11
64.0
 21
7.75
 31
0.0
  0
LINE
  5
771
330
75B
100
AcDbEntity
  8
3
100
AcDbLine
 10
72.75
 20
7.0
 30
0.0
 11
64.75
 21
7.0
 31
0.0
  0
LINE
  5
772
330
75B
100
AcDbEntity
  8
3
100
AcDbLine
 10
72.75
 20
3.5
 30
0.0
 11
64.75
 21
3.5
 31
0.0
  0
LINE
  5
773
330
75B
100
AcDbEntity
  8
3
100
AcDbLine
 10
72.0
 20
2.75
 30
0.0
 11
64.0
 21
2.75
 31
0.0
  0
LINE
  5
774
330
75B
100
AcDbEntity
  8
1
100
AcDbLine
 10
66.25
 20
5.25
 30
0.0
 11
74.5
 21
5.25
 31
0.0
  0
LINE
  5
775
330
75B
100
AcDbEntity
  8
3
100
AcDbLine
 10
64.75
 20
5.25
 30
0.0
 11
64.75
 21
7.75
 31
0.0
  0
LINE
  5
776
330
75B
100
AcDbEntity
  8
3
100
AcDbLine
 10
64.0
 20
5.25
 30
0.0
 11
64.0
 21
8.25
 31
0.0
  0
LINE
  5
777
330
75B
100
AcDbEntity
  8
3
100
AcDbLine
 10
64.75
 20
5.25
 30
0.0
 11
64.75
 21
2.75
 31
0.0
  0
LINE
  5
778
330
75B
100
AcDbEntity
  8
3
100
AcDbLine
 10
73.0
 20
5.25
 30
0.0
 11
73.0
 21
6.75
 31
0.0
  0
LINE
  5
779
330
75B
100
AcDbEntity
  8
3
100
AcDbLine
 10
72.0
 20
5.25
 30
0.0
 11
72.0
 21
7.75
 31
0.0
  0
LINE
  5
77A
330
75B
100
AcDbEntity
  8
3
100
AcDbLine
 10
72.0
 20
5.25
 30
0.0
 11
72.0
 21
2.75
 31
0.0
  0
LINE
  5
77B
330
75B
100
AcDbEntity
  8
3
100
AcDbLine
 10
73.0
 20
3.75
 30
0.0
 11
72.0
 21
2.75
 31
0.0
  0
LINE
  5
77C
330
75B
100
AcDbEntity
  8
3
100
AcDbLine
 10
73.0
 20
5.25
 30
0.0
 11
73.0
 21
3.75
 31
0.0
  0
LINE
  5
77D
330
75B
100
AcDbEntity
  8
3
100
AcDbLine
 10
73.0
 20
6.75
 30
0.0
 11
72.0
 21
7.75
 31
0.0
  0
CIRCLE
  5
77E
330
75B
100
AcDbEntity
  8
3
100
AcDbCircle
 10
110.4999999999999
 20
5.25
 30
0.0
 40
3.0
  0
CIRCLE
  5
77F
330
75B
100
AcDbEntity
  8
3
100
AcDbCircle
 10
110.4999999999999
 20
5.25
 30
0.0
 40
4.0
  0
LINE
  5
780
330
75B
100
AcDbEntity
  8
1
100
AcDbLine
 10
110.4999999999999
 20
10.25
 30
0.0
 11
110.4999999999999
 21
0.0
 31
0.0
  0
CIRCLE
  5
781
330
75B
100
AcDbEntity
  8
3
100
AcDbCircle
 10
110.4999999999999
 20
5.25
 30
0.0
 40
1.75
  0
CIRCLE
  5
782
330
75B
100
AcDbEntity
  8
3
100
AcDbCircle
 10
110.4999999999999
 20
5.25
 30
0.0
 40
2.5
  0
LINE
  5
783
330
75B
100
AcDbEntity
  8
1
100
AcDbLine
 10
105.0
 20
5.25
 30
0.0
 11
116.25
 21
5.25
 31
0.0
  0
ENDBLK
  5
785
330
75B
100
AcDbEntity
  8
0
100
AcDbBlockEnd
  0
BLOCK
  5
7BD
330
7AF
100
AcDbEntity
  8
0
100
AcDbBlockBegin
  2
*D60
 70
     1
 10
0.0
 20
0.0
 30
0.0
  3
*D60
  1

  0
LINE
  5
7BE
330
7AF
100
AcDbEntity
  8
0
  6
ByBlock
 62
     0
100
AcDbLine
 10
79.52036200000001
 20
82.43809699999999
 30
0.0
 11
60.270362
 21
82.43809699999999
 31
0.0
  0
LINE
  5
7BF
330
7AF
100
AcDbEntity
  8
0
  6
ByBlock
 62
     0
100
AcDbLine
 10
79.52036200000001
 20
80.93809699999999
 30
0.0
 11
60.270362
 21
80.93809699999999
 31
0.0
  0
LINE
  5
7C0
330
7AF
100
AcDbEntity
  8
0
  6
ByBlock
 62
     0
100
AcDbLine
 10
60.470362
 20
84.438097
 30
0.0
 11
60.470362
 21
86.438097
 31
0.0
  0
LINE
  5
7C1
330
7AF
100
AcDbEntity
  8
0
  6
ByBlock
 62
     0
100
AcDbLine
 10
60.470362
 20
78.938097
 30
0.0
 11
60.470362
 21
76.938097
 31
0.0
  0
MTEXT
  5
7C2
330
7AF
100
AcDbEntity
  8
0
  6
ByBlock
 62
     0
100
AcDbMText
 10
64.620362
 20
87.188096
 30
0.0
 40
10.0
 41
0.0
 71
     5
 72
     1
  1
\A1;1.5
  7
BIGFONT
 73
     1
 44
1.0
  0
LINE
  5
7C3
330
7AF
100
AcDbEntity
  8
0
  6
ByBlock
 62
     0
100
AcDbLine
 10
60.470362
 20
82.43809699999999
 30
0.0
 11
60.470362
 21
80.93809699999999
 31
0.0
  0
SOLID
  5
7C4
330
7AF
100
AcDbEntity
  8
0
  6
ByBlock
 62
     0
100
AcDbTrace
 10
60.137028
 20
84.438097
 30
0.0
 11
60.80369499999999
 21
84.438097
 31
0.0
 12
60.470362
 22
82.43809699999999
 32
0.0
 13
60.470362
 23
82.43809699999999
 33
0.0
  0
SOLID
  5
7C5
330
7AF
100
AcDbEntity
  8
0
  6
ByBlock
 62
     0
100
AcDbTrace
 10
60.137028
 20
78.938097
 30
0.0
 11
60.80369499999999
 21
78.938097
 31
0.0
 12
60.470362
 22
80.93809699999999
 32
0.0
 13
60.470362
 23
80.93809699999999
 33
0.0
  0
POINT
  5
7C6
330
7AF
100
AcDbEntity
  8
DEFPOINTS
  6
ByBlock
 62
     0
100
AcDbPoint
 10
79.620362
 20
82.43809699999999
 30
0.0
  0
POINT
  5
7C7
330
7AF
100
AcDbEntity
  8
DEFPOINTS
  6
ByBlock
 62
     0
100
AcDbPoint
 10
79.620362
 20
80.93809699999999
 30
0.0
  0
POINT
  5
7C8
330
7AF
100
AcDbEntity
  8
DEFPOINTS
  6
ByBlock
 62
     0
100
AcDbPoint
 10
60.470362
 20
80.93809699999999
 30
0.0
  0
ENDBLK
  5
7C9
330
7AF
100
AcDbEntity
  8
0
100
AcDbBlockEnd
  0
BLOCK
  5
892
330
891
100
AcDbEntity
  8
0
100
AcDbBlockBegin
  2
*U61
 70
     1
 10
0.0
 20
0.0
 30
0.0
  3
*U61
  1

  0
ENDBLK
  5
893
330
891
100
AcDbEntity
  8
0
100
AcDbBlockEnd
  0
ENDSEC
  0
SECTION
  2
ENTITIES
  0
CIRCLE
  5
664
330
216
100
AcDbEntity
  8
3
100
AcDbCircle
 10
49.436453
 20
47.52621699999999
 30
0.0
 40
7.0
  0
LINE
  5
666
330
216
100
AcDbEntity
  8
1
100
AcDbLine
 10
61.436453
 20
47.52621699999999
 30
0.0
 11
37.686453
 21
47.52621699999999
 31
0.0
  0
LINE
  5
668
330
216
100
AcDbEntity
  8
1
100
AcDbLine
 10
49.436453
 20
57.026217
 30
0.0
 11
49.436453
 21
38.27621699999999
 31
0.0
  0
LINE
  5
66C
330
216
100
AcDbEntity
  8
1
100
AcDbLine
 10
140.686453
 20
47.52621699999999
 30
0.0
 11
116.9364529999999
 21
47.52621699999999
 31
0.0
  0
LINE
  5
672
330
216
100
AcDbEntity
  8
3
100
AcDbLine
 10
80.18645300000001
 20
40.52621699999999
 30
0.0
 11
98.186453
 21
40.52621699999999
 31
0.0
  0
LINE
  5
674
330
216
100
AcDbEntity
  8
3
100
AcDbLine
 10
80.18645300000001
 20
54.526217
 30
0.0
 11
98.186453
 21
54.526217
 31
0.0
  0
LINE
  5
675
330
216
100
AcDbEntity
  8
1
100
AcDbLine
 10
76.436453
 20
47.52621699999999
 30
0.0
 11
102.1864529999999
 21
47.52621699999999
 31
0.0
  0
LINE
  5
677
330
216
100
AcDbEntity
  8
3
100
AcDbLine
 10
79.186453
 20
53.526217
 30
0.0
 11
79.186453
 21
47.52621699999999
 31
0.0
  0
LINE
  5
679
330
216
100
AcDbEntity
  8
3
100
AcDbLine
 10
79.186453
 20
41.526217
 30
0.0
 11
79.186453
 21
47.52621699999999
 31
0.0
  0
ARC
  5
67B
330
216
100
AcDbEntity
  8
3
100
AcDbCircle
 10
80.18645300000001
 20
41.526217
 30
0.0
 40
1.0
100
AcDbArc
 50
180.0
 51
270.0
  0
ARC
  5
67E
330
216
100
AcDbEntity
  8
3
100
AcDbCircle
 10
80.18645300000001
 20
53.526217
 30
0.0
 40
1.0
100
AcDbArc
 50
90.0
 51
180.0
  0
LINE
  5
680
330
216
100
AcDbEntity
  8
3
100
AcDbLine
 10
99.18645300000001
 20
51.62621699999999
 30
0.0
 11
99.18645300000001
 21
47.52621699999999
 31
0.0
  0
LINE
  5
681
330
216
100
AcDbEntity
  8
3
100
AcDbLine
 10
99.18645300000001
 20
43.426217
 30
0.0
 11
99.18645300000001
 21
47.52621699999999
 31
0.0
  0
LINE
  5
682
330
216
100
AcDbEntity
  8
3
100
AcDbLine
 10
99.18645300000001
 20
41.526217
 30
0.0
 11
99.18645300000001
 21
43.426217
 31
0.0
  0
ARC
  5
683
330
216
100
AcDbEntity
  8
3
100
AcDbCircle
 10
98.186453
 20
41.526217
 30
0.0
 40
1.0
100
AcDbArc
 50
270.0
 51
0.0
  0
ARC
  5
684
330
216
100
AcDbEntity
  8
3
100
AcDbCircle
 10
98.186453
 20
53.526217
 30
0.0
 40
1.0
100
AcDbArc
 50
0.0
 51
90.0
  0
LINE
  5
685
330
216
100
AcDbEntity
  8
3
100
AcDbLine
 10
99.18645300000001
 20
53.526217
 30
0.0
 11
99.18645300000001
 21
51.62621699999999
 31
0.0
  0
CIRCLE
  5
686
330
216
100
AcDbEntity
  8
3
100
AcDbCircle
 10
128.686453
 20
47.52621699999999
 30
0.0
 40
7.0
  0
LINE
  5
687
330
216
100
AcDbEntity
  8
1
100
AcDbLine
 10
128.686453
 20
57.026217
 30
0.0
 11
128.686453
 21
38.27621699999999
 31
0.0
  0
LINE
  5
787
330
216
100
AcDbEntity
  8
3
100
AcDbLine
 10
100.1864529999999
 20
50.52621699999999
 30
0.0
 11
99.18645300000001
 21
50.52621699999999
 31
0.0
  0
LINE
  5
788
330
216
100
AcDbEntity
  8
3
100
AcDbLine
 10
100.1864529999999
 20
44.52621699999999
 30
0.0
 11
99.18645300000001
 21
44.52621699999999
 31
0.0
  0
CIRCLE
  5
78B
330
216
100
AcDbEntity
  8
3
100
AcDbCircle
 10
49.436453
 20
47.52621699999999
 30
0.0
 40
4.0
  0
LINE
  5
78C
330
216
100
AcDbEntity
  8
3
100
AcDbLine
 10
53.365511
 20
46.77621699999999
 30
0.0
 11
45.507395
 21
46.77621699999999
 31
0.0
  0
LINE
  5
78D
330
216
100
AcDbEntity
  8
3
100
AcDbLine
 10
53.365511
 20
48.27621699999999
 30
0.0
 11
45.507395
 21
48.27621699999999
 31
0.0
  0
LINE
  5
79A
330
216
100
AcDbEntity
  8
3
100
AcDbLine
 10
100.1864529999999
 20
47.52621699999999
 30
0.0
 11
100.1864529999999
 21
44.52621699999999
 31
0.0
  0
LINE
  5
79F
330
216
100
AcDbEntity
  8
1
100
AcDbLine
 10
102.4364529999999
 20
47.52621699999999
 30
0.0
 11
110.6864529999999
 21
47.52621699999999
 31
0.0
  0
LINE
  5
7A1
330
216
100
AcDbEntity
  8
3
100
AcDbLine
 10
100.1864529999999
 20
47.52621699999999
 30
0.0
 11
100.1864529999999
 21
50.52621699999999
 31
0.0
  0
CIRCLE
  5
7A9
330
216
100
AcDbEntity
  8
3
100
AcDbCircle
 10
128.686453
 20
47.52621699999999
 30
0.0
 40
3.0
  0
CIRCLE
  5
7AA
330
216
100
AcDbEntity
  8
3
100
AcDbCircle
 10
128.686453
 20
47.52621699999999
 30
0.0
 40
4.0
  0
CIRCLE
  5
7AC
330
216
100
AcDbEntity
  8
3
100
AcDbCircle
 10
128.686453
 20
47.52621699999999
 30
0.0
 40
1.75
  0
CIRCLE
  5
7AD
330
216
100
AcDbEntity
  8
3
100
AcDbCircle
 10
128.686453
 20
47.52621699999999
 30
0.0
 40
2.5
  0
LINE
  5
7CA
330
216
100
AcDbEntity
  8
2
100
AcDbLine
 10
84.18645299999999
 20
51.526217
 30
0.0
 11
79.186453
 21
51.526217
 31
0.0
  0
LINE
  5
7CB
330
216
100
AcDbEntity
  8
2
100
AcDbLine
 10
84.18645299999999
 20
43.52621699999999
 30
0.0
 11
79.186453
 21
43.52621699999999
 31
0.0
  0
LINE
  5
7CC
330
216
100
AcDbEntity
  8
2
100
AcDbLine
 10
81.186453
 20
51.526217
 30
0.0
 11
81.186453
 21
48.27621699999999
 31
0.0
  0
LINE
  5
7CD
330
216
100
AcDbEntity
  8
2
100
AcDbLine
 10
81.186453
 20
48.27621699999999
 30
0.0
 11
82.186453
 21
48.27621699999999
 31
0.0
  0
LINE
  5
7CE
330
216
100
AcDbEntity
  8
2
100
AcDbLine
 10
82.186453
 20
48.27621699999999
 30
0.0
 11
82.186453
 21
46.77621699999999
 31
0.0
  0
LINE
  5
7CF
330
216
100
AcDbEntity
  8
2
100
AcDbLine
 10
82.186453
 20
46.77621699999999
 30
0.0
 11
81.186453
 21
46.77621699999999
 31
0.0
  0
LINE
  5
7D0
330
216
100
AcDbEntity
  8
2
100
AcDbLine
 10
81.186453
 20
46.77621699999999
 30
0.0
 11
81.186453
 21
43.52621699999999
 31
0.0
  0
LINE
  5
7D1
330
216
100
AcDbEntity
  8
2
100
AcDbLine
 10
84.18645299999999
 20
43.52621699999999
 30
0.0
 11
84.18645299999999
 21
44.52621699999999
 31
0.0
  0
LINE
  5
7D2
330
216
100
AcDbEntity
  8
2
100
AcDbLine
 10
84.18645299999999
 20
44.52621699999999
 30
0.0
 11
99.18645300000001
 21
44.52621699999999
 31
0.0
  0
LINE
  5
7D3
330
216
100
AcDbEntity
  8
2
100
AcDbLine
 10
84.18645299999999
 20
44.52621699999999
 30
0.0
 11
84.18645299999999
 21
51.526217
 31
0.0
  0
LINE
  5
7D4
330
216
100
AcDbEntity
  8
2
100
AcDbLine
 10
84.18645299999999
 20
50.52621699999999
 30
0.0
 11
99.18645300000001
 21
50.52621699999999
 31
0.0
  0
LINE
  5
8CB
330
216
100
AcDbEntity
  8
2
100
AcDbLine
 10
100.1864529999999
 20
47.52621699999999
 30
0.0
 11
100.1864529999999
 21
50.02621699999999
 31
0.0
  0
LINE
  5
8CC
330
216
100
AcDbEntity
  8
2
100
AcDbLine
 10
100.1864529999999
 20
50.02621699999999
 30
0.0
 11
91.186453
 21
50.02621699999999
 31
0.0
  0
LINE
  5
8CD
330
216
100
AcDbEntity
  8
2
100
AcDbLine
 10
91.186453
 20
50.02621699999999
 30
0.0
 11
91.186453
 21
45.02621699999999
 31
0.0
  0
LINE
  5
8CE
330
216
100
AcDbEntity
  8
2
100
AcDbLine
 10
91.186453
 20
45.02621699999999
 30
0.0
 11
100.1864529999999
 21
45.02621699999999
 31
0.0
  0
LINE
  5
8CF
330
216
100
AcDbEntity
  8
2
100
AcDbLine
 10
100.1864529999999
 20
45.02621699999999
 30
0.0
 11
100.1864529999999
 21
45.626217
 31
0.0
  0
LINE
  5
8D0
330
216
100
AcDbEntity
  8
2
100
AcDbLine
 10
100.1864529999999
 20
45.626217
 30
0.0
 11
91.186453
 21
45.626217
 31
0.0
  0
LINE
  5
8D1
330
216
100
AcDbEntity
  8
2
100
AcDbLine
 10
100.1864529999999
 20
50.02621699999999
 30
0.0
 11
100.1864529999999
 21
49.426217
 31
0.0
  0
LINE
  5
8D2
330
216
100
AcDbEntity
  8
2
100
AcDbLine
 10
100.1864529999999
 20
49.426217
 30
0.0
 11
91.186453
 21
49.426217
 31
0.0
  0
ENDSEC
  0
SECTION
  2
OBJECTS
  0
DICTIONARY
  5
20B
330
0
100
AcDbDictionary
281
     1
  3
ACAD_GROUP
350
20C
  3
ACAD_LAYOUT
350
7DA
  3
ACAD_MLINESTYLE
350
219
  3
ACAD_PLOTSETTINGS
350
7DB
  3
ACAD_PLOTSTYLENAME
350
7D8
  3
ACDBVARIABLEDICTIONARY
350
228
  3
AcmDictionary
350
89B
  3
AMG
350
7E1
  3
AMGSNAPSETTINGS
350
8C4
  3
DWGPROPS
350
89E
  3
MAPISURF_MODULE
350
86E
  0
DICTIONARY
  5
8B8
330
216
100
AcDbDictionary
280
     1
281
     1
  3
ACAD_INDEX
360
8B9
  0
DICTIONARY
  5
20C
102
{ACAD_REACTORS
330
20B
102
}
330
20B
100
AcDbDictionary
281
     1
  0
DICTIONARY
  5
7DA
102
{ACAD_REACTORS
330
20B
102
}
330
20B
100
AcDbDictionary
281
     1
  3
Model
350
7DC
  3
ﾚｲｱｳﾄ1
350
7DD
  0
DICTIONARY
  5
219
102
{ACAD_REACTORS
330
20B
102
}
330
20B
100
AcDbDictionary
281
     1
  3
STANDARD
350
21A
  0
DICTIONARY
  5
7DB
102
{ACAD_REACTORS
330
20B
102
}
330
20B
100
AcDbDictionary
281
     1
  0
ACDBDICTIONARYWDFLT
  5
7D8
102
{ACAD_REACTORS
330
20B
102
}
330
20B
100
AcDbDictionary
281
     1
  3
Normal
350
7D9
100
AcDbDictionaryWithDefault
340
7D9
  0
DICTIONARY
  5
228
102
{ACAD_REACTORS
330
20B
102
}
330
20B
100
AcDbDictionary
281
     1
  3
DIMADEC
350
229
  3
DIMASSOC
350
8C1
  3
INDEXCTL
350
8C0
  0
DICTIONARY
  5
89B
102
{ACAD_REACTORS
330
20B
102
}
330
20B
100
AcDbDictionary
281
     1
  3
AcmBOMDATA
350
89C
  0
DICTIONARY
  5
7E1
102
{ACAD_REACTORS
330
20B
102
}
330
20B
100
AcDbDictionary
281
     1
  3
AcMgSettings
350
7E2
  3
AMGLAYCFG
350
8A8
  0
DICTIONARY
  5
8C4
102
{ACAD_REACTORS
330
20B
102
}
330
20B
100
AcDbDictionary
281
     1
  3
DIMENSION
350
8C9
  3
FEA
350
8C8
  3
HATCH (1)
350
8C5
  3
HATCH (2)
350
8C6
  3
SIMPLE WELD
350
8CA
  3
SYMBOLS
350
8C7
  0
XRECORD
  5
89E
102
{ACAD_REACTORS
330
20B
102
}
330
20B
100
AcDbXrecord
280
     1
  1
DWGPROPS COOKIE
  2

  3

  4

  6

  7

  8

  9

300
AmdtFileType=84
301
=
302
=
303
=
304
=
305
=
306
=
307
=
308
=
309
=
 40
0.0150604050925926
 41
2450870.978377083
 42
2453593.688127349
  1

 90
        1
  0
DICTIONARY
  5
8B9
102
{ACAD_REACTORS
330
8B8
102
}
330
8B8
100
AcDbDictionary
281
     1
  3
*A1
350
8BA
  0
LAYOUT
  5
7DC
102
{ACAD_REACTORS
330
7DA
102
}
330
7DA
100
AcDbPlotSettings
  1

  2
\\KONISHIDENXP\SHARP MX-2700FG
  4

  6

 40
0.0
 41
0.0
 42
0.0
 43
0.0
 44
0.0
 45
0.0
 46
0.0
 47
0.0
 48
0.0
 49
0.0
140
0.0
141
0.0
142
1.0
143
1.0
 70
  1712
 72
     0
 73
     0
 74
     0
  7

 75
     0
147
1.0
148
0.0
149
0.0
100
AcDbLayout
  1
Model
 70
     1
 71
     0
 10
0.0
 20
0.0
 11
12.0
 21
9.0
 12
0.0
 22
0.0
 32
0.0
 14
0.0
 24
0.0
 34
0.0
 15
0.0
 25
0.0
 35
0.0
146
0.0
 13
0.0
 23
0.0
 33
0.0
 16
1.0
 26
0.0
 36
0.0
 17
0.0
 27
1.0
 37
0.0
 76
     0
330
216
  0
LAYOUT
  5
7DD
102
{ACAD_REACTORS
330
7DA
102
}
330
7DA
100
AcDbPlotSettings
  1

  2
\\KONISHIDENXP\SHARP MX-2700FG
  4

  6

 40
0.0
 41
0.0
 42
0.0
 43
0.0
 44
0.0
 45
0.0
 46
0.0
 47
0.0
 48
0.0
 49
0.0
140
0.0
141
0.0
142
1.0
143
1.0
 70
   688
 72
     0
 73
     0
 74
     5
  7

 75
    16
147
1.0
148
0.0
149
0.0
100
AcDbLayout
  1
ﾚｲｱｳﾄ1
 70
     1
 71
     1
 10
0.0
 20
0.0
 11
12.0
 21
9.0
 12
0.0
 22
0.0
 32
0.0
 14
1.000000000000000E+20
 24
1.000000000000000E+20
 34
1.000000000000000E+20
 15
-1.000000000000000E+20
 25
-1.000000000000000E+20
 35
-1.000000000000000E+20
146
0.0
 13
0.0
 23
0.0
 33
0.0
 16
1.0
 26
0.0
 36
0.0
 17
0.0
 27
1.0
 37
0.0
 76
     0
330
213
  0
MLINESTYLE
  5
21A
102
{ACAD_REACTORS
330
219
102
}
330
219
100
AcDbMlineStyle
  2
STANDARD
 70
     0
  3

 62
   256
 51
90.0
 52
90.0
 71
     2
 49
0.5
 62
   256
  6
BYLAYER
 49
-0.5
 62
   256
  6
BYLAYER
  0
ACDBPLACEHOLDER
  5
7D9
102
{ACAD_REACTORS
330
7D8
102
}
330
7D8
  0
DICTIONARYVAR
  5
229
102
{ACAD_REACTORS
330
228
102
}
330
228
100
DictionaryVariables
280
     0
  1
0
  0
DICTIONARYVAR
  5
8C1
102
{ACAD_REACTORS
330
228
102
}
330
228
100
DictionaryVariables
280
     0
  1
1
  0
DICTIONARYVAR
  5
8C0
102
{ACAD_REACTORS
330
228
102
}
330
228
100
DictionaryVariables
280
     0
  1
1
  0
ACMDATADICTIONARY
  5
89C
102
{ACAD_REACTORS
330
89B
102
}
330
89B
100
AcDbDictionary
281
     1
  3
*A1
350
89D
100
AcmDataDictionary
  0
DICTIONARY
  5
7E2
102
{ACAD_REACTORS
330
7E1
102
}
330
7E1
100
AcDbDictionary
281
     1
  3
DWGSETTINGS
350
7E3
  0
ACAMGFILTERDAT
  5
8C9
102
{ACAD_REACTORS
330
8C4
102
}
330
8C4
100
AcAmgFilterDat
 70
    15
  1
DIMENSION,AMDT_*_DIM
  2
*
  3
*
  4
*
  5
*
290
     1
  0
ACAMGFILTERDAT
  5
8C8
102
{ACAD_REACTORS
330
8C4
102
}
330
8C4
100
AcAmgFilterDat
 70
    15
  1
*
  2
AM_FEA-AM_*
  3
*
  4
*
  5
*
290
     1
  0
ACAMGFILTERDAT
  5
8C5
102
{ACAD_REACTORS
330
8C4
102
}
330
8C4
100
AcAmgFilterDat
 70
    15
  1
HATCH
  2
*
  3
*
  4
*
  5
*
290
     1
  0
ACAMGFILTERDAT
  5
8C6
102
{ACAD_REACTORS
330
8C4
102
}
330
8C4
100
AcAmgFilterDat
 70
    15
  1
LINE
  2
8,8N,*-8,*-8N,AM_8,AM_8N,*-AM_8,*-AM_8N
  3
*
  4
*
  5
INSERT,STDPART2D
290
     1
  0
ACAMGFILTERDAT
  5
8CA
102
{ACAD_REACTORS
330
8C4
102
}
330
8C4
100
AcAmgFilterDat
 70
    15
  1
ARC
  2
AM_5
  3
*
  4
2
  5
INSERT
290
     0
  0
ACAMGFILTERDAT
  5
8C7
102
{ACAD_REACTORS
330
8C4
102
}
330
8C4
100
AcAmgFilterDat
 70
    15
  1
ACMFCFRAME,ACMDATUMTARGET,ACMDATUMID,ACMWELDSYM,ACMSURFSYM,ACMFEATID,ACMPARTREF,ACMBALLOON,AMDTEDGESYM,AMGSCREWCALCTABLE
  2
*
  3
*
  4
*
  5
*
290
     1
  0
LAYER_INDEX
  5
8BA
102
{ACAD_REACTORS
330
8B9
102
}
330
8B9
100
AcDbIndex
 40
2456532.592526215
100
AcDbLayerIndex
  8
0
360
8BB
 90
        0
  8
1
360
8BC
 90
        6
  8
2
360
8BD
 90
       19
  8
3
360
8BE
 90
       25
  8
DEFPOINTS
360
8BF
 90
        0
  0
ACMDATAENTRYBLOCK
  5
89D
102
{ACAD_REACTORS
330
89C
102
}
330
89C
100
AcmDataEntry
100
AcmDataEntryBlock
  0
IDBUFFER
  5
8BB
330
0
100
AcDbIdBuffer
  0
IDBUFFER
  5
8BC
330
0
100
AcDbIdBuffer
330
666
330
668
330
66C
330
675
330
687
330
79F
  0
IDBUFFER
  5
8BD
330
0
100
AcDbIdBuffer
330
8D0
330
8D1
330
8D2
330
7CA
330
7CB
330
7CC
330
7CD
330
7CE
330
7CF
330
7D0
330
7D1
330
7D2
330
7D3
330
7D4
330
8CB
330
8CC
330
8CD
330
8CE
330
8CF
  0
IDBUFFER
  5
8BE
330
0
100
AcDbIdBuffer
330
78B
330
78C
330
78D
330
79A
330
7AD
330
7AC
330
7AA
330
7A9
330
7A1
330
664
330
672
330
674
330
677
330
679
330
67B
330
67E
330
680
330
681
330
682
330
683
330
684
330
685
330
686
330
787
330
788
  0
IDBUFFER
  5
8BF
330
0
100
AcDbIdBuffer
  0
ENDSEC
  0
EOF
