  0
SECTION
  2
HEADER
  9
$ACADVER
  1
AC1014
  9
$ACADMAINTVER
 70
     0
  9
$DWGCODEPAGE
  3
ANSI_932
  9
$INSBASE
 10
0.0
 20
0.0
 30
0.0
  9
$EXTMIN
 10
-83.624438
 20
-0.309406
 30
0.0
  9
$EXTMAX
 10
439.152102
 20
298.690594
 30
20.001221
  9
$LIMMIN
 10
0.0
 20
0.0
  9
$LIMMAX
 10
350.0
 20
250.0
  9
$ORTHOMODE
 70
     1
  9
$REGENMODE
 70
     1
  9
$FILLMODE
 70
     1
  9
$QTEXTMODE
 70
     0
  9
$MIRRTEXT
 70
     1
  9
$DRAGMODE
 70
     2
  9
$LTSCALE
 40
1.0
  9
$OSMODE
 70
     0
  9
$ATTMODE
 70
     1
  9
$TEXTSIZE
 40
5.0
  9
$TRACEWID
 40
0.05
  9
$TEXTSTYLE
  7
BIGFONT
  9
$CLAYER
  8
0
  9
$CELTYPE
  6
BYLAYER
  9
$CECOLOR
 62
   256
  9
$CELTSCALE
 40
1.0
  9
$DELOBJ
 70
     1
  9
$DISPSILH
 70
     0
  9
$DIMSCALE
 40
1.0
  9
$DIMASZ
 40
0.18
  9
$DIMEXO
 40
0.0625
  9
$DIMDLI
 40
0.38
  9
$DIMRND
 40
0.0
  9
$DIMDLE
 40
0.0
  9
$DIMEXE
 40
0.18
  9
$DIMTP
 40
0.0
  9
$DIMTM
 40
0.0
  9
$DIMTXT
 40
0.18
  9
$DIMCEN
 40
0.09
  9
$DIMTSZ
 40
0.0
  9
$DIMTOL
 70
     0
  9
$DIMLIM
 70
     0
  9
$DIMTIH
 70
     1
  9
$DIMTOH
 70
     1
  9
$DIMSE1
 70
     0
  9
$DIMSE2
 70
     0
  9
$DIMTAD
 70
     0
  9
$DIMZIN
 70
     0
  9
$DIMBLK
  1

  9
$DIMASO
 70
     1
  9
$DIMSHO
 70
     1
  9
$DIMPOST
  1

  9
$DIMAPOST
  1

  9
$DIMALT
 70
     0
  9
$DIMALTD
 70
     2
  9
$DIMALTF
 40
25.4
  9
$DIMLFAC
 40
1.0
  9
$DIMTOFL
 70
     0
  9
$DIMTVP
 40
0.0
  9
$DIMTIX
 70
     0
  9
$DIMSOXD
 70
     0
  9
$DIMSAH
 70
     0
  9
$DIMBLK1
  1

  9
$DIMBLK2
  1

  9
$DIMSTYLE
  2
STANDARD
  9
$DIMCLRD
 70
     0
  9
$DIMCLRE
 70
     0
  9
$DIMCLRT
 70
     0
  9
$DIMTFAC
 40
1.0
  9
$DIMGAP
 40
0.09
  9
$DIMJUST
 70
     0
  9
$DIMSD1
 70
     0
  9
$DIMSD2
 70
     0
  9
$DIMTOLJ
 70
     1
  9
$DIMTZIN
 70
     0
  9
$DIMALTZ
 70
     0
  9
$DIMALTTZ
 70
     0
  9
$DIMFIT
 70
     5
  9
$DIMUPT
 70
     0
  9
$DIMUNIT
 70
     2
  9
$DIMDEC
 70
     4
  9
$DIMTDEC
 70
     4
  9
$DIMALTU
 70
     2
  9
$DIMALTTD
 70
     2
  9
$DIMTXSTY
  7
BIGFONT
  9
$DIMAUNIT
 70
     0
  9
$LUNITS
 70
     2
  9
$LUPREC
 70
     4
  9
$SKETCHINC
 40
0.1
  9
$FILLETRAD
 40
0.0
  9
$AUNITS
 70
     0
  9
$AUPREC
 70
     0
  9
$MENU
  1
acad
  9
$ELEVATION
 40
0.0
  9
$PELEVATION
 40
0.0
  9
$THICKNESS
 40
0.0
  9
$LIMCHECK
 70
     0
  9
$BLIPMODE
 70
     0
  9
$CHAMFERA
 40
0.0
  9
$CHAMFERB
 40
0.0
  9
$CHAMFERC
 40
0.0
  9
$CHAMFERD
 40
0.0
  9
$SKPOLY
 70
     0
  9
$TDCREATE
 40
2450870.104410764
  9
$TDUPDATE
 40
2453593.660246308
  9
$TDINDWG
 40
0.0051331019
  9
$TDUSRTIMER
 40
0.0051331019
  9
$USRTIMER
 70
     1
  9
$ANGBASE
 50
0.0
  9
$ANGDIR
 70
     0
  9
$PDMODE
 70
     0
  9
$PDSIZE
 40
0.0
  9
$PLINEWID
 40
0.0
  9
$COORDS
 70
     2
  9
$SPLFRAME
 70
     0
  9
$SPLINETYPE
 70
     6
  9
$SPLINESEGS
 70
     8
  9
$ATTDIA
 70
     0
  9
$ATTREQ
 70
     1
  9
$HANDLING
 70
     1
  9
$HANDSEED
  5
929
  9
$SURFTAB1
 70
     6
  9
$SURFTAB2
 70
     6
  9
$SURFTYPE
 70
     6
  9
$SURFU
 70
     6
  9
$SURFV
 70
     6
  9
$UCSNAME
  2

  9
$UCSORG
 10
0.0
 20
0.0
 30
0.0
  9
$UCSXDIR
 10
1.0
 20
0.0
 30
0.0
  9
$UCSYDIR
 10
0.0
 20
1.0
 30
0.0
  9
$PUCSNAME
  2

  9
$PUCSORG
 10
0.0
 20
0.0
 30
0.0
  9
$PUCSXDIR
 10
1.0
 20
0.0
 30
0.0
  9
$PUCSYDIR
 10
0.0
 20
1.0
 30
0.0
  9
$USERI1
 70
     0
  9
$USERI2
 70
     0
  9
$USERI3
 70
     0
  9
$USERI4
 70
     0
  9
$USERI5
 70
     0
  9
$USERR1
 40
0.0
  9
$USERR2
 40
0.0
  9
$USERR3
 40
0.0
  9
$USERR4
 40
0.0
  9
$USERR5
 40
0.0
  9
$WORLDVIEW
 70
     1
  9
$SHADEDGE
 70
     3
  9
$SHADEDIF
 70
    70
  9
$TILEMODE
 70
     1
  9
$MAXACTVP
 70
    16
  9
$PINSBASE
 10
0.0
 20
0.0
 30
0.0
  9
$PLIMCHECK
 70
     0
  9
$PEXTMIN
 10
1.000000E+20
 20
1.000000E+20
 30
1.000000E+20
  9
$PEXTMAX
 10
-1.000000E+20
 20
-1.000000E+20
 30
-1.000000E+20
  9
$PLIMMIN
 10
0.0
 20
0.0
  9
$PLIMMAX
 10
12.0
 20
9.0
  9
$UNITMODE
 70
     0
  9
$VISRETAIN
 70
     0
  9
$PLINEGEN
 70
     0
  9
$PSLTSCALE
 70
     1
  9
$TREEDEPTH
 70
  3020
  9
$PICKSTYLE
 70
     1
  9
$CMLSTYLE
  2
STANDARD
  9
$CMLJUST
 70
     0
  9
$CMLSCALE
 40
1.0
  9
$PROXYGRAPHICS
 70
     1
  9
$MEASUREMENT
 70
     0
  0
ENDSEC
  0
SECTION
  2
CLASSES
  0
CLASS
  1
DICTIONARYVAR
  2
AcDbDictionaryVar
  3
"AutoCAD"
 90
        0
280
     0
281
     0
  0
CLASS
  1
XRECORD
  2
AcDbXrecord
  3
"<Built In>"
 90
        0
280
     0
281
     0
  0
ENDSEC
  0
SECTION
  2
TABLES
  0
TABLE
  2
VPORT
  5
E7
100
AcDbSymbolTable
 70
     8
  0
VPORT
  5
928
100
AcDbSymbolTableRecord
100
AcDbViewportTableRecord
  2
*ACTIVE
 70
     0
 10
0.0
 20
0.0
 11
1.0
 21
1.0
 12
179.36803
 22
125.0
 13
0.0
 23
0.0
 14
5.0
 24
5.0
 15
10.0
 25
10.0
 16
0.0
 26
0.0
 36
1.0
 17
0.0
 27
0.0
 37
0.0
 40
500.0
 41
1.434944
 42
50.0
 43
0.0
 44
0.0
 50
0.0
 51
0.0
 71
     0
 72
   100
 73
     1
 74
     1
 75
     0
 76
     1
 77
     0
 78
     0
  0
ENDTAB
  0
TABLE
  2
LTYPE
  5
E4
100
AcDbSymbolTable
 70
     4
  0
LTYPE
  5
F0
100
AcDbSymbolTableRecord
100
AcDbLinetypeTableRecord
  2
BYBLOCK
 70
     0
  3

 72
    65
 73
     0
 40
0.0
  0
LTYPE
  5
F1
100
AcDbSymbolTableRecord
100
AcDbLinetypeTableRecord
  2
BYLAYER
 70
     0
  3

 72
    65
 73
     0
 40
0.0
  0
LTYPE
  5
F2
100
AcDbSymbolTableRecord
100
AcDbLinetypeTableRecord
  2
CONTINUOUS
 70
     0
  3
Solid line
 72
    65
 73
     0
 40
0.0
  0
LTYPE
  5
FC
100
AcDbSymbolTableRecord
100
AcDbLinetypeTableRecord
  2
TENSEN1
 70
     0
  3

 72
    65
 73
     2
 40
0.4
 49
0.3
 74
     0
 49
-0.1
 74
     0
  0
LTYPE
  5
FD
100
AcDbSymbolTableRecord
100
AcDbLinetypeTableRecord
  2
ITTEN1
 70
     0
  3

 72
    65
 73
     4
 40
8.2
 49
5.0
 74
     0
 49
-1.0
 74
     0
 49
1.2
 74
     0
 49
-1.0
 74
     0
  0
LTYPE
  5
1D6
100
AcDbSymbolTableRecord
100
AcDbLinetypeTableRecord
  2
TENSEN
 70
     0
  3

 72
    65
 73
     2
 40
4.0
 49
3.0
 74
     0
 49
-1.0
 74
     0
  0
ENDTAB
  0
TABLE
  2
LAYER
  5
E1
100
AcDbSymbolTable
 70
     5
  0
LAYER
  5
ED
100
AcDbSymbolTableRecord
100
AcDbLayerTableRecord
  2
0
 70
     0
 62
     7
  6
CONTINUOUS
  0
LAYER
  5
101
100
AcDbSymbolTableRecord
100
AcDbLayerTableRecord
  2
1
 70
     0
 62
     1
  6
ITTEN1
  0
LAYER
  5
102
100
AcDbSymbolTableRecord
100
AcDbLayerTableRecord
  2
2
 70
     0
 62
     2
  6
TENSEN1
  0
LAYER
  5
103
100
AcDbSymbolTableRecord
100
AcDbLayerTableRecord
  2
3
 70
     0
 62
     3
  6
CONTINUOUS
  0
LAYER
  5
1D7
102
{ACAD_XDICTIONARY
360
1D8
102
}
100
AcDbSymbolTableRecord
100
AcDbLayerTableRecord
  2
DEFPOINTS
 70
     0
 62
     7
  6
CONTINUOUS
  0
ENDTAB
  0
TABLE
  2
STYLE
  5
E2
100
AcDbSymbolTable
 70
     2
  0
STYLE
  5
EE
100
AcDbSymbolTableRecord
100
AcDbTextStyleTableRecord
  2
STANDARD
 70
     0
 40
0.0
 41
1.0
 50
0.0
 71
     0
 42
0.2
  3
txt
  4

  0
STYLE
  5
FB
100
AcDbSymbolTableRecord
100
AcDbTextStyleTableRecord
  2
BIGFONT
 70
     0
 40
5.0
 41
1.0
 50
0.0
 71
     0
 42
5.0
  3

  4
bigfont
  0
ENDTAB
  0
TABLE
  2
VIEW
  5
E5
100
AcDbSymbolTable
 70
     0
  0
ENDTAB
  0
TABLE
  2
UCS
  5
E6
100
AcDbSymbolTable
 70
     0
  0
ENDTAB
  0
TABLE
  2
APPID
  5
E8
100
AcDbSymbolTable
 70
     1
  0
APPID
  5
EF
100
AcDbSymbolTableRecord
100
AcDbRegAppTableRecord
  2
ACAD
 70
     0
  0
ENDTAB
  0
TABLE
  2
DIMSTYLE
  5
E9
100
AcDbSymbolTable
 70
     1
  0
DIMSTYLE
105
100
100
AcDbSymbolTableRecord
100
AcDbDimStyleTableRecord
  2
STANDARD
 70
     0
  3

  4

  5

  6

  7

 40
1.0
 41
0.18
 42
0.0625
 43
0.38
 44
0.18
 45
0.0
 46
0.0
 47
0.0
 48
0.0
140
0.18
141
0.09
142
0.0
143
25.4
144
1.0
145
0.0
146
1.0
147
0.09
 71
     0
 72
     0
 73
     1
 74
     1
 75
     0
 76
     0
 77
     0
 78
     0
170
     0
171
     2
172
     0
173
     0
174
     0
175
     0
176
     0
177
     0
178
     0
270
     2
271
     4
272
     4
273
     2
274
     2
340
FB
275
     0
280
     0
281
     0
282
     0
283
     1
284
     0
285
     0
286
     0
287
     5
288
     0
  0
ENDTAB
  0
TABLE
  2
BLOCK_RECORD
  5
E0
100
AcDbSymbolTable
 70
    74
  0
BLOCK_RECORD
  5
F6
100
AcDbSymbolTableRecord
100
AcDbBlockTableRecord
  2
*MODEL_SPACE
  0
BLOCK_RECORD
  5
F3
100
AcDbSymbolTableRecord
100
AcDbBlockTableRecord
  2
*PAPER_SPACE
  0
BLOCK_RECORD
  5
10E
100
AcDbSymbolTableRecord
100
AcDbBlockTableRecord
  2
*D0
  0
BLOCK_RECORD
  5
11A
100
AcDbSymbolTableRecord
100
AcDbBlockTableRecord
  2
*D1
  0
BLOCK_RECORD
  5
125
100
AcDbSymbolTableRecord
100
AcDbBlockTableRecord
  2
*D2
  0
BLOCK_RECORD
  5
130
100
AcDbSymbolTableRecord
100
AcDbBlockTableRecord
  2
*D3
  0
BLOCK_RECORD
  5
139
100
AcDbSymbolTableRecord
100
AcDbBlockTableRecord
  2
*D4
  0
BLOCK_RECORD
  5
142
100
AcDbSymbolTableRecord
100
AcDbBlockTableRecord
  2
*D5
  0
BLOCK_RECORD
  5
14B
100
AcDbSymbolTableRecord
100
AcDbBlockTableRecord
  2
*D6
  0
BLOCK_RECORD
  5
154
100
AcDbSymbolTableRecord
100
AcDbBlockTableRecord
  2
*D7
  0
BLOCK_RECORD
  5
15D
100
AcDbSymbolTableRecord
100
AcDbBlockTableRecord
  2
*D8
  0
BLOCK_RECORD
  5
16A
100
AcDbSymbolTableRecord
100
AcDbBlockTableRecord
  2
*D9
  0
BLOCK_RECORD
  5
177
100
AcDbSymbolTableRecord
100
AcDbBlockTableRecord
  2
*D10
  0
BLOCK_RECORD
  5
184
100
AcDbSymbolTableRecord
100
AcDbBlockTableRecord
  2
*D11
  0
BLOCK_RECORD
  5
191
100
AcDbSymbolTableRecord
100
AcDbBlockTableRecord
  2
*D12
  0
BLOCK_RECORD
  5
19E
100
AcDbSymbolTableRecord
100
AcDbBlockTableRecord
  2
*D13
  0
BLOCK_RECORD
  5
1AC
100
AcDbSymbolTableRecord
100
AcDbBlockTableRecord
  2
*D14
  0
BLOCK_RECORD
  5
1BA
100
AcDbSymbolTableRecord
100
AcDbBlockTableRecord
  2
*D15
  0
BLOCK_RECORD
  5
1C8
100
AcDbSymbolTableRecord
100
AcDbBlockTableRecord
  2
*D16
  0
BLOCK_RECORD
  5
1DA
100
AcDbSymbolTableRecord
100
AcDbBlockTableRecord
  2
A$C6DC837BF
  0
BLOCK_RECORD
  5
37F
100
AcDbSymbolTableRecord
100
AcDbBlockTableRecord
  2
*D18
  0
BLOCK_RECORD
  5
396
100
AcDbSymbolTableRecord
100
AcDbBlockTableRecord
  2
*D19
  0
BLOCK_RECORD
  5
3A3
100
AcDbSymbolTableRecord
100
AcDbBlockTableRecord
  2
*D20
  0
BLOCK_RECORD
  5
3B0
100
AcDbSymbolTableRecord
100
AcDbBlockTableRecord
  2
*D21
  0
BLOCK_RECORD
  5
3BD
100
AcDbSymbolTableRecord
100
AcDbBlockTableRecord
  2
*D22
  0
BLOCK_RECORD
  5
3CA
100
AcDbSymbolTableRecord
100
AcDbBlockTableRecord
  2
*D23
  0
BLOCK_RECORD
  5
3D7
100
AcDbSymbolTableRecord
100
AcDbBlockTableRecord
  2
*D24
  0
BLOCK_RECORD
  5
3E3
100
AcDbSymbolTableRecord
100
AcDbBlockTableRecord
  2
*D25
  0
BLOCK_RECORD
  5
3EC
100
AcDbSymbolTableRecord
100
AcDbBlockTableRecord
  2
*D26
  0
BLOCK_RECORD
  5
3F4
100
AcDbSymbolTableRecord
100
AcDbBlockTableRecord
  2
*D27
  0
BLOCK_RECORD
  5
3FC
100
AcDbSymbolTableRecord
100
AcDbBlockTableRecord
  2
*D28
  0
BLOCK_RECORD
  5
404
100
AcDbSymbolTableRecord
100
AcDbBlockTableRecord
  2
*D29
  0
BLOCK_RECORD
  5
40C
100
AcDbSymbolTableRecord
100
AcDbBlockTableRecord
  2
*D30
  0
BLOCK_RECORD
  5
418
100
AcDbSymbolTableRecord
100
AcDbBlockTableRecord
  2
*D31
  0
BLOCK_RECORD
  5
426
100
AcDbSymbolTableRecord
100
AcDbBlockTableRecord
  2
*D32
  0
BLOCK_RECORD
  5
42E
100
AcDbSymbolTableRecord
100
AcDbBlockTableRecord
  2
*D33
  0
BLOCK_RECORD
  5
436
100
AcDbSymbolTableRecord
100
AcDbBlockTableRecord
  2
*D34
  0
BLOCK_RECORD
  5
4EC
100
AcDbSymbolTableRecord
100
AcDbBlockTableRecord
  2
*D35
  0
BLOCK_RECORD
  5
4F7
100
AcDbSymbolTableRecord
100
AcDbBlockTableRecord
  2
*D36
  0
BLOCK_RECORD
  5
502
100
AcDbSymbolTableRecord
100
AcDbBlockTableRecord
  2
*D37
  0
BLOCK_RECORD
  5
510
100
AcDbSymbolTableRecord
100
AcDbBlockTableRecord
  2
*D38
  0
BLOCK_RECORD
  5
51E
100
AcDbSymbolTableRecord
100
AcDbBlockTableRecord
  2
*D39
  0
BLOCK_RECORD
  5
52C
100
AcDbSymbolTableRecord
100
AcDbBlockTableRecord
  2
*D40
  0
BLOCK_RECORD
  5
53A
100
AcDbSymbolTableRecord
100
AcDbBlockTableRecord
  2
*D41
  0
BLOCK_RECORD
  5
547
100
AcDbSymbolTableRecord
100
AcDbBlockTableRecord
  2
*D42
  0
BLOCK_RECORD
  5
552
100
AcDbSymbolTableRecord
100
AcDbBlockTableRecord
  2
*D43
  0
BLOCK_RECORD
  5
55D
100
AcDbSymbolTableRecord
100
AcDbBlockTableRecord
  2
*D44
  0
BLOCK_RECORD
  5
56A
100
AcDbSymbolTableRecord
100
AcDbBlockTableRecord
  2
*D45
  0
BLOCK_RECORD
  5
577
100
AcDbSymbolTableRecord
100
AcDbBlockTableRecord
  2
*D46
  0
BLOCK_RECORD
  5
584
100
AcDbSymbolTableRecord
100
AcDbBlockTableRecord
  2
*D47
  0
BLOCK_RECORD
  5
591
100
AcDbSymbolTableRecord
100
AcDbBlockTableRecord
  2
*D48
  0
BLOCK_RECORD
  5
59C
100
AcDbSymbolTableRecord
100
AcDbBlockTableRecord
  2
*D49
  0
BLOCK_RECORD
  5
5A7
100
AcDbSymbolTableRecord
100
AcDbBlockTableRecord
  2
*D50
  0
BLOCK_RECORD
  5
5B2
100
AcDbSymbolTableRecord
100
AcDbBlockTableRecord
  2
*D51
  0
BLOCK_RECORD
  5
5BD
100
AcDbSymbolTableRecord
100
AcDbBlockTableRecord
  2
*D52
  0
BLOCK_RECORD
  5
5CA
100
AcDbSymbolTableRecord
100
AcDbBlockTableRecord
  2
*D53
  0
BLOCK_RECORD
  5
5D7
100
AcDbSymbolTableRecord
100
AcDbBlockTableRecord
  2
A$C33D447D6
  0
BLOCK_RECORD
  5
799
100
AcDbSymbolTableRecord
100
AcDbBlockTableRecord
  2
*D55
  0
BLOCK_RECORD
  5
7A6
100
AcDbSymbolTableRecord
100
AcDbBlockTableRecord
  2
*D56
  0
BLOCK_RECORD
  5
7AF
100
AcDbSymbolTableRecord
100
AcDbBlockTableRecord
  2
*D57
  0
BLOCK_RECORD
  5
7B8
100
AcDbSymbolTableRecord
100
AcDbBlockTableRecord
  2
*D58
  0
BLOCK_RECORD
  5
7C1
100
AcDbSymbolTableRecord
100
AcDbBlockTableRecord
  2
*D59
  0
BLOCK_RECORD
  5
7CA
100
AcDbSymbolTableRecord
100
AcDbBlockTableRecord
  2
*D60
  0
BLOCK_RECORD
  5
7D7
100
AcDbSymbolTableRecord
100
AcDbBlockTableRecord
  2
*D61
  0
BLOCK_RECORD
  5
7E4
100
AcDbSymbolTableRecord
100
AcDbBlockTableRecord
  2
*D62
  0
BLOCK_RECORD
  5
7F1
100
AcDbSymbolTableRecord
100
AcDbBlockTableRecord
  2
*D63
  0
BLOCK_RECORD
  5
7FE
100
AcDbSymbolTableRecord
100
AcDbBlockTableRecord
  2
*D64
  0
BLOCK_RECORD
  5
80B
100
AcDbSymbolTableRecord
100
AcDbBlockTableRecord
  2
*D65
  0
BLOCK_RECORD
  5
818
100
AcDbSymbolTableRecord
100
AcDbBlockTableRecord
  2
*D66
  0
BLOCK_RECORD
  5
820
100
AcDbSymbolTableRecord
100
AcDbBlockTableRecord
  2
*D67
  0
BLOCK_RECORD
  5
828
100
AcDbSymbolTableRecord
100
AcDbBlockTableRecord
  2
*D68
  0
BLOCK_RECORD
  5
830
100
AcDbSymbolTableRecord
100
AcDbBlockTableRecord
  2
*D69
  0
BLOCK_RECORD
  5
83C
100
AcDbSymbolTableRecord
100
AcDbBlockTableRecord
  2
*D70
  0
BLOCK_RECORD
  5
848
100
AcDbSymbolTableRecord
100
AcDbBlockTableRecord
  2
*D71
  0
BLOCK_RECORD
  5
854
100
AcDbSymbolTableRecord
100
AcDbBlockTableRecord
  2
*D72
  0
BLOCK_RECORD
  5
862
100
AcDbSymbolTableRecord
100
AcDbBlockTableRecord
  2
*D73
  0
ENDTAB
  0
ENDSEC
  0
SECTION
  2
BLOCKS
  0
BLOCK
  5
106
100
AcDbEntity
  8
0
100
AcDbBlockBegin
  2
*MODEL_SPACE
 70
     0
 10
0.0
 20
0.0
 30
0.0
  3
*MODEL_SPACE
  1

  0
ENDBLK
  5
107
100
AcDbEntity
  8
0
100
AcDbBlockEnd
  0
BLOCK
  5
104
100
AcDbEntity
 67
     1
  8
0
100
AcDbBlockBegin
  2
*PAPER_SPACE
 70
     0
 10
0.0
 20
0.0
 30
0.0
  3
*PAPER_SPACE
  1

  0
ENDBLK
  5
105
100
AcDbEntity
 67
     1
  8
0
100
AcDbBlockEnd
  0
BLOCK
  5
118
100
AcDbEntity
  8
0
100
AcDbBlockBegin
  2
*D0
 70
     1
 10
0.0
 20
0.0
 30
0.0
  3
*D0
  1

  0
LINE
  5
10F
100
AcDbEntity
  8
0
  6
BYBLOCK
 62
     0
100
AcDbLine
 10
184.0
 20
137.903961
 30
0.0
 11
244.776548
 21
137.903961
 31
0.0
  0
LINE
  5
110
100
AcDbEntity
  8
0
  6
BYBLOCK
 62
     0
100
AcDbLine
 10
184.0
 20
129.953961
 30
0.0
 11
244.776548
 21
129.953961
 31
0.0
  0
LINE
  5
111
100
AcDbEntity
  8
0
  6
BYBLOCK
 62
     0
100
AcDbLine
 10
243.776548
 20
135.903961
 30
0.0
 11
243.776548
 21
131.953961
 31
0.0
  0
SOLID
  5
112
100
AcDbEntity
  8
0
  6
BYBLOCK
 62
     0
100
AcDbTrace
 10
243.443214
 20
135.903961
 30
0.0
 11
244.109881
 21
135.903961
 31
0.0
 12
243.776548
 22
137.903961
 32
0.0
 13
243.776548
 23
137.903961
 33
0.0
  0
SOLID
  5
113
100
AcDbEntity
  8
0
  6
BYBLOCK
 62
     0
100
AcDbTrace
 10
243.443214
 20
131.953961
 30
0.0
 11
244.109881
 21
131.953961
 31
0.0
 12
243.776548
 22
129.953961
 32
0.0
 13
243.776548
 23
129.953961
 33
0.0
  0
MTEXT
  5
114
100
AcDbEntity
  8
0
  6
BYBLOCK
 62
     0
100
AcDbMText
 10
240.651548
 20
134.207118
 30
0.0
 40
5.0
 41
0.0
 71
     5
 72
     1
  1
\A1;8
 11
0.0
 21
1.0
 31
0.0
  0
POINT
  5
115
100
AcDbEntity
  8
DEFPOINTS
  6
BYBLOCK
 62
     0
100
AcDbPoint
 10
183.0
 20
137.903961
 30
9.364146
  0
POINT
  5
116
100
AcDbEntity
  8
DEFPOINTS
  6
BYBLOCK
 62
     0
100
AcDbPoint
 10
183.0
 20
129.953961
 30
9.364146
  0
POINT
  5
117
100
AcDbEntity
  8
DEFPOINTS
  6
BYBLOCK
 62
     0
100
AcDbPoint
 10
243.776548
 20
129.953961
 30
0.0
  0
ENDBLK
  5
119
100
AcDbEntity
  8
0
100
AcDbBlockEnd
  0
BLOCK
  5
123
100
AcDbEntity
  8
0
100
AcDbBlockBegin
  2
*D1
 70
     1
 10
0.0
 20
0.0
 30
0.0
  3
*D1
  1

  0
LINE
  5
11B
100
AcDbEntity
  8
0
  6
BYBLOCK
 62
     0
100
AcDbLine
 10
327.769748
 20
242.692683
 30
0.0
 11
344.859748
 21
242.692683
 31
0.0
  0
LINE
  5
11C
100
AcDbEntity
  8
0
  6
BYBLOCK
 62
     0
100
AcDbLine
 10
344.859748
 20
242.692683
 30
0.0
 11
351.094486
 21
233.521455
 31
0.0
  0
MTEXT
  5
11D
100
AcDbEntity
  8
0
  6
BYBLOCK
 62
     0
100
AcDbMText
 10
335.269748
 20
245.817683
 30
0.0
 40
5.0
 41
0.0
 71
     5
 72
     1
  1
\A1;R2.5
  0
SOLID
  5
11E
100
AcDbEntity
  8
0
  6
BYBLOCK
 62
     0
100
AcDbTrace
 10
350.245741
 20
235.362852
 30
0.0
 11
349.69441
 21
234.988048
 31
0.0
 12
351.094486
 22
233.521455
 32
0.0
 13
351.094486
 23
233.521455
 33
0.0
  0
LINE
  5
11F
100
AcDbEntity
  8
0
  6
BYBLOCK
 62
     0
100
AcDbLine
 10
350.0
 20
231.453961
 30
0.0
 11
355.0
 21
231.453961
 31
0.0
  0
LINE
  5
120
100
AcDbEntity
  8
0
  6
BYBLOCK
 62
     0
100
AcDbLine
 10
352.5
 20
228.953961
 30
0.0
 11
352.5
 21
233.953961
 31
0.0
  0
POINT
  5
121
100
AcDbEntity
  8
DEFPOINTS
  6
BYBLOCK
 62
     0
100
AcDbPoint
 10
351.094486
 20
233.521455
 30
9.364146
  0
POINT
  5
122
100
AcDbEntity
  8
DEFPOINTS
  6
BYBLOCK
 62
     0
100
AcDbPoint
 10
352.5
 20
231.453961
 30
9.364146
  0
ENDBLK
  5
124
100
AcDbEntity
  8
0
100
AcDbBlockEnd
  0
BLOCK
  5
12E
100
AcDbEntity
  8
0
100
AcDbBlockBegin
  2
*D2
 70
     1
 10
0.0
 20
0.0
 30
0.0
  3
*D2
  1

  0
LINE
  5
126
100
AcDbEntity
  8
0
  6
BYBLOCK
 62
     0
100
AcDbLine
 10
435.558774
 20
246.527587
 30
0.0
 11
418.468774
 21
246.527587
 31
0.0
  0
LINE
  5
127
100
AcDbEntity
  8
0
  6
BYBLOCK
 62
     0
100
AcDbLine
 10
418.468774
 20
246.527587
 30
0.0
 11
407.130492
 21
233.349085
 31
0.0
  0
MTEXT
  5
128
100
AcDbEntity
  8
0
  6
BYBLOCK
 62
     0
100
AcDbMText
 10
428.058774
 20
249.652587
 30
0.0
 40
5.0
 41
0.0
 71
     5
 72
     1
  1
\A1;R2.5
  0
SOLID
  5
129
100
AcDbEntity
  8
0
  6
BYBLOCK
 62
     0
100
AcDbTrace
 10
408.182203
 20
235.082583
 30
0.0
 11
408.68757
 21
234.647785
 31
0.0
 12
407.130492
 22
233.349085
 32
0.0
 13
407.130492
 23
233.349085
 33
0.0
  0
LINE
  5
12A
100
AcDbEntity
  8
0
  6
BYBLOCK
 62
     0
100
AcDbLine
 10
403.0
 20
231.453961
 30
0.0
 11
408.0
 21
231.453961
 31
0.0
  0
LINE
  5
12B
100
AcDbEntity
  8
0
  6
BYBLOCK
 62
     0
100
AcDbLine
 10
405.5
 20
228.953961
 30
0.0
 11
405.5
 21
233.953961
 31
0.0
  0
POINT
  5
12C
100
AcDbEntity
  8
DEFPOINTS
  6
BYBLOCK
 62
     0
100
AcDbPoint
 10
407.130492
 20
233.349085
 30
9.364146
  0
POINT
  5
12D
100
AcDbEntity
  8
DEFPOINTS
  6
BYBLOCK
 62
     0
100
AcDbPoint
 10
405.5
 20
231.453961
 30
9.364146
  0
ENDBLK
  5
12F
100
AcDbEntity
  8
0
100
AcDbBlockEnd
  0
BLOCK
  5
137
100
AcDbEntity
  8
0
100
AcDbBlockBegin
  2
*D3
 70
     1
 10
0.0
 20
0.0
 30
0.0
  3
*D3
  1

  0
LINE
  5
131
100
AcDbEntity
  8
0
  6
BYBLOCK
 62
     0
100
AcDbLine
 10
130.080843
 20
121.5
 30
0.0
 11
128.080843
 21
121.5
 31
0.0
  0
LINE
  5
132
100
AcDbEntity
  8
0
  6
BYBLOCK
 62
     0
100
AcDbLine
 10
128.080843
 20
121.5
 30
0.0
 11
156.890212
 21
107.574538
 31
0.0
  0
MTEXT
  5
133
100
AcDbEntity
  8
0
  6
BYBLOCK
 62
     0
100
AcDbMText
 10
136.039176
 20
121.5
 30
0.0
 40
4.0
 41
0.0
 71
     5
 72
     1
  1
\A1;R29
  0
SOLID
  5
134
100
AcDbEntity
  8
0
  6
BYBLOCK
 62
     0
100
AcDbTrace
 10
155.234601
 20
108.745035
 30
0.0
 11
154.944473
 21
108.14481
 31
0.0
 12
156.890212
 22
107.574538
 32
0.0
 13
156.890212
 23
107.574538
 33
0.0
  0
POINT
  5
135
100
AcDbEntity
  8
DEFPOINTS
  6
BYBLOCK
 62
     0
100
AcDbPoint
 10
156.890212
 20
107.574538
 30
9.364146
  0
POINT
  5
136
100
AcDbEntity
  8
DEFPOINTS
  6
BYBLOCK
 62
     0
100
AcDbPoint
 10
183.0
 20
94.953961
 30
9.364146
  0
ENDBLK
  5
138
100
AcDbEntity
  8
0
100
AcDbBlockEnd
  0
BLOCK
  5
140
100
AcDbEntity
  8
0
100
AcDbBlockBegin
  2
*D4
 70
     1
 10
0.0
 20
0.0
 30
0.0
  3
*D4
  1

  0
LINE
  5
13A
100
AcDbEntity
  8
0
  6
BYBLOCK
 62
     0
100
AcDbLine
 10
100.665793
 20
118.5
 30
0.0
 11
98.665793
 21
118.5
 31
0.0
  0
LINE
  5
13B
100
AcDbEntity
  8
0
  6
BYBLOCK
 62
     0
100
AcDbLine
 10
98.665793
 20
118.5
 30
0.0
 11
157.042729
 21
102.201209
 31
0.0
  0
MTEXT
  5
13C
100
AcDbEntity
  8
0
  6
BYBLOCK
 62
     0
100
AcDbMText
 10
111.290793
 20
118.5
 30
0.0
 40
4.0
 41
0.0
 71
     5
 72
     1
  1
\A1;R26.95
  0
SOLID
  5
13D
100
AcDbEntity
  8
0
  6
BYBLOCK
 62
     0
100
AcDbTrace
 10
155.20604
 20
103.060093
 30
0.0
 11
155.026763
 21
102.417983
 31
0.0
 12
157.042729
 22
102.201209
 32
0.0
 13
157.042729
 23
102.201209
 33
0.0
  0
POINT
  5
13E
100
AcDbEntity
  8
DEFPOINTS
  6
BYBLOCK
 62
     0
100
AcDbPoint
 10
157.042729
 20
102.201209
 30
9.364146
  0
POINT
  5
13F
100
AcDbEntity
  8
DEFPOINTS
  6
BYBLOCK
 62
     0
100
AcDbPoint
 10
183.0
 20
94.953961
 30
9.364146
  0
ENDBLK
  5
141
100
AcDbEntity
  8
0
100
AcDbBlockEnd
  0
BLOCK
  5
149
100
AcDbEntity
  8
0
100
AcDbBlockBegin
  2
*D5
 70
     1
 10
0.0
 20
0.0
 30
0.0
  3
*D5
  1

  0
LINE
  5
143
100
AcDbEntity
  8
0
  6
BYBLOCK
 62
     0
100
AcDbLine
 10
123.488168
 20
104.931803
 30
0.0
 11
125.488168
 21
104.931803
 31
0.0
  0
LINE
  5
144
100
AcDbEntity
  8
0
  6
BYBLOCK
 62
     0
100
AcDbLine
 10
125.488168
 20
104.931803
 30
0.0
 11
158.860598
 21
99.141954
 31
0.0
  0
MTEXT
  5
145
100
AcDbEntity
  8
0
  6
BYBLOCK
 62
     0
100
AcDbMText
 10
114.863168
 20
104.931803
 30
0.0
 40
4.0
 41
0.0
 71
     5
 72
     1
  1
\A1;R24.5
  0
SOLID
  5
146
100
AcDbEntity
  8
0
  6
BYBLOCK
 62
     0
100
AcDbTrace
 10
156.947014
 20
99.812258
 30
0.0
 11
156.833055
 21
99.155403
 31
0.0
 12
158.860598
 22
99.141954
 32
0.0
 13
158.860598
 23
99.141954
 33
0.0
  0
POINT
  5
147
100
AcDbEntity
  8
DEFPOINTS
  6
BYBLOCK
 62
     0
100
AcDbPoint
 10
158.860598
 20
99.141954
 30
9.364146
  0
POINT
  5
148
100
AcDbEntity
  8
DEFPOINTS
  6
BYBLOCK
 62
     0
100
AcDbPoint
 10
183.0
 20
94.953961
 30
9.364146
  0
ENDBLK
  5
14A
100
AcDbEntity
  8
0
100
AcDbBlockEnd
  0
BLOCK
  5
152
100
AcDbEntity
  8
0
100
AcDbBlockBegin
  2
*D6
 70
     1
 10
0.0
 20
0.0
 30
0.0
  3
*D6
  1

  0
LINE
  5
14C
100
AcDbEntity
  8
0
  6
BYBLOCK
 62
     0
100
AcDbLine
 10
131.99963
 20
93.512587
 30
0.0
 11
133.99963
 21
93.512587
 31
0.0
  0
LINE
  5
14D
100
AcDbEntity
  8
0
  6
BYBLOCK
 62
     0
100
AcDbLine
 10
133.99963
 20
93.512587
 30
0.0
 11
159.21029
 21
94.254173
 31
0.0
  0
MTEXT
  5
14E
100
AcDbEntity
  8
0
  6
BYBLOCK
 62
     0
100
AcDbMText
 10
123.37463
 20
93.512587
 30
0.0
 40
4.0
 41
0.0
 71
     5
 72
     1
  1
\A1;R23.8
  0
SOLID
  5
14F
100
AcDbEntity
  8
0
  6
BYBLOCK
 62
     0
100
AcDbTrace
 10
157.201354
 20
94.528556
 30
0.0
 11
157.220956
 21
93.862178
 31
0.0
 12
159.21029
 22
94.254173
 32
0.0
 13
159.21029
 23
94.254173
 33
0.0
  0
POINT
  5
150
100
AcDbEntity
  8
DEFPOINTS
  6
BYBLOCK
 62
     0
100
AcDbPoint
 10
159.21029
 20
94.254173
 30
9.364146
  0
POINT
  5
151
100
AcDbEntity
  8
DEFPOINTS
  6
BYBLOCK
 62
     0
100
AcDbPoint
 10
183.0
 20
94.953961
 30
9.364146
  0
ENDBLK
  5
153
100
AcDbEntity
  8
0
100
AcDbBlockEnd
  0
BLOCK
  5
15B
100
AcDbEntity
  8
0
100
AcDbBlockBegin
  2
*D7
 70
     1
 10
0.0
 20
0.0
 30
0.0
  3
*D7
  1

  0
LINE
  5
155
100
AcDbEntity
  8
0
  6
BYBLOCK
 62
     0
100
AcDbLine
 10
187.005656
 20
87.0
 30
0.0
 11
185.005656
 21
87.0
 31
0.0
  0
LINE
  5
156
100
AcDbEntity
  8
0
  6
BYBLOCK
 62
     0
100
AcDbLine
 10
185.005656
 20
87.0
 30
0.0
 11
178.354411
 21
113.377275
 31
0.0
  0
MTEXT
  5
157
100
AcDbEntity
  8
0
  6
BYBLOCK
 62
     0
100
AcDbMText
 10
192.297323
 20
87.0
 30
0.0
 40
4.0
 41
0.0
 71
     5
 72
     1
  1
\A1;R19
  0
SOLID
  5
158
100
AcDbEntity
  8
0
  6
BYBLOCK
 62
     0
100
AcDbTrace
 10
179.166637
 20
111.51948
 30
0.0
 11
178.520205
 21
111.356477
 31
0.0
 12
178.354411
 22
113.377275
 32
0.0
 13
178.354411
 23
113.377275
 33
0.0
  0
POINT
  5
159
100
AcDbEntity
  8
DEFPOINTS
  6
BYBLOCK
 62
     0
100
AcDbPoint
 10
178.354411
 20
113.377275
 30
9.364146
  0
POINT
  5
15A
100
AcDbEntity
  8
DEFPOINTS
  6
BYBLOCK
 62
     0
100
AcDbPoint
 10
183.0
 20
94.953961
 30
9.364146
  0
ENDBLK
  5
15C
100
AcDbEntity
  8
0
100
AcDbBlockEnd
  0
BLOCK
  5
168
100
AcDbEntity
  8
0
100
AcDbBlockBegin
  2
*D8
 70
     1
 10
0.0
 20
0.0
 30
0.0
  3
*D8
  1

  0
LINE
  5
15E
100
AcDbEntity
  8
0
  6
BYBLOCK
 62
     0
100
AcDbLine
 10
175.5
 20
121.839333
 30
0.0
 11
175.5
 21
132.0
 31
0.0
  0
LINE
  5
15F
100
AcDbEntity
  8
0
  6
BYBLOCK
 62
     0
100
AcDbLine
 10
190.5
 20
121.839333
 30
0.0
 11
190.5
 21
132.0
 31
0.0
  0
LINE
  5
160
100
AcDbEntity
  8
0
  6
BYBLOCK
 62
     0
100
AcDbLine
 10
177.5
 20
131.0
 30
0.0
 11
180.208333
 21
131.0
 31
0.0
  0
LINE
  5
161
100
AcDbEntity
  8
0
  6
BYBLOCK
 62
     0
100
AcDbLine
 10
188.5
 20
131.0
 30
0.0
 11
186.791667
 21
131.0
 31
0.0
  0
SOLID
  5
162
100
AcDbEntity
  8
0
  6
BYBLOCK
 62
     0
100
AcDbTrace
 10
177.5
 20
131.333333
 30
0.0
 11
177.5
 21
130.666667
 31
0.0
 12
175.5
 22
131.0
 32
0.0
 13
175.5
 23
131.0
 33
0.0
  0
SOLID
  5
163
100
AcDbEntity
  8
0
  6
BYBLOCK
 62
     0
100
AcDbTrace
 10
188.5
 20
131.333333
 30
0.0
 11
188.5
 21
130.666667
 31
0.0
 12
190.5
 22
131.0
 32
0.0
 13
190.5
 23
131.0
 33
0.0
  0
MTEXT
  5
164
100
AcDbEntity
  8
0
  6
BYBLOCK
 62
     0
100
AcDbMText
 10
183.5
 20
131.0
 30
0.0
 40
4.0
 41
0.0
 71
     5
 72
     1
  1
\A1;15
  0
POINT
  5
165
100
AcDbEntity
  8
DEFPOINTS
  6
BYBLOCK
 62
     0
100
AcDbPoint
 10
175.5
 20
120.839333
 30
9.364146
  0
POINT
  5
166
100
AcDbEntity
  8
DEFPOINTS
  6
BYBLOCK
 62
     0
100
AcDbPoint
 10
190.5
 20
120.839333
 30
9.364146
  0
POINT
  5
167
100
AcDbEntity
  8
DEFPOINTS
  6
BYBLOCK
 62
     0
100
AcDbPoint
 10
190.5
 20
131.0
 30
0.0
  0
ENDBLK
  5
169
100
AcDbEntity
  8
0
100
AcDbBlockEnd
  0
BLOCK
  5
175
100
AcDbEntity
  8
0
100
AcDbBlockBegin
  2
*D9
 70
     1
 10
0.0
 20
0.0
 30
0.0
  3
*D9
  1

  0
LINE
  5
16B
100
AcDbEntity
  8
0
  6
BYBLOCK
 62
     0
100
AcDbLine
 10
210.95
 20
179.953961
 30
0.0
 11
210.95
 21
157.0
 31
0.0
  0
LINE
  5
16C
100
AcDbEntity
  8
0
  6
BYBLOCK
 62
     0
100
AcDbLine
 10
157.05
 20
179.953961
 30
0.0
 11
157.05
 21
157.0
 31
0.0
  0
LINE
  5
16D
100
AcDbEntity
  8
0
  6
BYBLOCK
 62
     0
100
AcDbLine
 10
208.95
 20
158.0
 30
0.0
 11
191.125
 21
158.0
 31
0.0
  0
LINE
  5
16E
100
AcDbEntity
  8
0
  6
BYBLOCK
 62
     0
100
AcDbLine
 10
159.05
 20
158.0
 30
0.0
 11
177.875
 21
158.0
 31
0.0
  0
SOLID
  5
16F
100
AcDbEntity
  8
0
  6
BYBLOCK
 62
     0
100
AcDbTrace
 10
208.95
 20
158.333333
 30
0.0
 11
208.95
 21
157.666667
 31
0.0
 12
210.95
 22
158.0
 32
0.0
 13
210.95
 23
158.0
 33
0.0
  0
SOLID
  5
170
100
AcDbEntity
  8
0
  6
BYBLOCK
 62
     0
100
AcDbTrace
 10
159.05
 20
158.333333
 30
0.0
 11
159.05
 21
157.666667
 31
0.0
 12
157.05
 22
158.0
 32
0.0
 13
157.05
 23
158.0
 33
0.0
  0
MTEXT
  5
171
100
AcDbEntity
  8
0
  6
BYBLOCK
 62
     0
100
AcDbMText
 10
184.5
 20
158.0
 30
0.0
 40
4.0
 41
0.0
 71
     5
 72
     1
  1
\A1;53.9
  0
POINT
  5
172
100
AcDbEntity
  8
DEFPOINTS
  6
BYBLOCK
 62
     0
100
AcDbPoint
 10
210.95
 20
180.953961
 30
0.0
  0
POINT
  5
173
100
AcDbEntity
  8
DEFPOINTS
  6
BYBLOCK
 62
     0
100
AcDbPoint
 10
157.05
 20
180.953961
 30
0.0
  0
POINT
  5
174
100
AcDbEntity
  8
DEFPOINTS
  6
BYBLOCK
 62
     0
100
AcDbPoint
 10
157.05
 20
158.0
 30
0.0
  0
ENDBLK
  5
176
100
AcDbEntity
  8
0
100
AcDbBlockEnd
  0
BLOCK
  5
182
100
AcDbEntity
  8
0
100
AcDbBlockBegin
  2
*D10
 70
     1
 10
0.0
 20
0.0
 30
0.0
  3
*D10
  1

  0
LINE
  5
178
100
AcDbEntity
  8
0
  6
BYBLOCK
 62
     0
100
AcDbLine
 10
208.0
 20
178.5
 30
0.0
 11
208.0
 21
166.0
 31
0.0
  0
LINE
  5
179
100
AcDbEntity
  8
0
  6
BYBLOCK
 62
     0
100
AcDbLine
 10
159.0
 20
178.5
 30
0.0
 11
159.0
 21
166.0
 31
0.0
  0
LINE
  5
17A
100
AcDbEntity
  8
0
  6
BYBLOCK
 62
     0
100
AcDbLine
 10
206.0
 20
167.0
 30
0.0
 11
186.958333
 21
167.0
 31
0.0
  0
LINE
  5
17B
100
AcDbEntity
  8
0
  6
BYBLOCK
 62
     0
100
AcDbLine
 10
161.0
 20
167.0
 30
0.0
 11
179.041667
 21
167.0
 31
0.0
  0
SOLID
  5
17C
100
AcDbEntity
  8
0
  6
BYBLOCK
 62
     0
100
AcDbTrace
 10
206.0
 20
167.333333
 30
0.0
 11
206.0
 21
166.666667
 31
0.0
 12
208.0
 22
167.0
 32
0.0
 13
208.0
 23
167.0
 33
0.0
  0
SOLID
  5
17D
100
AcDbEntity
  8
0
  6
BYBLOCK
 62
     0
100
AcDbTrace
 10
161.0
 20
167.333333
 30
0.0
 11
161.0
 21
166.666667
 31
0.0
 12
159.0
 22
167.0
 32
0.0
 13
159.0
 23
167.0
 33
0.0
  0
MTEXT
  5
17E
100
AcDbEntity
  8
0
  6
BYBLOCK
 62
     0
100
AcDbMText
 10
183.0
 20
167.0
 30
0.0
 40
4.0
 41
0.0
 71
     5
 72
     1
  1
\A1;49
  0
POINT
  5
17F
100
AcDbEntity
  8
DEFPOINTS
  6
BYBLOCK
 62
     0
100
AcDbPoint
 10
208.0
 20
179.5
 30
0.0
  0
POINT
  5
180
100
AcDbEntity
  8
DEFPOINTS
  6
BYBLOCK
 62
     0
100
AcDbPoint
 10
159.0
 20
179.5
 30
0.0
  0
POINT
  5
181
100
AcDbEntity
  8
DEFPOINTS
  6
BYBLOCK
 62
     0
100
AcDbPoint
 10
159.0
 20
167.0
 30
0.0
  0
ENDBLK
  5
183
100
AcDbEntity
  8
0
100
AcDbBlockEnd
  0
BLOCK
  5
18F
100
AcDbEntity
  8
0
100
AcDbBlockBegin
  2
*D11
 70
     1
 10
0.0
 20
0.0
 30
0.0
  3
*D11
  1

  0
LINE
  5
185
100
AcDbEntity
  8
0
  6
BYBLOCK
 62
     0
100
AcDbLine
 10
212.0
 20
190.953961
 30
0.0
 11
212.0
 21
216.5
 31
0.0
  0
LINE
  5
186
100
AcDbEntity
  8
0
  6
BYBLOCK
 62
     0
100
AcDbLine
 10
154.318433
 20
190.953961
 30
0.0
 11
154.318433
 21
216.5
 31
0.0
  0
LINE
  5
187
100
AcDbEntity
  8
0
  6
BYBLOCK
 62
     0
100
AcDbLine
 10
210.0
 20
215.5
 30
0.0
 11
186.458333
 21
215.5
 31
0.0
  0
LINE
  5
188
100
AcDbEntity
  8
0
  6
BYBLOCK
 62
     0
100
AcDbLine
 10
156.318433
 20
215.5
 30
0.0
 11
178.541667
 21
215.5
 31
0.0
  0
SOLID
  5
189
100
AcDbEntity
  8
0
  6
BYBLOCK
 62
     0
100
AcDbTrace
 10
210.0
 20
215.833333
 30
0.0
 11
210.0
 21
215.166667
 31
0.0
 12
212.0
 22
215.5
 32
0.0
 13
212.0
 23
215.5
 33
0.0
  0
SOLID
  5
18A
100
AcDbEntity
  8
0
  6
BYBLOCK
 62
     0
100
AcDbTrace
 10
156.318433
 20
215.833333
 30
0.0
 11
156.318433
 21
215.166667
 31
0.0
 12
154.318433
 22
215.5
 32
0.0
 13
154.318433
 23
215.5
 33
0.0
  0
MTEXT
  5
18B
100
AcDbEntity
  8
0
  6
BYBLOCK
 62
     0
100
AcDbMText
 10
182.5
 20
215.5
 30
0.0
 40
4.0
 41
0.0
 71
     5
 72
     1
  1
\A1;58
  0
POINT
  5
18C
100
AcDbEntity
  8
DEFPOINTS
  6
BYBLOCK
 62
     0
100
AcDbPoint
 10
212.0
 20
189.953961
 30
9.364146
  0
POINT
  5
18D
100
AcDbEntity
  8
DEFPOINTS
  6
BYBLOCK
 62
     0
100
AcDbPoint
 10
154.318433
 20
189.953961
 30
0.0
  0
POINT
  5
18E
100
AcDbEntity
  8
DEFPOINTS
  6
BYBLOCK
 62
     0
100
AcDbPoint
 10
154.318433
 20
215.5
 30
0.0
  0
ENDBLK
  5
190
100
AcDbEntity
  8
0
100
AcDbBlockEnd
  0
BLOCK
  5
19C
100
AcDbEntity
  8
0
100
AcDbBlockBegin
  2
*D12
 70
     1
 10
0.0
 20
0.0
 30
0.0
  3
*D12
  1

  0
LINE
  5
192
100
AcDbEntity
  8
0
  6
BYBLOCK
 62
     0
100
AcDbLine
 10
206.8
 20
193.453961
 30
0.0
 11
206.8
 21
210.5
 31
0.0
  0
LINE
  5
193
100
AcDbEntity
  8
0
  6
BYBLOCK
 62
     0
100
AcDbLine
 10
159.2
 20
193.453961
 30
0.0
 11
159.2
 21
210.5
 31
0.0
  0
LINE
  5
194
100
AcDbEntity
  8
0
  6
BYBLOCK
 62
     0
100
AcDbLine
 10
204.8
 20
209.5
 30
0.0
 11
188.125
 21
209.5
 31
0.0
  0
LINE
  5
195
100
AcDbEntity
  8
0
  6
BYBLOCK
 62
     0
100
AcDbLine
 10
161.2
 20
209.5
 30
0.0
 11
174.875
 21
209.5
 31
0.0
  0
SOLID
  5
196
100
AcDbEntity
  8
0
  6
BYBLOCK
 62
     0
100
AcDbTrace
 10
204.8
 20
209.833333
 30
0.0
 11
204.8
 21
209.166667
 31
0.0
 12
206.8
 22
209.5
 32
0.0
 13
206.8
 23
209.5
 33
0.0
  0
SOLID
  5
197
100
AcDbEntity
  8
0
  6
BYBLOCK
 62
     0
100
AcDbTrace
 10
161.2
 20
209.833333
 30
0.0
 11
161.2
 21
209.166667
 31
0.0
 12
159.2
 22
209.5
 32
0.0
 13
159.2
 23
209.5
 33
0.0
  0
MTEXT
  5
198
100
AcDbEntity
  8
0
  6
BYBLOCK
 62
     0
100
AcDbMText
 10
181.5
 20
209.5
 30
0.0
 40
4.0
 41
0.0
 71
     5
 72
     1
  1
\A1;47.6
  0
POINT
  5
199
100
AcDbEntity
  8
DEFPOINTS
  6
BYBLOCK
 62
     0
100
AcDbPoint
 10
206.8
 20
192.453961
 30
9.364146
  0
POINT
  5
19A
100
AcDbEntity
  8
DEFPOINTS
  6
BYBLOCK
 62
     0
100
AcDbPoint
 10
159.2
 20
192.453961
 30
9.364146
  0
POINT
  5
19B
100
AcDbEntity
  8
DEFPOINTS
  6
BYBLOCK
 62
     0
100
AcDbPoint
 10
159.2
 20
209.5
 30
0.0
  0
ENDBLK
  5
19D
100
AcDbEntity
  8
0
100
AcDbBlockEnd
  0
BLOCK
  5
1AA
100
AcDbEntity
  8
0
100
AcDbBlockBegin
  2
*D13
 70
     1
 10
0.0
 20
0.0
 30
0.0
  3
*D13
  1

  0
LINE
  5
19F
100
AcDbEntity
  8
0
  6
BYBLOCK
 62
     0
100
AcDbLine
 10
210.5
 20
161.953961
 30
0.0
 11
225.875
 21
161.953961
 31
0.0
  0
LINE
  5
1A0
100
AcDbEntity
  8
0
  6
BYBLOCK
 62
     0
100
AcDbLine
 10
213.0
 20
159.453961
 30
0.0
 11
225.875
 21
159.453961
 31
0.0
  0
LINE
  5
1A1
100
AcDbEntity
  8
0
  6
BYBLOCK
 62
     0
100
AcDbLine
 10
224.875
 20
157.453961
 30
0.0
 11
224.875
 21
155.453961
 31
0.0
  0
LINE
  5
1A2
100
AcDbEntity
  8
0
  6
BYBLOCK
 62
     0
100
AcDbLine
 10
224.875
 20
163.953961
 30
0.0
 11
224.875
 21
165.953961
 31
0.0
  0
LINE
  5
1A3
100
AcDbEntity
  8
0
  6
BYBLOCK
 62
     0
100
AcDbLine
 10
224.875
 20
165.953961
 30
0.0
 11
226.875
 21
165.953961
 31
0.0
  0
SOLID
  5
1A4
100
AcDbEntity
  8
0
  6
BYBLOCK
 62
     0
100
AcDbTrace
 10
224.541667
 20
157.453961
 30
0.0
 11
225.208333
 21
157.453961
 31
0.0
 12
224.875
 22
159.453961
 32
0.0
 13
224.875
 23
159.453961
 33
0.0
  0
SOLID
  5
1A5
100
AcDbEntity
  8
0
  6
BYBLOCK
 62
     0
100
AcDbTrace
 10
224.541667
 20
163.953961
 30
0.0
 11
225.208333
 21
163.953961
 31
0.0
 12
224.875
 22
161.953961
 32
0.0
 13
224.875
 23
161.953961
 33
0.0
  0
MTEXT
  5
1A6
100
AcDbEntity
  8
0
  6
BYBLOCK
 62
     0
100
AcDbMText
 10
231.5
 20
165.953961
 30
0.0
 40
4.0
 41
0.0
 71
     5
 72
     1
  1
\A1;2.5
  0
POINT
  5
1A7
100
AcDbEntity
  8
DEFPOINTS
  6
BYBLOCK
 62
     0
100
AcDbPoint
 10
209.5
 20
161.953961
 30
9.364146
  0
POINT
  5
1A8
100
AcDbEntity
  8
DEFPOINTS
  6
BYBLOCK
 62
     0
100
AcDbPoint
 10
212.0
 20
159.453961
 30
9.364146
  0
POINT
  5
1A9
100
AcDbEntity
  8
DEFPOINTS
  6
BYBLOCK
 62
     0
100
AcDbPoint
 10
224.875
 20
159.453961
 30
0.0
  0
ENDBLK
  5
1AB
100
AcDbEntity
  8
0
100
AcDbBlockEnd
  0
BLOCK
  5
1B8
100
AcDbEntity
  8
0
100
AcDbBlockBegin
  2
*D14
 70
     1
 10
0.0
 20
0.0
 30
0.0
  3
*D14
  1

  0
LINE
  5
1AD
100
AcDbEntity
  8
0
  6
BYBLOCK
 62
     0
100
AcDbLine
 10
211.5
 20
161.953961
 30
0.0
 11
238.375
 21
161.953961
 31
0.0
  0
LINE
  5
1AE
100
AcDbEntity
  8
0
  6
BYBLOCK
 62
     0
100
AcDbLine
 10
209.5
 20
155.453961
 30
0.0
 11
238.375
 21
155.453961
 31
0.0
  0
LINE
  5
1AF
100
AcDbEntity
  8
0
  6
BYBLOCK
 62
     0
100
AcDbLine
 10
237.375
 20
157.453961
 30
0.0
 11
237.375
 21
159.953961
 31
0.0
  0
LINE
  5
1B0
100
AcDbEntity
  8
0
  6
BYBLOCK
 62
     0
100
AcDbLine
 10
237.375
 20
161.953961
 30
0.0
 11
237.375
 21
165.0
 31
0.0
  0
LINE
  5
1B1
100
AcDbEntity
  8
0
  6
BYBLOCK
 62
     0
100
AcDbLine
 10
237.375
 20
165.0
 30
0.0
 11
239.375
 21
165.0
 31
0.0
  0
SOLID
  5
1B2
100
AcDbEntity
  8
0
  6
BYBLOCK
 62
     0
100
AcDbTrace
 10
237.041667
 20
157.453961
 30
0.0
 11
237.708333
 21
157.453961
 31
0.0
 12
237.375
 22
155.453961
 32
0.0
 13
237.375
 23
155.453961
 33
0.0
  0
SOLID
  5
1B3
100
AcDbEntity
  8
0
  6
BYBLOCK
 62
     0
100
AcDbTrace
 10
237.041667
 20
159.953961
 30
0.0
 11
237.708333
 21
159.953961
 31
0.0
 12
237.375
 22
161.953961
 32
0.0
 13
237.375
 23
161.953961
 33
0.0
  0
MTEXT
  5
1B4
100
AcDbEntity
  8
0
  6
BYBLOCK
 62
     0
100
AcDbMText
 10
244.0
 20
165.0
 30
0.0
 40
4.0
 41
0.0
 71
     5
 72
     1
  1
\A1;6.5
  0
POINT
  5
1B5
100
AcDbEntity
  8
DEFPOINTS
  6
BYBLOCK
 62
     0
100
AcDbPoint
 10
210.5
 20
161.953961
 30
0.0
  0
POINT
  5
1B6
100
AcDbEntity
  8
DEFPOINTS
  6
BYBLOCK
 62
     0
100
AcDbPoint
 10
208.5
 20
155.453961
 30
0.0
  0
POINT
  5
1B7
100
AcDbEntity
  8
DEFPOINTS
  6
BYBLOCK
 62
     0
100
AcDbPoint
 10
237.375
 20
155.453961
 30
0.0
  0
ENDBLK
  5
1B9
100
AcDbEntity
  8
0
100
AcDbBlockEnd
  0
BLOCK
  5
1C6
100
AcDbEntity
  8
0
100
AcDbBlockBegin
  2
*D15
 70
     1
 10
0.0
 20
0.0
 30
0.0
  3
*D15
  1

  0
LINE
  5
1BB
100
AcDbEntity
  8
0
  6
BYBLOCK
 62
     0
100
AcDbLine
 10
210.5
 20
161.953961
 30
0.0
 11
252.208333
 21
161.953961
 31
0.0
  0
LINE
  5
1BC
100
AcDbEntity
  8
0
  6
BYBLOCK
 62
     0
100
AcDbLine
 10
210.95
 20
150.453961
 30
0.0
 11
252.208333
 21
150.453961
 31
0.0
  0
LINE
  5
1BD
100
AcDbEntity
  8
0
  6
BYBLOCK
 62
     0
100
AcDbLine
 10
251.208333
 20
152.453961
 30
0.0
 11
251.208333
 21
159.953961
 31
0.0
  0
LINE
  5
1BE
100
AcDbEntity
  8
0
  6
BYBLOCK
 62
     0
100
AcDbLine
 10
251.208333
 20
161.953961
 30
0.0
 11
251.208333
 21
163.953961
 31
0.0
  0
LINE
  5
1BF
100
AcDbEntity
  8
0
  6
BYBLOCK
 62
     0
100
AcDbLine
 10
251.208333
 20
163.953961
 30
0.0
 11
253.208333
 21
163.953961
 31
0.0
  0
SOLID
  5
1C0
100
AcDbEntity
  8
0
  6
BYBLOCK
 62
     0
100
AcDbTrace
 10
250.875
 20
152.453961
 30
0.0
 11
251.541667
 21
152.453961
 31
0.0
 12
251.208333
 22
150.453961
 32
0.0
 13
251.208333
 23
150.453961
 33
0.0
  0
SOLID
  5
1C1
100
AcDbEntity
  8
0
  6
BYBLOCK
 62
     0
100
AcDbTrace
 10
250.875
 20
159.953961
 30
0.0
 11
251.541667
 21
159.953961
 31
0.0
 12
251.208333
 22
161.953961
 32
0.0
 13
251.208333
 23
161.953961
 33
0.0
  0
MTEXT
  5
1C2
100
AcDbEntity
  8
0
  6
BYBLOCK
 62
     0
100
AcDbMText
 10
258.5
 20
163.953961
 30
0.0
 40
4.0
 41
0.0
 71
     5
 72
     1
  1
\A1;11.5
  0
POINT
  5
1C3
100
AcDbEntity
  8
DEFPOINTS
  6
BYBLOCK
 62
     0
100
AcDbPoint
 10
209.5
 20
161.953961
 30
9.364146
  0
POINT
  5
1C4
100
AcDbEntity
  8
DEFPOINTS
  6
BYBLOCK
 62
     0
100
AcDbPoint
 10
209.95
 20
150.453961
 30
9.364146
  0
POINT
  5
1C5
100
AcDbEntity
  8
DEFPOINTS
  6
BYBLOCK
 62
     0
100
AcDbPoint
 10
251.208333
 20
150.453961
 30
0.0
  0
ENDBLK
  5
1C7
100
AcDbEntity
  8
0
100
AcDbBlockEnd
  0
BLOCK
  5
1D4
100
AcDbEntity
  8
0
100
AcDbBlockBegin
  2
*D16
 70
     1
 10
0.0
 20
0.0
 30
0.0
  3
*D16
  1

  0
LINE
  5
1C9
100
AcDbEntity
  8
0
  6
BYBLOCK
 62
     0
100
AcDbLine
 10
210.5
 20
161.953961
 30
0.0
 11
267.541667
 21
161.953961
 31
0.0
  0
LINE
  5
1CA
100
AcDbEntity
  8
0
  6
BYBLOCK
 62
     0
100
AcDbLine
 10
191.5
 20
143.453961
 30
0.0
 11
267.541667
 21
143.453961
 31
0.0
  0
LINE
  5
1CB
100
AcDbEntity
  8
0
  6
BYBLOCK
 62
     0
100
AcDbLine
 10
266.541667
 20
145.453961
 30
0.0
 11
266.541667
 21
159.953961
 31
0.0
  0
LINE
  5
1CC
100
AcDbEntity
  8
0
  6
BYBLOCK
 62
     0
100
AcDbLine
 10
266.541667
 20
161.953961
 30
0.0
 11
266.541667
 21
163.953961
 31
0.0
  0
LINE
  5
1CD
100
AcDbEntity
  8
0
  6
BYBLOCK
 62
     0
100
AcDbLine
 10
266.541667
 20
163.953961
 30
0.0
 11
268.541667
 21
163.953961
 31
0.0
  0
SOLID
  5
1CE
100
AcDbEntity
  8
0
  6
BYBLOCK
 62
     0
100
AcDbTrace
 10
266.208333
 20
145.453961
 30
0.0
 11
266.875
 21
145.453961
 31
0.0
 12
266.541667
 22
143.453961
 32
0.0
 13
266.541667
 23
143.453961
 33
0.0
  0
SOLID
  5
1CF
100
AcDbEntity
  8
0
  6
BYBLOCK
 62
     0
100
AcDbTrace
 10
266.208333
 20
159.953961
 30
0.0
 11
266.875
 21
159.953961
 31
0.0
 12
266.541667
 22
161.953961
 32
0.0
 13
266.541667
 23
161.953961
 33
0.0
  0
MTEXT
  5
1D0
100
AcDbEntity
  8
0
  6
BYBLOCK
 62
     0
100
AcDbMText
 10
274.5
 20
163.953961
 30
0.0
 40
4.0
 41
0.0
 71
     5
 72
     1
  1
\A1;18.5
  0
POINT
  5
1D1
100
AcDbEntity
  8
DEFPOINTS
  6
BYBLOCK
 62
     0
100
AcDbPoint
 10
209.5
 20
161.953961
 30
9.364146
  0
POINT
  5
1D2
100
AcDbEntity
  8
DEFPOINTS
  6
BYBLOCK
 62
     0
100
AcDbPoint
 10
190.5
 20
143.453961
 30
9.364146
  0
POINT
  5
1D3
100
AcDbEntity
  8
DEFPOINTS
  6
BYBLOCK
 62
     0
100
AcDbPoint
 10
266.541667
 20
143.453961
 30
0.0
  0
ENDBLK
  5
1D5
100
AcDbEntity
  8
0
100
AcDbBlockEnd
  0
BLOCK
  5
2AB
100
AcDbEntity
  8
0
100
AcDbBlockBegin
  2
A$C6DC837BF
 70
     0
 10
0.0
 20
0.0
 30
0.0
  3
A$C6DC837BF
  1

  0
DIMENSION
  5
1DB
100
AcDbEntity
  8
0
100
AcDbDimension
  2
*D16
 10
254.969631
 20
97.408837
 30
10.636095
 11
262.927964
 21
117.908837
 31
10.636095
 12
-11.572036
 22
-46.045124
 32
10.636095
 70
   128
  3
STANDARD
100
AcDbAlignedDimension
 13
197.927964
 23
115.908837
 33
20.000241
 14
178.927964
 24
97.408837
 34
20.000241
 50
90.0
100
AcDbRotatedDimension
1001
ACAD
1000
DSTYLE
1002
{
1070
   140
1040
4.0
1070
    77
1070
     0
1070
    40
1040
1.0
1070
   141
1040
0.0
1070
    41
1040
2.0
1002
}
  0
DIMENSION
  5
1DC
100
AcDbEntity
  8
0
100
AcDbDimension
  2
*D12
 10
147.627964
 20
132.954876
 30
10.636095
 11
169.927964
 21
132.954876
 31
10.636095
 12
-11.572036
 22
-76.545124
 32
10.636095
 70
   128
  3
STANDARD
100
AcDbAlignedDimension
 13
195.227964
 23
115.908837
 33
20.000241
 14
147.627964
 24
115.908837
 34
20.000241
100
AcDbRotatedDimension
1001
ACAD
1000
DSTYLE
1002
{
1070
   140
1040
4.0
1070
    77
1070
     0
1070
    40
1040
1.0
1070
   141
1040
0.0
1070
    41
1040
2.0
1002
}
  0
DIMENSION
  5
1DD
100
AcDbEntity
  8
0
100
AcDbDimension
  2
*D11
 10
142.746397
 20
138.954876
 30
10.636095
 11
170.927964
 21
138.954876
 31
10.636095
 12
-11.572036
 22
-76.545124
 32
10.636095
 70
   128
  1
58
  3
STANDARD
100
AcDbAlignedDimension
 13
200.427964
 23
113.408837
 33
20.000241
 14
142.746397
 24
113.408837
 34
10.636095
100
AcDbRotatedDimension
1001
ACAD
1000
DSTYLE
1002
{
1070
   140
1040
4.0
1070
    77
1070
     0
1070
    40
1040
1.0
1070
   141
1040
0.0
1070
    41
1040
2.0
1002
}
  0
DIMENSION
  5
1DE
100
AcDbEntity
  8
0
100
AcDbDimension
  2
*D10
 10
147.427964
 20
90.454876
 30
10.636095
 11
171.427964
 21
90.454876
 31
10.636095
 12
-11.572036
 22
-76.545124
 32
10.636095
 70
   128
  3
STANDARD
100
AcDbAlignedDimension
 13
196.427964
 23
102.954876
 33
10.636095
 14
147.427964
 24
102.954876
 34
10.636095
100
AcDbRotatedDimension
1001
ACAD
1000
DSTYLE
1002
{
1070
   140
1040
4.0
1070
    77
1070
     0
1070
    40
1040
1.0
1070
   141
1040
0.0
1070
    41
1040
2.0
1002
}
  0
DIMENSION
  5
1DF
100
AcDbEntity
  8
0
100
AcDbDimension
  2
*D9
 10
144.977964
 20
81.454876
 30
10.636095
 11
172.427964
 21
81.454876
 31
10.636095
 12
-12.072036
 22
-76.545124
 32
10.636095
 70
   128
  3
STANDARD
100
AcDbAlignedDimension
 13
198.877964
 23
104.408837
 33
10.636095
 14
144.977964
 24
104.408837
 34
10.636095
100
AcDbRotatedDimension
1001
ACAD
1000
DSTYLE
1002
{
1070
   140
1040
4.0
1070
    77
1070
     0
1070
    40
1040
1.0
1070
   141
1040
0.0
1070
    41
1040
2.0
1002
}
  0
ARC
  5
1E0
100
AcDbEntity
  8
3
100
AcDbCircle
 10
171.427964
 20
187.408837
 30
20.000241
 40
23.8
100
AcDbArc
 50
180.0
 51
0.0
  0
ARC
  5
1E1
100
AcDbEntity
  8
2
100
AcDbCircle
 10
171.427964
 20
187.408837
 30
20.000241
 40
26.95
100
AcDbArc
 50
180.0
 51
0.0
  0
LINE
  5
1E2
100
AcDbEntity
  8
1
100
AcDbLine
 10
203.427964
 20
187.408837
 30
20.000241
 11
140.927964
 21
187.408837
 31
20.000241
  0
ARC
  5
1E3
100
AcDbEntity
  8
2
100
AcDbCircle
 10
171.427964
 20
187.408837
 30
20.000241
 40
24.5
100
AcDbArc
 50
0.0
 51
180.0
  0
ARC
  5
1E4
100
AcDbEntity
  8
3
100
AcDbCircle
 10
171.427964
 20
187.408837
 30
20.000241
 40
23.8
100
AcDbArc
 50
0.0
 51
180.0
  0
CIRCLE
  5
1E5
100
AcDbEntity
  8
3
100
AcDbCircle
 10
171.427964
 20
187.408837
 30
20.000241
 40
29.0
  0
ARC
  5
1E6
100
AcDbEntity
  8
2
100
AcDbCircle
 10
171.427964
 20
187.408837
 30
20.000241
 40
26.95
100
AcDbArc
 50
0.0
 51
180.0
  0
ARC
  5
1E7
100
AcDbEntity
  8
2
100
AcDbCircle
 10
171.427964
 20
187.408837
 30
20.000241
 40
24.5
100
AcDbArc
 50
287.825706
 51
0.0
  0
LINE
  5
1E8
100
AcDbEntity
  8
2
100
AcDbLine
 10
178.927964
 20
109.408837
 30
20.000241
 11
195.927964
 21
109.408837
 31
20.000241
  0
LINE
  5
1E9
100
AcDbEntity
  8
3
100
AcDbLine
 10
195.927964
 20
104.408837
 30
20.000241
 11
178.927964
 21
104.408837
 31
20.000241
  0
LINE
  5
1EA
100
AcDbEntity
  8
3
100
AcDbLine
 10
195.227964
 20
115.908837
 30
20.000241
 11
171.427964
 21
115.908837
 31
20.000241
  0
LINE
  5
1EB
100
AcDbEntity
  8
3
100
AcDbLine
 10
198.377964
 20
113.408837
 30
20.000241
 11
147.627964
 21
113.408837
 31
20.000241
  0
DIMENSION
  5
1EC
100
AcDbEntity
  8
0
100
AcDbDimension
  2
*D0
 10
232.204512
 20
53.908837
 30
10.636095
 11
232.204512
 21
58.161994
 31
10.636095
 12
-11.572036
 22
-76.045124
 32
10.636095
 70
   128
  1
8
  3
STANDARD
100
AcDbAlignedDimension
 13
171.427964
 23
61.858837
 33
20.000241
 14
171.427964
 24
53.908837
 34
20.000241
 50
90.0
100
AcDbRotatedDimension
1001
ACAD
1000
DSTYLE
1002
{
1070
    78
1070
     8
1070
   288
1070
     1
1070
   284
1070
     8
1070
   140
1040
5.0
1070
    73
1070
     0
1070
   272
1070
     2
1070
    42
1040
1.0
1070
    44
1040
1.0
1070
   271
1070
     2
1070
    41
1040
2.0
1002
}
  0
LINE
  5
1ED
100
AcDbEntity
  8
1
100
AcDbLine
 10
139.427964
 20
34.908837
 30
20.000241
 11
201.927964
 21
34.908837
 31
20.000241
  0
ARC
  5
1EE
100
AcDbEntity
  8
2
100
AcDbCircle
 10
171.427964
 20
34.908837
 30
20.000241
 40
23.8
100
AcDbArc
 50
0.0
 51
180.0
  0
ARC
  5
1EF
100
AcDbEntity
  8
3
100
AcDbCircle
 10
171.427964
 20
34.908837
 30
20.000241
 40
26.95
100
AcDbArc
 50
0.0
 51
180.0
  0
ARC
  5
1F0
100
AcDbEntity
  8
3
100
AcDbCircle
 10
171.427964
 20
34.908837
 30
20.000241
 40
24.5
100
AcDbArc
 50
107.825706
 51
72.174294
  0
ARC
  5
1F1
100
AcDbEntity
  8
2
100
AcDbCircle
 10
171.427964
 20
34.908837
 30
20.000241
 40
23.8
100
AcDbArc
 50
180.0
 51
0.0
  0
ARC
  5
1F2
100
AcDbEntity
  8
3
100
AcDbCircle
 10
171.427964
 20
34.908837
 30
20.000241
 40
26.95
100
AcDbArc
 50
180.0
 51
0.0
  0
CIRCLE
  5
1F3
100
AcDbEntity
  8
3
100
AcDbCircle
 10
171.427964
 20
34.908837
 30
20.000241
 40
29.0
  0
LINE
  5
1F4
100
AcDbEntity
  8
0
100
AcDbLine
 10
98.847964
 20
0.0
 30
10.636095
 11
382.577964
 21
0.0
 31
10.636095
  0
DIMENSION
  5
1F5
100
AcDbEntity
  8
0
100
AcDbDimension
  2
*D8
 10
178.927964
 20
70.954876
 30
10.636095
 11
171.927964
 21
70.954876
 31
10.636095
 12
-11.572036
 22
-60.045124
 32
10.636095
 70
   128
  3
STANDARD
100
AcDbAlignedDimension
 13
163.927964
 23
60.794209
 33
20.000241
 14
178.927964
 24
60.794209
 34
20.000241
100
AcDbRotatedDimension
1001
ACAD
1000
DSTYLE
1002
{
1070
   140
1040
4.0
1070
    77
1070
     0
1070
    40
1040
1.0
1070
   141
1040
0.0
1070
    41
1040
2.0
1002
}
  0
DIMENSION
  5
1F6
100
AcDbEntity
  8
0
100
AcDbDimension
  2
*D7
 10
171.427964
 20
34.908837
 30
20.000241
 11
180.725287
 21
26.954876
 31
10.636095
 12
-11.572036
 22
-60.045124
 32
10.636095
 70
   132
  3
STANDARD
100
AcDbRadialDimension
 15
166.782376
 25
53.332151
 35
20.000241
 40
0.0
1001
ACAD
1000
DSTYLE
1002
{
1070
   140
1040
4.0
1070
    77
1070
     0
1070
    40
1040
1.0
1070
   287
1070
     4
1070
   141
1040
0.0
1070
    41
1040
2.0
1002
}
  0
DIMENSION
  5
1F7
100
AcDbEntity
  8
0
100
AcDbDimension
  2
*D6
 10
171.427964
 20
34.908837
 30
20.000241
 11
111.802594
 21
33.467463
 31
10.636095
 12
-11.572036
 22
-60.045124
 32
10.636095
 70
   132
  3
STANDARD
100
AcDbRadialDimension
 15
147.638254
 25
34.209049
 35
20.000241
 40
0.0
1001
ACAD
1000
DSTYLE
1002
{
1070
   140
1040
4.0
1070
    77
1070
     0
1070
    40
1040
1.0
1070
   141
1040
0.0
1070
    41
1040
2.0
1002
}
  0
DIMENSION
  5
1F8
100
AcDbEntity
  8
0
100
AcDbDimension
  2
*D5
 10
171.427964
 20
34.908837
 30
20.000241
 11
103.291133
 21
44.886679
 31
10.636095
 12
-11.572036
 22
-60.045124
 32
10.636095
 70
   132
  3
STANDARD
100
AcDbRadialDimension
 15
147.288563
 25
39.09683
 35
20.000241
 40
0.0
1001
ACAD
1000
DSTYLE
1002
{
1070
   140
1040
4.0
1070
    77
1070
     0
1070
    40
1040
1.0
1070
   141
1040
0.0
1070
    41
1040
2.0
1002
}
  0
DIMENSION
  5
1F9
100
AcDbEntity
  8
0
100
AcDbDimension
  2
*D4
 10
171.427964
 20
34.908837
 30
20.000241
 11
99.718757
 21
58.454876
 31
10.636095
 12
-11.572036
 22
-60.045124
 32
10.636095
 70
   132
  3
STANDARD
100
AcDbRadialDimension
 15
145.470694
 25
42.156085
 35
20.000241
 40
0.0
1001
ACAD
1000
DSTYLE
1002
{
1070
   140
1040
4.0
1070
    77
1070
     0
1070
    40
1040
1.0
1070
   141
1040
0.0
1070
    41
1040
2.0
1002
}
  0
DIMENSION
  5
1FA
100
AcDbEntity
  8
0
100
AcDbDimension
  2
*D3
 10
171.427964
 20
34.908837
 30
20.000241
 11
124.467141
 21
61.454876
 31
10.636095
 12
-11.572036
 22
-60.045124
 32
10.636095
 70
   132
  3
STANDARD
100
AcDbRadialDimension
 15
145.318176
 25
47.529414
 35
20.000241
 40
0.0
1001
ACAD
1000
DSTYLE
1002
{
1070
   140
1040
4.0
1070
    77
1070
     0
1070
    40
1040
1.0
1070
   141
1040
0.0
1070
    41
1040
2.0
1002
}
  0
LINE
  5
1FB
100
AcDbEntity
  8
1
100
AcDbLine
 10
171.427964
 20
0.908837
 30
20.000241
 11
171.427964
 21
67.908837
 31
20.000241
  0
ARC
  5
1FC
100
AcDbEntity
  8
3
100
AcDbCircle
 10
171.427964
 20
34.908837
 30
20.000241
 40
19.0
100
AcDbArc
 50
66.750437
 51
113.249563
  0
LINE
  5
1FD
100
AcDbEntity
  8
3
100
AcDbLine
 10
163.927964
 20
60.794209
 30
20.000241
 11
163.927964
 21
52.365927
 31
20.000241
  0
LINE
  5
1FE
100
AcDbEntity
  8
3
100
AcDbLine
 10
178.927964
 20
60.794209
 30
20.000241
 11
178.927964
 21
52.365927
 31
20.000241
  0
ARC
  5
1FF
100
AcDbEntity
  8
2
100
AcDbCircle
 10
58.358386
 20
112.377577
 30
10.636095
 40
6.302395
100
AcDbArc
 50
7.457906
 51
98.828954
  0
LINE
  5
200
100
AcDbEntity
  8
2
100
AcDbLine
 10
50.776024
 20
118.605295
 30
10.636095
 11
57.391062
 21
118.605295
 31
10.636095
  0
MTEXT
  5
201
102
{ACAD_REACTORS
330
224
102
}
100
AcDbEntity
  8
0
100
AcDbMText
 10
124.802964
 20
126.454876
 30
10.636095
 40
4.0
 41
0.0
 71
     6
 72
     1
  1
\A1;R2.5
  0
LEADER
  5
202
100
AcDbEntity
  8
0
100
AcDbLeader
  3
STANDARD
 76
     3
 10
63.519465
 20
118.399664
 30
10.636095
 10
68.338314
 20
123.90425
 30
10.636095
 10
96.563003
 20
123.90425
 30
10.636095
 77
   256
1001
ACAD
1000
DSTYLE
1002
{
1070
    78
1070
     8
1070
   288
1070
     1
1070
   284
1070
     8
1070
   140
1040
5.0
1070
    73
1070
     0
1070
   272
1070
     2
1070
    42
1040
1.0
1070
    44
1040
1.0
1070
   271
1070
     2
1070
    41
1040
2.0
1002
}
  0
TEXT
  5
203
100
AcDbEntity
  8
0
100
AcDbText
 10
68.338314
 20
125.96847
 30
10.636095
 40
5.0
  1
ワックス磨き。
 41
0.7
  7
BIGFONT
100
AcDbText
  0
MTEXT
  5
204
102
{ACAD_REACTORS
330
205
102
}
100
AcDbEntity
  8
0
100
AcDbMText
 10
158.396314
 20
124.814132
 30
10.636095
 40
5.0
 41
0.0
 71
     4
 72
     1
  1
\A1;C0.5
  0
LEADER
  5
205
100
AcDbEntity
  8
0
100
AcDbLeader
  3
STANDARD
 73
     0
 40
5.0
 41
14.166667
 76
     3
 10
147.983806
 20
115.970555
 30
10.636095
 10
157.716458
 20
124.814132
 30
10.636095
 10
158.306314
 20
124.814132
 30
10.636095
 77
   256
340
204
1001
ACAD
1000
DSTYLE
1002
{
1070
    78
1070
     8
1070
   288
1070
     1
1070
   284
1070
     8
1070
   140
1040
5.0
1070
    73
1070
     0
1070
   272
1070
     2
1070
    42
1040
1.0
1070
    44
1040
1.0
1070
   271
1070
     2
1070
    41
1040
2.0
1002
}
  0
LINE
  5
206
100
AcDbEntity
  8
0
100
AcDbLine
 10
154.6563
 20
109.408837
 30
10.636095
 11
158.6563
 21
113.408837
 31
10.636095
  0
LINE
  5
207
100
AcDbEntity
  8
0
100
AcDbLine
 10
154.12597
 20
109.408837
 30
10.636095
 11
158.12597
 21
113.408837
 31
10.636095
  0
LINE
  5
208
100
AcDbEntity
  8
0
100
AcDbLine
 10
153.59564
 20
109.408837
 30
10.636095
 11
157.59564
 21
113.408837
 31
10.636095
  0
LINE
  5
209
100
AcDbEntity
  8
0
100
AcDbLine
 10
153.065309
 20
109.408837
 30
10.636095
 11
157.065309
 21
113.408837
 31
10.636095
  0
LINE
  5
20A
100
AcDbEntity
  8
0
100
AcDbLine
 10
152.534979
 20
109.408837
 30
10.636095
 11
156.534979
 21
113.408837
 31
10.636095
  0
LINE
  5
20B
100
AcDbEntity
  8
0
100
AcDbLine
 10
152.004649
 20
109.408837
 30
10.636095
 11
156.004649
 21
113.408837
 31
10.636095
  0
LINE
  5
20C
100
AcDbEntity
  8
0
100
AcDbLine
 10
151.474319
 20
109.408837
 30
10.636095
 11
155.474319
 21
113.408837
 31
10.636095
  0
LINE
  5
20D
100
AcDbEntity
  8
0
100
AcDbLine
 10
150.943989
 20
109.408837
 30
10.636095
 11
154.943989
 21
113.408837
 31
10.636095
  0
LINE
  5
20E
100
AcDbEntity
  8
0
100
AcDbLine
 10
150.413659
 20
109.408837
 30
10.636095
 11
154.413659
 21
113.408837
 31
10.636095
  0
LINE
  5
20F
100
AcDbEntity
  8
0
100
AcDbLine
 10
149.883329
 20
109.408837
 30
10.636095
 11
153.883329
 21
113.408837
 31
10.636095
  0
LINE
  5
210
100
AcDbEntity
  8
0
100
AcDbLine
 10
149.352999
 20
109.408837
 30
10.636095
 11
153.352999
 21
113.408837
 31
10.636095
  0
LINE
  5
211
100
AcDbEntity
  8
0
100
AcDbLine
 10
148.822669
 20
109.408837
 30
10.636095
 11
152.822669
 21
113.408837
 31
10.636095
  0
LINE
  5
212
100
AcDbEntity
  8
0
100
AcDbLine
 10
148.292339
 20
109.408837
 30
10.636095
 11
152.292339
 21
113.408837
 31
10.636095
  0
LINE
  5
213
100
AcDbEntity
  8
0
100
AcDbLine
 10
147.762009
 20
109.408837
 30
10.636095
 11
151.762009
 21
113.408837
 31
10.636095
  0
LINE
  5
214
100
AcDbEntity
  8
0
100
AcDbLine
 10
144.477964
 20
107.185453
 30
10.636095
 11
150.701348
 21
113.408837
 31
10.636095
  0
LINE
  5
215
100
AcDbEntity
  8
0
100
AcDbLine
 10
144.477964
 20
107.715783
 30
10.636095
 11
150.171018
 21
113.408837
 31
10.636095
  0
LINE
  5
216
100
AcDbEntity
  8
0
100
AcDbLine
 10
144.477964
 20
108.246113
 30
10.636095
 11
149.640688
 21
113.408837
 31
10.636095
  0
LINE
  5
217
100
AcDbEntity
  8
0
100
AcDbLine
 10
144.477964
 20
108.776443
 30
10.636095
 11
149.110358
 21
113.408837
 31
10.636095
  0
LINE
  5
218
100
AcDbEntity
  8
0
100
AcDbLine
 10
144.477964
 20
109.306773
 30
10.636095
 11
148.580028
 21
113.408837
 31
10.636095
  0
LINE
  5
219
100
AcDbEntity
  8
0
100
AcDbLine
 10
144.477964
 20
109.837103
 30
10.636095
 11
148.049698
 21
113.408837
 31
10.636095
  0
LINE
  5
21A
100
AcDbEntity
  8
0
100
AcDbLine
 10
147.231679
 20
109.408837
 30
10.636095
 11
151.231679
 21
113.408837
 31
10.636095
  0
LINE
  5
21B
100
AcDbEntity
  8
0
100
AcDbLine
 10
146.474319
 20
104.408837
 30
10.636095
 11
146.927964
 21
104.862482
 31
10.636095
  0
LINE
  5
21C
100
AcDbEntity
  8
0
100
AcDbLine
 10
145.943989
 20
104.408837
 30
10.636095
 11
146.927964
 21
105.392812
 31
10.636095
  0
LINE
  5
21D
100
AcDbEntity
  8
0
100
AcDbLine
 10
145.413659
 20
104.408837
 30
10.636095
 11
146.927964
 21
105.923142
 31
10.636095
  0
LINE
  5
21E
100
AcDbEntity
  8
0
100
AcDbLine
 10
144.883329
 20
104.408837
 30
10.636095
 11
146.927964
 21
106.453472
 31
10.636095
  0
LINE
  5
21F
100
AcDbEntity
  8
0
100
AcDbLine
 10
144.477964
 20
104.533802
 30
10.636095
 11
146.927964
 21
106.983802
 31
10.636095
  0
LINE
  5
220
100
AcDbEntity
  8
0
100
AcDbLine
 10
144.477964
 20
105.064133
 30
10.636095
 11
146.927964
 21
107.514133
 31
10.636095
  0
LINE
  5
221
100
AcDbEntity
  8
0
100
AcDbLine
 10
144.477964
 20
105.594463
 30
10.636095
 11
146.927964
 21
108.044463
 31
10.636095
  0
LINE
  5
222
100
AcDbEntity
  8
0
100
AcDbLine
 10
144.477964
 20
106.124793
 30
10.636095
 11
146.927964
 21
108.574793
 31
10.636095
  0
LINE
  5
223
100
AcDbEntity
  8
0
100
AcDbLine
 10
144.477964
 20
106.655123
 30
10.636095
 11
146.927964
 21
109.105123
 31
10.636095
  0
LEADER
  5
224
100
AcDbEntity
  8
0
100
AcDbLeader
  3
STANDARD
 73
     0
 75
     1
 40
4.0
 41
12.0
 76
     3
 10
142.927964
 20
115.954876
 30
10.636095
 10
126.892964
 20
126.454876
 30
10.636095
 10
124.892964
 20
126.454876
 30
10.636095
 77
   256
340
201
1001
ACAD
1000
DSTYLE
1002
{
1070
   140
1040
4.0
1070
    77
1070
     0
1070
    40
1040
1.0
1070
   141
1040
0.0
1070
    41
1040
2.0
1002
}
  0
LINE
  5
225
100
AcDbEntity
  8
0
100
AcDbLine
 10
144.477964
 20
111.958424
 30
10.636095
 11
147.627964
 21
115.108424
 31
10.636095
  0
LINE
  5
226
100
AcDbEntity
  8
0
100
AcDbLine
 10
144.477964
 20
112.488754
 30
10.636095
 11
147.627964
 21
115.638754
 31
10.636095
  0
LINE
  5
227
100
AcDbEntity
  8
0
100
AcDbLine
 10
144.477964
 20
113.019084
 30
10.636095
 11
147.367717
 21
115.908837
 31
10.636095
  0
LINE
  5
228
100
AcDbEntity
  8
0
100
AcDbLine
 10
144.477964
 20
110.367433
 30
10.636095
 11
147.627964
 21
113.517433
 31
10.636095
  0
LINE
  5
229
100
AcDbEntity
  8
0
100
AcDbLine
 10
144.477964
 20
110.897764
 30
10.636095
 11
147.627964
 21
114.047764
 31
10.636095
  0
LINE
  5
22A
100
AcDbEntity
  8
0
100
AcDbLine
 10
144.477964
 20
111.428094
 30
10.636095
 11
147.627964
 21
114.578094
 31
10.636095
  0
LINE
  5
22B
100
AcDbEntity
  8
0
100
AcDbLine
 10
142.746397
 20
113.408837
 30
10.636095
 11
145.246397
 21
115.908837
 31
10.636095
  0
LINE
  5
22C
100
AcDbEntity
  8
0
100
AcDbLine
 10
142.437819
 20
113.630588
 30
10.636095
 11
144.706213
 21
115.898983
 31
10.636095
  0
LINE
  5
22D
100
AcDbEntity
  8
0
100
AcDbLine
 10
142.601875
 20
114.324975
 30
10.636095
 11
144.011826
 21
115.734926
 31
10.636095
  0
LINE
  5
22E
100
AcDbEntity
  8
0
100
AcDbLine
 10
144.337387
 20
113.408837
 30
10.636095
 11
146.837387
 21
115.908837
 31
10.636095
  0
LINE
  5
22F
100
AcDbEntity
  8
0
100
AcDbLine
 10
143.807057
 20
113.408837
 30
10.636095
 11
146.307057
 21
115.908837
 31
10.636095
  0
LINE
  5
230
100
AcDbEntity
  8
0
100
AcDbLine
 10
143.276727
 20
113.408837
 30
10.636095
 11
145.776727
 21
115.908837
 31
10.636095
  0
LINE
  5
231
100
AcDbEntity
  8
0
100
AcDbLine
 10
170.566202
 20
109.408837
 30
10.636095
 11
171.427964
 21
110.270599
 31
10.636095
  0
LINE
  5
232
100
AcDbEntity
  8
0
100
AcDbLine
 10
170.035872
 20
109.408837
 30
10.636095
 11
171.427964
 21
110.800929
 31
10.636095
  0
LINE
  5
233
100
AcDbEntity
  8
0
100
AcDbLine
 10
169.505542
 20
109.408837
 30
10.636095
 11
171.427964
 21
111.331259
 31
10.636095
  0
LINE
  5
234
100
AcDbEntity
  8
0
100
AcDbLine
 10
167.914552
 20
109.408837
 30
10.636095
 11
171.427964
 21
112.922249
 31
10.636095
  0
LINE
  5
235
100
AcDbEntity
  8
0
100
AcDbLine
 10
167.384222
 20
109.408837
 30
10.636095
 11
171.384222
 21
113.408837
 31
10.636095
  0
LINE
  5
236
100
AcDbEntity
  8
0
100
AcDbLine
 10
166.853892
 20
109.408837
 30
10.636095
 11
170.853892
 21
113.408837
 31
10.636095
  0
LINE
  5
237
100
AcDbEntity
  8
0
100
AcDbLine
 10
166.323562
 20
109.408837
 30
10.636095
 11
170.323562
 21
113.408837
 31
10.636095
  0
LINE
  5
238
100
AcDbEntity
  8
0
100
AcDbLine
 10
165.793232
 20
109.408837
 30
10.636095
 11
169.793232
 21
113.408837
 31
10.636095
  0
LINE
  5
239
100
AcDbEntity
  8
0
100
AcDbLine
 10
165.262901
 20
109.408837
 30
10.636095
 11
169.262901
 21
113.408837
 31
10.636095
  0
LINE
  5
23A
100
AcDbEntity
  8
0
100
AcDbLine
 10
164.732571
 20
109.408837
 30
10.636095
 11
168.732571
 21
113.408837
 31
10.636095
  0
LINE
  5
23B
100
AcDbEntity
  8
0
100
AcDbLine
 10
164.202241
 20
109.408837
 30
10.636095
 11
168.202241
 21
113.408837
 31
10.636095
  0
LINE
  5
23C
100
AcDbEntity
  8
0
100
AcDbLine
 10
163.671911
 20
109.408837
 30
10.636095
 11
167.671911
 21
113.408837
 31
10.636095
  0
LINE
  5
23D
100
AcDbEntity
  8
0
100
AcDbLine
 10
163.141581
 20
109.408837
 30
10.636095
 11
167.141581
 21
113.408837
 31
10.636095
  0
LINE
  5
23E
100
AcDbEntity
  8
0
100
AcDbLine
 10
162.611251
 20
109.408837
 30
10.636095
 11
166.611251
 21
113.408837
 31
10.636095
  0
LINE
  5
23F
100
AcDbEntity
  8
0
100
AcDbLine
 10
168.975212
 20
109.408837
 30
10.636095
 11
171.427964
 21
111.861589
 31
10.636095
  0
LINE
  5
240
100
AcDbEntity
  8
0
100
AcDbLine
 10
168.444882
 20
109.408837
 30
10.636095
 11
171.427964
 21
112.391919
 31
10.636095
  0
LINE
  5
241
100
AcDbEntity
  8
0
100
AcDbLine
 10
156.77762
 20
109.408837
 30
10.636095
 11
160.77762
 21
113.408837
 31
10.636095
  0
LINE
  5
242
100
AcDbEntity
  8
0
100
AcDbLine
 10
156.24729
 20
109.408837
 30
10.636095
 11
160.24729
 21
113.408837
 31
10.636095
  0
LINE
  5
243
100
AcDbEntity
  8
0
100
AcDbLine
 10
155.71696
 20
109.408837
 30
10.636095
 11
159.71696
 21
113.408837
 31
10.636095
  0
LINE
  5
244
100
AcDbEntity
  8
0
100
AcDbLine
 10
155.18663
 20
109.408837
 30
10.636095
 11
159.18663
 21
113.408837
 31
10.636095
  0
LINE
  5
245
100
AcDbEntity
  8
0
100
AcDbLine
 10
158.36861
 20
109.408837
 30
10.636095
 11
162.36861
 21
113.408837
 31
10.636095
  0
LINE
  5
246
100
AcDbEntity
  8
0
100
AcDbLine
 10
157.83828
 20
109.408837
 30
10.636095
 11
161.83828
 21
113.408837
 31
10.636095
  0
LINE
  5
247
100
AcDbEntity
  8
0
100
AcDbLine
 10
157.30795
 20
109.408837
 30
10.636095
 11
161.30795
 21
113.408837
 31
10.636095
  0
LINE
  5
248
100
AcDbEntity
  8
0
100
AcDbLine
 10
162.080921
 20
109.408837
 30
10.636095
 11
166.080921
 21
113.408837
 31
10.636095
  0
LINE
  5
249
100
AcDbEntity
  8
0
100
AcDbLine
 10
161.550591
 20
109.408837
 30
10.636095
 11
165.550591
 21
113.408837
 31
10.636095
  0
LINE
  5
24A
100
AcDbEntity
  8
0
100
AcDbLine
 10
161.020261
 20
109.408837
 30
10.636095
 11
165.020261
 21
113.408837
 31
10.636095
  0
LINE
  5
24B
100
AcDbEntity
  8
0
100
AcDbLine
 10
160.489931
 20
109.408837
 30
10.636095
 11
164.489931
 21
113.408837
 31
10.636095
  0
LINE
  5
24C
100
AcDbEntity
  8
0
100
AcDbLine
 10
159.959601
 20
109.408837
 30
10.636095
 11
163.959601
 21
113.408837
 31
10.636095
  0
LINE
  5
24D
100
AcDbEntity
  8
0
100
AcDbLine
 10
159.42927
 20
109.408837
 30
10.636095
 11
163.42927
 21
113.408837
 31
10.636095
  0
LINE
  5
24E
100
AcDbEntity
  8
0
100
AcDbLine
 10
158.89894
 20
109.408837
 30
10.636095
 11
162.89894
 21
113.408837
 31
10.636095
  0
LINE
  5
24F
100
AcDbEntity
  8
0
100
AcDbLine
 10
171.096532
 20
109.408837
 30
10.636095
 11
171.427964
 21
109.740269
 31
10.636095
  0
LINE
  5
250
100
AcDbEntity
  8
3
100
AcDbLine
 10
0.977964
 20
113.408837
 30
20.000241
 11
-1.072036
 21
113.408837
 31
20.000241
  0
ARC
  5
251
100
AcDbEntity
  8
3
100
AcDbCircle
 10
1.427964
 20
113.408837
 30
20.000241
 40
2.5
100
AcDbArc
 50
90.0
 51
180.0
  0
LINE
  5
252
100
AcDbEntity
  8
3
100
AcDbLine
 10
27.927964
 20
113.408837
 30
20.000241
 11
51.727964
 21
113.408837
 31
20.000241
  0
LINE
  5
253
100
AcDbEntity
  8
2
100
AcDbLine
 10
10.470874
 20
109.408837
 30
20.000241
 11
52.427964
 21
109.408837
 31
20.000241
  0
LINE
  5
254
100
AcDbEntity
  8
3
100
AcDbLine
 10
51.727964
 20
115.908837
 30
20.000241
 11
4.127964
 21
115.908837
 31
20.000241
  0
LINE
  5
255
100
AcDbEntity
  8
3
100
AcDbLine
 10
52.427964
 20
104.408837
 30
20.000241
 11
10.470874
 21
104.408837
 31
20.000241
  0
LINE
  5
256
100
AcDbEntity
  8
1
100
AcDbLine
 10
27.927964
 20
117.908837
 30
20.000241
 11
27.927964
 21
93.908837
 31
20.000241
  0
LINE
  5
257
100
AcDbEntity
  8
3
100
AcDbLine
 10
0.977964
 20
113.408837
 30
20.000241
 11
0.977964
 21
97.408837
 31
20.000241
  0
LINE
  5
258
100
AcDbEntity
  8
3
100
AcDbLine
 10
10.470874
 20
104.408837
 30
20.000241
 11
10.470874
 21
97.408837
 31
20.000241
  0
LINE
  5
259
100
AcDbEntity
  8
2
100
AcDbLine
 10
8.927964
 20
109.408837
 30
20.000241
 11
8.927964
 21
97.408837
 31
20.000241
  0
LINE
  5
25A
100
AcDbEntity
  8
3
100
AcDbLine
 10
10.470874
 20
97.408837
 30
20.000241
 11
0.927964
 21
97.408837
 31
20.000241
  0
LINE
  5
25B
100
AcDbEntity
  8
3
100
AcDbLine
 10
10.470874
 20
104.408837
 30
20.000241
 11
0.977964
 21
104.408837
 31
20.000241
  0
LINE
  5
25C
100
AcDbEntity
  8
2
100
AcDbLine
 10
10.470874
 20
109.408837
 30
20.000241
 11
4.604157
 21
109.408837
 31
20.000241
  0
LINE
  5
25D
100
AcDbEntity
  8
2
100
AcDbLine
 10
4.604157
 20
109.408837
 30
20.000241
 11
4.604157
 21
104.408837
 31
20.000241
  0
LINE
  5
25E
100
AcDbEntity
  8
2
100
AcDbLine
 10
10.470874
 20
104.408837
 30
20.000241
 11
10.470874
 21
109.408837
 31
20.000241
  0
LINE
  5
25F
100
AcDbEntity
  8
3
100
AcDbLine
 10
27.927964
 20
113.408837
 30
20.000241
 11
4.127964
 21
113.408837
 31
20.000241
  0
LINE
  5
260
100
AcDbEntity
  8
2
100
AcDbLine
 10
4.127964
 20
115.908837
 30
20.000241
 11
4.127964
 21
113.408837
 31
20.000241
  0
LINE
  5
261
100
AcDbEntity
  8
3
100
AcDbLine
 10
4.127964
 20
113.408837
 30
20.000241
 11
0.977964
 21
113.408837
 31
20.000241
  0
LINE
  5
262
100
AcDbEntity
  8
3
100
AcDbLine
 10
4.127964
 20
115.908837
 30
20.000241
 11
1.427964
 21
115.908837
 31
20.000241
  0
LINE
  5
263
100
AcDbEntity
  8
3
100
AcDbLine
 10
54.877964
 20
104.408837
 30
20.000241
 11
54.877964
 21
113.408837
 31
20.000241
  0
LINE
  5
264
100
AcDbEntity
  8
3
100
AcDbLine
 10
52.427964
 20
104.408837
 30
20.000241
 11
54.877964
 21
104.408837
 31
20.000241
  0
LINE
  5
265
100
AcDbEntity
  8
2
100
AcDbLine
 10
52.427964
 20
109.408837
 30
20.000241
 11
52.427964
 21
104.408837
 31
20.000241
  0
LINE
  5
266
100
AcDbEntity
  8
3
100
AcDbLine
 10
51.727964
 20
113.408837
 30
20.000241
 11
54.877964
 21
113.408837
 31
20.000241
  0
ARC
  5
267
100
AcDbEntity
  8
3
100
AcDbCircle
 10
54.427964
 20
113.408837
 30
20.000241
 40
2.5
100
AcDbArc
 50
0.0
 51
90.0
  0
LINE
  5
268
100
AcDbEntity
  8
2
100
AcDbLine
 10
51.727964
 20
115.908837
 30
20.000241
 11
51.727964
 21
113.408837
 31
20.000241
  0
LINE
  5
269
100
AcDbEntity
  8
3
100
AcDbLine
 10
51.727964
 20
115.908837
 30
20.000241
 11
54.427964
 21
115.908837
 31
20.000241
  0
LINE
  5
26A
100
AcDbEntity
  8
3
100
AcDbLine
 10
54.877964
 20
113.408837
 30
20.000241
 11
56.927964
 21
113.408837
 31
20.000241
  0
ARC
  5
26B
100
AcDbEntity
  8
2
100
AcDbCircle
 10
171.427964
 20
187.408837
 30
20.000241
 40
24.5
100
AcDbArc
 50
180.0
 51
252.174294
  0
LINE
  5
26C
100
AcDbEntity
  8
1
100
AcDbLine
 10
171.427964
 20
219.908837
 30
20.000241
 11
171.427964
 21
154.408837
 31
20.000241
  0
LINE
  5
26D
100
AcDbEntity
  8
3
100
AcDbLine
 10
146.927964
 20
109.408837
 30
20.000241
 11
171.427964
 21
109.408837
 31
20.000241
  0
LINE
  5
26E
100
AcDbEntity
  8
3
100
AcDbLine
 10
147.627964
 20
115.908837
 30
20.000241
 11
171.427964
 21
115.908837
 31
20.000241
  0
LINE
  5
26F
100
AcDbEntity
  8
3
100
AcDbLine
 10
146.927964
 20
104.408837
 30
20.000241
 11
163.927964
 21
104.408837
 31
20.000241
  0
LINE
  5
270
100
AcDbEntity
  8
3
100
AcDbLine
 10
144.477964
 20
104.408837
 30
20.000241
 11
144.477964
 21
113.408837
 31
20.000241
  0
LINE
  5
271
100
AcDbEntity
  8
3
100
AcDbLine
 10
146.927964
 20
104.408837
 30
20.000241
 11
146.927964
 21
109.408837
 31
20.000241
  0
LINE
  5
272
100
AcDbEntity
  8
3
100
AcDbLine
 10
146.927964
 20
104.408837
 30
20.000241
 11
144.477964
 21
104.408837
 31
20.000241
  0
LINE
  5
273
100
AcDbEntity
  8
3
100
AcDbLine
 10
147.627964
 20
115.908837
 30
20.000241
 11
144.927964
 21
115.908837
 31
20.000241
  0
ARC
  5
274
100
AcDbEntity
  8
3
100
AcDbCircle
 10
144.927964
 20
113.408837
 30
20.000241
 40
2.5
100
AcDbArc
 50
90.0
 51
180.0
  0
LINE
  5
275
100
AcDbEntity
  8
3
100
AcDbLine
 10
144.477964
 20
113.408837
 30
20.000241
 11
142.427964
 21
113.408837
 31
20.000241
  0
LINE
  5
276
100
AcDbEntity
  8
3
100
AcDbLine
 10
147.627964
 20
115.908837
 30
20.000241
 11
147.627964
 21
113.408837
 31
20.000241
  0
LINE
  5
277
100
AcDbEntity
  8
1
100
AcDbLine
 10
171.427964
 20
117.908837
 30
20.000241
 11
171.427964
 21
93.908837
 31
20.000241
  0
LINE
  5
278
100
AcDbEntity
  8
3
100
AcDbLine
 10
163.927964
 20
104.408837
 30
20.000241
 11
171.427964
 21
104.408837
 31
20.000241
  0
LINE
  5
279
100
AcDbEntity
  8
3
100
AcDbLine
 10
178.927964
 20
97.408837
 30
20.000241
 11
178.927964
 21
104.408837
 31
20.000241
  0
LINE
  5
27A
100
AcDbEntity
  8
3
100
AcDbLine
 10
171.427964
 20
97.408837
 30
20.000241
 11
178.927964
 21
97.408837
 31
20.000241
  0
LINE
  5
27B
100
AcDbEntity
  8
2
100
AcDbLine
 10
178.927964
 20
104.408837
 30
20.000241
 11
178.927964
 21
109.408837
 31
20.000241
  0
ARC
  5
27C
100
AcDbEntity
  8
2
100
AcDbCircle
 10
171.427964
 20
187.408837
 30
20.000241
 40
19.0
100
AcDbArc
 50
246.750437
 51
293.249563
  0
LINE
  5
27D
100
AcDbEntity
  8
2
100
AcDbLine
 10
163.927964
 20
164.085029
 30
20.000241
 11
163.927964
 21
161.523465
 31
20.000241
  0
LINE
  5
27E
100
AcDbEntity
  8
2
100
AcDbLine
 10
163.927964
 20
164.085029
 30
20.000241
 11
163.927964
 21
169.951747
 31
20.000241
  0
LINE
  5
27F
100
AcDbEntity
  8
2
100
AcDbLine
 10
178.927964
 20
164.085029
 30
20.000241
 11
178.927964
 21
161.523465
 31
20.000241
  0
LINE
  5
280
100
AcDbEntity
  8
2
100
AcDbLine
 10
178.927964
 20
164.085029
 30
20.000241
 11
178.927964
 21
169.951747
 31
20.000241
  0
LINE
  5
281
100
AcDbEntity
  8
0
100
AcDbLine
 10
382.577964
 20
0.0
 30
10.636095
 11
383.427964
 21
0.0
 31
10.636095
  0
DIMENSION
  5
282
100
AcDbEntity
  8
0
100
AcDbDimension
  2
*D15
 10
239.636298
 20
104.408837
 30
10.636095
 11
246.927964
 21
117.908837
 31
10.636095
 12
-11.572036
 22
-46.045124
 32
10.636095
 70
   128
  3
STANDARD
100
AcDbAlignedDimension
 13
197.927964
 23
115.908837
 33
20.000241
 14
198.377964
 24
104.408837
 34
20.000241
 50
90.0
100
AcDbRotatedDimension
1001
ACAD
1000
DSTYLE
1002
{
1070
   140
1040
4.0
1070
    77
1070
     0
1070
    40
1040
1.0
1070
   141
1040
0.0
1070
    41
1040
2.0
1002
}
  0
DIMENSION
  5
283
100
AcDbEntity
  8
0
100
AcDbDimension
  2
*D13
 10
213.302964
 20
113.408837
 30
10.636095
 11
219.927964
 21
119.908837
 31
10.636095
 12
-11.572036
 22
-46.045124
 32
10.636095
 70
   128
  3
STANDARD
100
AcDbAlignedDimension
 13
197.927964
 23
115.908837
 33
20.000241
 14
200.427964
 24
113.408837
 34
20.000241
 50
90.0
100
AcDbRotatedDimension
1001
ACAD
1000
DSTYLE
1002
{
1070
   140
1040
4.0
1070
    77
1070
     0
1070
    40
1040
1.0
1070
   141
1040
0.0
1070
    41
1040
2.0
1002
}
  0
DIMENSION
  5
284
100
AcDbEntity
  8
0
100
AcDbDimension
  2
*D2
 10
349.427964
 20
113.408837
 30
20.000241
 11
371.986738
 21
128.482463
 31
10.636095
 12
-56.072036
 22
-118.045124
 32
10.636095
 70
   132
  3
STANDARD
100
AcDbRadialDimension
 15
351.058457
 25
115.303961
 35
20.000241
 40
0.0
1001
ACAD
1000
DSTYLE
1002
{
1070
    78
1070
     8
1070
   288
1070
     1
1070
   284
1070
     8
1070
   140
1040
5.0
1070
    73
1070
     0
1070
   272
1070
     2
1070
    42
1040
1.0
1070
    44
1040
1.0
1070
   271
1070
     2
1070
    41
1040
2.0
1002
}
  0
DIMENSION
  5
285
100
AcDbEntity
  8
0
100
AcDbDimension
  2
*D1
 10
296.427964
 20
113.408837
 30
20.000241
 11
279.197712
 21
124.647559
 31
10.636095
 12
-56.072036
 22
-118.045124
 32
10.636095
 70
   132
  3
STANDARD
100
AcDbRadialDimension
 15
295.022451
 25
115.476331
 35
20.000241
 40
0.0
1001
ACAD
1000
DSTYLE
1002
{
1070
    78
1070
     8
1070
   288
1070
     1
1070
   284
1070
     8
1070
   140
1040
5.0
1070
    73
1070
     0
1070
   272
1070
     2
1070
    42
1040
1.0
1070
    44
1040
1.0
1070
   271
1070
     2
1070
    41
1040
2.0
1002
}
  0
MTEXT
  5
286
102
{ACAD_REACTORS
330
287
102
}
100
AcDbEntity
  8
0
100
AcDbMText
 10
225.052964
 20
132.954876
 30
10.636095
 40
4.0
 41
0.0
 71
     4
 72
     1
  1
\A1;R2.5
  0
LEADER
  5
287
100
AcDbEntity
  8
0
100
AcDbLeader
  3
STANDARD
 73
     0
 74
     0
 75
     1
 40
4.0
 41
12.0
 76
     3
 10
200.427964
 20
114.954876
 30
10.636095
 10
222.962964
 20
132.954876
 30
10.636095
 10
224.962964
 20
132.954876
 30
10.636095
 77
   256
340
286
1001
ACAD
1000
DSTYLE
1002
{
1070
   140
1040
4.0
1070
    77
1070
     0
1070
    40
1040
1.0
1070
   141
1040
0.0
1070
    41
1040
2.0
1002
}
  0
DIMENSION
  5
288
100
AcDbEntity
  8
0
100
AcDbDimension
  2
*D14
 10
225.802964
 20
109.408837
 30
10.636095
 11
232.427964
 21
118.954876
 31
10.636095
 12
-11.572036
 22
-46.045124
 32
10.636095
 70
   128
  3
STANDARD
100
AcDbAlignedDimension
 13
198.927964
 23
115.908837
 33
10.636095
 14
196.927964
 24
109.408837
 34
10.636095
 50
90.0
100
AcDbRotatedDimension
1001
ACAD
1000
DSTYLE
1002
{
1070
   140
1040
4.0
1070
    77
1070
     0
1070
    40
1040
1.0
1070
   141
1040
0.0
1070
    41
1040
2.0
1002
}
  0
LINE
  5
289
100
AcDbEntity
  8
3
100
AcDbLine
 10
298.427964
 20
104.408837
 30
20.000241
 11
340.385055
 21
104.408837
 31
20.000241
  0
LINE
  5
28A
100
AcDbEntity
  8
3
100
AcDbLine
 10
299.127964
 20
115.908837
 30
20.000241
 11
346.727964
 21
115.908837
 31
20.000241
  0
LINE
  5
28B
100
AcDbEntity
  8
3
100
AcDbLine
 10
322.927964
 20
113.408837
 30
20.000241
 11
299.127964
 21
113.408837
 31
20.000241
  0
LINE
  5
28C
100
AcDbEntity
  8
2
100
AcDbLine
 10
340.385055
 20
109.408837
 30
20.000241
 11
298.427964
 21
109.408837
 31
20.000241
  0
LINE
  5
28D
100
AcDbEntity
  8
3
100
AcDbLine
 10
198.377964
 20
104.408837
 30
20.000241
 11
198.377964
 21
113.408837
 31
20.000241
  0
LINE
  5
28E
100
AcDbEntity
  8
2
100
AcDbLine
 10
195.927964
 20
109.408837
 30
20.000241
 11
195.927964
 21
104.408837
 31
20.000241
  0
LINE
  5
28F
100
AcDbEntity
  8
3
100
AcDbLine
 10
195.927964
 20
104.408837
 30
20.000241
 11
198.377964
 21
104.408837
 31
20.000241
  0
ARC
  5
290
100
AcDbEntity
  8
3
100
AcDbCircle
 10
197.927964
 20
113.408837
 30
20.000241
 40
2.5
100
AcDbArc
 50
0.0
 51
90.0
  0
LINE
  5
291
100
AcDbEntity
  8
2
100
AcDbLine
 10
195.227964
 20
113.408837
 30
20.000241
 11
195.227964
 21
115.908837
 31
20.000241
  0
LINE
  5
292
100
AcDbEntity
  8
3
100
AcDbLine
 10
198.377964
 20
113.408837
 30
20.000241
 11
200.427964
 21
113.408837
 31
20.000241
  0
LINE
  5
293
100
AcDbEntity
  8
3
100
AcDbLine
 10
195.227964
 20
115.908837
 30
20.000241
 11
197.927964
 21
115.908837
 31
20.000241
  0
LINE
  5
294
100
AcDbEntity
  8
3
100
AcDbLine
 10
295.977964
 20
104.408837
 30
20.000241
 11
295.977964
 21
113.408837
 31
20.000241
  0
LINE
  5
295
100
AcDbEntity
  8
2
100
AcDbLine
 10
298.427964
 20
109.408837
 30
20.000241
 11
298.427964
 21
104.408837
 31
20.000241
  0
LINE
  5
296
100
AcDbEntity
  8
3
100
AcDbLine
 10
298.427964
 20
104.408837
 30
20.000241
 11
295.977964
 21
104.408837
 31
20.000241
  0
LINE
  5
297
100
AcDbEntity
  8
3
100
AcDbLine
 10
295.977964
 20
113.408837
 30
20.000241
 11
293.927964
 21
113.408837
 31
20.000241
  0
ARC
  5
298
100
AcDbEntity
  8
3
100
AcDbCircle
 10
296.427964
 20
113.408837
 30
20.000241
 40
2.5
100
AcDbArc
 50
90.0
 51
180.0
  0
LINE
  5
299
100
AcDbEntity
  8
2
100
AcDbLine
 10
299.127964
 20
115.908837
 30
20.000241
 11
299.127964
 21
113.408837
 31
20.000241
  0
LINE
  5
29A
100
AcDbEntity
  8
3
100
AcDbLine
 10
299.127964
 20
113.408837
 30
20.000241
 11
295.977964
 21
113.408837
 31
20.000241
  0
LINE
  5
29B
100
AcDbEntity
  8
3
100
AcDbLine
 10
299.127964
 20
115.908837
 30
20.000241
 11
296.427964
 21
115.908837
 31
20.000241
  0
LINE
  5
29C
100
AcDbEntity
  8
3
100
AcDbLine
 10
322.927964
 20
113.408837
 30
20.000241
 11
346.727964
 21
113.408837
 31
20.000241
  0
LINE
  5
29D
100
AcDbEntity
  8
1
100
AcDbLine
 10
322.927964
 20
117.908837
 30
20.000241
 11
322.927964
 21
93.908837
 31
20.000241
  0
LINE
  5
29E
100
AcDbEntity
  8
3
100
AcDbLine
 10
349.877964
 20
113.408837
 30
20.000241
 11
349.877964
 21
97.408837
 31
20.000241
  0
LINE
  5
29F
100
AcDbEntity
  8
2
100
AcDbLine
 10
341.927964
 20
109.408837
 30
20.000241
 11
341.927964
 21
97.408837
 31
20.000241
  0
LINE
  5
2A0
100
AcDbEntity
  8
3
100
AcDbLine
 10
340.385055
 20
104.408837
 30
20.000241
 11
340.385055
 21
97.408837
 31
20.000241
  0
LINE
  5
2A1
100
AcDbEntity
  8
3
100
AcDbLine
 10
340.385055
 20
97.408837
 30
20.000241
 11
349.927964
 21
97.408837
 31
20.000241
  0
LINE
  5
2A2
100
AcDbEntity
  8
3
100
AcDbLine
 10
340.385055
 20
104.408837
 30
20.000241
 11
349.877964
 21
104.408837
 31
20.000241
  0
LINE
  5
2A3
100
AcDbEntity
  8
2
100
AcDbLine
 10
346.251772
 20
109.408837
 30
20.000241
 11
346.251772
 21
104.408837
 31
20.000241
  0
LINE
  5
2A4
100
AcDbEntity
  8
2
100
AcDbLine
 10
340.385055
 20
104.408837
 30
20.000241
 11
340.385055
 21
109.408837
 31
20.000241
  0
LINE
  5
2A5
100
AcDbEntity
  8
2
100
AcDbLine
 10
340.385055
 20
109.408837
 30
20.000241
 11
346.251772
 21
109.408837
 31
20.000241
  0
LINE
  5
2A6
100
AcDbEntity
  8
3
100
AcDbLine
 10
346.727964
 20
115.908837
 30
20.000241
 11
349.427964
 21
115.908837
 31
20.000241
  0
LINE
  5
2A7
100
AcDbEntity
  8
3
100
AcDbLine
 10
346.727964
 20
113.408837
 30
20.000241
 11
349.877964
 21
113.408837
 31
20.000241
  0
LINE
  5
2A8
100
AcDbEntity
  8
2
100
AcDbLine
 10
346.727964
 20
115.908837
 30
20.000241
 11
346.727964
 21
113.408837
 31
20.000241
  0
ARC
  5
2A9
100
AcDbEntity
  8
3
100
AcDbCircle
 10
349.427964
 20
113.408837
 30
20.000241
 40
2.5
100
AcDbArc
 50
0.0
 51
90.0
  0
LINE
  5
2AA
100
AcDbEntity
  8
3
100
AcDbLine
 10
349.877964
 20
113.408837
 30
20.000241
 11
351.927964
 21
113.408837
 31
20.000241
  0
ENDBLK
  5
2AC
100
AcDbEntity
  8
0
100
AcDbBlockEnd
  0
BLOCK
  5
442
100
AcDbEntity
  8
0
100
AcDbBlockBegin
  2
*D18
 70
     1
 10
0.0
 20
0.0
 30
0.0
  3
*D18
  1

  0
LINE
  5
443
100
AcDbEntity
  8
0
  6
BYBLOCK
 62
     0
100
AcDbLine
 10
122.990464
 20
245.908837
 30
0.0
 11
180.149631
 21
245.908837
 31
0.0
  0
LINE
  5
444
100
AcDbEntity
  8
0
  6
BYBLOCK
 62
     0
100
AcDbLine
 10
103.990464
 20
227.408837
 30
0.0
 11
180.149631
 21
227.408837
 31
0.0
  0
LINE
  5
445
100
AcDbEntity
  8
0
  6
BYBLOCK
 62
     0
100
AcDbLine
 10
179.969631
 20
243.908837
 30
0.0
 11
179.969631
 21
229.408837
 31
0.0
  0
MTEXT
  5
446
100
AcDbEntity
  8
0
  6
BYBLOCK
 62
     0
100
AcDbMText
 10
187.927964
 20
247.908837
 30
0.0
 40
5.0
 41
0.0
 71
     5
 72
     1
  1
\A1;18.5000
  7
BIGFONT
  0
SOLID
  5
447
100
AcDbEntity
  8
0
  6
BYBLOCK
 62
     0
100
AcDbTrace
 10
179.636298
 20
243.908837
 30
0.0
 11
180.302964
 21
243.908837
 31
0.0
 12
179.969631
 22
245.908837
 32
0.0
 13
179.969631
 23
245.908837
 33
0.0
  0
SOLID
  5
448
100
AcDbEntity
  8
0
  6
BYBLOCK
 62
     0
100
AcDbTrace
 10
179.636298
 20
229.408837
 30
0.0
 11
180.302964
 21
229.408837
 31
0.0
 12
179.969631
 22
227.408837
 32
0.0
 13
179.969631
 23
227.408837
 33
0.0
  0
POINT
  5
449
100
AcDbEntity
  8
DEFPOINTS
  6
BYBLOCK
 62
     0
100
AcDbPoint
 10
122.927964
 20
245.908837
 30
9.364146
  0
POINT
  5
44A
100
AcDbEntity
  8
DEFPOINTS
  6
BYBLOCK
 62
     0
100
AcDbPoint
 10
103.927964
 20
227.408837
 30
9.364146
  0
POINT
  5
44B
100
AcDbEntity
  8
DEFPOINTS
  6
BYBLOCK
 62
     0
100
AcDbPoint
 10
179.969631
 20
227.408837
 30
0.0
  0
ENDBLK
  5
44C
100
AcDbEntity
  8
0
100
AcDbBlockEnd
  0
BLOCK
  5
44D
100
AcDbEntity
  8
0
100
AcDbBlockBegin
  2
*D19
 70
     1
 10
0.0
 20
0.0
 30
0.0
  3
*D19
  1

  0
LINE
  5
44E
100
AcDbEntity
  8
0
  6
BYBLOCK
 62
     0
100
AcDbLine
 10
120.227964
 20
245.971337
 30
0.0
 11
120.227964
 21
263.134876
 31
0.0
  0
LINE
  5
44F
100
AcDbEntity
  8
0
  6
BYBLOCK
 62
     0
100
AcDbLine
 10
72.627964
 20
245.971337
 30
0.0
 11
72.627964
 21
263.134876
 31
0.0
  0
LINE
  5
450
100
AcDbEntity
  8
0
  6
BYBLOCK
 62
     0
100
AcDbLine
 10
118.227964
 20
262.954876
 30
0.0
 11
108.767964
 21
262.954876
 31
0.0
  0
LINE
  5
451
100
AcDbEntity
  8
0
  6
BYBLOCK
 62
     0
100
AcDbLine
 10
74.627964
 20
262.954876
 30
0.0
 11
81.087964
 21
262.954876
 31
0.0
  0
MTEXT
  5
452
100
AcDbEntity
  8
0
  6
BYBLOCK
 62
     0
100
AcDbMText
 10
94.927964
 20
262.954876
 30
0.0
 40
5.0
 41
0.0
 71
     5
 72
     1
  1
\A1;47.6000
  7
BIGFONT
  0
SOLID
  5
453
100
AcDbEntity
  8
0
  6
BYBLOCK
 62
     0
100
AcDbTrace
 10
118.227964
 20
263.288209
 30
0.0
 11
118.227964
 21
262.621543
 31
0.0
 12
120.227964
 22
262.954876
 32
0.0
 13
120.227964
 23
262.954876
 33
0.0
  0
SOLID
  5
454
100
AcDbEntity
  8
0
  6
BYBLOCK
 62
     0
100
AcDbTrace
 10
74.627964
 20
263.288209
 30
0.0
 11
74.627964
 21
262.621543
 31
0.0
 12
72.627964
 22
262.954876
 32
0.0
 13
72.627964
 23
262.954876
 33
0.0
  0
POINT
  5
455
100
AcDbEntity
  8
DEFPOINTS
  6
BYBLOCK
 62
     0
100
AcDbPoint
 10
120.227964
 20
245.908837
 30
9.364146
  0
POINT
  5
456
100
AcDbEntity
  8
DEFPOINTS
  6
BYBLOCK
 62
     0
100
AcDbPoint
 10
72.627964
 20
245.908837
 30
9.364146
  0
POINT
  5
457
100
AcDbEntity
  8
DEFPOINTS
  6
BYBLOCK
 62
     0
100
AcDbPoint
 10
72.627964
 20
262.954876
 30
0.0
  0
ENDBLK
  5
458
100
AcDbEntity
  8
0
100
AcDbBlockEnd
  0
BLOCK
  5
459
100
AcDbEntity
  8
0
100
AcDbBlockBegin
  2
*D20
 70
     1
 10
0.0
 20
0.0
 30
0.0
  3
*D20
  1

  0
LINE
  5
45A
100
AcDbEntity
  8
0
  6
BYBLOCK
 62
     0
100
AcDbLine
 10
125.427964
 20
243.471337
 30
0.0
 11
125.427964
 21
269.134876
 31
0.0
  0
LINE
  5
45B
100
AcDbEntity
  8
0
  6
BYBLOCK
 62
     0
100
AcDbLine
 10
67.746397
 20
243.471337
 30
0.0
 11
67.746397
 21
269.134876
 31
0.0
  0
LINE
  5
45C
100
AcDbEntity
  8
0
  6
BYBLOCK
 62
     0
100
AcDbLine
 10
123.427964
 20
268.954876
 30
0.0
 11
100.184631
 21
268.954876
 31
0.0
  0
LINE
  5
45D
100
AcDbEntity
  8
0
  6
BYBLOCK
 62
     0
100
AcDbLine
 10
69.746397
 20
268.954876
 30
0.0
 11
91.671298
 21
268.954876
 31
0.0
  0
MTEXT
  5
45E
100
AcDbEntity
  8
0
  6
BYBLOCK
 62
     0
100
AcDbMText
 10
95.927964
 20
268.954876
 30
0.0
 40
5.0
 41
0.0
 71
     5
 72
     1
  1
\A1;58
  7
BIGFONT
  0
SOLID
  5
45F
100
AcDbEntity
  8
0
  6
BYBLOCK
 62
     0
100
AcDbTrace
 10
123.427964
 20
269.288209
 30
0.0
 11
123.427964
 21
268.621543
 31
0.0
 12
125.427964
 22
268.954876
 32
0.0
 13
125.427964
 23
268.954876
 33
0.0
  0
SOLID
  5
460
100
AcDbEntity
  8
0
  6
BYBLOCK
 62
     0
100
AcDbTrace
 10
69.746397
 20
269.288209
 30
0.0
 11
69.746397
 21
268.621543
 31
0.0
 12
67.746397
 22
268.954876
 32
0.0
 13
67.746397
 23
268.954876
 33
0.0
  0
POINT
  5
461
100
AcDbEntity
  8
DEFPOINTS
  6
BYBLOCK
 62
     0
100
AcDbPoint
 10
125.427964
 20
243.408837
 30
9.364146
  0
POINT
  5
462
100
AcDbEntity
  8
DEFPOINTS
  6
BYBLOCK
 62
     0
100
AcDbPoint
 10
67.746397
 20
243.408837
 30
0.0
  0
POINT
  5
463
100
AcDbEntity
  8
DEFPOINTS
  6
BYBLOCK
 62
     0
100
AcDbPoint
 10
67.746397
 20
268.954876
 30
0.0
  0
ENDBLK
  5
464
100
AcDbEntity
  8
0
100
AcDbBlockEnd
  0
BLOCK
  5
465
100
AcDbEntity
  8
0
100
AcDbBlockBegin
  2
*D21
 70
     1
 10
0.0
 20
0.0
 30
0.0
  3
*D21
  1

  0
LINE
  5
466
100
AcDbEntity
  8
0
  6
BYBLOCK
 62
     0
100
AcDbLine
 10
121.427964
 20
232.892376
 30
0.0
 11
121.427964
 21
220.274876
 31
0.0
  0
LINE
  5
467
100
AcDbEntity
  8
0
  6
BYBLOCK
 62
     0
100
AcDbLine
 10
72.427964
 20
232.892376
 30
0.0
 11
72.427964
 21
220.274876
 31
0.0
  0
LINE
  5
468
100
AcDbEntity
  8
0
  6
BYBLOCK
 62
     0
100
AcDbLine
 10
119.427964
 20
220.454876
 30
0.0
 11
109.851298
 21
220.454876
 31
0.0
  0
LINE
  5
469
100
AcDbEntity
  8
0
  6
BYBLOCK
 62
     0
100
AcDbLine
 10
74.427964
 20
220.454876
 30
0.0
 11
83.004631
 21
220.454876
 31
0.0
  0
MTEXT
  5
46A
100
AcDbEntity
  8
0
  6
BYBLOCK
 62
     0
100
AcDbMText
 10
96.427964
 20
220.454876
 30
0.0
 40
5.0
 41
0.0
 71
     5
 72
     1
  1
\A1;49.0000
  7
BIGFONT
  0
SOLID
  5
46B
100
AcDbEntity
  8
0
  6
BYBLOCK
 62
     0
100
AcDbTrace
 10
119.427964
 20
220.788209
 30
0.0
 11
119.427964
 21
220.121543
 31
0.0
 12
121.427964
 22
220.454876
 32
0.0
 13
121.427964
 23
220.454876
 33
0.0
  0
SOLID
  5
46C
100
AcDbEntity
  8
0
  6
BYBLOCK
 62
     0
100
AcDbTrace
 10
74.427964
 20
220.788209
 30
0.0
 11
74.427964
 21
220.121543
 31
0.0
 12
72.427964
 22
220.454876
 32
0.0
 13
72.427964
 23
220.454876
 33
0.0
  0
POINT
  5
46D
100
AcDbEntity
  8
DEFPOINTS
  6
BYBLOCK
 62
     0
100
AcDbPoint
 10
121.427964
 20
232.954876
 30
0.0
  0
POINT
  5
46E
100
AcDbEntity
  8
DEFPOINTS
  6
BYBLOCK
 62
     0
100
AcDbPoint
 10
72.427964
 20
232.954876
 30
0.0
  0
POINT
  5
46F
100
AcDbEntity
  8
DEFPOINTS
  6
BYBLOCK
 62
     0
100
AcDbPoint
 10
72.427964
 20
220.454876
 30
0.0
  0
ENDBLK
  5
470
100
AcDbEntity
  8
0
100
AcDbBlockEnd
  0
BLOCK
  5
471
100
AcDbEntity
  8
0
100
AcDbBlockBegin
  2
*D22
 70
     1
 10
0.0
 20
0.0
 30
0.0
  3
*D22
  1

  0
LINE
  5
472
100
AcDbEntity
  8
0
  6
BYBLOCK
 62
     0
100
AcDbLine
 10
123.877964
 20
234.346337
 30
0.0
 11
123.877964
 21
211.274876
 31
0.0
  0
LINE
  5
473
100
AcDbEntity
  8
0
  6
BYBLOCK
 62
     0
100
AcDbLine
 10
69.977964
 20
234.346337
 30
0.0
 11
69.977964
 21
211.274876
 31
0.0
  0
LINE
  5
474
100
AcDbEntity
  8
0
  6
BYBLOCK
 62
     0
100
AcDbLine
 10
121.877964
 20
211.454876
 30
0.0
 11
111.267964
 21
211.454876
 31
0.0
  0
LINE
  5
475
100
AcDbEntity
  8
0
  6
BYBLOCK
 62
     0
100
AcDbLine
 10
71.977964
 20
211.454876
 30
0.0
 11
83.587964
 21
211.454876
 31
0.0
  0
MTEXT
  5
476
100
AcDbEntity
  8
0
  6
BYBLOCK
 62
     0
100
AcDbMText
 10
97.427964
 20
211.454876
 30
0.0
 40
5.0
 41
0.0
 71
     5
 72
     1
  1
\A1;53.9000
  7
BIGFONT
  0
SOLID
  5
477
100
AcDbEntity
  8
0
  6
BYBLOCK
 62
     0
100
AcDbTrace
 10
121.877964
 20
211.788209
 30
0.0
 11
121.877964
 21
211.121543
 31
0.0
 12
123.877964
 22
211.454876
 32
0.0
 13
123.877964
 23
211.454876
 33
0.0
  0
SOLID
  5
478
100
AcDbEntity
  8
0
  6
BYBLOCK
 62
     0
100
AcDbTrace
 10
71.977964
 20
211.788209
 30
0.0
 11
71.977964
 21
211.121543
 31
0.0
 12
69.977964
 22
211.454876
 32
0.0
 13
69.977964
 23
211.454876
 33
0.0
  0
POINT
  5
479
100
AcDbEntity
  8
DEFPOINTS
  6
BYBLOCK
 62
     0
100
AcDbPoint
 10
123.877964
 20
234.408837
 30
0.0
  0
POINT
  5
47A
100
AcDbEntity
  8
DEFPOINTS
  6
BYBLOCK
 62
     0
100
AcDbPoint
 10
69.977964
 20
234.408837
 30
0.0
  0
POINT
  5
47B
100
AcDbEntity
  8
DEFPOINTS
  6
BYBLOCK
 62
     0
100
AcDbPoint
 10
69.977964
 20
211.454876
 30
0.0
  0
ENDBLK
  5
47C
100
AcDbEntity
  8
0
100
AcDbBlockEnd
  0
BLOCK
  5
47D
100
AcDbEntity
  8
0
100
AcDbBlockBegin
  2
*D23
 70
     1
 10
0.0
 20
0.0
 30
0.0
  3
*D23
  1

  0
LINE
  5
47E
100
AcDbEntity
  8
0
  6
BYBLOCK
 62
     0
100
AcDbLine
 10
97.427964
 20
191.858837
 30
0.0
 11
158.204512
 21
191.858837
 31
0.0
  0
LINE
  5
47F
100
AcDbEntity
  8
0
  6
BYBLOCK
 62
     0
100
AcDbLine
 10
97.427964
 20
183.908837
 30
0.0
 11
158.204512
 21
183.908837
 31
0.0
  0
LINE
  5
480
100
AcDbEntity
  8
0
  6
BYBLOCK
 62
     0
100
AcDbLine
 10
157.204512
 20
189.858837
 30
0.0
 11
157.204512
 21
189.768837
 31
0.0
  0
LINE
  5
481
100
AcDbEntity
  8
0
  6
BYBLOCK
 62
     0
100
AcDbLine
 10
157.204512
 20
185.908837
 30
0.0
 11
157.204512
 21
186.405327
 31
0.0
  0
MTEXT
  5
482
100
AcDbEntity
  8
0
  6
BYBLOCK
 62
     0
100
AcDbMText
 10
157.204512
 20
188.161994
 30
0.0
 40
5.0
 41
0.0
 71
     5
 72
     1
  1
\A1;8
  7
BIGFONT
 11
0.0
 21
1.0
 31
0.0
  0
SOLID
  5
483
100
AcDbEntity
  8
0
  6
BYBLOCK
 62
     0
100
AcDbTrace
 10
156.871179
 20
189.858837
 30
0.0
 11
157.537845
 21
189.858837
 31
0.0
 12
157.204512
 22
191.858837
 32
0.0
 13
157.204512
 23
191.858837
 33
0.0
  0
SOLID
  5
484
100
AcDbEntity
  8
0
  6
BYBLOCK
 62
     0
100
AcDbTrace
 10
156.871179
 20
185.908837
 30
0.0
 11
157.537845
 21
185.908837
 31
0.0
 12
157.204512
 22
183.908837
 32
0.0
 13
157.204512
 23
183.908837
 33
0.0
  0
POINT
  5
485
100
AcDbEntity
  8
DEFPOINTS
  6
BYBLOCK
 62
     0
100
AcDbPoint
 10
96.427964
 20
191.858837
 30
9.364146
  0
POINT
  5
486
100
AcDbEntity
  8
DEFPOINTS
  6
BYBLOCK
 62
     0
100
AcDbPoint
 10
96.427964
 20
183.908837
 30
9.364146
  0
POINT
  5
487
100
AcDbEntity
  8
DEFPOINTS
  6
BYBLOCK
 62
     0
100
AcDbPoint
 10
157.204512
 20
183.908837
 30
0.0
  0
ENDBLK
  5
488
100
AcDbEntity
  8
0
100
AcDbBlockEnd
  0
BLOCK
  5
489
100
AcDbEntity
  8
0
100
AcDbBlockBegin
  2
*D24
 70
     1
 10
0.0
 20
0.0
 30
0.0
  3
*D24
  1

  0
LINE
  5
48A
100
AcDbEntity
  8
0
  6
BYBLOCK
 62
     0
100
AcDbLine
 10
88.927964
 20
190.856709
 30
0.0
 11
88.927964
 21
201.134876
 31
0.0
  0
LINE
  5
48B
100
AcDbEntity
  8
0
  6
BYBLOCK
 62
     0
100
AcDbLine
 10
103.927964
 20
190.856709
 30
0.0
 11
103.927964
 21
201.134876
 31
0.0
  0
LINE
  5
48C
100
AcDbEntity
  8
0
  6
BYBLOCK
 62
     0
100
AcDbLine
 10
90.927964
 20
200.954876
 30
0.0
 11
101.927964
 21
200.954876
 31
0.0
  0
MTEXT
  5
48D
100
AcDbEntity
  8
0
  6
BYBLOCK
 62
     0
100
AcDbMText
 10
96.927964
 20
200.954876
 30
0.0
 40
5.0
 41
0.0
 71
     5
 72
     1
  1
\A1;15.0000
  7
BIGFONT
  0
SOLID
  5
48E
100
AcDbEntity
  8
0
  6
BYBLOCK
 62
     0
100
AcDbTrace
 10
90.927964
 20
201.288209
 30
0.0
 11
90.927964
 21
200.621543
 31
0.0
 12
88.927964
 22
200.954876
 32
0.0
 13
88.927964
 23
200.954876
 33
0.0
  0
SOLID
  5
48F
100
AcDbEntity
  8
0
  6
BYBLOCK
 62
     0
100
AcDbTrace
 10
101.927964
 20
201.288209
 30
0.0
 11
101.927964
 21
200.621543
 31
0.0
 12
103.927964
 22
200.954876
 32
0.0
 13
103.927964
 23
200.954876
 33
0.0
  0
POINT
  5
490
100
AcDbEntity
  8
DEFPOINTS
  6
BYBLOCK
 62
     0
100
AcDbPoint
 10
88.927964
 20
190.794209
 30
9.364146
  0
POINT
  5
491
100
AcDbEntity
  8
DEFPOINTS
  6
BYBLOCK
 62
     0
100
AcDbPoint
 10
103.927964
 20
190.794209
 30
9.364146
  0
POINT
  5
492
100
AcDbEntity
  8
DEFPOINTS
  6
BYBLOCK
 62
     0
100
AcDbPoint
 10
103.927964
 20
200.954876
 30
0.0
  0
ENDBLK
  5
493
100
AcDbEntity
  8
0
100
AcDbBlockEnd
  0
BLOCK
  5
494
100
AcDbEntity
  8
0
100
AcDbBlockBegin
  2
*D25
 70
     1
 10
0.0
 20
0.0
 30
0.0
  3
*D25
  1

  0
LINE
  5
495
100
AcDbEntity
  8
0
  6
BYBLOCK
 62
     0
100
AcDbLine
 10
100.43362
 20
156.954876
 30
0.0
 11
98.43362
 21
156.954876
 31
0.0
  0
LINE
  5
496
100
AcDbEntity
  8
0
  6
BYBLOCK
 62
     0
100
AcDbLine
 10
98.43362
 20
156.954876
 30
0.0
 11
91.782376
 21
183.332151
 31
0.0
  0
MTEXT
  5
497
100
AcDbEntity
  8
0
  6
BYBLOCK
 62
     0
100
AcDbMText
 10
115.52362
 20
156.954876
 30
0.0
 40
5.0
 41
0.0
 71
     5
 72
     1
  1
\A1;R19.0000
  7
BIGFONT
  0
SOLID
  5
498
100
AcDbEntity
  8
0
  6
BYBLOCK
 62
     0
100
AcDbTrace
 10
92.594601
 20
181.474356
 30
0.0
 11
91.948169
 21
181.311353
 31
0.0
 12
91.782376
 22
183.332151
 32
0.0
 13
91.782376
 23
183.332151
 33
0.0
  0
POINT
  5
499
100
AcDbEntity
  8
DEFPOINTS
  6
BYBLOCK
 62
     0
100
AcDbPoint
 10
91.782376
 20
183.332151
 30
9.364146
  0
POINT
  5
49A
100
AcDbEntity
  8
DEFPOINTS
  6
BYBLOCK
 62
     0
100
AcDbPoint
 10
96.427964
 20
164.908837
 30
9.364146
  0
ENDBLK
  5
49B
100
AcDbEntity
  8
0
100
AcDbBlockEnd
  0
BLOCK
  5
49C
100
AcDbEntity
  8
0
100
AcDbBlockBegin
  2
*D26
 70
     1
 10
0.0
 20
0.0
 30
0.0
  3
*D26
  1

  0
LINE
  5
49D
100
AcDbEntity
  8
0
  6
BYBLOCK
 62
     0
100
AcDbLine
 10
96.427964
 20
164.908837
 30
0.0
 11
74.63739
 21
164.267855
 31
0.0
  0
MTEXT
  5
49E
100
AcDbEntity
  8
0
  6
BYBLOCK
 62
     0
100
AcDbMText
 10
36.802594
 20
163.467463
 30
0.0
 40
5.0
 41
0.0
 71
     5
 72
     1
  1
\A1;R23.8000
  7
BIGFONT
  0
SOLID
  5
49F
100
AcDbEntity
  8
0
  6
BYBLOCK
 62
     0
100
AcDbTrace
 10
74.627589
 20
164.601044
 30
0.0
 11
74.647191
 21
163.934665
 31
0.0
 12
72.638254
 22
164.209049
 32
0.0
 13
72.638254
 23
164.209049
 33
0.0
  0
POINT
  5
4A0
100
AcDbEntity
  8
DEFPOINTS
  6
BYBLOCK
 62
     0
100
AcDbPoint
 10
72.638254
 20
164.209049
 30
9.364146
  0
POINT
  5
4A1
100
AcDbEntity
  8
DEFPOINTS
  6
BYBLOCK
 62
     0
100
AcDbPoint
 10
96.427964
 20
164.908837
 30
9.364146
  0
ENDBLK
  5
4A2
100
AcDbEntity
  8
0
100
AcDbBlockEnd
  0
BLOCK
  5
4A3
100
AcDbEntity
  8
0
100
AcDbBlockBegin
  2
*D27
 70
     1
 10
0.0
 20
0.0
 30
0.0
  3
*D27
  1

  0
LINE
  5
4A4
100
AcDbEntity
  8
0
  6
BYBLOCK
 62
     0
100
AcDbLine
 10
96.427964
 20
164.908837
 30
0.0
 11
74.259126
 21
168.754953
 31
0.0
  0
MTEXT
  5
4A5
100
AcDbEntity
  8
0
  6
BYBLOCK
 62
     0
100
AcDbMText
 10
28.291133
 20
174.886679
 30
0.0
 40
5.0
 41
0.0
 71
     5
 72
     1
  1
\A1;R24.5000
  7
BIGFONT
  0
SOLID
  5
4A6
100
AcDbEntity
  8
0
  6
BYBLOCK
 62
     0
100
AcDbTrace
 10
74.316106
 20
169.08338
 30
0.0
 11
74.202147
 21
168.426525
 31
0.0
 12
72.288563
 22
169.09683
 32
0.0
 13
72.288563
 23
169.09683
 33
0.0
  0
POINT
  5
4A7
100
AcDbEntity
  8
DEFPOINTS
  6
BYBLOCK
 62
     0
100
AcDbPoint
 10
72.288563
 20
169.09683
 30
9.364146
  0
POINT
  5
4A8
100
AcDbEntity
  8
DEFPOINTS
  6
BYBLOCK
 62
     0
100
AcDbPoint
 10
96.427964
 20
164.908837
 30
9.364146
  0
ENDBLK
  5
4A9
100
AcDbEntity
  8
0
100
AcDbBlockEnd
  0
BLOCK
  5
4AA
100
AcDbEntity
  8
0
100
AcDbBlockBegin
  2
*D28
 70
     1
 10
0.0
 20
0.0
 30
0.0
  3
*D28
  1

  0
LINE
  5
4AB
100
AcDbEntity
  8
0
  6
BYBLOCK
 62
     0
100
AcDbLine
 10
96.427964
 20
164.908837
 30
0.0
 11
72.397022
 21
171.618256
 31
0.0
  0
MTEXT
  5
4AC
100
AcDbEntity
  8
0
  6
BYBLOCK
 62
     0
100
AcDbMText
 10
24.718757
 20
188.454876
 30
0.0
 40
5.0
 41
0.0
 71
     5
 72
     1
  1
\A1;R26.9500
  7
BIGFONT
  0
SOLID
  5
4AD
100
AcDbEntity
  8
0
  6
BYBLOCK
 62
     0
100
AcDbTrace
 10
72.48666
 20
171.93931
 30
0.0
 11
72.307384
 21
171.297201
 31
0.0
 12
70.470694
 22
172.156085
 32
0.0
 13
70.470694
 23
172.156085
 33
0.0
  0
POINT
  5
4AE
100
AcDbEntity
  8
DEFPOINTS
  6
BYBLOCK
 62
     0
100
AcDbPoint
 10
70.470694
 20
172.156085
 30
9.364146
  0
POINT
  5
4AF
100
AcDbEntity
  8
DEFPOINTS
  6
BYBLOCK
 62
     0
100
AcDbPoint
 10
96.427964
 20
164.908837
 30
9.364146
  0
ENDBLK
  5
4B0
100
AcDbEntity
  8
0
100
AcDbBlockEnd
  0
BLOCK
  5
4B1
100
AcDbEntity
  8
0
100
AcDbBlockBegin
  2
*D29
 70
     1
 10
0.0
 20
0.0
 30
0.0
  3
*D29
  1

  0
LINE
  5
4B2
100
AcDbEntity
  8
0
  6
BYBLOCK
 62
     0
100
AcDbLine
 10
96.427964
 20
164.908837
 30
0.0
 11
72.118851
 21
176.659029
 31
0.0
  0
MTEXT
  5
4B3
100
AcDbEntity
  8
0
  6
BYBLOCK
 62
     0
100
AcDbMText
 10
49.467141
 20
191.454876
 30
0.0
 40
5.0
 41
0.0
 71
     5
 72
     1
  1
\A1;R29.0000
  7
BIGFONT
  0
SOLID
  5
4B4
100
AcDbEntity
  8
0
  6
BYBLOCK
 62
     0
100
AcDbTrace
 10
72.263915
 20
176.959142
 30
0.0
 11
71.973787
 21
176.358917
 31
0.0
 12
70.318176
 22
177.529414
 32
0.0
 13
70.318176
 23
177.529414
 33
0.0
  0
POINT
  5
4B5
100
AcDbEntity
  8
DEFPOINTS
  6
BYBLOCK
 62
     0
100
AcDbPoint
 10
70.318176
 20
177.529414
 30
9.364146
  0
POINT
  5
4B6
100
AcDbEntity
  8
DEFPOINTS
  6
BYBLOCK
 62
     0
100
AcDbPoint
 10
96.427964
 20
164.908837
 30
9.364146
  0
ENDBLK
  5
4B7
100
AcDbEntity
  8
0
100
AcDbBlockEnd
  0
BLOCK
  5
4B8
100
AcDbEntity
  8
0
100
AcDbBlockBegin
  2
*D30
 70
     1
 10
0.0
 20
0.0
 30
0.0
  3
*D30
  1

  0
LINE
  5
4B9
100
AcDbEntity
  8
0
  6
BYBLOCK
 62
     0
100
AcDbLine
 10
122.990464
 20
245.908837
 30
0.0
 11
164.816298
 21
245.908837
 31
0.0
  0
LINE
  5
4BA
100
AcDbEntity
  8
0
  6
BYBLOCK
 62
     0
100
AcDbLine
 10
123.440464
 20
234.408837
 30
0.0
 11
164.816298
 21
234.408837
 31
0.0
  0
LINE
  5
4BB
100
AcDbEntity
  8
0
  6
BYBLOCK
 62
     0
100
AcDbLine
 10
164.636298
 20
243.908837
 30
0.0
 11
164.636298
 21
236.408837
 31
0.0
  0
MTEXT
  5
4BC
100
AcDbEntity
  8
0
  6
BYBLOCK
 62
     0
100
AcDbMText
 10
171.927964
 20
247.908837
 30
0.0
 40
5.0
 41
0.0
 71
     5
 72
     1
  1
\A1;11.5000
  7
BIGFONT
  0
SOLID
  5
4BD
100
AcDbEntity
  8
0
  6
BYBLOCK
 62
     0
100
AcDbTrace
 10
164.302964
 20
243.908837
 30
0.0
 11
164.969631
 21
243.908837
 31
0.0
 12
164.636298
 22
245.908837
 32
0.0
 13
164.636298
 23
245.908837
 33
0.0
  0
SOLID
  5
4BE
100
AcDbEntity
  8
0
  6
BYBLOCK
 62
     0
100
AcDbTrace
 10
164.302964
 20
236.408837
 30
0.0
 11
164.969631
 21
236.408837
 31
0.0
 12
164.636298
 22
234.408837
 32
0.0
 13
164.636298
 23
234.408837
 33
0.0
  0
POINT
  5
4BF
100
AcDbEntity
  8
DEFPOINTS
  6
BYBLOCK
 62
     0
100
AcDbPoint
 10
122.927964
 20
245.908837
 30
9.364146
  0
POINT
  5
4C0
100
AcDbEntity
  8
DEFPOINTS
  6
BYBLOCK
 62
     0
100
AcDbPoint
 10
123.377964
 20
234.408837
 30
9.364146
  0
POINT
  5
4C1
100
AcDbEntity
  8
DEFPOINTS
  6
BYBLOCK
 62
     0
100
AcDbPoint
 10
164.636298
 20
234.408837
 30
0.0
  0
ENDBLK
  5
4C2
100
AcDbEntity
  8
0
100
AcDbBlockEnd
  0
BLOCK
  5
4C3
100
AcDbEntity
  8
0
100
AcDbBlockBegin
  2
*D31
 70
     1
 10
0.0
 20
0.0
 30
0.0
  3
*D31
  1

  0
LINE
  5
4C4
100
AcDbEntity
  8
0
  6
BYBLOCK
 62
     0
100
AcDbLine
 10
122.990464
 20
245.908837
 30
0.0
 11
138.482964
 21
245.908837
 31
0.0
  0
LINE
  5
4C5
100
AcDbEntity
  8
0
  6
BYBLOCK
 62
     0
100
AcDbLine
 10
125.490464
 20
243.408837
 30
0.0
 11
138.482964
 21
243.408837
 31
0.0
  0
LINE
  5
4C6
100
AcDbEntity
  8
0
  6
BYBLOCK
 62
     0
100
AcDbLine
 10
138.302964
 20
247.908837
 30
0.0
 11
138.302964
 21
249.908837
 31
0.0
  0
LINE
  5
4C7
100
AcDbEntity
  8
0
  6
BYBLOCK
 62
     0
100
AcDbLine
 10
138.302964
 20
241.408837
 30
0.0
 11
138.302964
 21
239.408837
 31
0.0
  0
MTEXT
  5
4C8
100
AcDbEntity
  8
0
  6
BYBLOCK
 62
     0
100
AcDbMText
 10
144.927964
 20
249.908837
 30
0.0
 40
5.0
 41
0.0
 71
     5
 72
     1
  1
\A1;2.5000
  7
BIGFONT
  0
LINE
  5
4C9
100
AcDbEntity
  8
0
  6
BYBLOCK
 62
     0
100
AcDbLine
 10
138.302964
 20
245.908837
 30
0.0
 11
138.302964
 21
243.408837
 31
0.0
  0
SOLID
  5
4CA
100
AcDbEntity
  8
0
  6
BYBLOCK
 62
     0
100
AcDbTrace
 10
137.969631
 20
247.908837
 30
0.0
 11
138.636298
 21
247.908837
 31
0.0
 12
138.302964
 22
245.908837
 32
0.0
 13
138.302964
 23
245.908837
 33
0.0
  0
SOLID
  5
4CB
100
AcDbEntity
  8
0
  6
BYBLOCK
 62
     0
100
AcDbTrace
 10
137.969631
 20
241.408837
 30
0.0
 11
138.636298
 21
241.408837
 31
0.0
 12
138.302964
 22
243.408837
 32
0.0
 13
138.302964
 23
243.408837
 33
0.0
  0
POINT
  5
4CC
100
AcDbEntity
  8
DEFPOINTS
  6
BYBLOCK
 62
     0
100
AcDbPoint
 10
122.927964
 20
245.908837
 30
9.364146
  0
POINT
  5
4CD
100
AcDbEntity
  8
DEFPOINTS
  6
BYBLOCK
 62
     0
100
AcDbPoint
 10
125.427964
 20
243.408837
 30
9.364146
  0
POINT
  5
4CE
100
AcDbEntity
  8
DEFPOINTS
  6
BYBLOCK
 62
     0
100
AcDbPoint
 10
138.302964
 20
243.408837
 30
0.0
  0
ENDBLK
  5
4CF
100
AcDbEntity
  8
0
100
AcDbBlockEnd
  0
BLOCK
  5
4D0
100
AcDbEntity
  8
0
100
AcDbBlockBegin
  2
*D32
 70
     1
 10
0.0
 20
0.0
 30
0.0
  3
*D32
  1

  0
LINE
  5
4D1
100
AcDbEntity
  8
0
  6
BYBLOCK
 62
     0
100
AcDbLine
 10
274.427964
 20
243.408837
 30
0.0
 11
274.754063
 21
243.787862
 31
0.0
  0
MTEXT
  5
4D2
100
AcDbEntity
  8
0
  6
BYBLOCK
 62
     0
100
AcDbMText
 10
296.986738
 20
258.482463
 30
0.0
 40
5.0
 41
0.0
 71
     5
 72
     1
  1
\A1;R2.5
  7
BIGFONT
  0
SOLID
  5
4D3
100
AcDbEntity
  8
0
  6
BYBLOCK
 62
     0
100
AcDbTrace
 10
274.50138
 20
244.005261
 30
0.0
 11
275.006746
 21
243.570463
 31
0.0
 12
276.058457
 22
245.303961
 32
0.0
 13
276.058457
 23
245.303961
 33
0.0
  0
POINT
  5
4D4
100
AcDbEntity
  8
DEFPOINTS
  6
BYBLOCK
 62
     0
100
AcDbPoint
 10
276.058457
 20
245.303961
 30
9.364146
  0
POINT
  5
4D5
100
AcDbEntity
  8
DEFPOINTS
  6
BYBLOCK
 62
     0
100
AcDbPoint
 10
274.427964
 20
243.408837
 30
9.364146
  0
ENDBLK
  5
4D6
100
AcDbEntity
  8
0
100
AcDbBlockEnd
  0
BLOCK
  5
4D7
100
AcDbEntity
  8
0
100
AcDbBlockBegin
  2
*D33
 70
     1
 10
0.0
 20
0.0
 30
0.0
  3
*D33
  1

  0
LINE
  5
4D8
100
AcDbEntity
  8
0
  6
BYBLOCK
 62
     0
100
AcDbLine
 10
221.427964
 20
243.408837
 30
0.0
 11
221.146862
 21
243.822336
 31
0.0
  0
MTEXT
  5
4D9
100
AcDbEntity
  8
0
  6
BYBLOCK
 62
     0
100
AcDbMText
 10
204.197712
 20
254.647559
 30
0.0
 40
5.0
 41
0.0
 71
     5
 72
     1
  1
\A1;R2.5
  7
BIGFONT
  0
SOLID
  5
4DA
100
AcDbEntity
  8
0
  6
BYBLOCK
 62
     0
100
AcDbTrace
 10
221.422528
 20
244.009738
 30
0.0
 11
220.871196
 21
243.634934
 31
0.0
 12
220.022451
 22
245.476331
 32
0.0
 13
220.022451
 23
245.476331
 33
0.0
  0
POINT
  5
4DB
100
AcDbEntity
  8
DEFPOINTS
  6
BYBLOCK
 62
     0
100
AcDbPoint
 10
220.022451
 20
245.476331
 30
9.364146
  0
POINT
  5
4DC
100
AcDbEntity
  8
DEFPOINTS
  6
BYBLOCK
 62
     0
100
AcDbPoint
 10
221.427964
 20
243.408837
 30
9.364146
  0
ENDBLK
  5
4DD
100
AcDbEntity
  8
0
100
AcDbBlockEnd
  0
BLOCK
  5
4DE
100
AcDbEntity
  8
0
100
AcDbBlockBegin
  2
*D34
 70
     1
 10
0.0
 20
0.0
 30
0.0
  3
*D34
  1

  0
LINE
  5
4DF
100
AcDbEntity
  8
0
  6
BYBLOCK
 62
     0
100
AcDbLine
 10
123.990464
 20
245.908837
 30
0.0
 11
150.982964
 21
245.908837
 31
0.0
  0
LINE
  5
4E0
100
AcDbEntity
  8
0
  6
BYBLOCK
 62
     0
100
AcDbLine
 10
121.990464
 20
239.408837
 30
0.0
 11
150.982964
 21
239.408837
 31
0.0
  0
LINE
  5
4E1
100
AcDbEntity
  8
0
  6
BYBLOCK
 62
     0
100
AcDbLine
 10
150.802964
 20
243.908837
 30
0.0
 11
150.802964
 21
241.408837
 31
0.0
  0
MTEXT
  5
4E2
100
AcDbEntity
  8
0
  6
BYBLOCK
 62
     0
100
AcDbMText
 10
157.427964
 20
248.954876
 30
0.0
 40
5.0
 41
0.0
 71
     5
 72
     1
  1
\A1;6.5000
  7
BIGFONT
  0
SOLID
  5
4E3
100
AcDbEntity
  8
0
  6
BYBLOCK
 62
     0
100
AcDbTrace
 10
150.469631
 20
243.908837
 30
0.0
 11
151.136298
 21
243.908837
 31
0.0
 12
150.802964
 22
245.908837
 32
0.0
 13
150.802964
 23
245.908837
 33
0.0
  0
SOLID
  5
4E4
100
AcDbEntity
  8
0
  6
BYBLOCK
 62
     0
100
AcDbTrace
 10
150.469631
 20
241.408837
 30
0.0
 11
151.136298
 21
241.408837
 31
0.0
 12
150.802964
 22
239.408837
 32
0.0
 13
150.802964
 23
239.408837
 33
0.0
  0
POINT
  5
4E5
100
AcDbEntity
  8
DEFPOINTS
  6
BYBLOCK
 62
     0
100
AcDbPoint
 10
123.927964
 20
245.908837
 30
0.0
  0
POINT
  5
4E6
100
AcDbEntity
  8
DEFPOINTS
  6
BYBLOCK
 62
     0
100
AcDbPoint
 10
121.927964
 20
239.408837
 30
0.0
  0
POINT
  5
4E7
100
AcDbEntity
  8
DEFPOINTS
  6
BYBLOCK
 62
     0
100
AcDbPoint
 10
150.802964
 20
239.408837
 30
0.0
  0
ENDBLK
  5
4E8
100
AcDbEntity
  8
0
100
AcDbBlockEnd
  0
BLOCK
  5
4F5
100
AcDbEntity
  8
0
100
AcDbBlockBegin
  2
*D35
 70
     1
 10
0.0
 20
0.0
 30
0.0
  3
*D35
  1

  0
LINE
  5
4ED
100
AcDbEntity
  8
0
  6
BYBLOCK
 62
     0
100
AcDbLine
 10
206.5
 20
255.0
 30
0.0
 11
208.5
 21
255.0
 31
0.0
  0
LINE
  5
4EE
100
AcDbEntity
  8
0
  6
BYBLOCK
 62
     0
100
AcDbLine
 10
208.5
 20
255.0
 30
0.0
 11
243.47316
 21
218.309607
 31
0.0
  0
MTEXT
  5
4EF
100
AcDbEntity
  8
0
  6
BYBLOCK
 62
     0
100
AcDbMText
 10
198.91
 20
255.0
 30
0.0
 40
5.0
 41
0.0
 71
     5
 72
     1
  1
\A1;R2.5
  0
SOLID
  5
4F0
100
AcDbEntity
  8
0
  6
BYBLOCK
 62
     0
100
AcDbTrace
 10
242.334511
 20
219.987282
 30
0.0
 11
241.851949
 21
219.527305
 31
0.0
 12
243.47316
 22
218.309607
 32
0.0
 13
243.47316
 23
218.309607
 33
0.0
  0
LINE
  5
4F1
100
AcDbEntity
  8
0
  6
BYBLOCK
 62
     0
100
AcDbLine
 10
245.108071
 20
216.5
 30
0.0
 11
245.288071
 21
216.5
 31
0.0
  0
LINE
  5
4F2
100
AcDbEntity
  8
0
  6
BYBLOCK
 62
     0
100
AcDbLine
 10
245.198071
 20
216.41
 30
0.0
 11
245.198071
 21
216.59
 31
0.0
  0
POINT
  5
4F3
100
AcDbEntity
  8
DEFPOINTS
  6
BYBLOCK
 62
     0
100
AcDbPoint
 10
243.47316
 20
218.309607
 30
9.364146
  0
POINT
  5
4F4
100
AcDbEntity
  8
DEFPOINTS
  6
BYBLOCK
 62
     0
100
AcDbPoint
 10
245.198071
 20
216.5
 30
9.364146
  0
ENDBLK
  5
4F6
100
AcDbEntity
  8
0
100
AcDbBlockEnd
  0
BLOCK
  5
500
100
AcDbEntity
  8
0
100
AcDbBlockBegin
  2
*D36
 70
     1
 10
0.0
 20
0.0
 30
0.0
  3
*D36
  1

  0
LINE
  5
4F8
100
AcDbEntity
  8
0
  6
BYBLOCK
 62
     0
100
AcDbLine
 10
338.5
 20
255.0
 30
0.0
 11
336.5
 21
255.0
 31
0.0
  0
LINE
  5
4F9
100
AcDbEntity
  8
0
  6
BYBLOCK
 62
     0
100
AcDbLine
 10
336.5
 20
255.0
 30
0.0
 11
299.961273
 21
218.27232
 31
0.0
  0
MTEXT
  5
4FA
100
AcDbEntity
  8
0
  6
BYBLOCK
 62
     0
100
AcDbMText
 10
346.09
 20
255.0
 30
0.0
 40
5.0
 41
0.0
 71
     5
 72
     1
  1
\A1;R2.5
  0
SOLID
  5
4FB
100
AcDbEntity
  8
0
  6
BYBLOCK
 62
     0
100
AcDbTrace
 10
301.135526
 20
219.92527
 30
0.0
 11
301.608144
 21
219.455082
 31
0.0
 12
299.961273
 22
218.27232
 32
0.0
 13
299.961273
 23
218.27232
 33
0.0
  0
LINE
  5
4FC
100
AcDbEntity
  8
0
  6
BYBLOCK
 62
     0
100
AcDbLine
 10
298.108071
 20
216.5
 30
0.0
 11
298.288071
 21
216.5
 31
0.0
  0
LINE
  5
4FD
100
AcDbEntity
  8
0
  6
BYBLOCK
 62
     0
100
AcDbLine
 10
298.198071
 20
216.41
 30
0.0
 11
298.198071
 21
216.59
 31
0.0
  0
POINT
  5
4FE
100
AcDbEntity
  8
DEFPOINTS
  6
BYBLOCK
 62
     0
100
AcDbPoint
 10
299.961273
 20
218.27232
 30
9.364146
  0
POINT
  5
4FF
100
AcDbEntity
  8
DEFPOINTS
  6
BYBLOCK
 62
     0
100
AcDbPoint
 10
298.198071
 20
216.5
 30
9.364146
  0
ENDBLK
  5
501
100
AcDbEntity
  8
0
100
AcDbBlockEnd
  0
BLOCK
  5
50E
100
AcDbEntity
  8
0
100
AcDbBlockBegin
  2
*D37
 70
     1
 10
0.0
 20
0.0
 30
0.0
  3
*D37
  1

  0
LINE
  5
503
100
AcDbEntity
  8
0
  6
BYBLOCK
 62
     0
100
AcDbLine
 10
299.198071
 20
219.0
 30
0.0
 11
329.91
 21
219.0
 31
0.0
  0
LINE
  5
504
100
AcDbEntity
  8
0
  6
BYBLOCK
 62
     0
100
AcDbLine
 10
301.698071
 20
216.5
 30
0.0
 11
329.91
 21
216.5
 31
0.0
  0
LINE
  5
505
100
AcDbEntity
  8
0
  6
BYBLOCK
 62
     0
100
AcDbLine
 10
328.91
 20
214.5
 30
0.0
 11
328.91
 21
212.5
 31
0.0
  0
LINE
  5
506
100
AcDbEntity
  8
0
  6
BYBLOCK
 62
     0
100
AcDbLine
 10
328.91
 20
221.0
 30
0.0
 11
328.91
 21
227.5
 31
0.0
  0
LINE
  5
507
100
AcDbEntity
  8
0
  6
BYBLOCK
 62
     0
100
AcDbLine
 10
328.91
 20
227.5
 30
0.0
 11
330.91
 21
227.5
 31
0.0
  0
SOLID
  5
508
100
AcDbEntity
  8
0
  6
BYBLOCK
 62
     0
100
AcDbTrace
 10
328.576667
 20
214.5
 30
0.0
 11
329.243333
 21
214.5
 31
0.0
 12
328.91
 22
216.5
 32
0.0
 13
328.91
 23
216.5
 33
0.0
  0
SOLID
  5
509
100
AcDbEntity
  8
0
  6
BYBLOCK
 62
     0
100
AcDbTrace
 10
328.576667
 20
221.0
 30
0.0
 11
329.243333
 21
221.0
 31
0.0
 12
328.91
 22
219.0
 32
0.0
 13
328.91
 23
219.0
 33
0.0
  0
MTEXT
  5
50A
100
AcDbEntity
  8
0
  6
BYBLOCK
 62
     0
100
AcDbMText
 10
336.0
 20
227.5
 30
0.0
 40
5.0
 41
0.0
 71
     5
 72
     1
  1
\A1;2.5
  0
POINT
  5
50B
100
AcDbEntity
  8
DEFPOINTS
  6
BYBLOCK
 62
     0
100
AcDbPoint
 10
298.198071
 20
219.0
 30
9.364146
  0
POINT
  5
50C
100
AcDbEntity
  8
DEFPOINTS
  6
BYBLOCK
 62
     0
100
AcDbPoint
 10
300.698071
 20
216.5
 30
9.364146
  0
POINT
  5
50D
100
AcDbEntity
  8
DEFPOINTS
  6
BYBLOCK
 62
     0
100
AcDbPoint
 10
328.91
 20
216.5
 30
0.0
  0
ENDBLK
  5
50F
100
AcDbEntity
  8
0
100
AcDbBlockEnd
  0
BLOCK
  5
51C
100
AcDbEntity
  8
0
100
AcDbBlockBegin
  2
*D38
 70
     1
 10
0.0
 20
0.0
 30
0.0
  3
*D38
  1

  0
LINE
  5
511
100
AcDbEntity
  8
0
  6
BYBLOCK
 62
     0
100
AcDbLine
 10
300.198071
 20
219.0
 30
0.0
 11
346.41
 21
219.0
 31
0.0
  0
LINE
  5
512
100
AcDbEntity
  8
0
  6
BYBLOCK
 62
     0
100
AcDbLine
 10
297.198071
 20
212.5
 30
0.0
 11
346.41
 21
212.5
 31
0.0
  0
LINE
  5
513
100
AcDbEntity
  8
0
  6
BYBLOCK
 62
     0
100
AcDbLine
 10
345.41
 20
214.5
 30
0.0
 11
345.41
 21
217.0
 31
0.0
  0
LINE
  5
514
100
AcDbEntity
  8
0
  6
BYBLOCK
 62
     0
100
AcDbLine
 10
345.41
 20
219.0
 30
0.0
 11
345.41
 21
226.0
 31
0.0
  0
LINE
  5
515
100
AcDbEntity
  8
0
  6
BYBLOCK
 62
     0
100
AcDbLine
 10
345.41
 20
226.0
 30
0.0
 11
347.41
 21
226.0
 31
0.0
  0
SOLID
  5
516
100
AcDbEntity
  8
0
  6
BYBLOCK
 62
     0
100
AcDbTrace
 10
345.076667
 20
214.5
 30
0.0
 11
345.743333
 21
214.5
 31
0.0
 12
345.41
 22
212.5
 32
0.0
 13
345.41
 23
212.5
 33
0.0
  0
SOLID
  5
517
100
AcDbEntity
  8
0
  6
BYBLOCK
 62
     0
100
AcDbTrace
 10
345.076667
 20
217.0
 30
0.0
 11
345.743333
 21
217.0
 31
0.0
 12
345.41
 22
219.0
 32
0.0
 13
345.41
 23
219.0
 33
0.0
  0
MTEXT
  5
518
100
AcDbEntity
  8
0
  6
BYBLOCK
 62
     0
100
AcDbMText
 10
352.5
 20
226.0
 30
0.0
 40
5.0
 41
0.0
 71
     5
 72
     1
  1
\A1;6.5
  0
POINT
  5
519
100
AcDbEntity
  8
DEFPOINTS
  6
BYBLOCK
 62
     0
100
AcDbPoint
 10
299.198071
 20
219.0
 30
0.0
  0
POINT
  5
51A
100
AcDbEntity
  8
DEFPOINTS
  6
BYBLOCK
 62
     0
100
AcDbPoint
 10
296.198071
 20
212.5
 30
9.364146
  0
POINT
  5
51B
100
AcDbEntity
  8
DEFPOINTS
  6
BYBLOCK
 62
     0
100
AcDbPoint
 10
345.41
 20
212.5
 30
0.0
  0
ENDBLK
  5
51D
100
AcDbEntity
  8
0
100
AcDbBlockEnd
  0
BLOCK
  5
52A
100
AcDbEntity
  8
0
100
AcDbBlockBegin
  2
*D39
 70
     1
 10
0.0
 20
0.0
 30
0.0
  3
*D39
  1

  0
LINE
  5
51F
100
AcDbEntity
  8
0
  6
BYBLOCK
 62
     0
100
AcDbLine
 10
299.198071
 20
219.0
 30
0.0
 11
364.076667
 21
219.0
 31
0.0
  0
LINE
  5
520
100
AcDbEntity
  8
0
  6
BYBLOCK
 62
     0
100
AcDbLine
 10
299.648071
 20
207.5
 30
0.0
 11
364.076667
 21
207.5
 31
0.0
  0
LINE
  5
521
100
AcDbEntity
  8
0
  6
BYBLOCK
 62
     0
100
AcDbLine
 10
363.076667
 20
209.5
 30
0.0
 11
363.076667
 21
217.0
 31
0.0
  0
LINE
  5
522
100
AcDbEntity
  8
0
  6
BYBLOCK
 62
     0
100
AcDbLine
 10
363.076667
 20
219.0
 30
0.0
 11
363.076667
 21
225.0
 31
0.0
  0
LINE
  5
523
100
AcDbEntity
  8
0
  6
BYBLOCK
 62
     0
100
AcDbLine
 10
363.076667
 20
225.0
 30
0.0
 11
365.076667
 21
225.0
 31
0.0
  0
SOLID
  5
524
100
AcDbEntity
  8
0
  6
BYBLOCK
 62
     0
100
AcDbTrace
 10
362.743333
 20
209.5
 30
0.0
 11
363.41
 21
209.5
 31
0.0
 12
363.076667
 22
207.5
 32
0.0
 13
363.076667
 23
207.5
 33
0.0
  0
SOLID
  5
525
100
AcDbEntity
  8
0
  6
BYBLOCK
 62
     0
100
AcDbTrace
 10
362.743333
 20
217.0
 30
0.0
 11
363.41
 21
217.0
 31
0.0
 12
363.076667
 22
219.0
 32
0.0
 13
363.076667
 23
219.0
 33
0.0
  0
MTEXT
  5
526
100
AcDbEntity
  8
0
  6
BYBLOCK
 62
     0
100
AcDbMText
 10
371.0
 20
225.0
 30
0.0
 40
5.0
 41
0.0
 71
     5
 72
     1
  1
\A1;11.5
  0
POINT
  5
527
100
AcDbEntity
  8
DEFPOINTS
  6
BYBLOCK
 62
     0
100
AcDbPoint
 10
298.198071
 20
219.0
 30
9.364146
  0
POINT
  5
528
100
AcDbEntity
  8
DEFPOINTS
  6
BYBLOCK
 62
     0
100
AcDbPoint
 10
298.648071
 20
207.5
 30
9.364146
  0
POINT
  5
529
100
AcDbEntity
  8
DEFPOINTS
  6
BYBLOCK
 62
     0
100
AcDbPoint
 10
363.076667
 20
207.5
 30
0.0
  0
ENDBLK
  5
52B
100
AcDbEntity
  8
0
100
AcDbBlockEnd
  0
BLOCK
  5
538
100
AcDbEntity
  8
0
100
AcDbBlockBegin
  2
*D40
 70
     1
 10
0.0
 20
0.0
 30
0.0
  3
*D40
  1

  0
LINE
  5
52D
100
AcDbEntity
  8
0
  6
BYBLOCK
 62
     0
100
AcDbLine
 10
300.198071
 20
219.0
 30
0.0
 11
384.243333
 21
219.0
 31
0.0
  0
LINE
  5
52E
100
AcDbEntity
  8
0
  6
BYBLOCK
 62
     0
100
AcDbLine
 10
280.198071
 20
200.5
 30
0.0
 11
384.243333
 21
200.5
 31
0.0
  0
LINE
  5
52F
100
AcDbEntity
  8
0
  6
BYBLOCK
 62
     0
100
AcDbLine
 10
383.243333
 20
202.5
 30
0.0
 11
383.243333
 21
217.0
 31
0.0
  0
LINE
  5
530
100
AcDbEntity
  8
0
  6
BYBLOCK
 62
     0
100
AcDbLine
 10
383.243333
 20
219.0
 30
0.0
 11
383.243333
 21
223.5
 31
0.0
  0
LINE
  5
531
100
AcDbEntity
  8
0
  6
BYBLOCK
 62
     0
100
AcDbLine
 10
383.243333
 20
223.5
 30
0.0
 11
385.243333
 21
223.5
 31
0.0
  0
SOLID
  5
532
100
AcDbEntity
  8
0
  6
BYBLOCK
 62
     0
100
AcDbTrace
 10
382.91
 20
202.5
 30
0.0
 11
383.576667
 21
202.5
 31
0.0
 12
383.243333
 22
200.5
 32
0.0
 13
383.243333
 23
200.5
 33
0.0
  0
SOLID
  5
533
100
AcDbEntity
  8
0
  6
BYBLOCK
 62
     0
100
AcDbTrace
 10
382.91
 20
217.0
 30
0.0
 11
383.576667
 21
217.0
 31
0.0
 12
383.243333
 22
219.0
 32
0.0
 13
383.243333
 23
219.0
 33
0.0
  0
MTEXT
  5
534
100
AcDbEntity
  8
0
  6
BYBLOCK
 62
     0
100
AcDbMText
 10
392.0
 20
223.5
 30
0.0
 40
5.0
 41
0.0
 71
     5
 72
     1
  1
\A1;18.5
  0
POINT
  5
535
100
AcDbEntity
  8
DEFPOINTS
  6
BYBLOCK
 62
     0
100
AcDbPoint
 10
299.198071
 20
219.0
 30
0.0
  0
POINT
  5
536
100
AcDbEntity
  8
DEFPOINTS
  6
BYBLOCK
 62
     0
100
AcDbPoint
 10
279.198071
 20
200.5
 30
9.364146
  0
POINT
  5
537
100
AcDbEntity
  8
DEFPOINTS
  6
BYBLOCK
 62
     0
100
AcDbPoint
 10
383.243333
 20
200.5
 30
0.0
  0
ENDBLK
  5
539
100
AcDbEntity
  8
0
100
AcDbBlockEnd
  0
BLOCK
  5
545
100
AcDbEntity
  8
0
100
AcDbBlockBegin
  2
*D41
 70
     1
 10
0.0
 20
0.0
 30
0.0
  3
*D41
  1

  0
LINE
  5
53B
100
AcDbEntity
  8
0
  6
BYBLOCK
 62
     0
100
AcDbLine
 10
264.198071
 20
199.5
 30
0.0
 11
264.198071
 21
185.0
 31
0.0
  0
LINE
  5
53C
100
AcDbEntity
  8
0
  6
BYBLOCK
 62
     0
100
AcDbLine
 10
279.198071
 20
199.5
 30
0.0
 11
279.198071
 21
185.0
 31
0.0
  0
LINE
  5
53D
100
AcDbEntity
  8
0
  6
BYBLOCK
 62
     0
100
AcDbLine
 10
266.198071
 20
186.0
 30
0.0
 11
268.076667
 21
186.0
 31
0.0
  0
LINE
  5
53E
100
AcDbEntity
  8
0
  6
BYBLOCK
 62
     0
100
AcDbLine
 10
277.198071
 20
186.0
 30
0.0
 11
274.923333
 21
186.0
 31
0.0
  0
SOLID
  5
53F
100
AcDbEntity
  8
0
  6
BYBLOCK
 62
     0
100
AcDbTrace
 10
266.198071
 20
186.333333
 30
0.0
 11
266.198071
 21
185.666667
 31
0.0
 12
264.198071
 22
186.0
 32
0.0
 13
264.198071
 23
186.0
 33
0.0
  0
SOLID
  5
540
100
AcDbEntity
  8
0
  6
BYBLOCK
 62
     0
100
AcDbTrace
 10
277.198071
 20
186.333333
 30
0.0
 11
277.198071
 21
185.666667
 31
0.0
 12
279.198071
 22
186.0
 32
0.0
 13
279.198071
 23
186.0
 33
0.0
  0
MTEXT
  5
541
100
AcDbEntity
  8
0
  6
BYBLOCK
 62
     0
100
AcDbMText
 10
271.5
 20
186.0
 30
0.0
 40
5.0
 41
0.0
 71
     5
 72
     1
  1
\A1;15
  0
POINT
  5
542
100
AcDbEntity
  8
DEFPOINTS
  6
BYBLOCK
 62
     0
100
AcDbPoint
 10
264.198071
 20
200.5
 30
9.364146
  0
POINT
  5
543
100
AcDbEntity
  8
DEFPOINTS
  6
BYBLOCK
 62
     0
100
AcDbPoint
 10
279.198071
 20
200.5
 30
9.364146
  0
POINT
  5
544
100
AcDbEntity
  8
DEFPOINTS
  6
BYBLOCK
 62
     0
100
AcDbPoint
 10
279.198071
 20
186.0
 30
0.0
  0
ENDBLK
  5
546
100
AcDbEntity
  8
0
100
AcDbBlockEnd
  0
BLOCK
  5
550
100
AcDbEntity
  8
0
100
AcDbBlockBegin
  2
*D42
 70
     1
 10
0.0
 20
0.0
 30
0.0
  3
*D42
  1

  0
LINE
  5
548
100
AcDbEntity
  8
0
  6
BYBLOCK
 62
     0
100
AcDbLine
 10
431.557819
 20
227.738722
 30
0.0
 11
433.557819
 21
227.738722
 31
0.0
  0
LINE
  5
549
100
AcDbEntity
  8
0
  6
BYBLOCK
 62
     0
100
AcDbLine
 10
433.557819
 20
227.738722
 30
0.0
 11
439.792558
 21
218.567494
 31
0.0
  0
MTEXT
  5
54A
100
AcDbEntity
  8
0
  6
BYBLOCK
 62
     0
100
AcDbMText
 10
423.967819
 20
227.738722
 30
0.0
 40
5.0
 41
0.0
 71
     5
 72
     1
  1
\A1;R2.5
  0
SOLID
  5
54B
100
AcDbEntity
  8
0
  6
BYBLOCK
 62
     0
100
AcDbTrace
 10
438.943813
 20
220.408891
 30
0.0
 11
438.392481
 21
220.034087
 31
0.0
 12
439.792558
 22
218.567494
 32
0.0
 13
439.792558
 23
218.567494
 33
0.0
  0
LINE
  5
54C
100
AcDbEntity
  8
0
  6
BYBLOCK
 62
     0
100
AcDbLine
 10
441.108071
 20
216.5
 30
0.0
 11
441.288071
 21
216.5
 31
0.0
  0
LINE
  5
54D
100
AcDbEntity
  8
0
  6
BYBLOCK
 62
     0
100
AcDbLine
 10
441.198071
 20
216.41
 30
0.0
 11
441.198071
 21
216.59
 31
0.0
  0
POINT
  5
54E
100
AcDbEntity
  8
DEFPOINTS
  6
BYBLOCK
 62
     0
100
AcDbPoint
 10
439.792558
 20
218.567494
 30
9.364146
  0
POINT
  5
54F
100
AcDbEntity
  8
DEFPOINTS
  6
BYBLOCK
 62
     0
100
AcDbPoint
 10
441.198071
 20
216.5
 30
9.364146
  0
ENDBLK
  5
551
100
AcDbEntity
  8
0
100
AcDbBlockEnd
  0
BLOCK
  5
55B
100
AcDbEntity
  8
0
100
AcDbBlockBegin
  2
*D43
 70
     1
 10
0.0
 20
0.0
 30
0.0
  3
*D43
  1

  0
LINE
  5
553
100
AcDbEntity
  8
0
  6
BYBLOCK
 62
     0
100
AcDbLine
 10
509.166845
 20
231.573626
 30
0.0
 11
507.166845
 21
231.573626
 31
0.0
  0
LINE
  5
554
100
AcDbEntity
  8
0
  6
BYBLOCK
 62
     0
100
AcDbLine
 10
507.166845
 20
231.573626
 30
0.0
 11
495.828564
 21
218.395124
 31
0.0
  0
MTEXT
  5
555
100
AcDbEntity
  8
0
  6
BYBLOCK
 62
     0
100
AcDbMText
 10
516.756845
 20
231.573626
 30
0.0
 40
5.0
 41
0.0
 71
     5
 72
     1
  1
\A1;R2.5
  0
SOLID
  5
556
100
AcDbEntity
  8
0
  6
BYBLOCK
 62
     0
100
AcDbTrace
 10
496.880275
 20
220.128622
 30
0.0
 11
497.385641
 21
219.693824
 31
0.0
 12
495.828564
 22
218.395124
 32
0.0
 13
495.828564
 23
218.395124
 33
0.0
  0
LINE
  5
557
100
AcDbEntity
  8
0
  6
BYBLOCK
 62
     0
100
AcDbLine
 10
494.108071
 20
216.5
 30
0.0
 11
494.288071
 21
216.5
 31
0.0
  0
LINE
  5
558
100
AcDbEntity
  8
0
  6
BYBLOCK
 62
     0
100
AcDbLine
 10
494.198071
 20
216.41
 30
0.0
 11
494.198071
 21
216.59
 31
0.0
  0
POINT
  5
559
100
AcDbEntity
  8
DEFPOINTS
  6
BYBLOCK
 62
     0
100
AcDbPoint
 10
495.828564
 20
218.395124
 30
9.364146
  0
POINT
  5
55A
100
AcDbEntity
  8
DEFPOINTS
  6
BYBLOCK
 62
     0
100
AcDbPoint
 10
494.198071
 20
216.5
 30
9.364146
  0
ENDBLK
  5
55C
100
AcDbEntity
  8
0
100
AcDbBlockEnd
  0
BLOCK
  5
568
100
AcDbEntity
  8
0
100
AcDbBlockBegin
  2
*D44
 70
     1
 10
0.0
 20
0.0
 30
0.0
  3
*D44
  1

  0
LINE
  5
55E
100
AcDbEntity
  8
0
  6
BYBLOCK
 62
     0
100
AcDbLine
 10
233.898071
 20
206.5
 30
0.0
 11
233.898071
 21
164.614521
 31
0.0
  0
LINE
  5
55F
100
AcDbEntity
  8
0
  6
BYBLOCK
 62
     0
100
AcDbLine
 10
309.498071
 20
206.5
 30
0.0
 11
309.498071
 21
164.614521
 31
0.0
  0
LINE
  5
560
100
AcDbEntity
  8
0
  6
BYBLOCK
 62
     0
100
AcDbLine
 10
235.898071
 20
165.614521
 30
0.0
 11
262.123221
 21
165.614521
 31
0.0
  0
LINE
  5
561
100
AcDbEntity
  8
0
  6
BYBLOCK
 62
     0
100
AcDbLine
 10
307.498071
 20
165.614521
 30
0.0
 11
277.303221
 21
165.614521
 31
0.0
  0
SOLID
  5
562
100
AcDbEntity
  8
0
  6
BYBLOCK
 62
     0
100
AcDbTrace
 10
235.898071
 20
165.947854
 30
0.0
 11
235.898071
 21
165.281188
 31
0.0
 12
233.898071
 22
165.614521
 32
0.0
 13
233.898071
 23
165.614521
 33
0.0
  0
SOLID
  5
563
100
AcDbEntity
  8
0
  6
BYBLOCK
 62
     0
100
AcDbTrace
 10
307.498071
 20
165.947854
 30
0.0
 11
307.498071
 21
165.281188
 31
0.0
 12
309.498071
 22
165.614521
 32
0.0
 13
309.498071
 23
165.614521
 33
0.0
  0
MTEXT
  5
564
100
AcDbEntity
  8
0
  6
BYBLOCK
 62
     0
100
AcDbMText
 10
269.713221
 20
165.614521
 30
0.0
 40
5.0
 41
0.0
 71
     5
 72
     1
  1
\A1;75.6
  0
POINT
  5
565
100
AcDbEntity
  8
DEFPOINTS
  6
BYBLOCK
 62
     0
100
AcDbPoint
 10
233.898071
 20
207.5
 30
9.364146
  0
POINT
  5
566
100
AcDbEntity
  8
DEFPOINTS
  6
BYBLOCK
 62
     0
100
AcDbPoint
 10
309.498071
 20
207.5
 30
9.364146
  0
POINT
  5
567
100
AcDbEntity
  8
DEFPOINTS
  6
BYBLOCK
 62
     0
100
AcDbPoint
 10
309.498071
 20
165.614521
 30
0.0
  0
ENDBLK
  5
569
100
AcDbEntity
  8
0
100
AcDbBlockEnd
  0
BLOCK
  5
575
100
AcDbEntity
  8
0
100
AcDbBlockBegin
  2
*D45
 70
     1
 10
0.0
 20
0.0
 30
0.0
  3
*D45
  1

  0
LINE
  5
56B
100
AcDbEntity
  8
0
  6
BYBLOCK
 62
     0
100
AcDbLine
 10
236.348071
 20
206.5
 30
0.0
 11
236.348071
 21
173.573136
 31
0.0
  0
LINE
  5
56C
100
AcDbEntity
  8
0
  6
BYBLOCK
 62
     0
100
AcDbLine
 10
307.048071
 20
206.5
 30
0.0
 11
307.048071
 21
173.573136
 31
0.0
  0
LINE
  5
56D
100
AcDbEntity
  8
0
  6
BYBLOCK
 62
     0
100
AcDbLine
 10
238.348071
 20
174.573136
 30
0.0
 11
263.500204
 21
174.573136
 31
0.0
  0
LINE
  5
56E
100
AcDbEntity
  8
0
  6
BYBLOCK
 62
     0
100
AcDbLine
 10
305.048071
 20
174.573136
 30
0.0
 11
277.846871
 21
174.573136
 31
0.0
  0
SOLID
  5
56F
100
AcDbEntity
  8
0
  6
BYBLOCK
 62
     0
100
AcDbTrace
 10
238.348071
 20
174.90647
 30
0.0
 11
238.348071
 21
174.239803
 31
0.0
 12
236.348071
 22
174.573136
 32
0.0
 13
236.348071
 23
174.573136
 33
0.0
  0
SOLID
  5
570
100
AcDbEntity
  8
0
  6
BYBLOCK
 62
     0
100
AcDbTrace
 10
305.048071
 20
174.90647
 30
0.0
 11
305.048071
 21
174.239803
 31
0.0
 12
307.048071
 22
174.573136
 32
0.0
 13
307.048071
 23
174.573136
 33
0.0
  0
MTEXT
  5
571
100
AcDbEntity
  8
0
  6
BYBLOCK
 62
     0
100
AcDbMText
 10
270.673537
 20
174.573136
 30
0.0
 40
5.0
 41
0.0
 71
     5
 72
     1
  1
\A1;70.7
  0
POINT
  5
572
100
AcDbEntity
  8
DEFPOINTS
  6
BYBLOCK
 62
     0
100
AcDbPoint
 10
236.348071
 20
207.5
 30
9.364146
  0
POINT
  5
573
100
AcDbEntity
  8
DEFPOINTS
  6
BYBLOCK
 62
     0
100
AcDbPoint
 10
307.048071
 20
207.5
 30
9.364146
  0
POINT
  5
574
100
AcDbEntity
  8
DEFPOINTS
  6
BYBLOCK
 62
     0
100
AcDbPoint
 10
307.048071
 20
174.573136
 30
0.0
  0
ENDBLK
  5
576
100
AcDbEntity
  8
0
100
AcDbBlockEnd
  0
BLOCK
  5
582
100
AcDbEntity
  8
0
100
AcDbBlockBegin
  2
*D46
 70
     1
 10
0.0
 20
0.0
 30
0.0
  3
*D46
  1

  0
LINE
  5
578
100
AcDbEntity
  8
0
  6
BYBLOCK
 62
     0
100
AcDbLine
 10
231.848071
 20
217.5
 30
0.0
 11
231.848071
 21
265.159286
 31
0.0
  0
LINE
  5
579
100
AcDbEntity
  8
0
  6
BYBLOCK
 62
     0
100
AcDbLine
 10
311.548071
 20
217.5
 30
0.0
 11
311.548071
 21
265.159286
 31
0.0
  0
LINE
  5
57A
100
AcDbEntity
  8
0
  6
BYBLOCK
 62
     0
100
AcDbLine
 10
233.848071
 20
264.159286
 30
0.0
 11
268.434067
 21
264.159286
 31
0.0
  0
LINE
  5
57B
100
AcDbEntity
  8
0
  6
BYBLOCK
 62
     0
100
AcDbLine
 10
309.548071
 20
264.159286
 30
0.0
 11
276.114067
 21
264.159286
 31
0.0
  0
SOLID
  5
57C
100
AcDbEntity
  8
0
  6
BYBLOCK
 62
     0
100
AcDbTrace
 10
233.848071
 20
264.49262
 30
0.0
 11
233.848071
 21
263.825953
 31
0.0
 12
231.848071
 22
264.159286
 32
0.0
 13
231.848071
 23
264.159286
 33
0.0
  0
SOLID
  5
57D
100
AcDbEntity
  8
0
  6
BYBLOCK
 62
     0
100
AcDbTrace
 10
309.548071
 20
264.49262
 30
0.0
 11
309.548071
 21
263.825953
 31
0.0
 12
311.548071
 22
264.159286
 32
0.0
 13
311.548071
 23
264.159286
 33
0.0
  0
MTEXT
  5
57E
100
AcDbEntity
  8
0
  6
BYBLOCK
 62
     0
100
AcDbMText
 10
272.274067
 20
264.159286
 30
0.0
 40
5.0
 41
0.0
 71
     5
 72
     1
  1
\A1;80
  0
POINT
  5
57F
100
AcDbEntity
  8
DEFPOINTS
  6
BYBLOCK
 62
     0
100
AcDbPoint
 10
231.848071
 20
216.5
 30
9.364146
  0
POINT
  5
580
100
AcDbEntity
  8
DEFPOINTS
  6
BYBLOCK
 62
     0
100
AcDbPoint
 10
311.548071
 20
216.5
 30
9.364146
  0
POINT
  5
581
100
AcDbEntity
  8
DEFPOINTS
  6
BYBLOCK
 62
     0
100
AcDbPoint
 10
311.548071
 20
264.159286
 30
0.0
  0
ENDBLK
  5
583
100
AcDbEntity
  8
0
100
AcDbBlockEnd
  0
BLOCK
  5
58F
100
AcDbEntity
  8
0
100
AcDbBlockBegin
  2
*D47
 70
     1
 10
0.0
 20
0.0
 30
0.0
  3
*D47
  1

  0
LINE
  5
585
100
AcDbEntity
  8
0
  6
BYBLOCK
 62
     0
100
AcDbLine
 10
237.048071
 20
220.0
 30
0.0
 11
237.048071
 21
252.041315
 31
0.0
  0
LINE
  5
586
100
AcDbEntity
  8
0
  6
BYBLOCK
 62
     0
100
AcDbLine
 10
306.348071
 20
220.0
 30
0.0
 11
306.348071
 21
252.041315
 31
0.0
  0
LINE
  5
587
100
AcDbEntity
  8
0
  6
BYBLOCK
 62
     0
100
AcDbLine
 10
239.048071
 20
251.041315
 30
0.0
 11
264.043854
 21
251.041315
 31
0.0
  0
LINE
  5
588
100
AcDbEntity
  8
0
  6
BYBLOCK
 62
     0
100
AcDbLine
 10
304.348071
 20
251.041315
 30
0.0
 11
279.223854
 21
251.041315
 31
0.0
  0
SOLID
  5
589
100
AcDbEntity
  8
0
  6
BYBLOCK
 62
     0
100
AcDbTrace
 10
239.048071
 20
251.374648
 30
0.0
 11
239.048071
 21
250.707981
 31
0.0
 12
237.048071
 22
251.041315
 32
0.0
 13
237.048071
 23
251.041315
 33
0.0
  0
SOLID
  5
58A
100
AcDbEntity
  8
0
  6
BYBLOCK
 62
     0
100
AcDbTrace
 10
304.348071
 20
251.374648
 30
0.0
 11
304.348071
 21
250.707981
 31
0.0
 12
306.348071
 22
251.041315
 32
0.0
 13
306.348071
 23
251.041315
 33
0.0
  0
MTEXT
  5
58B
100
AcDbEntity
  8
0
  6
BYBLOCK
 62
     0
100
AcDbMText
 10
271.633854
 20
251.041315
 30
0.0
 40
5.0
 41
0.0
 71
     5
 72
     1
  1
\A1;69.3
  0
POINT
  5
58C
100
AcDbEntity
  8
DEFPOINTS
  6
BYBLOCK
 62
     0
100
AcDbPoint
 10
237.048071
 20
219.0
 30
9.364146
  0
POINT
  5
58D
100
AcDbEntity
  8
DEFPOINTS
  6
BYBLOCK
 62
     0
100
AcDbPoint
 10
306.348071
 20
219.0
 30
9.364146
  0
POINT
  5
58E
100
AcDbEntity
  8
DEFPOINTS
  6
BYBLOCK
 62
     0
100
AcDbPoint
 10
306.348071
 20
251.041315
 30
0.0
  0
ENDBLK
  5
590
100
AcDbEntity
  8
0
100
AcDbBlockEnd
  0
BLOCK
  5
59A
100
AcDbEntity
  8
0
100
AcDbBlockBegin
  2
*D48
 70
     1
 10
0.0
 20
0.0
 30
0.0
  3
*D48
  1

  0
LINE
  5
592
100
AcDbEntity
  8
0
  6
BYBLOCK
 62
     0
100
AcDbLine
 10
200.5
 20
131.0
 30
0.0
 11
202.5
 21
131.0
 31
0.0
  0
LINE
  5
593
100
AcDbEntity
  8
0
  6
BYBLOCK
 62
     0
100
AcDbLine
 10
202.5
 20
131.0
 30
0.0
 11
233.188915
 21
117.212227
 31
0.0
  0
MTEXT
  5
594
100
AcDbEntity
  8
0
  6
BYBLOCK
 62
     0
100
AcDbMText
 10
194.16
 20
131.0
 30
0.0
 40
5.0
 41
0.0
 71
     5
 72
     1
  1
\A1;\U+220580
  0
SOLID
  5
595
100
AcDbEntity
  8
0
  6
BYBLOCK
 62
     0
100
AcDbTrace
 10
233.32552
 20
117.516283
 30
0.0
 11
233.05231
 21
116.90817
 31
0.0
 12
235.013252
 22
116.392597
 32
0.0
 13
235.013252
 23
116.392597
 33
0.0
  0
LINE
  5
596
100
AcDbEntity
  8
0
  6
BYBLOCK
 62
     0
100
AcDbLine
 10
271.41
 20
100.0
 30
0.0
 11
271.59
 21
100.0
 31
0.0
  0
LINE
  5
597
100
AcDbEntity
  8
0
  6
BYBLOCK
 62
     0
100
AcDbLine
 10
271.5
 20
99.91
 30
0.0
 11
271.5
 21
100.09
 31
0.0
  0
POINT
  5
598
100
AcDbEntity
  8
DEFPOINTS
  6
BYBLOCK
 62
     0
100
AcDbPoint
 10
235.013252
 20
116.392597
 30
0.0
  0
POINT
  5
599
100
AcDbEntity
  8
DEFPOINTS
  6
BYBLOCK
 62
     0
100
AcDbPoint
 10
307.986748
 20
83.607403
 30
0.0
  0
ENDBLK
  5
59B
100
AcDbEntity
  8
0
100
AcDbBlockEnd
  0
BLOCK
  5
5A5
100
AcDbEntity
  8
0
100
AcDbBlockBegin
  2
*D49
 70
     1
 10
0.0
 20
0.0
 30
0.0
  3
*D49
  1

  0
LINE
  5
59D
100
AcDbEntity
  8
0
  6
BYBLOCK
 62
     0
100
AcDbLine
 10
203.5
 20
118.0
 30
0.0
 11
205.5
 21
118.0
 31
0.0
  0
LINE
  5
59E
100
AcDbEntity
  8
0
  6
BYBLOCK
 62
     0
100
AcDbLine
 10
205.5
 20
118.0
 30
0.0
 11
233.1024
 21
110.472073
 31
0.0
  0
MTEXT
  5
59F
100
AcDbEntity
  8
0
  6
BYBLOCK
 62
     0
100
AcDbMText
 10
193.41
 20
118.0
 30
0.0
 40
5.0
 41
0.0
 71
     5
 72
     1
  1
\A1;\U+220575.6
  0
SOLID
  5
5A0
100
AcDbEntity
  8
0
  6
BYBLOCK
 62
     0
100
AcDbTrace
 10
233.190106
 20
110.793661
 30
0.0
 11
233.014694
 21
110.150485
 31
0.0
 12
235.031928
 22
109.945838
 32
0.0
 13
235.031928
 23
109.945838
 33
0.0
  0
LINE
  5
5A1
100
AcDbEntity
  8
0
  6
BYBLOCK
 62
     0
100
AcDbLine
 10
271.41
 20
100.0
 30
0.0
 11
271.59
 21
100.0
 31
0.0
  0
LINE
  5
5A2
100
AcDbEntity
  8
0
  6
BYBLOCK
 62
     0
100
AcDbLine
 10
271.5
 20
99.91
 30
0.0
 11
271.5
 21
100.09
 31
0.0
  0
POINT
  5
5A3
100
AcDbEntity
  8
DEFPOINTS
  6
BYBLOCK
 62
     0
100
AcDbPoint
 10
235.031928
 20
109.945838
 30
0.0
  0
POINT
  5
5A4
100
AcDbEntity
  8
DEFPOINTS
  6
BYBLOCK
 62
     0
100
AcDbPoint
 10
307.968072
 20
90.054162
 30
0.0
  0
ENDBLK
  5
5A6
100
AcDbEntity
  8
0
100
AcDbBlockEnd
  0
BLOCK
  5
5B0
100
AcDbEntity
  8
0
100
AcDbBlockBegin
  2
*D50
 70
     1
 10
0.0
 20
0.0
 30
0.0
  3
*D50
  1

  0
LINE
  5
5A8
100
AcDbEntity
  8
0
  6
BYBLOCK
 62
     0
100
AcDbLine
 10
203.5
 20
105.5
 30
0.0
 11
205.5
 21
105.5
 31
0.0
  0
LINE
  5
5A9
100
AcDbEntity
  8
0
  6
BYBLOCK
 62
     0
100
AcDbLine
 10
205.5
 20
105.5
 30
0.0
 11
234.279016
 21
103.101749
 31
0.0
  0
MTEXT
  5
5AA
100
AcDbEntity
  8
0
  6
BYBLOCK
 62
     0
100
AcDbMText
 10
193.826667
 20
105.5
 30
0.0
 40
5.0
 41
0.0
 71
     5
 72
     1
  1
\A1;\U+220570.7
  0
SOLID
  5
5AB
100
AcDbEntity
  8
0
  6
BYBLOCK
 62
     0
100
AcDbTrace
 10
234.306698
 20
103.433931
 30
0.0
 11
234.251334
 21
102.769567
 31
0.0
 12
236.272107
 22
102.935658
 32
0.0
 13
236.272107
 23
102.935658
 33
0.0
  0
LINE
  5
5AC
100
AcDbEntity
  8
0
  6
BYBLOCK
 62
     0
100
AcDbLine
 10
271.41
 20
100.0
 30
0.0
 11
271.59
 21
100.0
 31
0.0
  0
LINE
  5
5AD
100
AcDbEntity
  8
0
  6
BYBLOCK
 62
     0
100
AcDbLine
 10
271.5
 20
99.91
 30
0.0
 11
271.5
 21
100.09
 31
0.0
  0
POINT
  5
5AE
100
AcDbEntity
  8
DEFPOINTS
  6
BYBLOCK
 62
     0
100
AcDbPoint
 10
236.272107
 20
102.935658
 30
0.0
  0
POINT
  5
5AF
100
AcDbEntity
  8
DEFPOINTS
  6
BYBLOCK
 62
     0
100
AcDbPoint
 10
306.727893
 20
97.064342
 30
0.0
  0
ENDBLK
  5
5B1
100
AcDbEntity
  8
0
100
AcDbBlockEnd
  0
BLOCK
  5
5BB
100
AcDbEntity
  8
0
100
AcDbBlockBegin
  2
*D51
 70
     1
 10
0.0
 20
0.0
 30
0.0
  3
*D51
  1

  0
LINE
  5
5B3
100
AcDbEntity
  8
0
  6
BYBLOCK
 62
     0
100
AcDbLine
 10
202.0
 20
83.5
 30
0.0
 11
204.0
 21
83.5
 31
0.0
  0
LINE
  5
5B4
100
AcDbEntity
  8
0
  6
BYBLOCK
 62
     0
100
AcDbLine
 10
204.0
 20
83.5
 30
0.0
 11
235.898226
 21
91.297344
 31
0.0
  0
MTEXT
  5
5B5
100
AcDbEntity
  8
0
  6
BYBLOCK
 62
     0
100
AcDbMText
 10
191.91
 20
83.5
 30
0.0
 40
5.0
 41
0.0
 71
     5
 72
     1
  1
\A1;\U+220569.3
  0
SOLID
  5
5B6
100
AcDbEntity
  8
0
  6
BYBLOCK
 62
     0
100
AcDbTrace
 10
235.819075
 20
91.621144
 30
0.0
 11
235.977377
 21
90.973545
 31
0.0
 12
237.841024
 22
91.77225
 32
0.0
 13
237.841024
 23
91.77225
 33
0.0
  0
LINE
  5
5B7
100
AcDbEntity
  8
0
  6
BYBLOCK
 62
     0
100
AcDbLine
 10
271.41
 20
100.0
 30
0.0
 11
271.59
 21
100.0
 31
0.0
  0
LINE
  5
5B8
100
AcDbEntity
  8
0
  6
BYBLOCK
 62
     0
100
AcDbLine
 10
271.5
 20
99.91
 30
0.0
 11
271.5
 21
100.09
 31
0.0
  0
POINT
  5
5B9
100
AcDbEntity
  8
DEFPOINTS
  6
BYBLOCK
 62
     0
100
AcDbPoint
 10
237.841024
 20
91.77225
 30
0.0
  0
POINT
  5
5BA
100
AcDbEntity
  8
DEFPOINTS
  6
BYBLOCK
 62
     0
100
AcDbPoint
 10
305.158976
 20
108.22775
 30
0.0
  0
ENDBLK
  5
5BC
100
AcDbEntity
  8
0
100
AcDbBlockEnd
  0
BLOCK
  5
5C8
100
AcDbEntity
  8
0
100
AcDbBlockBegin
  2
*D52
 70
     1
 10
0.0
 20
0.0
 30
0.0
  3
*D52
  1

  0
LINE
  5
5BE
100
AcDbEntity
  8
0
  6
BYBLOCK
 62
     0
100
AcDbLine
 10
272.5
 20
140.0
 30
0.0
 11
324.0
 21
140.0
 31
0.0
  0
LINE
  5
5BF
100
AcDbEntity
  8
0
  6
BYBLOCK
 62
     0
100
AcDbLine
 10
272.5
 20
132.0
 30
0.0
 11
324.0
 21
132.0
 31
0.0
  0
LINE
  5
5C0
100
AcDbEntity
  8
0
  6
BYBLOCK
 62
     0
100
AcDbLine
 10
323.0
 20
138.0
 30
0.0
 11
323.0
 21
137.91
 31
0.0
  0
LINE
  5
5C1
100
AcDbEntity
  8
0
  6
BYBLOCK
 62
     0
100
AcDbLine
 10
323.0
 20
134.0
 30
0.0
 11
323.0
 21
134.743333
 31
0.0
  0
SOLID
  5
5C2
100
AcDbEntity
  8
0
  6
BYBLOCK
 62
     0
100
AcDbTrace
 10
322.666667
 20
138.0
 30
0.0
 11
323.333333
 21
138.0
 31
0.0
 12
323.0
 22
140.0
 32
0.0
 13
323.0
 23
140.0
 33
0.0
  0
SOLID
  5
5C3
100
AcDbEntity
  8
0
  6
BYBLOCK
 62
     0
100
AcDbTrace
 10
322.666667
 20
134.0
 30
0.0
 11
323.333333
 21
134.0
 31
0.0
 12
323.0
 22
132.0
 32
0.0
 13
323.0
 23
132.0
 33
0.0
  0
MTEXT
  5
5C4
100
AcDbEntity
  8
0
  6
BYBLOCK
 62
     0
100
AcDbMText
 10
323.0
 20
136.5
 30
0.0
 40
5.0
 41
0.0
 71
     5
 72
     1
  1
\A1;8
 11
0.0
 21
1.0
 31
0.0
  0
POINT
  5
5C5
100
AcDbEntity
  8
DEFPOINTS
  6
BYBLOCK
 62
     0
100
AcDbPoint
 10
271.5
 20
140.0
 30
0.0
  0
POINT
  5
5C6
100
AcDbEntity
  8
DEFPOINTS
  6
BYBLOCK
 62
     0
100
AcDbPoint
 10
271.5
 20
132.0
 30
0.0
  0
POINT
  5
5C7
100
AcDbEntity
  8
DEFPOINTS
  6
BYBLOCK
 62
     0
100
AcDbPoint
 10
323.0
 20
132.0
 30
0.0
  0
ENDBLK
  5
5C9
100
AcDbEntity
  8
0
100
AcDbBlockEnd
  0
BLOCK
  5
5D5
100
AcDbEntity
  8
0
100
AcDbBlockBegin
  2
*D53
 70
     1
 10
0.0
 20
0.0
 30
0.0
  3
*D53
  1

  0
LINE
  5
5CB
100
AcDbEntity
  8
0
  6
BYBLOCK
 62
     0
100
AcDbLine
 10
264.0
 20
138.0
 30
0.0
 11
264.0
 21
152.0
 31
0.0
  0
LINE
  5
5CC
100
AcDbEntity
  8
0
  6
BYBLOCK
 62
     0
100
AcDbLine
 10
279.0
 20
138.0
 30
0.0
 11
279.0
 21
152.0
 31
0.0
  0
LINE
  5
5CD
100
AcDbEntity
  8
0
  6
BYBLOCK
 62
     0
100
AcDbLine
 10
266.0
 20
151.0
 30
0.0
 11
268.076667
 21
151.0
 31
0.0
  0
LINE
  5
5CE
100
AcDbEntity
  8
0
  6
BYBLOCK
 62
     0
100
AcDbLine
 10
277.0
 20
151.0
 30
0.0
 11
274.923333
 21
151.0
 31
0.0
  0
SOLID
  5
5CF
100
AcDbEntity
  8
0
  6
BYBLOCK
 62
     0
100
AcDbTrace
 10
266.0
 20
151.333333
 30
0.0
 11
266.0
 21
150.666667
 31
0.0
 12
264.0
 22
151.0
 32
0.0
 13
264.0
 23
151.0
 33
0.0
  0
SOLID
  5
5D0
100
AcDbEntity
  8
0
  6
BYBLOCK
 62
     0
100
AcDbTrace
 10
277.0
 20
151.333333
 30
0.0
 11
277.0
 21
150.666667
 31
0.0
 12
279.0
 22
151.0
 32
0.0
 13
279.0
 23
151.0
 33
0.0
  0
MTEXT
  5
5D1
100
AcDbEntity
  8
0
  6
BYBLOCK
 62
     0
100
AcDbMText
 10
271.5
 20
151.0
 30
0.0
 40
5.0
 41
0.0
 71
     5
 72
     1
  1
\A1;15
  0
POINT
  5
5D2
100
AcDbEntity
  8
DEFPOINTS
  6
BYBLOCK
 62
     0
100
AcDbPoint
 10
264.0
 20
137.0
 30
0.0
  0
POINT
  5
5D3
100
AcDbEntity
  8
DEFPOINTS
  6
BYBLOCK
 62
     0
100
AcDbPoint
 10
279.0
 20
137.0
 30
0.0
  0
POINT
  5
5D4
100
AcDbEntity
  8
DEFPOINTS
  6
BYBLOCK
 62
     0
100
AcDbPoint
 10
279.0
 20
151.0
 30
0.0
  0
ENDBLK
  5
5D6
100
AcDbEntity
  8
0
100
AcDbBlockEnd
  0
BLOCK
  5
6B7
100
AcDbEntity
  8
0
100
AcDbBlockBegin
  2
A$C33D447D6
 70
     0
 10
0.0
 20
0.0
 30
0.0
  3
A$C33D447D6
  1

  0
DIMENSION
  5
5D8
100
AcDbEntity
  8
0
100
AcDbDimension
  2
*D52
 10
283.151929
 20
76.0
 30
0.0
 11
283.151929
 21
80.5
 31
0.0
 12
-39.848071
 22
-56.0
 32
0.0
 70
   128
  3
STANDARD
100
AcDbAlignedDimension
 13
231.651929
 23
84.0
 33
0.0
 14
231.651929
 24
76.0
 34
0.0
 50
90.0
100
AcDbRotatedDimension
1001
ACAD
1000
DSTYLE
1002
{
1070
    78
1070
     8
1070
   288
1070
     1
1070
   284
1070
     8
1070
   140
1040
5.0
1070
    73
1070
     0
1070
   272
1070
     2
1070
    42
1040
1.0
1070
    44
1040
1.0
1070
   271
1070
     2
1070
    41
1040
2.0
1002
}
  0
DIMENSION
  5
5D9
100
AcDbEntity
  8
0
100
AcDbDimension
  2
*D51
 10
265.310905
 20
52.22775
 30
0.0
 11
152.061929
 21
27.5
 31
0.0
 12
-39.848071
 22
-56.0
 32
0.0
 70
   131
  3
STANDARD
100
AcDbDiametricDimension
 15
197.992954
 25
35.772251
 35
0.0
 40
0.0
1001
ACAD
1000
DSTYLE
1002
{
1070
    78
1070
     8
1070
   288
1070
     1
1070
   284
1070
     8
1070
   140
1040
5.0
1070
    73
1070
     0
1070
   272
1070
     2
1070
    42
1040
1.0
1070
    44
1040
1.0
1070
   271
1070
     2
1070
    41
1040
2.0
1002
}
  0
DIMENSION
  5
5DA
100
AcDbEntity
  8
0
100
AcDbDimension
  2
*D50
 10
266.879822
 20
41.064342
 30
0.0
 11
153.978596
 21
49.5
 31
0.0
 12
-39.848071
 22
-56.0
 32
0.0
 70
   131
  3
STANDARD
100
AcDbDiametricDimension
 15
196.424037
 25
46.935658
 35
0.0
 40
0.0
1001
ACAD
1000
DSTYLE
1002
{
1070
    78
1070
     8
1070
   288
1070
     1
1070
   284
1070
     8
1070
   140
1040
5.0
1070
    73
1070
     0
1070
   272
1070
     2
1070
    42
1040
1.0
1070
    44
1040
1.0
1070
   271
1070
     2
1070
    41
1040
2.0
1002
}
  0
DIMENSION
  5
5DB
100
AcDbEntity
  8
0
100
AcDbDimension
  2
*D49
 10
268.120002
 20
34.054162
 30
0.0
 11
153.561929
 21
62.0
 31
0.0
 12
-39.848071
 22
-56.0
 32
0.0
 70
   131
  3
STANDARD
100
AcDbDiametricDimension
 15
195.183857
 25
53.945838
 35
0.0
 40
0.0
1001
ACAD
1000
DSTYLE
1002
{
1070
    78
1070
     8
1070
   288
1070
     1
1070
   284
1070
     8
1070
   140
1040
5.0
1070
    73
1070
     0
1070
   272
1070
     2
1070
    42
1040
1.0
1070
    44
1040
1.0
1070
   271
1070
     2
1070
    41
1040
2.0
1002
}
  0
DIMENSION
  5
5DC
100
AcDbEntity
  8
0
100
AcDbDimension
  2
*D48
 10
268.138677
 20
27.607403
 30
0.0
 11
154.311929
 21
75.0
 31
0.0
 12
-39.848071
 22
-56.0
 32
0.0
 70
   131
  3
STANDARD
100
AcDbDiametricDimension
 15
195.165181
 25
60.392597
 35
0.0
 40
0.0
1001
ACAD
1000
DSTYLE
1002
{
1070
    78
1070
     8
1070
   288
1070
     1
1070
   284
1070
     8
1070
   140
1040
5.0
1070
    73
1070
     0
1070
   272
1070
     2
1070
    42
1040
1.0
1070
    44
1040
1.0
1070
   271
1070
     2
1070
    41
1040
2.0
1002
}
  0
CIRCLE
  5
5DD
100
AcDbEntity
  8
2
100
AcDbCircle
 10
231.651929
 20
44.0
 30
0.0
 40
34.65
  0
ARC
  5
5DE
100
AcDbEntity
  8
3
100
AcDbCircle
 10
231.651929
 20
44.0
 30
0.0
 40
35.35
100
AcDbArc
 50
102.249203
 51
77.750797
  0
CIRCLE
  5
5DF
100
AcDbEntity
  8
3
100
AcDbCircle
 10
231.651929
 20
44.0
 30
0.0
 40
37.8
  0
LINE
  5
5E0
100
AcDbEntity
  8
1
100
AcDbLine
 10
275.651929
 20
44.0
 30
0.0
 11
187.651929
 21
44.0
 31
0.0
  0
CIRCLE
  5
5E1
100
AcDbEntity
  8
3
100
AcDbCircle
 10
231.651929
 20
44.0
 30
0.0
 40
40.0
  0
ARC
  5
5E2
100
AcDbEntity
  8
2
100
AcDbCircle
 10
231.651929
 20
255.0
 30
0.0
 40
35.35
100
AcDbArc
 50
282.249203
 51
257.750797
  0
CIRCLE
  5
5E3
100
AcDbEntity
  8
2
100
AcDbCircle
 10
231.651929
 20
255.0
 30
0.0
 40
37.8
  0
CIRCLE
  5
5E4
100
AcDbEntity
  8
3
100
AcDbCircle
 10
231.651929
 20
255.0
 30
0.0
 40
34.65
  0
CIRCLE
  5
5E5
100
AcDbEntity
  8
3
100
AcDbCircle
 10
231.651929
 20
255.0
 30
0.0
 40
40.0
  0
LINE
  5
5E6
100
AcDbEntity
  8
1
100
AcDbLine
 10
187.651929
 20
255.0
 30
0.0
 11
275.651929
 21
255.0
 31
0.0
  0
DIMENSION
  5
5E7
100
AcDbEntity
  8
0
100
AcDbDimension
  2
*D47
 10
266.500001
 20
195.041315
 30
0.0
 11
231.785783
 21
195.041315
 31
0.0
 12
-39.848071
 22
-56.0
 32
0.0
 70
   128
  3
STANDARD
100
AcDbAlignedDimension
 13
197.200001
 23
163.0
 33
9.364146
 14
266.500001
 24
163.0
 34
9.364146
100
AcDbRotatedDimension
1001
ACAD
1000
DSTYLE
1002
{
1070
    78
1070
     8
1070
   288
1070
     1
1070
   284
1070
     8
1070
   140
1040
5.0
1070
    73
1070
     0
1070
   272
1070
     2
1070
    42
1040
1.0
1070
    44
1040
1.0
1070
   271
1070
     2
1070
    41
1040
2.0
1002
}
  0
DIMENSION
  5
5E8
100
AcDbEntity
  8
0
100
AcDbDimension
  2
*D46
 10
271.700001
 20
208.159287
 30
0.0
 11
232.425996
 21
208.159287
 31
0.0
 12
-39.848071
 22
-56.0
 32
0.0
 70
   128
  1
80
  3
STANDARD
100
AcDbAlignedDimension
 13
192.000001
 23
160.5
 33
9.364146
 14
271.700001
 24
160.5
 34
9.364146
100
AcDbRotatedDimension
1001
ACAD
1000
DSTYLE
1002
{
1070
    78
1070
     8
1070
   288
1070
     1
1070
   284
1070
     8
1070
   140
1040
5.0
1070
    73
1070
     0
1070
   272
1070
     2
1070
    42
1040
1.0
1070
    44
1040
1.0
1070
   271
1070
     2
1070
    41
1040
2.0
1002
}
  0
DIMENSION
  5
5E9
100
AcDbEntity
  8
0
100
AcDbDimension
  2
*D45
 10
267.200001
 20
118.573136
 30
0.0
 11
230.825467
 21
118.573136
 31
0.0
 12
-39.848071
 22
-56.0
 32
0.0
 70
   128
  3
STANDARD
100
AcDbAlignedDimension
 13
196.500001
 23
151.5
 33
9.364146
 14
267.200001
 24
151.5
 34
9.364146
100
AcDbRotatedDimension
1001
ACAD
1000
DSTYLE
1002
{
1070
    78
1070
     8
1070
   288
1070
     1
1070
   284
1070
     8
1070
   140
1040
5.0
1070
    73
1070
     0
1070
   272
1070
     2
1070
    42
1040
1.0
1070
    44
1040
1.0
1070
   271
1070
     2
1070
    41
1040
2.0
1002
}
  0
DIMENSION
  5
5EA
100
AcDbEntity
  8
0
100
AcDbDimension
  2
*D44
 10
269.650001
 20
109.614521
 30
0.0
 11
229.86515
 21
109.614521
 31
0.0
 12
-39.848071
 22
-56.0
 32
0.0
 70
   128
  3
STANDARD
100
AcDbAlignedDimension
 13
194.050001
 23
151.5
 33
9.364146
 14
269.650001
 24
151.5
 34
9.364146
100
AcDbRotatedDimension
1001
ACAD
1000
DSTYLE
1002
{
1070
    78
1070
     8
1070
   288
1070
     1
1070
   284
1070
     8
1070
   140
1040
5.0
1070
    73
1070
     0
1070
   272
1070
     2
1070
    42
1040
1.0
1070
    44
1040
1.0
1070
   271
1070
     2
1070
    41
1040
2.0
1002
}
  0
LINE
  5
5EB
100
AcDbEntity
  8
2
100
AcDbLine
 10
239.350001
 20
156.5
 30
9.364146
 11
267.200001
 21
156.5
 31
9.364146
  0
LINE
  5
5EC
100
AcDbEntity
  8
3
100
AcDbLine
 10
267.200001
 20
151.5
 30
9.364146
 11
239.350001
 21
151.5
 31
9.364146
  0
LINE
  5
5ED
100
AcDbEntity
  8
3
100
AcDbLine
 10
266.500001
 20
163.0
 30
9.364146
 11
231.850001
 21
163.0
 31
9.364146
  0
LINE
  5
5EE
100
AcDbEntity
  8
3
100
AcDbLine
 10
269.650001
 20
160.5
 30
9.364146
 11
197.200001
 21
160.5
 31
9.364146
  0
DIMENSION
  5
5EF
100
AcDbEntity
  8
0
100
AcDbDimension
  2
*D41
 10
239.350001
 20
130.0
 30
0.0
 11
231.651929
 21
130.0
 31
0.0
 12
-39.848071
 22
-56.0
 32
0.0
 70
   128
  3
STANDARD
100
AcDbAlignedDimension
 13
224.350001
 23
144.5
 33
9.364146
 14
239.350001
 24
144.5
 34
9.364146
100
AcDbRotatedDimension
1001
ACAD
1000
DSTYLE
1002
{
1070
    78
1070
     8
1070
   288
1070
     1
1070
   284
1070
     8
1070
   140
1040
5.0
1070
    73
1070
     0
1070
   272
1070
     2
1070
    42
1040
1.0
1070
    44
1040
1.0
1070
   271
1070
     2
1070
    41
1040
2.0
1002
}
  0
LINE
  5
5F0
100
AcDbEntity
  8
1
100
AcDbLine
 10
231.651929
 20
86.5
 30
0.0
 11
231.651929
 21
0.0
 31
0.0
  0
TEXT
  5
5F1
100
AcDbEntity
  8
0
100
AcDbText
 10
92.651677
 20
95.321101
 30
0.0
 40
5.0
  1
各角はバリ無きこと。
 41
0.7
  7
BIGFONT
100
AcDbText
  0
DIMENSION
  5
5F2
100
AcDbEntity
  8
0
100
AcDbDimension
  2
*D53
 10
239.151929
 20
95.0
 30
0.0
 11
231.651929
 21
95.0
 31
0.0
 12
-39.848071
 22
-56.0
 32
0.0
  3
STANDARD
100
AcDbAlignedDimension
 13
224.151929
 23
81.0
 33
0.0
 14
239.151929
 24
81.0
 34
0.0
100
AcDbRotatedDimension
1001
ACAD
1000
DSTYLE
1002
{
1070
    78
1070
     8
1070
   288
1070
     1
1070
   284
1070
     8
1070
   140
1040
5.0
1070
    73
1070
     0
1070
   272
1070
     2
1070
   287
1070
     4
1070
    42
1040
1.0
1070
    44
1040
1.0
1070
   271
1070
     2
1070
    41
1040
2.0
1002
}
  0
ARC
  5
5F3
100
AcDbEntity
  8
3
100
AcDbCircle
 10
231.651929
 20
44.0
 30
0.0
 40
32.0
100
AcDbArc
 50
76.445216
 51
103.554784
  0
LINE
  5
5F4
100
AcDbEntity
  8
3
100
AcDbLine
 10
224.151929
 20
78.545224
 30
0.0
 11
224.151929
 21
81.048482
 31
0.0
  0
LINE
  5
5F5
100
AcDbEntity
  8
3
100
AcDbLine
 10
224.151929
 20
75.108681
 30
0.0
 11
224.151929
 21
78.545224
 31
0.0
  0
LINE
  5
5F6
100
AcDbEntity
  8
3
100
AcDbLine
 10
239.151929
 20
78.545224
 30
0.0
 11
239.151929
 21
81.048482
 31
0.0
  0
LINE
  5
5F7
100
AcDbEntity
  8
3
100
AcDbLine
 10
239.151929
 20
78.545224
 30
0.0
 11
239.151929
 21
75.108681
 31
0.0
  0
DIMENSION
  5
5F8
100
AcDbEntity
  8
0
100
AcDbDimension
  2
*D35
 10
194.146303
 20
160.5
 30
9.364146
 11
147.858232
 21
199.0
 31
0.0
 12
-51.051768
 22
-56.0
 32
0.0
 70
   132
  3
STANDARD
100
AcDbRadialDimension
 15
192.421392
 25
162.309607
 35
9.364146
 40
0.0
1001
ACAD
1000
DSTYLE
1002
{
1070
    78
1070
     8
1070
   288
1070
     1
1070
   284
1070
     8
1070
   140
1040
5.0
1070
    73
1070
     0
1070
   272
1070
     2
1070
    42
1040
1.0
1070
    44
1040
1.0
1070
   271
1070
     2
1070
    41
1040
2.0
1002
}
  0
LINE
  5
5F9
100
AcDbEntity
  8
1
100
AcDbLine
 10
231.651929
 20
212.5
 30
0.0
 11
231.651929
 21
299.0
 31
0.0
  0
LEADER
  5
5FA
100
AcDbEntity
  8
0
100
AcDbLeader
  3
STANDARD
 76
     3
 10
86.291501
 20
165.490827
 30
0.0
 10
91.11035
 20
170.995413
 30
0.0
 10
119.335039
 20
170.995413
 30
0.0
 77
   256
1001
ACAD
1000
DSTYLE
1002
{
1070
    78
1070
     8
1070
   288
1070
     1
1070
   284
1070
     8
1070
   140
1040
5.0
1070
    73
1070
     0
1070
   272
1070
     2
1070
    42
1040
1.0
1070
    44
1040
1.0
1070
   271
1070
     2
1070
    41
1040
2.0
1002
}
  0
TEXT
  5
5FB
100
AcDbEntity
  8
0
100
AcDbText
 10
91.11035
 20
173.059633
 30
0.0
 40
5.0
  1
ワックス磨き。
 41
0.7
  7
BIGFONT
100
AcDbText
  0
ARC
  5
5FC
100
AcDbEntity
  8
2
100
AcDbCircle
 10
81.130422
 20
159.46874
 30
0.0
 40
6.302395
100
AcDbArc
 50
7.457906
 51
98.828954
  0
LINE
  5
5FD
100
AcDbEntity
  8
2
100
AcDbLine
 10
73.54806
 20
165.696458
 30
0.0
 11
80.163098
 21
165.696458
 31
0.0
  0
LINE
  5
5FE
100
AcDbEntity
  8
0
100
AcDbLine
 10
200.229093
 20
156.5
 30
0.0
 11
204.229093
 21
160.5
 31
0.0
  0
LINE
  5
5FF
100
AcDbEntity
  8
0
100
AcDbLine
 10
199.698763
 20
156.5
 30
0.0
 11
203.698763
 21
160.5
 31
0.0
  0
LINE
  5
600
100
AcDbEntity
  8
0
100
AcDbLine
 10
199.168433
 20
156.5
 30
0.0
 11
203.168433
 21
160.5
 31
0.0
  0
LINE
  5
601
100
AcDbEntity
  8
0
100
AcDbLine
 10
198.638103
 20
156.5
 30
0.0
 11
202.638103
 21
160.5
 31
0.0
  0
LINE
  5
602
100
AcDbEntity
  8
0
100
AcDbLine
 10
198.107773
 20
156.5
 30
0.0
 11
202.107773
 21
160.5
 31
0.0
  0
LINE
  5
603
100
AcDbEntity
  8
0
100
AcDbLine
 10
197.577443
 20
156.5
 30
0.0
 11
201.577443
 21
160.5
 31
0.0
  0
LINE
  5
604
100
AcDbEntity
  8
0
100
AcDbLine
 10
197.047113
 20
156.5
 30
0.0
 11
201.047113
 21
160.5
 31
0.0
  0
MTEXT
  5
605
102
{ACAD_REACTORS
330
606
102
}
100
AcDbEntity
  8
0
100
AcDbMText
 10
207.614653
 20
171.905295
 30
0.0
 40
5.0
 41
0.0
 71
     4
 72
     1
  1
\A1;C0.5
  0
LEADER
  5
606
100
AcDbEntity
  8
0
100
AcDbLeader
  3
STANDARD
 73
     0
 40
5.0
 41
14.166667
 76
     3
 10
197.202145
 20
163.061718
 30
0.0
 10
206.934797
 20
171.905295
 30
0.0
 10
207.524653
 20
171.905295
 30
0.0
 77
   256
340
605
1001
ACAD
1000
DSTYLE
1002
{
1070
    78
1070
     8
1070
   288
1070
     1
1070
   284
1070
     8
1070
   140
1040
5.0
1070
    73
1070
     0
1070
   272
1070
     2
1070
    42
1040
1.0
1070
    44
1040
1.0
1070
   271
1070
     2
1070
    41
1040
2.0
1002
}
  0
LINE
  5
607
100
AcDbEntity
  8
0
100
AcDbLine
 10
194.050001
 20
154.033218
 30
0.0
 11
196.500001
 21
156.483218
 31
0.0
  0
LINE
  5
608
100
AcDbEntity
  8
0
100
AcDbLine
 10
194.050001
 20
154.563548
 30
0.0
 11
199.986453
 21
160.5
 31
0.0
  0
LINE
  5
609
100
AcDbEntity
  8
0
100
AcDbLine
 10
194.050001
 20
155.093878
 30
0.0
 11
199.456123
 21
160.5
 31
0.0
  0
LINE
  5
60A
100
AcDbEntity
  8
0
100
AcDbLine
 10
194.050001
 20
155.624208
 30
0.0
 11
198.925793
 21
160.5
 31
0.0
  0
LINE
  5
60B
100
AcDbEntity
  8
0
100
AcDbLine
 10
194.050001
 20
156.154538
 30
0.0
 11
198.395463
 21
160.5
 31
0.0
  0
LINE
  5
60C
100
AcDbEntity
  8
0
100
AcDbLine
 10
194.698763
 20
151.5
 30
0.0
 11
196.500001
 21
153.301237
 31
0.0
  0
LINE
  5
60D
100
AcDbEntity
  8
0
100
AcDbLine
 10
194.168433
 20
151.5
 30
0.0
 11
196.500001
 21
153.831567
 31
0.0
  0
LINE
  5
60E
100
AcDbEntity
  8
0
100
AcDbLine
 10
194.050001
 20
151.911897
 30
0.0
 11
196.500001
 21
154.361897
 31
0.0
  0
LINE
  5
60F
100
AcDbEntity
  8
0
100
AcDbLine
 10
194.050001
 20
152.442227
 30
0.0
 11
196.500001
 21
154.892227
 31
0.0
  0
LINE
  5
610
100
AcDbEntity
  8
0
100
AcDbLine
 10
194.050001
 20
152.972557
 30
0.0
 11
196.500001
 21
155.422557
 31
0.0
  0
LINE
  5
611
100
AcDbEntity
  8
0
100
AcDbLine
 10
194.050001
 20
153.502888
 30
0.0
 11
196.500001
 21
155.952888
 31
0.0
  0
LINE
  5
612
100
AcDbEntity
  8
0
100
AcDbLine
 10
196.289754
 20
151.5
 30
0.0
 11
196.500001
 21
151.710247
 31
0.0
  0
LINE
  5
613
100
AcDbEntity
  8
0
100
AcDbLine
 10
195.759424
 20
151.5
 30
0.0
 11
196.500001
 21
152.240577
 31
0.0
  0
LINE
  5
614
100
AcDbEntity
  8
0
100
AcDbLine
 10
195.229093
 20
151.5
 30
0.0
 11
196.500001
 21
152.770907
 31
0.0
  0
LINE
  5
615
100
AcDbEntity
  8
0
100
AcDbLine
 10
194.050001
 20
156.684868
 30
0.0
 11
197.865132
 21
160.5
 31
0.0
  0
LINE
  5
616
100
AcDbEntity
  8
0
100
AcDbLine
 10
194.050001
 20
157.215198
 30
0.0
 11
197.334802
 21
160.5
 31
0.0
  0
LINE
  5
617
100
AcDbEntity
  8
0
100
AcDbLine
 10
194.050001
 20
157.745528
 30
0.0
 11
197.200001
 21
160.895528
 31
0.0
  0
LINE
  5
618
100
AcDbEntity
  8
0
100
AcDbLine
 10
194.050001
 20
158.275858
 30
0.0
 11
197.200001
 21
161.425858
 31
0.0
  0
LINE
  5
619
100
AcDbEntity
  8
0
100
AcDbLine
 10
194.050001
 20
158.806188
 30
0.0
 11
197.200001
 21
161.956188
 31
0.0
  0
LINE
  5
61A
100
AcDbEntity
  8
0
100
AcDbLine
 10
194.050001
 20
159.336518
 30
0.0
 11
197.200001
 21
162.486518
 31
0.0
  0
LINE
  5
61B
100
AcDbEntity
  8
0
100
AcDbLine
 10
194.050001
 20
159.866849
 30
0.0
 11
197.183152
 21
163.0
 31
0.0
  0
LINE
  5
61C
100
AcDbEntity
  8
0
100
AcDbLine
 10
194.050001
 20
160.397179
 30
0.0
 11
196.652822
 21
163.0
 31
0.0
  0
LINE
  5
61D
100
AcDbEntity
  8
0
100
AcDbLine
 10
193.622492
 20
160.5
 30
0.0
 11
196.122492
 21
163.0
 31
0.0
  0
LINE
  5
61E
100
AcDbEntity
  8
0
100
AcDbLine
 10
193.092162
 20
160.5
 30
0.0
 11
195.592162
 21
163.0
 31
0.0
  0
LINE
  5
61F
100
AcDbEntity
  8
0
100
AcDbLine
 10
192.561832
 20
160.5
 30
0.0
 11
195.061832
 21
163.0
 31
0.0
  0
LINE
  5
620
100
AcDbEntity
  8
0
100
AcDbLine
 10
192.031501
 20
160.5
 30
0.0
 11
194.531501
 21
163.0
 31
0.0
  0
LINE
  5
621
100
AcDbEntity
  8
0
100
AcDbLine
 10
192.064233
 20
161.063062
 30
0.0
 11
193.936938
 21
162.935767
 31
0.0
  0
LINE
  5
622
100
AcDbEntity
  8
0
100
AcDbLine
 10
192.629313
 20
162.158472
 30
0.0
 11
192.841529
 21
162.370687
 31
0.0
  0
LINE
  5
623
100
AcDbEntity
  8
0
100
AcDbLine
 10
196.516783
 20
156.5
 30
0.0
 11
200.516783
 21
160.5
 31
0.0
  0
LINE
  5
624
100
AcDbEntity
  8
0
100
AcDbLine
 10
222.502957
 20
156.5
 30
0.0
 11
226.502957
 21
160.5
 31
0.0
  0
LINE
  5
625
100
AcDbEntity
  8
0
100
AcDbLine
 10
221.972627
 20
156.5
 30
0.0
 11
225.972627
 21
160.5
 31
0.0
  0
LINE
  5
626
100
AcDbEntity
  8
0
100
AcDbLine
 10
221.442297
 20
156.5
 30
0.0
 11
225.442297
 21
160.5
 31
0.0
  0
LINE
  5
627
100
AcDbEntity
  8
0
100
AcDbLine
 10
220.911967
 20
156.5
 30
0.0
 11
224.911967
 21
160.5
 31
0.0
  0
LINE
  5
628
100
AcDbEntity
  8
0
100
AcDbLine
 10
220.381637
 20
156.5
 30
0.0
 11
224.381637
 21
160.5
 31
0.0
  0
LINE
  5
629
100
AcDbEntity
  8
0
100
AcDbLine
 10
219.851307
 20
156.5
 30
0.0
 11
223.851307
 21
160.5
 31
0.0
  0
LINE
  5
62A
100
AcDbEntity
  8
0
100
AcDbLine
 10
219.320977
 20
156.5
 30
0.0
 11
223.320977
 21
160.5
 31
0.0
  0
LINE
  5
62B
100
AcDbEntity
  8
0
100
AcDbLine
 10
211.366025
 20
156.5
 30
0.0
 11
215.366025
 21
160.5
 31
0.0
  0
LINE
  5
62C
100
AcDbEntity
  8
0
100
AcDbLine
 10
210.835695
 20
156.5
 30
0.0
 11
214.835695
 21
160.5
 31
0.0
  0
LINE
  5
62D
100
AcDbEntity
  8
0
100
AcDbLine
 10
210.305365
 20
156.5
 30
0.0
 11
214.305365
 21
160.5
 31
0.0
  0
LINE
  5
62E
100
AcDbEntity
  8
0
100
AcDbLine
 10
209.775035
 20
156.5
 30
0.0
 11
213.775035
 21
160.5
 31
0.0
  0
LINE
  5
62F
100
AcDbEntity
  8
0
100
AcDbLine
 10
209.244705
 20
156.5
 30
0.0
 11
213.244705
 21
160.5
 31
0.0
  0
LINE
  5
630
100
AcDbEntity
  8
0
100
AcDbLine
 10
208.714375
 20
156.5
 30
0.0
 11
212.714375
 21
160.5
 31
0.0
  0
LINE
  5
631
100
AcDbEntity
  8
0
100
AcDbLine
 10
208.184045
 20
156.5
 30
0.0
 11
212.184045
 21
160.5
 31
0.0
  0
LINE
  5
632
100
AcDbEntity
  8
0
100
AcDbLine
 10
206.062724
 20
156.5
 30
0.0
 11
210.062724
 21
160.5
 31
0.0
  0
LINE
  5
633
100
AcDbEntity
  8
0
100
AcDbLine
 10
205.532394
 20
156.5
 30
0.0
 11
209.532394
 21
160.5
 31
0.0
  0
LINE
  5
634
100
AcDbEntity
  8
0
100
AcDbLine
 10
205.002064
 20
156.5
 30
0.0
 11
209.002064
 21
160.5
 31
0.0
  0
LINE
  5
635
100
AcDbEntity
  8
0
100
AcDbLine
 10
204.471734
 20
156.5
 30
0.0
 11
208.471734
 21
160.5
 31
0.0
  0
LINE
  5
636
100
AcDbEntity
  8
0
100
AcDbLine
 10
203.941404
 20
156.5
 30
0.0
 11
207.941404
 21
160.5
 31
0.0
  0
LINE
  5
637
100
AcDbEntity
  8
0
100
AcDbLine
 10
203.411074
 20
156.5
 30
0.0
 11
207.411074
 21
160.5
 31
0.0
  0
LINE
  5
638
100
AcDbEntity
  8
0
100
AcDbLine
 10
202.880744
 20
156.5
 30
0.0
 11
206.880744
 21
160.5
 31
0.0
  0
LINE
  5
639
100
AcDbEntity
  8
0
100
AcDbLine
 10
202.350414
 20
156.5
 30
0.0
 11
206.350414
 21
160.5
 31
0.0
  0
LINE
  5
63A
100
AcDbEntity
  8
0
100
AcDbLine
 10
201.820084
 20
156.5
 30
0.0
 11
205.820084
 21
160.5
 31
0.0
  0
LINE
  5
63B
100
AcDbEntity
  8
0
100
AcDbLine
 10
201.289754
 20
156.5
 30
0.0
 11
205.289754
 21
160.5
 31
0.0
  0
LINE
  5
63C
100
AcDbEntity
  8
0
100
AcDbLine
 10
200.759424
 20
156.5
 30
0.0
 11
204.759424
 21
160.5
 31
0.0
  0
LINE
  5
63D
100
AcDbEntity
  8
0
100
AcDbLine
 10
207.653715
 20
156.5
 30
0.0
 11
211.653715
 21
160.5
 31
0.0
  0
LINE
  5
63E
100
AcDbEntity
  8
0
100
AcDbLine
 10
207.123385
 20
156.5
 30
0.0
 11
211.123385
 21
160.5
 31
0.0
  0
LINE
  5
63F
100
AcDbEntity
  8
0
100
AcDbLine
 10
206.593054
 20
156.5
 30
0.0
 11
210.593054
 21
160.5
 31
0.0
  0
LINE
  5
640
100
AcDbEntity
  8
0
100
AcDbLine
 10
217.199656
 20
156.5
 30
0.0
 11
221.199656
 21
160.5
 31
0.0
  0
LINE
  5
641
100
AcDbEntity
  8
0
100
AcDbLine
 10
216.669326
 20
156.5
 30
0.0
 11
220.669326
 21
160.5
 31
0.0
  0
LINE
  5
642
100
AcDbEntity
  8
0
100
AcDbLine
 10
216.138996
 20
156.5
 30
0.0
 11
220.138996
 21
160.5
 31
0.0
  0
LINE
  5
643
100
AcDbEntity
  8
0
100
AcDbLine
 10
215.608666
 20
156.5
 30
0.0
 11
219.608666
 21
160.5
 31
0.0
  0
LINE
  5
644
100
AcDbEntity
  8
0
100
AcDbLine
 10
215.078336
 20
156.5
 30
0.0
 11
219.078336
 21
160.5
 31
0.0
  0
LINE
  5
645
100
AcDbEntity
  8
0
100
AcDbLine
 10
214.548006
 20
156.5
 30
0.0
 11
218.548006
 21
160.5
 31
0.0
  0
LINE
  5
646
100
AcDbEntity
  8
0
100
AcDbLine
 10
214.017676
 20
156.5
 30
0.0
 11
218.017676
 21
160.5
 31
0.0
  0
LINE
  5
647
100
AcDbEntity
  8
0
100
AcDbLine
 10
213.487346
 20
156.5
 30
0.0
 11
217.487346
 21
160.5
 31
0.0
  0
LINE
  5
648
100
AcDbEntity
  8
0
100
AcDbLine
 10
212.957016
 20
156.5
 30
0.0
 11
216.957016
 21
160.5
 31
0.0
  0
LINE
  5
649
100
AcDbEntity
  8
0
100
AcDbLine
 10
212.426685
 20
156.5
 30
0.0
 11
216.426685
 21
160.5
 31
0.0
  0
LINE
  5
64A
100
AcDbEntity
  8
0
100
AcDbLine
 10
211.896355
 20
156.5
 30
0.0
 11
215.896355
 21
160.5
 31
0.0
  0
LINE
  5
64B
100
AcDbEntity
  8
0
100
AcDbLine
 10
218.790646
 20
156.5
 30
0.0
 11
222.790646
 21
160.5
 31
0.0
  0
LINE
  5
64C
100
AcDbEntity
  8
0
100
AcDbLine
 10
218.260316
 20
156.5
 30
0.0
 11
222.260316
 21
160.5
 31
0.0
  0
LINE
  5
64D
100
AcDbEntity
  8
0
100
AcDbLine
 10
217.729986
 20
156.5
 30
0.0
 11
221.729986
 21
160.5
 31
0.0
  0
LINE
  5
64E
100
AcDbEntity
  8
0
100
AcDbLine
 10
228.336588
 20
156.5
 30
0.0
 11
231.850001
 21
160.013412
 31
0.0
  0
LINE
  5
64F
100
AcDbEntity
  8
0
100
AcDbLine
 10
227.806258
 20
156.5
 30
0.0
 11
231.806258
 21
160.5
 31
0.0
  0
LINE
  5
650
100
AcDbEntity
  8
0
100
AcDbLine
 10
227.275928
 20
156.5
 30
0.0
 11
231.275928
 21
160.5
 31
0.0
  0
LINE
  5
651
100
AcDbEntity
  8
0
100
AcDbLine
 10
226.745598
 20
156.5
 30
0.0
 11
230.745598
 21
160.5
 31
0.0
  0
LINE
  5
652
100
AcDbEntity
  8
0
100
AcDbLine
 10
226.215268
 20
156.5
 30
0.0
 11
230.215268
 21
160.5
 31
0.0
  0
LINE
  5
653
100
AcDbEntity
  8
0
100
AcDbLine
 10
225.684938
 20
156.5
 30
0.0
 11
229.684938
 21
160.5
 31
0.0
  0
LINE
  5
654
100
AcDbEntity
  8
0
100
AcDbLine
 10
225.154607
 20
156.5
 30
0.0
 11
229.154607
 21
160.5
 31
0.0
  0
LINE
  5
655
100
AcDbEntity
  8
0
100
AcDbLine
 10
224.624277
 20
156.5
 30
0.0
 11
228.624277
 21
160.5
 31
0.0
  0
LINE
  5
656
100
AcDbEntity
  8
0
100
AcDbLine
 10
224.093947
 20
156.5
 30
0.0
 11
228.093947
 21
160.5
 31
0.0
  0
LINE
  5
657
100
AcDbEntity
  8
0
100
AcDbLine
 10
223.563617
 20
156.5
 30
0.0
 11
227.563617
 21
160.5
 31
0.0
  0
LINE
  5
658
100
AcDbEntity
  8
0
100
AcDbLine
 10
223.033287
 20
156.5
 30
0.0
 11
227.033287
 21
160.5
 31
0.0
  0
LINE
  5
659
100
AcDbEntity
  8
0
100
AcDbLine
 10
231.518569
 20
156.5
 30
0.0
 11
231.850001
 21
156.831432
 31
0.0
  0
LINE
  5
65A
100
AcDbEntity
  8
0
100
AcDbLine
 10
230.988238
 20
156.5
 30
0.0
 11
231.850001
 21
157.361762
 31
0.0
  0
LINE
  5
65B
100
AcDbEntity
  8
0
100
AcDbLine
 10
230.457908
 20
156.5
 30
0.0
 11
231.850001
 21
157.892092
 31
0.0
  0
LINE
  5
65C
100
AcDbEntity
  8
0
100
AcDbLine
 10
229.927578
 20
156.5
 30
0.0
 11
231.850001
 21
158.422422
 31
0.0
  0
LINE
  5
65D
100
AcDbEntity
  8
0
100
AcDbLine
 10
229.397248
 20
156.5
 30
0.0
 11
231.850001
 21
158.952752
 31
0.0
  0
LINE
  5
65E
100
AcDbEntity
  8
0
100
AcDbLine
 10
228.866918
 20
156.5
 30
0.0
 11
231.850001
 21
159.483082
 31
0.0
  0
LINE
  5
65F
100
AcDbEntity
  8
2
100
AcDbLine
 10
224.151929
 20
223.89132
 30
0.0
 11
224.151929
 21
220.454776
 31
0.0
  0
LINE
  5
660
100
AcDbEntity
  8
2
100
AcDbLine
 10
239.151929
 20
220.454776
 30
0.0
 11
239.151929
 21
223.89132
 31
0.0
  0
ARC
  5
661
100
AcDbEntity
  8
2
100
AcDbCircle
 10
231.651929
 20
255.0
 30
0.0
 40
32.0
100
AcDbArc
 50
256.445216
 51
283.554784
  0
LINE
  5
662
100
AcDbEntity
  8
2
100
AcDbLine
 10
224.151929
 20
220.454776
 30
0.0
 11
224.151929
 21
217.951518
 31
0.0
  0
LINE
  5
663
100
AcDbEntity
  8
2
100
AcDbLine
 10
239.151929
 20
220.454776
 30
0.0
 11
239.151929
 21
217.951518
 31
0.0
  0
LINE
  5
664
100
AcDbEntity
  8
3
100
AcDbLine
 10
39.850001
 20
160.5
 30
9.364146
 11
74.500001
 21
160.5
 31
9.364146
  0
LINE
  5
665
100
AcDbEntity
  8
2
100
AcDbLine
 10
11.54291
 20
156.5
 30
9.364146
 11
75.200001
 21
156.5
 31
9.364146
  0
LINE
  5
666
100
AcDbEntity
  8
3
100
AcDbLine
 10
74.500001
 20
163.0
 30
9.364146
 11
5.200001
 21
163.0
 31
9.364146
  0
LINE
  5
667
100
AcDbEntity
  8
3
100
AcDbLine
 10
75.200001
 20
151.5
 30
9.364146
 11
11.54291
 21
151.5
 31
9.364146
  0
LINE
  5
668
100
AcDbEntity
  8
3
100
AcDbLine
 10
39.850001
 20
160.5
 30
9.364146
 11
5.200001
 21
160.5
 31
9.364146
  0
LINE
  5
669
100
AcDbEntity
  8
3
100
AcDbLine
 10
2.050001
 20
160.5
 30
9.364146
 11
0.000001
 21
160.5
 31
9.364146
  0
ARC
  5
66A
100
AcDbEntity
  8
3
100
AcDbCircle
 10
2.500001
 20
160.5
 30
9.364146
 40
2.5
100
AcDbArc
 50
90.0
 51
180.0
  0
LINE
  5
66B
100
AcDbEntity
  8
3
100
AcDbLine
 10
11.54291
 20
151.5
 30
9.364146
 11
11.54291
 21
144.5
 31
9.364146
  0
LINE
  5
66C
100
AcDbEntity
  8
2
100
AcDbLine
 10
10.000001
 20
156.5
 30
9.364146
 11
10.000001
 21
144.5
 31
9.364146
  0
LINE
  5
66D
100
AcDbEntity
  8
3
100
AcDbLine
 10
2.050001
 20
160.5
 30
9.364146
 11
2.050001
 21
144.5
 31
9.364146
  0
LINE
  5
66E
100
AcDbEntity
  8
3
100
AcDbLine
 10
11.54291
 20
144.5
 30
9.364146
 11
2.000001
 21
144.5
 31
9.364146
  0
LINE
  5
66F
100
AcDbEntity
  8
2
100
AcDbLine
 10
11.54291
 20
156.5
 30
9.364146
 11
5.676193
 21
156.5
 31
9.364146
  0
LINE
  5
670
100
AcDbEntity
  8
3
100
AcDbLine
 10
11.54291
 20
151.5
 30
9.364146
 11
2.050001
 21
151.5
 31
9.364146
  0
LINE
  5
671
100
AcDbEntity
  8
2
100
AcDbLine
 10
5.676193
 20
156.5
 30
9.364146
 11
5.676193
 21
151.5
 31
9.364146
  0
LINE
  5
672
100
AcDbEntity
  8
3
100
AcDbLine
 10
5.200001
 20
163.0
 30
9.364146
 11
2.500001
 21
163.0
 31
9.364146
  0
LINE
  5
673
100
AcDbEntity
  8
3
100
AcDbLine
 10
5.200001
 20
160.5
 30
9.364146
 11
2.050001
 21
160.5
 31
9.364146
  0
LINE
  5
674
100
AcDbEntity
  8
2
100
AcDbLine
 10
5.200001
 20
163.0
 30
9.364146
 11
5.200001
 21
160.5
 31
9.364146
  0
LINE
  5
675
100
AcDbEntity
  8
2
100
AcDbLine
 10
11.54291
 20
151.5
 30
9.364146
 11
11.54291
 21
156.5
 31
9.364146
  0
LINE
  5
676
100
AcDbEntity
  8
1
100
AcDbLine
 10
39.850001
 20
165.0
 30
9.364146
 11
39.850001
 21
141.0
 31
9.364146
  0
LINE
  5
677
100
AcDbEntity
  8
3
100
AcDbLine
 10
77.650001
 20
160.5
 30
9.364146
 11
79.700001
 21
160.5
 31
9.364146
  0
ARC
  5
678
100
AcDbEntity
  8
3
100
AcDbCircle
 10
77.200001
 20
160.5
 30
9.364146
 40
2.5
100
AcDbArc
 50
0.0
 51
90.0
  0
LINE
  5
679
100
AcDbEntity
  8
3
100
AcDbLine
 10
77.650001
 20
151.5
 30
9.364146
 11
77.650001
 21
160.5
 31
9.364146
  0
LINE
  5
67A
100
AcDbEntity
  8
2
100
AcDbLine
 10
75.200001
 20
156.5
 30
9.364146
 11
75.200001
 21
151.5
 31
9.364146
  0
LINE
  5
67B
100
AcDbEntity
  8
3
100
AcDbLine
 10
75.200001
 20
151.5
 30
9.364146
 11
77.650001
 21
151.5
 31
9.364146
  0
LINE
  5
67C
100
AcDbEntity
  8
2
100
AcDbLine
 10
74.500001
 20
163.0
 30
9.364146
 11
74.500001
 21
160.5
 31
9.364146
  0
LINE
  5
67D
100
AcDbEntity
  8
3
100
AcDbLine
 10
74.500001
 20
163.0
 30
9.364146
 11
77.200001
 21
163.0
 31
9.364146
  0
LINE
  5
67E
100
AcDbEntity
  8
3
100
AcDbLine
 10
74.500001
 20
160.5
 30
9.364146
 11
77.650001
 21
160.5
 31
9.364146
  0
LINE
  5
67F
100
AcDbEntity
  8
3
100
AcDbLine
 10
196.500001
 20
156.5
 30
9.364146
 11
231.850001
 21
156.5
 31
9.364146
  0
LINE
  5
680
100
AcDbEntity
  8
3
100
AcDbLine
 10
197.200001
 20
163.0
 30
9.364146
 11
231.850001
 21
163.0
 31
9.364146
  0
LINE
  5
681
100
AcDbEntity
  8
3
100
AcDbLine
 10
196.500001
 20
151.5
 30
9.364146
 11
224.350001
 21
151.5
 31
9.364146
  0
LINE
  5
682
100
AcDbEntity
  8
3
100
AcDbLine
 10
196.500001
 20
151.5
 30
9.364146
 11
196.500001
 21
156.5
 31
9.364146
  0
LINE
  5
683
100
AcDbEntity
  8
3
100
AcDbLine
 10
194.050001
 20
151.5
 30
9.364146
 11
194.050001
 21
160.5
 31
9.364146
  0
LINE
  5
684
100
AcDbEntity
  8
3
100
AcDbLine
 10
196.500001
 20
151.5
 30
9.364146
 11
194.050001
 21
151.5
 31
9.364146
  0
LINE
  5
685
100
AcDbEntity
  8
3
100
AcDbLine
 10
197.200001
 20
163.0
 30
9.364146
 11
194.500001
 21
163.0
 31
9.364146
  0
LINE
  5
686
100
AcDbEntity
  8
3
100
AcDbLine
 10
194.050001
 20
160.5
 30
9.364146
 11
192.000001
 21
160.5
 31
9.364146
  0
ARC
  5
687
100
AcDbEntity
  8
3
100
AcDbCircle
 10
194.500001
 20
160.5
 30
9.364146
 40
2.5
100
AcDbArc
 50
90.0
 51
180.0
  0
LINE
  5
688
100
AcDbEntity
  8
3
100
AcDbLine
 10
197.200001
 20
163.0
 30
9.364146
 11
197.200001
 21
160.5
 31
9.364146
  0
LINE
  5
689
100
AcDbEntity
  8
1
100
AcDbLine
 10
231.850001
 20
165.0
 30
9.364146
 11
231.850001
 21
141.0
 31
9.364146
  0
LINE
  5
68A
100
AcDbEntity
  8
3
100
AcDbLine
 10
239.350001
 20
144.5
 30
9.364146
 11
239.350001
 21
151.5
 31
9.364146
  0
LINE
  5
68B
100
AcDbEntity
  8
3
100
AcDbLine
 10
231.850001
 20
144.5
 30
9.364146
 11
239.350001
 21
144.5
 31
9.364146
  0
LINE
  5
68C
100
AcDbEntity
  8
3
100
AcDbLine
 10
224.350001
 20
151.5
 30
9.364146
 11
231.850001
 21
151.5
 31
9.364146
  0
LINE
  5
68D
100
AcDbEntity
  8
2
100
AcDbLine
 10
239.350001
 20
151.5
 30
9.364146
 11
239.350001
 21
156.5
 31
9.364146
  0
DIMENSION
  5
68E
100
AcDbEntity
  8
0
100
AcDbDimension
  2
*D43
 10
492.200001
 20
160.5
 30
9.364146
 11
514.758774
 21
175.573626
 31
0.0
 12
-1.998071
 22
-56.0
 32
0.0
 70
   132
  3
STANDARD
100
AcDbRadialDimension
 15
493.830493
 25
162.395124
 35
9.364146
 40
0.0
1001
ACAD
1000
DSTYLE
1002
{
1070
    78
1070
     8
1070
   288
1070
     1
1070
   284
1070
     8
1070
   140
1040
5.0
1070
    73
1070
     0
1070
   272
1070
     2
1070
    42
1040
1.0
1070
    44
1040
1.0
1070
   271
1070
     2
1070
    41
1040
2.0
1002
}
  0
DIMENSION
  5
68F
100
AcDbEntity
  8
0
100
AcDbDimension
  2
*D42
 10
417.500001
 20
160.5
 30
9.364146
 11
400.269748
 21
171.738722
 31
0.0
 12
-23.698071
 22
-56.0
 32
0.0
 70
   132
  3
STANDARD
100
AcDbRadialDimension
 15
416.094487
 25
162.567494
 35
9.364146
 40
0.0
1001
ACAD
1000
DSTYLE
1002
{
1070
    78
1070
     8
1070
   288
1070
     1
1070
   284
1070
     8
1070
   140
1040
5.0
1070
    73
1070
     0
1070
   272
1070
     2
1070
    42
1040
1.0
1070
    44
1040
1.0
1070
   271
1070
     2
1070
    41
1040
2.0
1002
}
  0
DIMENSION
  5
690
100
AcDbEntity
  8
0
100
AcDbDimension
  2
*D40
 10
354.598961
 20
144.5
 30
0.0
 11
363.355628
 21
167.5
 31
0.0
 12
-28.644372
 22
-56.0
 32
0.0
 70
   128
  3
STANDARD
100
AcDbAlignedDimension
 13
270.553699
 23
163.0
 33
0.0
 14
250.553699
 24
144.5
 34
9.364146
 50
90.0
100
AcDbRotatedDimension
1001
ACAD
1000
DSTYLE
1002
{
1070
    78
1070
     8
1070
   288
1070
     1
1070
   284
1070
     8
1070
   140
1040
5.0
1070
    73
1070
     0
1070
   272
1070
     2
1070
    42
1040
1.0
1070
    44
1040
1.0
1070
   271
1070
     2
1070
    41
1040
2.0
1002
}
  0
DIMENSION
  5
691
100
AcDbEntity
  8
0
100
AcDbDimension
  2
*D39
 10
334.432295
 20
151.5
 30
0.0
 11
342.355628
 21
169.0
 31
0.0
 12
-28.644372
 22
-56.0
 32
0.0
 70
   128
  3
STANDARD
100
AcDbAlignedDimension
 13
269.553699
 23
163.0
 33
9.364146
 14
270.003699
 24
151.5
 34
9.364146
 50
90.0
100
AcDbRotatedDimension
1001
ACAD
1000
DSTYLE
1002
{
1070
    78
1070
     8
1070
   288
1070
     1
1070
   284
1070
     8
1070
   140
1040
5.0
1070
    73
1070
     0
1070
   272
1070
     2
1070
    42
1040
1.0
1070
    44
1040
1.0
1070
   271
1070
     2
1070
    41
1040
2.0
1002
}
  0
DIMENSION
  5
692
100
AcDbEntity
  8
0
100
AcDbDimension
  2
*D38
 10
316.765628
 20
156.5
 30
0.0
 11
323.855628
 21
170.0
 31
0.0
 12
-28.644372
 22
-56.0
 32
0.0
 70
   128
  3
STANDARD
100
AcDbAlignedDimension
 13
270.553699
 23
163.0
 33
0.0
 14
267.553699
 24
156.5
 34
9.364146
 50
90.0
100
AcDbRotatedDimension
1001
ACAD
1000
DSTYLE
1002
{
1070
    78
1070
     8
1070
   288
1070
     1
1070
   284
1070
     8
1070
   140
1040
5.0
1070
    73
1070
     0
1070
   272
1070
     2
1070
    42
1040
1.0
1070
    44
1040
1.0
1070
   271
1070
     2
1070
    41
1040
2.0
1002
}
  0
DIMENSION
  5
693
100
AcDbEntity
  8
0
100
AcDbDimension
  2
*D37
 10
300.265628
 20
160.5
 30
0.0
 11
307.355628
 21
171.5
 31
0.0
 12
-28.644372
 22
-56.0
 32
0.0
 70
   128
  3
STANDARD
100
AcDbAlignedDimension
 13
269.553699
 23
163.0
 33
9.364146
 14
272.053699
 24
160.5
 34
9.364146
 50
90.0
100
AcDbRotatedDimension
1001
ACAD
1000
DSTYLE
1002
{
1070
    78
1070
     8
1070
   288
1070
     1
1070
   284
1070
     8
1070
   140
1040
5.0
1070
    73
1070
     0
1070
   272
1070
     2
1070
    42
1040
1.0
1070
    44
1040
1.0
1070
   271
1070
     2
1070
    41
1040
2.0
1002
}
  0
DIMENSION
  5
694
100
AcDbEntity
  8
0
100
AcDbDimension
  2
*D36
 10
269.553699
 20
160.5
 30
9.364146
 11
317.445628
 21
199.0
 31
0.0
 12
-28.644372
 22
-56.0
 32
0.0
 70
   132
  3
STANDARD
100
AcDbRadialDimension
 15
271.316901
 25
162.27232
 35
9.364146
 40
0.0
1001
ACAD
1000
DSTYLE
1002
{
1070
    78
1070
     8
1070
   288
1070
     1
1070
   284
1070
     8
1070
   140
1040
5.0
1070
    73
1070
     0
1070
   272
1070
     2
1070
    42
1040
1.0
1070
    44
1040
1.0
1070
   271
1070
     2
1070
    41
1040
2.0
1002
}
  0
LINE
  5
695
100
AcDbEntity
  8
3
100
AcDbLine
 10
419.500001
 20
151.5
 30
9.364146
 11
483.157091
 21
151.5
 31
9.364146
  0
LINE
  5
696
100
AcDbEntity
  8
3
100
AcDbLine
 10
420.200001
 20
163.0
 30
9.364146
 11
489.500001
 21
163.0
 31
9.364146
  0
LINE
  5
697
100
AcDbEntity
  8
3
100
AcDbLine
 10
454.850001
 20
160.5
 30
9.364146
 11
420.200001
 21
160.5
 31
9.364146
  0
LINE
  5
698
100
AcDbEntity
  8
2
100
AcDbLine
 10
483.157091
 20
156.5
 30
9.364146
 11
419.500001
 21
156.5
 31
9.364146
  0
LINE
  5
699
100
AcDbEntity
  8
3
100
AcDbLine
 10
266.500001
 20
163.0
 30
9.364146
 11
269.200001
 21
163.0
 31
9.364146
  0
LINE
  5
69A
100
AcDbEntity
  8
3
100
AcDbLine
 10
267.200001
 20
151.5
 30
9.364146
 11
269.650001
 21
151.5
 31
9.364146
  0
LINE
  5
69B
100
AcDbEntity
  8
2
100
AcDbLine
 10
267.200001
 20
156.5
 30
9.364146
 11
267.200001
 21
151.5
 31
9.364146
  0
LINE
  5
69C
100
AcDbEntity
  8
2
100
AcDbLine
 10
266.500001
 20
160.5
 30
9.364146
 11
266.500001
 21
163.0
 31
9.364146
  0
LINE
  5
69D
100
AcDbEntity
  8
3
100
AcDbLine
 10
269.650001
 20
151.5
 30
9.364146
 11
269.650001
 21
160.5
 31
9.364146
  0
LINE
  5
69E
100
AcDbEntity
  8
3
100
AcDbLine
 10
269.650001
 20
160.5
 30
9.364146
 11
271.700001
 21
160.5
 31
9.364146
  0
ARC
  5
69F
100
AcDbEntity
  8
3
100
AcDbCircle
 10
269.200001
 20
160.5
 30
9.364146
 40
2.5
100
AcDbArc
 50
0.0
 51
90.0
  0
LINE
  5
6A0
100
AcDbEntity
  8
3
100
AcDbLine
 10
417.050001
 20
151.5
 30
9.364146
 11
417.050001
 21
160.5
 31
9.364146
  0
LINE
  5
6A1
100
AcDbEntity
  8
2
100
AcDbLine
 10
419.500001
 20
156.5
 30
9.364146
 11
419.500001
 21
151.5
 31
9.364146
  0
LINE
  5
6A2
100
AcDbEntity
  8
3
100
AcDbLine
 10
419.500001
 20
151.5
 30
9.364146
 11
417.050001
 21
151.5
 31
9.364146
  0
LINE
  5
6A3
100
AcDbEntity
  8
3
100
AcDbLine
 10
420.200001
 20
163.0
 30
9.364146
 11
417.500001
 21
163.0
 31
9.364146
  0
LINE
  5
6A4
100
AcDbEntity
  8
3
100
AcDbLine
 10
420.200001
 20
160.5
 30
9.364146
 11
417.050001
 21
160.5
 31
9.364146
  0
ARC
  5
6A5
100
AcDbEntity
  8
3
100
AcDbCircle
 10
417.500001
 20
160.5
 30
9.364146
 40
2.5
100
AcDbArc
 50
90.0
 51
180.0
  0
LINE
  5
6A6
100
AcDbEntity
  8
3
100
AcDbLine
 10
417.050001
 20
160.5
 30
9.364146
 11
415.000001
 21
160.5
 31
9.364146
  0
LINE
  5
6A7
100
AcDbEntity
  8
2
100
AcDbLine
 10
420.200001
 20
163.0
 30
9.364146
 11
420.200001
 21
160.5
 31
9.364146
  0
LINE
  5
6A8
100
AcDbEntity
  8
3
100
AcDbLine
 10
454.850001
 20
160.5
 30
9.364146
 11
489.500001
 21
160.5
 31
9.364146
  0
LINE
  5
6A9
100
AcDbEntity
  8
1
100
AcDbLine
 10
454.850001
 20
165.0
 30
9.364146
 11
454.850001
 21
141.0
 31
9.364146
  0
LINE
  5
6AA
100
AcDbEntity
  8
3
100
AcDbLine
 10
489.500001
 20
163.0
 30
9.364146
 11
492.200001
 21
163.0
 31
9.364146
  0
LINE
  5
6AB
100
AcDbEntity
  8
3
100
AcDbLine
 10
489.500001
 20
160.5
 30
9.364146
 11
492.650001
 21
160.5
 31
9.364146
  0
LINE
  5
6AC
100
AcDbEntity
  8
3
100
AcDbLine
 10
483.157091
 20
144.5
 30
9.364146
 11
492.700001
 21
144.5
 31
9.364146
  0
LINE
  5
6AD
100
AcDbEntity
  8
3
100
AcDbLine
 10
483.157091
 20
151.5
 30
9.364146
 11
492.650001
 21
151.5
 31
9.364146
  0
LINE
  5
6AE
100
AcDbEntity
  8
3
100
AcDbLine
 10
483.157091
 20
151.5
 30
9.364146
 11
483.157091
 21
144.5
 31
9.364146
  0
LINE
  5
6AF
100
AcDbEntity
  8
2
100
AcDbLine
 10
484.700001
 20
156.5
 30
9.364146
 11
484.700001
 21
144.5
 31
9.364146
  0
LINE
  5
6B0
100
AcDbEntity
  8
2
100
AcDbLine
 10
483.157091
 20
151.5
 30
9.364146
 11
483.157091
 21
156.5
 31
9.364146
  0
LINE
  5
6B1
100
AcDbEntity
  8
2
100
AcDbLine
 10
489.023808
 20
156.5
 30
9.364146
 11
489.023808
 21
151.5
 31
9.364146
  0
LINE
  5
6B2
100
AcDbEntity
  8
2
100
AcDbLine
 10
483.157091
 20
156.5
 30
9.364146
 11
489.023808
 21
156.5
 31
9.364146
  0
LINE
  5
6B3
100
AcDbEntity
  8
2
100
AcDbLine
 10
489.500001
 20
163.0
 30
9.364146
 11
489.500001
 21
160.5
 31
9.364146
  0
LINE
  5
6B4
100
AcDbEntity
  8
3
100
AcDbLine
 10
492.650001
 20
160.5
 30
9.364146
 11
492.650001
 21
144.5
 31
9.364146
  0
LINE
  5
6B5
100
AcDbEntity
  8
3
100
AcDbLine
 10
492.650001
 20
160.5
 30
9.364146
 11
494.700001
 21
160.5
 31
9.364146
  0
ARC
  5
6B6
100
AcDbEntity
  8
3
100
AcDbCircle
 10
492.200001
 20
160.5
 30
9.364146
 40
2.5
100
AcDbArc
 50
0.0
 51
90.0
  0
ENDBLK
  5
6B8
100
AcDbEntity
  8
0
100
AcDbBlockEnd
  0
BLOCK
  5
86A
100
AcDbEntity
  8
0
100
AcDbBlockBegin
  2
*D55
 70
     1
 10
0.0
 20
0.0
 30
0.0
  3
*D55
  1

  0
LINE
  5
86B
100
AcDbEntity
  8
0
  6
BYBLOCK
 62
     0
100
AcDbLine
 10
149.545257
 20
83.690594
 30
0.0
 11
201.045257
 21
83.690594
 31
0.0
  0
LINE
  5
86C
100
AcDbEntity
  8
0
  6
BYBLOCK
 62
     0
100
AcDbLine
 10
149.545257
 20
75.690594
 30
0.0
 11
201.045257
 21
75.690594
 31
0.0
  0
LINE
  5
86D
100
AcDbEntity
  8
0
  6
BYBLOCK
 62
     0
100
AcDbLine
 10
200.045257
 20
81.690594
 30
0.0
 11
200.045257
 21
81.600594
 31
0.0
  0
LINE
  5
86E
100
AcDbEntity
  8
0
  6
BYBLOCK
 62
     0
100
AcDbLine
 10
200.045257
 20
77.690594
 30
0.0
 11
200.045257
 21
78.433927
 31
0.0
  0
MTEXT
  5
86F
100
AcDbEntity
  8
0
  6
BYBLOCK
 62
     0
100
AcDbMText
 10
200.045257
 20
80.190594
 30
0.0
 40
5.0
 41
0.0
 71
     5
 72
     1
  1
\A1;8
  7
BIGFONT
 11
0.0
 21
1.0
 31
0.0
  0
SOLID
  5
870
100
AcDbEntity
  8
0
  6
BYBLOCK
 62
     0
100
AcDbTrace
 10
199.711924
 20
81.690594
 30
0.0
 11
200.378591
 21
81.690594
 31
0.0
 12
200.045257
 22
83.690594
 32
0.0
 13
200.045257
 23
83.690594
 33
0.0
  0
SOLID
  5
871
100
AcDbEntity
  8
0
  6
BYBLOCK
 62
     0
100
AcDbTrace
 10
199.711924
 20
77.690594
 30
0.0
 11
200.378591
 21
77.690594
 31
0.0
 12
200.045257
 22
75.690594
 32
0.0
 13
200.045257
 23
75.690594
 33
0.0
  0
POINT
  5
872
100
AcDbEntity
  8
DEFPOINTS
  6
BYBLOCK
 62
     0
100
AcDbPoint
 10
148.545257
 20
83.690594
 30
0.0
  0
POINT
  5
873
100
AcDbEntity
  8
DEFPOINTS
  6
BYBLOCK
 62
     0
100
AcDbPoint
 10
148.545257
 20
75.690594
 30
0.0
  0
POINT
  5
874
100
AcDbEntity
  8
DEFPOINTS
  6
BYBLOCK
 62
     0
100
AcDbPoint
 10
200.045257
 20
75.690594
 30
0.0
  0
ENDBLK
  5
875
100
AcDbEntity
  8
0
100
AcDbBlockEnd
  0
BLOCK
  5
876
100
AcDbEntity
  8
0
100
AcDbBlockBegin
  2
*D56
 70
     1
 10
0.0
 20
0.0
 30
0.0
  3
*D56
  1

  0
LINE
  5
877
100
AcDbEntity
  8
0
  6
BYBLOCK
 62
     0
100
AcDbLine
 10
180.261435
 20
51.443437
 30
0.0
 11
116.82908
 21
35.937751
 31
0.0
  0
MTEXT
  5
878
100
AcDbEntity
  8
0
  6
BYBLOCK
 62
     0
100
AcDbMText
 10
68.955257
 20
27.190594
 30
0.0
 40
5.0
 41
0.0
 71
     5
 72
     1
  1
\A1;\U+220569.3
  7
BIGFONT
  0
SOLID
  5
879
100
AcDbEntity
  8
0
  6
BYBLOCK
 62
     0
100
AcDbTrace
 10
180.182284
 20
51.767237
 30
0.0
 11
180.340586
 21
51.119638
 31
0.0
 12
182.204233
 22
51.918344
 32
0.0
 13
182.204233
 23
51.918344
 33
0.0
  0
SOLID
  5
87A
100
AcDbEntity
  8
0
  6
BYBLOCK
 62
     0
100
AcDbTrace
 10
116.749929
 20
36.26155
 30
0.0
 11
116.908231
 21
35.613951
 31
0.0
 12
114.886282
 22
35.462844
 32
0.0
 13
114.886282
 23
35.462844
 33
0.0
  0
POINT
  5
87B
100
AcDbEntity
  8
DEFPOINTS
  6
BYBLOCK
 62
     0
100
AcDbPoint
 10
114.886282
 20
35.462844
 30
0.0
  0
POINT
  5
87C
100
AcDbEntity
  8
DEFPOINTS
  6
BYBLOCK
 62
     0
100
AcDbPoint
 10
182.204233
 20
51.918344
 30
0.0
  0
ENDBLK
  5
87D
100
AcDbEntity
  8
0
100
AcDbBlockEnd
  0
BLOCK
  5
87E
100
AcDbEntity
  8
0
100
AcDbBlockBegin
  2
*D57
 70
     1
 10
0.0
 20
0.0
 30
0.0
  3
*D57
  1

  0
LINE
  5
87F
100
AcDbEntity
  8
0
  6
BYBLOCK
 62
     0
100
AcDbLine
 10
181.780058
 20
40.921027
 30
0.0
 11
115.310456
 21
46.460161
 31
0.0
  0
MTEXT
  5
880
100
AcDbEntity
  8
0
  6
BYBLOCK
 62
     0
100
AcDbMText
 10
70.871924
 20
49.190594
 30
0.0
 40
5.0
 41
0.0
 71
     5
 72
     1
  1
\A1;\U+220570.7
  7
BIGFONT
  0
SOLID
  5
881
100
AcDbEntity
  8
0
  6
BYBLOCK
 62
     0
100
AcDbTrace
 10
181.80774
 20
41.253209
 30
0.0
 11
181.752376
 21
40.588845
 31
0.0
 12
183.77315
 22
40.754936
 32
0.0
 13
183.77315
 23
40.754936
 33
0.0
  0
SOLID
  5
882
100
AcDbEntity
  8
0
  6
BYBLOCK
 62
     0
100
AcDbTrace
 10
115.338138
 20
46.792343
 30
0.0
 11
115.282774
 21
46.127979
 31
0.0
 12
113.317365
 22
46.626252
 32
0.0
 13
113.317365
 23
46.626252
 33
0.0
  0
POINT
  5
883
100
AcDbEntity
  8
DEFPOINTS
  6
BYBLOCK
 62
     0
100
AcDbPoint
 10
113.317365
 20
46.626252
 30
0.0
  0
POINT
  5
884
100
AcDbEntity
  8
DEFPOINTS
  6
BYBLOCK
 62
     0
100
AcDbPoint
 10
183.77315
 20
40.754936
 30
0.0
  0
ENDBLK
  5
885
100
AcDbEntity
  8
0
100
AcDbBlockEnd
  0
BLOCK
  5
886
100
AcDbEntity
  8
0
100
AcDbBlockBegin
  2
*D58
 70
     1
 10
0.0
 20
0.0
 30
0.0
  3
*D58
  1

  0
LINE
  5
887
100
AcDbEntity
  8
0
  6
BYBLOCK
 62
     0
100
AcDbLine
 10
183.083802
 20
34.270991
 30
0.0
 11
114.006712
 21
53.110197
 31
0.0
  0
MTEXT
  5
888
100
AcDbEntity
  8
0
  6
BYBLOCK
 62
     0
100
AcDbMText
 10
70.455257
 20
61.690594
 30
0.0
 40
5.0
 41
0.0
 71
     5
 72
     1
  1
\A1;\U+220575.6
  7
BIGFONT
  0
SOLID
  5
889
100
AcDbEntity
  8
0
  6
BYBLOCK
 62
     0
100
AcDbTrace
 10
183.171508
 20
34.592579
 30
0.0
 11
182.996096
 21
33.949403
 31
0.0
 12
185.01333
 22
33.744756
 32
0.0
 13
185.01333
 23
33.744756
 33
0.0
  0
SOLID
  5
88A
100
AcDbEntity
  8
0
  6
BYBLOCK
 62
     0
100
AcDbTrace
 10
114.094418
 20
53.431785
 30
0.0
 11
113.919007
 21
52.788609
 31
0.0
 12
112.077185
 22
53.636432
 32
0.0
 13
112.077185
 23
53.636432
 33
0.0
  0
POINT
  5
88B
100
AcDbEntity
  8
DEFPOINTS
  6
BYBLOCK
 62
     0
100
AcDbPoint
 10
112.077185
 20
53.636432
 30
0.0
  0
POINT
  5
88C
100
AcDbEntity
  8
DEFPOINTS
  6
BYBLOCK
 62
     0
100
AcDbPoint
 10
185.01333
 20
33.744756
 30
0.0
  0
ENDBLK
  5
88D
100
AcDbEntity
  8
0
100
AcDbBlockEnd
  0
BLOCK
  5
88E
100
AcDbEntity
  8
0
100
AcDbBlockBegin
  2
*D59
 70
     1
 10
0.0
 20
0.0
 30
0.0
  3
*D59
  1

  0
LINE
  5
88F
100
AcDbEntity
  8
0
  6
BYBLOCK
 62
     0
100
AcDbLine
 10
183.207668
 20
28.117627
 30
0.0
 11
113.882847
 21
59.263561
 31
0.0
  0
MTEXT
  5
890
100
AcDbEntity
  8
0
  6
BYBLOCK
 62
     0
100
AcDbMText
 10
71.205257
 20
74.690594
 30
0.0
 40
5.0
 41
0.0
 71
     5
 72
     1
  1
\A1;\U+220580
  7
BIGFONT
  0
SOLID
  5
891
100
AcDbEntity
  8
0
  6
BYBLOCK
 62
     0
100
AcDbTrace
 10
183.344273
 20
28.421683
 30
0.0
 11
183.071063
 21
27.813571
 31
0.0
 12
185.032005
 22
27.297997
 32
0.0
 13
185.032005
 23
27.297997
 33
0.0
  0
SOLID
  5
892
100
AcDbEntity
  8
0
  6
BYBLOCK
 62
     0
100
AcDbTrace
 10
114.019452
 20
59.567617
 30
0.0
 11
113.746242
 21
58.959505
 31
0.0
 12
112.058509
 22
60.083191
 32
0.0
 13
112.058509
 23
60.083191
 33
0.0
  0
POINT
  5
893
100
AcDbEntity
  8
DEFPOINTS
  6
BYBLOCK
 62
     0
100
AcDbPoint
 10
112.058509
 20
60.083191
 30
0.0
  0
POINT
  5
894
100
AcDbEntity
  8
DEFPOINTS
  6
BYBLOCK
 62
     0
100
AcDbPoint
 10
185.032005
 20
27.297997
 30
0.0
  0
ENDBLK
  5
895
100
AcDbEntity
  8
0
100
AcDbBlockEnd
  0
BLOCK
  5
896
100
AcDbEntity
  8
0
100
AcDbBlockBegin
  2
*D60
 70
     1
 10
0.0
 20
0.0
 30
0.0
  3
*D60
  1

  0
LINE
  5
897
100
AcDbEntity
  8
0
  6
BYBLOCK
 62
     0
100
AcDbLine
 10
114.093329
 20
163.690594
 30
0.0
 11
114.093329
 21
195.731909
 31
0.0
  0
LINE
  5
898
100
AcDbEntity
  8
0
  6
BYBLOCK
 62
     0
100
AcDbLine
 10
183.393329
 20
163.690594
 30
0.0
 11
183.393329
 21
195.731909
 31
0.0
  0
LINE
  5
899
100
AcDbEntity
  8
0
  6
BYBLOCK
 62
     0
100
AcDbLine
 10
116.093329
 20
194.731909
 30
0.0
 11
141.089111
 21
194.731909
 31
0.0
  0
LINE
  5
89A
100
AcDbEntity
  8
0
  6
BYBLOCK
 62
     0
100
AcDbLine
 10
181.393329
 20
194.731909
 30
0.0
 11
156.269111
 21
194.731909
 31
0.0
  0
MTEXT
  5
89B
100
AcDbEntity
  8
0
  6
BYBLOCK
 62
     0
100
AcDbMText
 10
148.679111
 20
194.731909
 30
0.0
 40
5.0
 41
0.0
 71
     5
 72
     1
  1
\A1;69.3
  7
BIGFONT
  0
SOLID
  5
89C
100
AcDbEntity
  8
0
  6
BYBLOCK
 62
     0
100
AcDbTrace
 10
116.093329
 20
195.065242
 30
0.0
 11
116.093329
 21
194.398575
 31
0.0
 12
114.093329
 22
194.731909
 32
0.0
 13
114.093329
 23
194.731909
 33
0.0
  0
SOLID
  5
89D
100
AcDbEntity
  8
0
  6
BYBLOCK
 62
     0
100
AcDbTrace
 10
181.393329
 20
195.065242
 30
0.0
 11
181.393329
 21
194.398575
 31
0.0
 12
183.393329
 22
194.731909
 32
0.0
 13
183.393329
 23
194.731909
 33
0.0
  0
POINT
  5
89E
100
AcDbEntity
  8
DEFPOINTS
  6
BYBLOCK
 62
     0
100
AcDbPoint
 10
114.093329
 20
162.690594
 30
9.364146
  0
POINT
  5
89F
100
AcDbEntity
  8
DEFPOINTS
  6
BYBLOCK
 62
     0
100
AcDbPoint
 10
183.393329
 20
162.690594
 30
9.364146
  0
POINT
  5
8A0
100
AcDbEntity
  8
DEFPOINTS
  6
BYBLOCK
 62
     0
100
AcDbPoint
 10
183.393329
 20
194.731909
 30
0.0
  0
ENDBLK
  5
8A1
100
AcDbEntity
  8
0
100
AcDbBlockEnd
  0
BLOCK
  5
8A2
100
AcDbEntity
  8
0
100
AcDbBlockBegin
  2
*D61
 70
     1
 10
0.0
 20
0.0
 30
0.0
  3
*D61
  1

  0
LINE
  5
8A3
100
AcDbEntity
  8
0
  6
BYBLOCK
 62
     0
100
AcDbLine
 10
108.893329
 20
161.190594
 30
0.0
 11
108.893329
 21
208.84988
 31
0.0
  0
LINE
  5
8A4
100
AcDbEntity
  8
0
  6
BYBLOCK
 62
     0
100
AcDbLine
 10
188.593329
 20
161.190594
 30
0.0
 11
188.593329
 21
208.84988
 31
0.0
  0
LINE
  5
8A5
100
AcDbEntity
  8
0
  6
BYBLOCK
 62
     0
100
AcDbLine
 10
110.893329
 20
207.84988
 30
0.0
 11
145.479324
 21
207.84988
 31
0.0
  0
LINE
  5
8A6
100
AcDbEntity
  8
0
  6
BYBLOCK
 62
     0
100
AcDbLine
 10
186.593329
 20
207.84988
 30
0.0
 11
153.159324
 21
207.84988
 31
0.0
  0
MTEXT
  5
8A7
100
AcDbEntity
  8
0
  6
BYBLOCK
 62
     0
100
AcDbMText
 10
149.319324
 20
207.84988
 30
0.0
 40
5.0
 41
0.0
 71
     5
 72
     1
  1
\A1;80
  7
BIGFONT
  0
SOLID
  5
8A8
100
AcDbEntity
  8
0
  6
BYBLOCK
 62
     0
100
AcDbTrace
 10
110.893329
 20
208.183214
 30
0.0
 11
110.893329
 21
207.516547
 31
0.0
 12
108.893329
 22
207.84988
 32
0.0
 13
108.893329
 23
207.84988
 33
0.0
  0
SOLID
  5
8A9
100
AcDbEntity
  8
0
  6
BYBLOCK
 62
     0
100
AcDbTrace
 10
186.593329
 20
208.183214
 30
0.0
 11
186.593329
 21
207.516547
 31
0.0
 12
188.593329
 22
207.84988
 32
0.0
 13
188.593329
 23
207.84988
 33
0.0
  0
POINT
  5
8AA
100
AcDbEntity
  8
DEFPOINTS
  6
BYBLOCK
 62
     0
100
AcDbPoint
 10
108.893329
 20
160.190594
 30
9.364146
  0
POINT
  5
8AB
100
AcDbEntity
  8
DEFPOINTS
  6
BYBLOCK
 62
     0
100
AcDbPoint
 10
188.593329
 20
160.190594
 30
9.364146
  0
POINT
  5
8AC
100
AcDbEntity
  8
DEFPOINTS
  6
BYBLOCK
 62
     0
100
AcDbPoint
 10
188.593329
 20
207.84988
 30
0.0
  0
ENDBLK
  5
8AD
100
AcDbEntity
  8
0
100
AcDbBlockEnd
  0
BLOCK
  5
8AE
100
AcDbEntity
  8
0
100
AcDbBlockBegin
  2
*D62
 70
     1
 10
0.0
 20
0.0
 30
0.0
  3
*D62
  1

  0
LINE
  5
8AF
100
AcDbEntity
  8
0
  6
BYBLOCK
 62
     0
100
AcDbLine
 10
113.393329
 20
150.190594
 30
0.0
 11
113.393329
 21
117.26373
 31
0.0
  0
LINE
  5
8B0
100
AcDbEntity
  8
0
  6
BYBLOCK
 62
     0
100
AcDbLine
 10
184.093329
 20
150.190594
 30
0.0
 11
184.093329
 21
117.26373
 31
0.0
  0
LINE
  5
8B1
100
AcDbEntity
  8
0
  6
BYBLOCK
 62
     0
100
AcDbLine
 10
115.393329
 20
118.26373
 30
0.0
 11
140.545461
 21
118.26373
 31
0.0
  0
LINE
  5
8B2
100
AcDbEntity
  8
0
  6
BYBLOCK
 62
     0
100
AcDbLine
 10
182.093329
 20
118.26373
 30
0.0
 11
154.892128
 21
118.26373
 31
0.0
  0
MTEXT
  5
8B3
100
AcDbEntity
  8
0
  6
BYBLOCK
 62
     0
100
AcDbMText
 10
147.718795
 20
118.26373
 30
0.0
 40
5.0
 41
0.0
 71
     5
 72
     1
  1
\A1;70.7
  7
BIGFONT
  0
SOLID
  5
8B4
100
AcDbEntity
  8
0
  6
BYBLOCK
 62
     0
100
AcDbTrace
 10
115.393329
 20
118.597064
 30
0.0
 11
115.393329
 21
117.930397
 31
0.0
 12
113.393329
 22
118.26373
 32
0.0
 13
113.393329
 23
118.26373
 33
0.0
  0
SOLID
  5
8B5
100
AcDbEntity
  8
0
  6
BYBLOCK
 62
     0
100
AcDbTrace
 10
182.093329
 20
118.597064
 30
0.0
 11
182.093329
 21
117.930397
 31
0.0
 12
184.093329
 22
118.26373
 32
0.0
 13
184.093329
 23
118.26373
 33
0.0
  0
POINT
  5
8B6
100
AcDbEntity
  8
DEFPOINTS
  6
BYBLOCK
 62
     0
100
AcDbPoint
 10
113.393329
 20
151.190594
 30
9.364146
  0
POINT
  5
8B7
100
AcDbEntity
  8
DEFPOINTS
  6
BYBLOCK
 62
     0
100
AcDbPoint
 10
184.093329
 20
151.190594
 30
9.364146
  0
POINT
  5
8B8
100
AcDbEntity
  8
DEFPOINTS
  6
BYBLOCK
 62
     0
100
AcDbPoint
 10
184.093329
 20
118.26373
 30
0.0
  0
ENDBLK
  5
8B9
100
AcDbEntity
  8
0
100
AcDbBlockEnd
  0
BLOCK
  5
8BA
100
AcDbEntity
  8
0
100
AcDbBlockBegin
  2
*D63
 70
     1
 10
0.0
 20
0.0
 30
0.0
  3
*D63
  1

  0
LINE
  5
8BB
100
AcDbEntity
  8
0
  6
BYBLOCK
 62
     0
100
AcDbLine
 10
110.943329
 20
150.190594
 30
0.0
 11
110.943329
 21
108.305115
 31
0.0
  0
LINE
  5
8BC
100
AcDbEntity
  8
0
  6
BYBLOCK
 62
     0
100
AcDbLine
 10
186.543329
 20
150.190594
 30
0.0
 11
186.543329
 21
108.305115
 31
0.0
  0
LINE
  5
8BD
100
AcDbEntity
  8
0
  6
BYBLOCK
 62
     0
100
AcDbLine
 10
112.943329
 20
109.305115
 30
0.0
 11
139.168478
 21
109.305115
 31
0.0
  0
LINE
  5
8BE
100
AcDbEntity
  8
0
  6
BYBLOCK
 62
     0
100
AcDbLine
 10
184.543329
 20
109.305115
 30
0.0
 11
154.348478
 21
109.305115
 31
0.0
  0
MTEXT
  5
8BF
100
AcDbEntity
  8
0
  6
BYBLOCK
 62
     0
100
AcDbMText
 10
146.758478
 20
109.305115
 30
0.0
 40
5.0
 41
0.0
 71
     5
 72
     1
  1
\A1;75.6
  7
BIGFONT
  0
SOLID
  5
8C0
100
AcDbEntity
  8
0
  6
BYBLOCK
 62
     0
100
AcDbTrace
 10
112.943329
 20
109.638448
 30
0.0
 11
112.943329
 21
108.971782
 31
0.0
 12
110.943329
 22
109.305115
 32
0.0
 13
110.943329
 23
109.305115
 33
0.0
  0
SOLID
  5
8C1
100
AcDbEntity
  8
0
  6
BYBLOCK
 62
     0
100
AcDbTrace
 10
184.543329
 20
109.638448
 30
0.0
 11
184.543329
 21
108.971782
 31
0.0
 12
186.543329
 22
109.305115
 32
0.0
 13
186.543329
 23
109.305115
 33
0.0
  0
POINT
  5
8C2
100
AcDbEntity
  8
DEFPOINTS
  6
BYBLOCK
 62
     0
100
AcDbPoint
 10
110.943329
 20
151.190594
 30
9.364146
  0
POINT
  5
8C3
100
AcDbEntity
  8
DEFPOINTS
  6
BYBLOCK
 62
     0
100
AcDbPoint
 10
186.543329
 20
151.190594
 30
9.364146
  0
POINT
  5
8C4
100
AcDbEntity
  8
DEFPOINTS
  6
BYBLOCK
 62
     0
100
AcDbPoint
 10
186.543329
 20
109.305115
 30
0.0
  0
ENDBLK
  5
8C5
100
AcDbEntity
  8
0
100
AcDbBlockEnd
  0
BLOCK
  5
8C6
100
AcDbEntity
  8
0
100
AcDbBlockBegin
  2
*D64
 70
     1
 10
0.0
 20
0.0
 30
0.0
  3
*D64
  1

  0
LINE
  5
8C7
100
AcDbEntity
  8
0
  6
BYBLOCK
 62
     0
100
AcDbLine
 10
141.243329
 20
143.190594
 30
0.0
 11
141.243329
 21
128.690594
 31
0.0
  0
LINE
  5
8C8
100
AcDbEntity
  8
0
  6
BYBLOCK
 62
     0
100
AcDbLine
 10
156.243329
 20
143.190594
 30
0.0
 11
156.243329
 21
128.690594
 31
0.0
  0
LINE
  5
8C9
100
AcDbEntity
  8
0
  6
BYBLOCK
 62
     0
100
AcDbLine
 10
143.243329
 20
129.690594
 30
0.0
 11
145.121924
 21
129.690594
 31
0.0
  0
LINE
  5
8CA
100
AcDbEntity
  8
0
  6
BYBLOCK
 62
     0
100
AcDbLine
 10
154.243329
 20
129.690594
 30
0.0
 11
151.968591
 21
129.690594
 31
0.0
  0
MTEXT
  5
8CB
100
AcDbEntity
  8
0
  6
BYBLOCK
 62
     0
100
AcDbMText
 10
148.545257
 20
129.690594
 30
0.0
 40
5.0
 41
0.0
 71
     5
 72
     1
  1
\A1;15
  7
BIGFONT
  0
SOLID
  5
8CC
100
AcDbEntity
  8
0
  6
BYBLOCK
 62
     0
100
AcDbTrace
 10
143.243329
 20
130.023927
 30
0.0
 11
143.243329
 21
129.357261
 31
0.0
 12
141.243329
 22
129.690594
 32
0.0
 13
141.243329
 23
129.690594
 33
0.0
  0
SOLID
  5
8CD
100
AcDbEntity
  8
0
  6
BYBLOCK
 62
     0
100
AcDbTrace
 10
154.243329
 20
130.023927
 30
0.0
 11
154.243329
 21
129.357261
 31
0.0
 12
156.243329
 22
129.690594
 32
0.0
 13
156.243329
 23
129.690594
 33
0.0
  0
POINT
  5
8CE
100
AcDbEntity
  8
DEFPOINTS
  6
BYBLOCK
 62
     0
100
AcDbPoint
 10
141.243329
 20
144.190594
 30
9.364146
  0
POINT
  5
8CF
100
AcDbEntity
  8
DEFPOINTS
  6
BYBLOCK
 62
     0
100
AcDbPoint
 10
156.243329
 20
144.190594
 30
9.364146
  0
POINT
  5
8D0
100
AcDbEntity
  8
DEFPOINTS
  6
BYBLOCK
 62
     0
100
AcDbPoint
 10
156.243329
 20
129.690594
 30
0.0
  0
ENDBLK
  5
8D1
100
AcDbEntity
  8
0
100
AcDbBlockEnd
  0
BLOCK
  5
8D2
100
AcDbEntity
  8
0
100
AcDbBlockBegin
  2
*D65
 70
     1
 10
0.0
 20
0.0
 30
0.0
  3
*D65
  1

  0
LINE
  5
8D3
100
AcDbEntity
  8
0
  6
BYBLOCK
 62
     0
100
AcDbLine
 10
141.045257
 20
81.690594
 30
0.0
 11
141.045257
 21
95.690594
 31
0.0
  0
LINE
  5
8D4
100
AcDbEntity
  8
0
  6
BYBLOCK
 62
     0
100
AcDbLine
 10
156.045257
 20
81.690594
 30
0.0
 11
156.045257
 21
95.690594
 31
0.0
  0
LINE
  5
8D5
100
AcDbEntity
  8
0
  6
BYBLOCK
 62
     0
100
AcDbLine
 10
143.045257
 20
94.690594
 30
0.0
 11
145.121924
 21
94.690594
 31
0.0
  0
LINE
  5
8D6
100
AcDbEntity
  8
0
  6
BYBLOCK
 62
     0
100
AcDbLine
 10
154.045257
 20
94.690594
 30
0.0
 11
151.968591
 21
94.690594
 31
0.0
  0
SOLID
  5
8D7
100
AcDbEntity
  8
0
  6
BYBLOCK
 62
     0
100
AcDbTrace
 10
143.045257
 20
95.023927
 30
0.0
 11
143.045257
 21
94.357261
 31
0.0
 12
141.045257
 22
94.690594
 32
0.0
 13
141.045257
 23
94.690594
 33
0.0
  0
SOLID
  5
8D8
100
AcDbEntity
  8
0
  6
BYBLOCK
 62
     0
100
AcDbTrace
 10
154.045257
 20
95.023927
 30
0.0
 11
154.045257
 21
94.357261
 31
0.0
 12
156.045257
 22
94.690594
 32
0.0
 13
156.045257
 23
94.690594
 33
0.0
  0
MTEXT
  5
8D9
100
AcDbEntity
  8
0
  6
BYBLOCK
 62
     0
100
AcDbMText
 10
148.545257
 20
94.690594
 30
0.0
 40
5.0
 41
0.0
 71
     5
 72
     1
  1
\A1;15
  7
BIGFONT
  0
POINT
  5
8DA
100
AcDbEntity
  8
DEFPOINTS
  6
BYBLOCK
 62
     0
100
AcDbPoint
 10
141.045257
 20
80.690594
 30
0.0
  0
POINT
  5
8DB
100
AcDbEntity
  8
DEFPOINTS
  6
BYBLOCK
 62
     0
100
AcDbPoint
 10
156.045257
 20
80.690594
 30
0.0
  0
POINT
  5
8DC
100
AcDbEntity
  8
DEFPOINTS
  6
BYBLOCK
 62
     0
100
AcDbPoint
 10
156.045257
 20
94.690594
 30
0.0
  0
ENDBLK
  5
8DD
100
AcDbEntity
  8
0
100
AcDbBlockEnd
  0
BLOCK
  5
8DE
100
AcDbEntity
  8
0
100
AcDbBlockBegin
  2
*D66
 70
     1
 10
0.0
 20
0.0
 30
0.0
  3
*D66
  1

  0
LINE
  5
8DF
100
AcDbEntity
  8
0
  6
BYBLOCK
 62
     0
100
AcDbLine
 10
111.039631
 20
160.190594
 30
0.0
 11
110.694649
 21
160.552515
 31
0.0
  0
MTEXT
  5
8E0
100
AcDbEntity
  8
0
  6
BYBLOCK
 62
     0
100
AcDbMText
 10
64.75156
 20
198.690594
 30
0.0
 40
5.0
 41
0.0
 71
     5
 72
     1
  1
\A1;R2.5
  7
BIGFONT
  0
SOLID
  5
8E1
100
AcDbEntity
  8
0
  6
BYBLOCK
 62
     0
100
AcDbTrace
 10
110.93593
 20
160.782504
 30
0.0
 11
110.453368
 21
160.322527
 31
0.0
 12
109.31472
 22
162.000201
 32
0.0
 13
109.31472
 23
162.000201
 33
0.0
  0
POINT
  5
8E2
100
AcDbEntity
  8
DEFPOINTS
  6
BYBLOCK
 62
     0
100
AcDbPoint
 10
109.31472
 20
162.000201
 30
9.364146
  0
POINT
  5
8E3
100
AcDbEntity
  8
DEFPOINTS
  6
BYBLOCK
 62
     0
100
AcDbPoint
 10
111.039631
 20
160.190594
 30
9.364146
  0
ENDBLK
  5
8E4
100
AcDbEntity
  8
0
100
AcDbBlockEnd
  0
BLOCK
  5
8E5
100
AcDbEntity
  8
0
100
AcDbBlockBegin
  2
*D67
 70
     1
 10
0.0
 20
0.0
 30
0.0
  3
*D67
  1

  0
LINE
  5
8E6
100
AcDbEntity
  8
0
  6
BYBLOCK
 62
     0
100
AcDbLine
 10
409.093329
 20
160.190594
 30
0.0
 11
409.419427
 21
160.569619
 31
0.0
  0
MTEXT
  5
8E7
100
AcDbEntity
  8
0
  6
BYBLOCK
 62
     0
100
AcDbMText
 10
431.652102
 20
175.26422
 30
0.0
 40
5.0
 41
0.0
 71
     5
 72
     1
  1
\A1;R2.5
  7
BIGFONT
  0
SOLID
  5
8E8
100
AcDbEntity
  8
0
  6
BYBLOCK
 62
     0
100
AcDbTrace
 10
409.166744
 20
160.787018
 30
0.0
 11
409.67211
 21
160.35222
 31
0.0
 12
410.723821
 22
162.085718
 32
0.0
 13
410.723821
 23
162.085718
 33
0.0
  0
POINT
  5
8E9
100
AcDbEntity
  8
DEFPOINTS
  6
BYBLOCK
 62
     0
100
AcDbPoint
 10
410.723821
 20
162.085718
 30
9.364146
  0
POINT
  5
8EA
100
AcDbEntity
  8
DEFPOINTS
  6
BYBLOCK
 62
     0
100
AcDbPoint
 10
409.093329
 20
160.190594
 30
9.364146
  0
ENDBLK
  5
8EB
100
AcDbEntity
  8
0
100
AcDbBlockEnd
  0
BLOCK
  5
8EC
100
AcDbEntity
  8
0
100
AcDbBlockBegin
  2
*D68
 70
     1
 10
0.0
 20
0.0
 30
0.0
  3
*D68
  1

  0
LINE
  5
8ED
100
AcDbEntity
  8
0
  6
BYBLOCK
 62
     0
100
AcDbLine
 10
334.393329
 20
160.190594
 30
0.0
 11
334.112226
 21
160.604093
 31
0.0
  0
MTEXT
  5
8EE
100
AcDbEntity
  8
0
  6
BYBLOCK
 62
     0
100
AcDbMText
 10
317.163076
 20
171.429316
 30
0.0
 40
5.0
 41
0.0
 71
     5
 72
     1
  1
\A1;R2.5
  7
BIGFONT
  0
SOLID
  5
8EF
100
AcDbEntity
  8
0
  6
BYBLOCK
 62
     0
100
AcDbTrace
 10
334.387892
 20
160.791494
 30
0.0
 11
333.83656
 21
160.416691
 31
0.0
 12
332.987815
 22
162.258088
 32
0.0
 13
332.987815
 23
162.258088
 33
0.0
  0
POINT
  5
8F0
100
AcDbEntity
  8
DEFPOINTS
  6
BYBLOCK
 62
     0
100
AcDbPoint
 10
332.987815
 20
162.258088
 30
9.364146
  0
POINT
  5
8F1
100
AcDbEntity
  8
DEFPOINTS
  6
BYBLOCK
 62
     0
100
AcDbPoint
 10
334.393329
 20
160.190594
 30
9.364146
  0
ENDBLK
  5
8F2
100
AcDbEntity
  8
0
100
AcDbBlockEnd
  0
BLOCK
  5
8F3
100
AcDbEntity
  8
0
100
AcDbBlockBegin
  2
*D69
 70
     1
 10
0.0
 20
0.0
 30
0.0
  3
*D69
  1

  0
LINE
  5
8F4
100
AcDbEntity
  8
0
  6
BYBLOCK
 62
     0
100
AcDbLine
 10
188.447027
 20
162.690594
 30
0.0
 11
272.492289
 21
162.690594
 31
0.0
  0
LINE
  5
8F5
100
AcDbEntity
  8
0
  6
BYBLOCK
 62
     0
100
AcDbLine
 10
168.447027
 20
144.190594
 30
0.0
 11
272.492289
 21
144.190594
 31
0.0
  0
LINE
  5
8F6
100
AcDbEntity
  8
0
  6
BYBLOCK
 62
     0
100
AcDbLine
 10
271.492289
 20
160.690594
 30
0.0
 11
271.492289
 21
146.190594
 31
0.0
  0
MTEXT
  5
8F7
100
AcDbEntity
  8
0
  6
BYBLOCK
 62
     0
100
AcDbMText
 10
280.248956
 20
167.190594
 30
0.0
 40
5.0
 41
0.0
 71
     5
 72
     1
  1
\A1;18.5
  7
BIGFONT
  0
SOLID
  5
8F8
100
AcDbEntity
  8
0
  6
BYBLOCK
 62
     0
100
AcDbTrace
 10
271.158956
 20
160.690594
 30
0.0
 11
271.825623
 21
160.690594
 31
0.0
 12
271.492289
 22
162.690594
 32
0.0
 13
271.492289
 23
162.690594
 33
0.0
  0
SOLID
  5
8F9
100
AcDbEntity
  8
0
  6
BYBLOCK
 62
     0
100
AcDbTrace
 10
271.158956
 20
146.190594
 30
0.0
 11
271.825623
 21
146.190594
 31
0.0
 12
271.492289
 22
144.190594
 32
0.0
 13
271.492289
 23
144.190594
 33
0.0
  0
POINT
  5
8FA
100
AcDbEntity
  8
DEFPOINTS
  6
BYBLOCK
 62
     0
100
AcDbPoint
 10
187.447027
 20
162.690594
 30
0.0
  0
POINT
  5
8FB
100
AcDbEntity
  8
DEFPOINTS
  6
BYBLOCK
 62
     0
100
AcDbPoint
 10
167.447027
 20
144.190594
 30
9.364146
  0
POINT
  5
8FC
100
AcDbEntity
  8
DEFPOINTS
  6
BYBLOCK
 62
     0
100
AcDbPoint
 10
271.492289
 20
144.190594
 30
0.0
  0
ENDBLK
  5
8FD
100
AcDbEntity
  8
0
100
AcDbBlockEnd
  0
BLOCK
  5
8FE
100
AcDbEntity
  8
0
100
AcDbBlockBegin
  2
*D70
 70
     1
 10
0.0
 20
0.0
 30
0.0
  3
*D70
  1

  0
LINE
  5
8FF
100
AcDbEntity
  8
0
  6
BYBLOCK
 62
     0
100
AcDbLine
 10
187.447027
 20
162.690594
 30
0.0
 11
252.325623
 21
162.690594
 31
0.0
  0
LINE
  5
900
100
AcDbEntity
  8
0
  6
BYBLOCK
 62
     0
100
AcDbLine
 10
187.897027
 20
151.190594
 30
0.0
 11
252.325623
 21
151.190594
 31
0.0
  0
LINE
  5
901
100
AcDbEntity
  8
0
  6
BYBLOCK
 62
     0
100
AcDbLine
 10
251.325623
 20
160.690594
 30
0.0
 11
251.325623
 21
153.190594
 31
0.0
  0
MTEXT
  5
902
100
AcDbEntity
  8
0
  6
BYBLOCK
 62
     0
100
AcDbMText
 10
259.248956
 20
168.690594
 30
0.0
 40
5.0
 41
0.0
 71
     5
 72
     1
  1
\A1;11.5
  7
BIGFONT
  0
SOLID
  5
903
100
AcDbEntity
  8
0
  6
BYBLOCK
 62
     0
100
AcDbTrace
 10
250.992289
 20
160.690594
 30
0.0
 11
251.658956
 21
160.690594
 31
0.0
 12
251.325623
 22
162.690594
 32
0.0
 13
251.325623
 23
162.690594
 33
0.0
  0
SOLID
  5
904
100
AcDbEntity
  8
0
  6
BYBLOCK
 62
     0
100
AcDbTrace
 10
250.992289
 20
153.190594
 30
0.0
 11
251.658956
 21
153.190594
 31
0.0
 12
251.325623
 22
151.190594
 32
0.0
 13
251.325623
 23
151.190594
 33
0.0
  0
POINT
  5
905
100
AcDbEntity
  8
DEFPOINTS
  6
BYBLOCK
 62
     0
100
AcDbPoint
 10
186.447027
 20
162.690594
 30
9.364146
  0
POINT
  5
906
100
AcDbEntity
  8
DEFPOINTS
  6
BYBLOCK
 62
     0
100
AcDbPoint
 10
186.897027
 20
151.190594
 30
9.364146
  0
POINT
  5
907
100
AcDbEntity
  8
DEFPOINTS
  6
BYBLOCK
 62
     0
100
AcDbPoint
 10
251.325623
 20
151.190594
 30
0.0
  0
ENDBLK
  5
908
100
AcDbEntity
  8
0
100
AcDbBlockEnd
  0
BLOCK
  5
909
100
AcDbEntity
  8
0
100
AcDbBlockBegin
  2
*D71
 70
     1
 10
0.0
 20
0.0
 30
0.0
  3
*D71
  1

  0
LINE
  5
90A
100
AcDbEntity
  8
0
  6
BYBLOCK
 62
     0
100
AcDbLine
 10
188.447027
 20
162.690594
 30
0.0
 11
234.658956
 21
162.690594
 31
0.0
  0
LINE
  5
90B
100
AcDbEntity
  8
0
  6
BYBLOCK
 62
     0
100
AcDbLine
 10
185.447027
 20
156.190594
 30
0.0
 11
234.658956
 21
156.190594
 31
0.0
  0
LINE
  5
90C
100
AcDbEntity
  8
0
  6
BYBLOCK
 62
     0
100
AcDbLine
 10
233.658956
 20
160.690594
 30
0.0
 11
233.658956
 21
158.190594
 31
0.0
  0
MTEXT
  5
90D
100
AcDbEntity
  8
0
  6
BYBLOCK
 62
     0
100
AcDbMText
 10
240.748956
 20
169.690594
 30
0.0
 40
5.0
 41
0.0
 71
     5
 72
     1
  1
\A1;6.5
  7
BIGFONT
  0
SOLID
  5
90E
100
AcDbEntity
  8
0
  6
BYBLOCK
 62
     0
100
AcDbTrace
 10
233.325623
 20
160.690594
 30
0.0
 11
233.992289
 21
160.690594
 31
0.0
 12
233.658956
 22
162.690594
 32
0.0
 13
233.658956
 23
162.690594
 33
0.0
  0
SOLID
  5
90F
100
AcDbEntity
  8
0
  6
BYBLOCK
 62
     0
100
AcDbTrace
 10
233.325623
 20
158.190594
 30
0.0
 11
233.992289
 21
158.190594
 31
0.0
 12
233.658956
 22
156.190594
 32
0.0
 13
233.658956
 23
156.190594
 33
0.0
  0
POINT
  5
910
100
AcDbEntity
  8
DEFPOINTS
  6
BYBLOCK
 62
     0
100
AcDbPoint
 10
187.447027
 20
162.690594
 30
0.0
  0
POINT
  5
911
100
AcDbEntity
  8
DEFPOINTS
  6
BYBLOCK
 62
     0
100
AcDbPoint
 10
184.447027
 20
156.190594
 30
9.364146
  0
POINT
  5
912
100
AcDbEntity
  8
DEFPOINTS
  6
BYBLOCK
 62
     0
100
AcDbPoint
 10
233.658956
 20
156.190594
 30
0.0
  0
ENDBLK
  5
913
100
AcDbEntity
  8
0
100
AcDbBlockEnd
  0
BLOCK
  5
914
100
AcDbEntity
  8
0
100
AcDbBlockBegin
  2
*D72
 70
     1
 10
0.0
 20
0.0
 30
0.0
  3
*D72
  1

  0
LINE
  5
915
100
AcDbEntity
  8
0
  6
BYBLOCK
 62
     0
100
AcDbLine
 10
187.447027
 20
162.690594
 30
0.0
 11
218.158956
 21
162.690594
 31
0.0
  0
LINE
  5
916
100
AcDbEntity
  8
0
  6
BYBLOCK
 62
     0
100
AcDbLine
 10
189.947027
 20
160.190594
 30
0.0
 11
218.158956
 21
160.190594
 31
0.0
  0
LINE
  5
917
100
AcDbEntity
  8
0
  6
BYBLOCK
 62
     0
100
AcDbLine
 10
217.158956
 20
164.690594
 30
0.0
 11
217.158956
 21
166.690594
 31
0.0
  0
LINE
  5
918
100
AcDbEntity
  8
0
  6
BYBLOCK
 62
     0
100
AcDbLine
 10
217.158956
 20
158.190594
 30
0.0
 11
217.158956
 21
156.190594
 31
0.0
  0
MTEXT
  5
919
100
AcDbEntity
  8
0
  6
BYBLOCK
 62
     0
100
AcDbMText
 10
224.248956
 20
171.190594
 30
0.0
 40
5.0
 41
0.0
 71
     5
 72
     1
  1
\A1;2.5
  7
BIGFONT
  0
LINE
  5
91A
100
AcDbEntity
  8
0
  6
BYBLOCK
 62
     0
100
AcDbLine
 10
217.158956
 20
162.690594
 30
0.0
 11
217.158956
 21
160.190594
 31
0.0
  0
SOLID
  5
91B
100
AcDbEntity
  8
0
  6
BYBLOCK
 62
     0
100
AcDbTrace
 10
216.825623
 20
164.690594
 30
0.0
 11
217.492289
 21
164.690594
 31
0.0
 12
217.158956
 22
162.690594
 32
0.0
 13
217.158956
 23
162.690594
 33
0.0
  0
SOLID
  5
91C
100
AcDbEntity
  8
0
  6
BYBLOCK
 62
     0
100
AcDbTrace
 10
216.825623
 20
158.190594
 30
0.0
 11
217.492289
 21
158.190594
 31
0.0
 12
217.158956
 22
160.190594
 32
0.0
 13
217.158956
 23
160.190594
 33
0.0
  0
POINT
  5
91D
100
AcDbEntity
  8
DEFPOINTS
  6
BYBLOCK
 62
     0
100
AcDbPoint
 10
186.447027
 20
162.690594
 30
9.364146
  0
POINT
  5
91E
100
AcDbEntity
  8
DEFPOINTS
  6
BYBLOCK
 62
     0
100
AcDbPoint
 10
188.947027
 20
160.190594
 30
9.364146
  0
POINT
  5
91F
100
AcDbEntity
  8
DEFPOINTS
  6
BYBLOCK
 62
     0
100
AcDbPoint
 10
217.158956
 20
160.190594
 30
0.0
  0
ENDBLK
  5
920
100
AcDbEntity
  8
0
100
AcDbBlockEnd
  0
BLOCK
  5
921
100
AcDbEntity
  8
0
100
AcDbBlockBegin
  2
*D73
 70
     1
 10
0.0
 20
0.0
 30
0.0
  3
*D73
  1

  0
LINE
  5
922
100
AcDbEntity
  8
0
  6
BYBLOCK
 62
     0
100
AcDbLine
 10
186.447027
 20
160.190594
 30
0.0
 11
186.799668
 21
160.545058
 31
0.0
  0
MTEXT
  5
923
100
AcDbEntity
  8
0
  6
BYBLOCK
 62
     0
100
AcDbMText
 10
234.338956
 20
198.690594
 30
0.0
 40
5.0
 41
0.0
 71
     5
 72
     1
  1
\A1;R2.5
  7
BIGFONT
  0
SOLID
  5
924
100
AcDbEntity
  8
0
  6
BYBLOCK
 62
     0
100
AcDbTrace
 10
186.563358
 20
160.780151
 30
0.0
 11
187.035977
 21
160.309964
 31
0.0
 12
188.210229
 22
161.962914
 32
0.0
 13
188.210229
 23
161.962914
 33
0.0
  0
POINT
  5
925
100
AcDbEntity
  8
DEFPOINTS
  6
BYBLOCK
 62
     0
100
AcDbPoint
 10
188.210229
 20
161.962914
 30
9.364146
  0
POINT
  5
926
100
AcDbEntity
  8
DEFPOINTS
  6
BYBLOCK
 62
     0
100
AcDbPoint
 10
186.447027
 20
160.190594
 30
9.364146
  0
ENDBLK
  5
927
100
AcDbEntity
  8
0
100
AcDbBlockEnd
  0
ENDSEC
  0
SECTION
  2
ENTITIES
  0
CIRCLE
  5
6BF
100
AcDbEntity
  8
2
100
AcDbCircle
 10
165.878492
 20
51.116337
 30
0.0
 40
34.65
  0
ARC
  5
6C0
100
AcDbEntity
  8
3
100
AcDbCircle
 10
165.878492
 20
51.116337
 30
0.0
 40
35.35
100
AcDbArc
 50
102.249203
 51
77.750797
  0
CIRCLE
  5
6C1
100
AcDbEntity
  8
3
100
AcDbCircle
 10
165.878492
 20
51.116337
 30
0.0
 40
37.8
  0
LINE
  5
6C2
100
AcDbEntity
  8
1
100
AcDbLine
 10
209.878492
 20
51.116337
 30
0.0
 11
121.878492
 21
51.116337
 31
0.0
  0
CIRCLE
  5
6C3
100
AcDbEntity
  8
3
100
AcDbCircle
 10
165.878492
 20
51.116337
 30
0.0
 40
40.0
  0
ARC
  5
6C4
100
AcDbEntity
  8
2
100
AcDbCircle
 10
165.878492
 20
203.948019
 30
0.0
 40
35.35
100
AcDbArc
 50
282.249203
 51
257.750797
  0
CIRCLE
  5
6C5
100
AcDbEntity
  8
2
100
AcDbCircle
 10
165.878492
 20
203.948019
 30
0.0
 40
37.8
  0
CIRCLE
  5
6C6
100
AcDbEntity
  8
3
100
AcDbCircle
 10
165.878492
 20
203.948019
 30
0.0
 40
34.65
  0
CIRCLE
  5
6C7
100
AcDbEntity
  8
3
100
AcDbCircle
 10
165.878492
 20
203.948019
 30
0.0
 40
40.0
  0
LINE
  5
6C8
100
AcDbEntity
  8
1
100
AcDbLine
 10
121.878492
 20
203.948019
 30
0.0
 11
209.878492
 21
203.948019
 31
0.0
  0
LINE
  5
6CD
100
AcDbEntity
  8
2
100
AcDbLine
 10
173.576563
 20
131.438119
 30
9.364146
 11
201.426563
 21
131.438119
 31
9.364146
  0
LINE
  5
6CE
100
AcDbEntity
  8
3
100
AcDbLine
 10
201.426563
 20
126.438119
 30
9.364146
 11
173.576563
 21
126.438119
 31
9.364146
  0
LINE
  5
6CF
100
AcDbEntity
  8
3
100
AcDbLine
 10
200.726563
 20
137.938119
 30
9.364146
 11
166.076563
 21
137.938119
 31
9.364146
  0
LINE
  5
6D0
100
AcDbEntity
  8
3
100
AcDbLine
 10
203.876563
 20
135.438119
 30
9.364146
 11
131.426563
 21
135.438119
 31
9.364146
  0
LINE
  5
6D2
100
AcDbEntity
  8
1
100
AcDbLine
 10
165.878492
 20
93.616337
 30
0.0
 11
165.878492
 21
7.116337
 31
0.0
  0
ARC
  5
6D5
100
AcDbEntity
  8
3
100
AcDbCircle
 10
165.878492
 20
51.116337
 30
0.0
 40
32.0
100
AcDbArc
 50
76.445216
 51
103.554784
  0
LINE
  5
6D6
100
AcDbEntity
  8
3
100
AcDbLine
 10
158.378492
 20
85.661561
 30
0.0
 11
158.378492
 21
88.164818
 31
0.0
  0
LINE
  5
6D7
100
AcDbEntity
  8
3
100
AcDbLine
 10
158.378492
 20
82.225017
 30
0.0
 11
158.378492
 21
85.661561
 31
0.0
  0
LINE
  5
6D8
100
AcDbEntity
  8
3
100
AcDbLine
 10
173.378492
 20
85.661561
 30
0.0
 11
173.378492
 21
88.164818
 31
0.0
  0
LINE
  5
6D9
100
AcDbEntity
  8
3
100
AcDbLine
 10
173.378492
 20
85.661561
 30
0.0
 11
173.378492
 21
82.225017
 31
0.0
  0
LINE
  5
6DB
100
AcDbEntity
  8
1
100
AcDbLine
 10
165.878492
 20
161.448019
 30
0.0
 11
165.878492
 21
247.948019
 31
0.0
  0
LINE
  5
6E0
100
AcDbEntity
  8
0
100
AcDbLine
 10
134.455656
 20
131.438119
 30
0.0
 11
138.455656
 21
135.438119
 31
0.0
  0
LINE
  5
6E1
100
AcDbEntity
  8
0
100
AcDbLine
 10
133.925326
 20
131.438119
 30
0.0
 11
137.925326
 21
135.438119
 31
0.0
  0
LINE
  5
6E2
100
AcDbEntity
  8
0
100
AcDbLine
 10
133.394996
 20
131.438119
 30
0.0
 11
137.394996
 21
135.438119
 31
0.0
  0
LINE
  5
6E3
100
AcDbEntity
  8
0
100
AcDbLine
 10
132.864666
 20
131.438119
 30
0.0
 11
136.864666
 21
135.438119
 31
0.0
  0
LINE
  5
6E4
100
AcDbEntity
  8
0
100
AcDbLine
 10
132.334336
 20
131.438119
 30
0.0
 11
136.334336
 21
135.438119
 31
0.0
  0
LINE
  5
6E5
100
AcDbEntity
  8
0
100
AcDbLine
 10
131.804006
 20
131.438119
 30
0.0
 11
135.804006
 21
135.438119
 31
0.0
  0
LINE
  5
6E6
100
AcDbEntity
  8
0
100
AcDbLine
 10
131.273676
 20
131.438119
 30
0.0
 11
135.273676
 21
135.438119
 31
0.0
  0
LINE
  5
6E9
100
AcDbEntity
  8
0
100
AcDbLine
 10
128.276563
 20
128.971337
 30
0.0
 11
130.726563
 21
131.421337
 31
0.0
  0
LINE
  5
6EA
100
AcDbEntity
  8
0
100
AcDbLine
 10
128.276563
 20
129.501667
 30
0.0
 11
134.213016
 21
135.438119
 31
0.0
  0
LINE
  5
6EB
100
AcDbEntity
  8
0
100
AcDbLine
 10
128.276563
 20
130.031997
 30
0.0
 11
133.682686
 21
135.438119
 31
0.0
  0
LINE
  5
6EC
100
AcDbEntity
  8
0
100
AcDbLine
 10
128.276563
 20
130.562327
 30
0.0
 11
133.152356
 21
135.438119
 31
0.0
  0
LINE
  5
6ED
100
AcDbEntity
  8
0
100
AcDbLine
 10
128.276563
 20
131.092657
 30
0.0
 11
132.622025
 21
135.438119
 31
0.0
  0
LINE
  5
6EE
100
AcDbEntity
  8
0
100
AcDbLine
 10
128.925326
 20
126.438119
 30
0.0
 11
130.726563
 21
128.239356
 31
0.0
  0
LINE
  5
6EF
100
AcDbEntity
  8
0
100
AcDbLine
 10
128.394996
 20
126.438119
 30
0.0
 11
130.726563
 21
128.769686
 31
0.0
  0
LINE
  5
6F0
100
AcDbEntity
  8
0
100
AcDbLine
 10
128.276563
 20
126.850016
 30
0.0
 11
130.726563
 21
129.300016
 31
0.0
  0
LINE
  5
6F1
100
AcDbEntity
  8
0
100
AcDbLine
 10
128.276563
 20
127.380346
 30
0.0
 11
130.726563
 21
129.830346
 31
0.0
  0
LINE
  5
6F2
100
AcDbEntity
  8
0
100
AcDbLine
 10
128.276563
 20
127.910676
 30
0.0
 11
130.726563
 21
130.360676
 31
0.0
  0
LINE
  5
6F3
100
AcDbEntity
  8
0
100
AcDbLine
 10
128.276563
 20
128.441006
 30
0.0
 11
130.726563
 21
130.891006
 31
0.0
  0
LINE
  5
6F4
100
AcDbEntity
  8
0
100
AcDbLine
 10
130.516317
 20
126.438119
 30
0.0
 11
130.726563
 21
126.648366
 31
0.0
  0
LINE
  5
6F5
100
AcDbEntity
  8
0
100
AcDbLine
 10
129.985986
 20
126.438119
 30
0.0
 11
130.726563
 21
127.178696
 31
0.0
  0
LINE
  5
6F6
100
AcDbEntity
  8
0
100
AcDbLine
 10
129.455656
 20
126.438119
 30
0.0
 11
130.726563
 21
127.709026
 31
0.0
  0
LINE
  5
6F7
100
AcDbEntity
  8
0
100
AcDbLine
 10
128.276563
 20
131.622987
 30
0.0
 11
132.091695
 21
135.438119
 31
0.0
  0
LINE
  5
6F8
100
AcDbEntity
  8
0
100
AcDbLine
 10
128.276563
 20
132.153317
 30
0.0
 11
131.561365
 21
135.438119
 31
0.0
  0
LINE
  5
6F9
100
AcDbEntity
  8
0
100
AcDbLine
 10
128.276563
 20
132.683647
 30
0.0
 11
131.426563
 21
135.833647
 31
0.0
  0
LINE
  5
6FA
100
AcDbEntity
  8
0
100
AcDbLine
 10
128.276563
 20
133.213977
 30
0.0
 11
131.426563
 21
136.363977
 31
0.0
  0
LINE
  5
6FB
100
AcDbEntity
  8
0
100
AcDbLine
 10
128.276563
 20
133.744307
 30
0.0
 11
131.426563
 21
136.894307
 31
0.0
  0
LINE
  5
6FC
100
AcDbEntity
  8
0
100
AcDbLine
 10
128.276563
 20
134.274637
 30
0.0
 11
131.426563
 21
137.424637
 31
0.0
  0
LINE
  5
6FD
100
AcDbEntity
  8
0
100
AcDbLine
 10
128.276563
 20
134.804967
 30
0.0
 11
131.409715
 21
137.938119
 31
0.0
  0
LINE
  5
6FE
100
AcDbEntity
  8
0
100
AcDbLine
 10
128.276563
 20
135.335298
 30
0.0
 11
130.879385
 21
137.938119
 31
0.0
  0
LINE
  5
6FF
100
AcDbEntity
  8
0
100
AcDbLine
 10
127.849055
 20
135.438119
 30
0.0
 11
130.349055
 21
137.938119
 31
0.0
  0
LINE
  5
700
100
AcDbEntity
  8
0
100
AcDbLine
 10
127.318725
 20
135.438119
 30
0.0
 11
129.818725
 21
137.938119
 31
0.0
  0
LINE
  5
701
100
AcDbEntity
  8
0
100
AcDbLine
 10
126.788394
 20
135.438119
 30
0.0
 11
129.288394
 21
137.938119
 31
0.0
  0
LINE
  5
702
100
AcDbEntity
  8
0
100
AcDbLine
 10
126.258064
 20
135.438119
 30
0.0
 11
128.758064
 21
137.938119
 31
0.0
  0
LINE
  5
703
100
AcDbEntity
  8
0
100
AcDbLine
 10
126.290796
 20
136.001181
 30
0.0
 11
128.163501
 21
137.873886
 31
0.0
  0
LINE
  5
704
100
AcDbEntity
  8
0
100
AcDbLine
 10
126.855876
 20
137.096591
 30
0.0
 11
127.068091
 21
137.308806
 31
0.0
  0
LINE
  5
705
100
AcDbEntity
  8
0
100
AcDbLine
 10
130.743346
 20
131.438119
 30
0.0
 11
134.743346
 21
135.438119
 31
0.0
  0
LINE
  5
706
100
AcDbEntity
  8
0
100
AcDbLine
 10
156.72952
 20
131.438119
 30
0.0
 11
160.72952
 21
135.438119
 31
0.0
  0
LINE
  5
707
100
AcDbEntity
  8
0
100
AcDbLine
 10
156.19919
 20
131.438119
 30
0.0
 11
160.19919
 21
135.438119
 31
0.0
  0
LINE
  5
708
100
AcDbEntity
  8
0
100
AcDbLine
 10
155.66886
 20
131.438119
 30
0.0
 11
159.66886
 21
135.438119
 31
0.0
  0
LINE
  5
709
100
AcDbEntity
  8
0
100
AcDbLine
 10
155.13853
 20
131.438119
 30
0.0
 11
159.13853
 21
135.438119
 31
0.0
  0
LINE
  5
70A
100
AcDbEntity
  8
0
100
AcDbLine
 10
154.6082
 20
131.438119
 30
0.0
 11
158.6082
 21
135.438119
 31
0.0
  0
LINE
  5
70B
100
AcDbEntity
  8
0
100
AcDbLine
 10
154.07787
 20
131.438119
 30
0.0
 11
158.07787
 21
135.438119
 31
0.0
  0
LINE
  5
70C
100
AcDbEntity
  8
0
100
AcDbLine
 10
153.547539
 20
131.438119
 30
0.0
 11
157.547539
 21
135.438119
 31
0.0
  0
LINE
  5
70D
100
AcDbEntity
  8
0
100
AcDbLine
 10
145.592588
 20
131.438119
 30
0.0
 11
149.592588
 21
135.438119
 31
0.0
  0
LINE
  5
70E
100
AcDbEntity
  8
0
100
AcDbLine
 10
145.062258
 20
131.438119
 30
0.0
 11
149.062258
 21
135.438119
 31
0.0
  0
LINE
  5
70F
100
AcDbEntity
  8
0
100
AcDbLine
 10
144.531928
 20
131.438119
 30
0.0
 11
148.531928
 21
135.438119
 31
0.0
  0
LINE
  5
710
100
AcDbEntity
  8
0
100
AcDbLine
 10
144.001598
 20
131.438119
 30
0.0
 11
148.001598
 21
135.438119
 31
0.0
  0
LINE
  5
711
100
AcDbEntity
  8
0
100
AcDbLine
 10
143.471268
 20
131.438119
 30
0.0
 11
147.471268
 21
135.438119
 31
0.0
  0
LINE
  5
712
100
AcDbEntity
  8
0
100
AcDbLine
 10
142.940938
 20
131.438119
 30
0.0
 11
146.940938
 21
135.438119
 31
0.0
  0
LINE
  5
713
100
AcDbEntity
  8
0
100
AcDbLine
 10
142.410608
 20
131.438119
 30
0.0
 11
146.410608
 21
135.438119
 31
0.0
  0
LINE
  5
714
100
AcDbEntity
  8
0
100
AcDbLine
 10
140.289287
 20
131.438119
 30
0.0
 11
144.289287
 21
135.438119
 31
0.0
  0
LINE
  5
715
100
AcDbEntity
  8
0
100
AcDbLine
 10
139.758957
 20
131.438119
 30
0.0
 11
143.758957
 21
135.438119
 31
0.0
  0
LINE
  5
716
100
AcDbEntity
  8
0
100
AcDbLine
 10
139.228627
 20
131.438119
 30
0.0
 11
143.228627
 21
135.438119
 31
0.0
  0
LINE
  5
717
100
AcDbEntity
  8
0
100
AcDbLine
 10
138.698297
 20
131.438119
 30
0.0
 11
142.698297
 21
135.438119
 31
0.0
  0
LINE
  5
718
100
AcDbEntity
  8
0
100
AcDbLine
 10
138.167967
 20
131.438119
 30
0.0
 11
142.167967
 21
135.438119
 31
0.0
  0
LINE
  5
719
100
AcDbEntity
  8
0
100
AcDbLine
 10
137.637637
 20
131.438119
 30
0.0
 11
141.637637
 21
135.438119
 31
0.0
  0
LINE
  5
71A
100
AcDbEntity
  8
0
100
AcDbLine
 10
137.107307
 20
131.438119
 30
0.0
 11
141.107307
 21
135.438119
 31
0.0
  0
LINE
  5
71B
100
AcDbEntity
  8
0
100
AcDbLine
 10
136.576977
 20
131.438119
 30
0.0
 11
140.576977
 21
135.438119
 31
0.0
  0
LINE
  5
71C
100
AcDbEntity
  8
0
100
AcDbLine
 10
136.046647
 20
131.438119
 30
0.0
 11
140.046647
 21
135.438119
 31
0.0
  0
LINE
  5
71D
100
AcDbEntity
  8
0
100
AcDbLine
 10
135.516317
 20
131.438119
 30
0.0
 11
139.516317
 21
135.438119
 31
0.0
  0
LINE
  5
71E
100
AcDbEntity
  8
0
100
AcDbLine
 10
134.985986
 20
131.438119
 30
0.0
 11
138.985986
 21
135.438119
 31
0.0
  0
LINE
  5
71F
100
AcDbEntity
  8
0
100
AcDbLine
 10
141.880278
 20
131.438119
 30
0.0
 11
145.880278
 21
135.438119
 31
0.0
  0
LINE
  5
720
100
AcDbEntity
  8
0
100
AcDbLine
 10
141.349948
 20
131.438119
 30
0.0
 11
145.349948
 21
135.438119
 31
0.0
  0
LINE
  5
721
100
AcDbEntity
  8
0
100
AcDbLine
 10
140.819617
 20
131.438119
 30
0.0
 11
144.819617
 21
135.438119
 31
0.0
  0
LINE
  5
722
100
AcDbEntity
  8
0
100
AcDbLine
 10
151.426219
 20
131.438119
 30
0.0
 11
155.426219
 21
135.438119
 31
0.0
  0
LINE
  5
723
100
AcDbEntity
  8
0
100
AcDbLine
 10
150.895889
 20
131.438119
 30
0.0
 11
154.895889
 21
135.438119
 31
0.0
  0
LINE
  5
724
100
AcDbEntity
  8
0
100
AcDbLine
 10
150.365559
 20
131.438119
 30
0.0
 11
154.365559
 21
135.438119
 31
0.0
  0
LINE
  5
725
100
AcDbEntity
  8
0
100
AcDbLine
 10
149.835229
 20
131.438119
 30
0.0
 11
153.835229
 21
135.438119
 31
0.0
  0
LINE
  5
726
100
AcDbEntity
  8
0
100
AcDbLine
 10
149.304899
 20
131.438119
 30
0.0
 11
153.304899
 21
135.438119
 31
0.0
  0
LINE
  5
727
100
AcDbEntity
  8
0
100
AcDbLine
 10
148.774569
 20
131.438119
 30
0.0
 11
152.774569
 21
135.438119
 31
0.0
  0
LINE
  5
728
100
AcDbEntity
  8
0
100
AcDbLine
 10
148.244239
 20
131.438119
 30
0.0
 11
152.244239
 21
135.438119
 31
0.0
  0
LINE
  5
729
100
AcDbEntity
  8
0
100
AcDbLine
 10
147.713909
 20
131.438119
 30
0.0
 11
151.713909
 21
135.438119
 31
0.0
  0
LINE
  5
72A
100
AcDbEntity
  8
0
100
AcDbLine
 10
147.183578
 20
131.438119
 30
0.0
 11
151.183578
 21
135.438119
 31
0.0
  0
LINE
  5
72B
100
AcDbEntity
  8
0
100
AcDbLine
 10
146.653248
 20
131.438119
 30
0.0
 11
150.653248
 21
135.438119
 31
0.0
  0
LINE
  5
72C
100
AcDbEntity
  8
0
100
AcDbLine
 10
146.122918
 20
131.438119
 30
0.0
 11
150.122918
 21
135.438119
 31
0.0
  0
LINE
  5
72D
100
AcDbEntity
  8
0
100
AcDbLine
 10
153.017209
 20
131.438119
 30
0.0
 11
157.017209
 21
135.438119
 31
0.0
  0
LINE
  5
72E
100
AcDbEntity
  8
0
100
AcDbLine
 10
152.486879
 20
131.438119
 30
0.0
 11
156.486879
 21
135.438119
 31
0.0
  0
LINE
  5
72F
100
AcDbEntity
  8
0
100
AcDbLine
 10
151.956549
 20
131.438119
 30
0.0
 11
155.956549
 21
135.438119
 31
0.0
  0
LINE
  5
730
100
AcDbEntity
  8
0
100
AcDbLine
 10
162.563151
 20
131.438119
 30
0.0
 11
166.076563
 21
134.951531
 31
0.0
  0
LINE
  5
731
100
AcDbEntity
  8
0
100
AcDbLine
 10
162.032821
 20
131.438119
 30
0.0
 11
166.032821
 21
135.438119
 31
0.0
  0
LINE
  5
732
100
AcDbEntity
  8
0
100
AcDbLine
 10
161.502491
 20
131.438119
 30
0.0
 11
165.502491
 21
135.438119
 31
0.0
  0
LINE
  5
733
100
AcDbEntity
  8
0
100
AcDbLine
 10
160.972161
 20
131.438119
 30
0.0
 11
164.972161
 21
135.438119
 31
0.0
  0
LINE
  5
734
100
AcDbEntity
  8
0
100
AcDbLine
 10
160.441831
 20
131.438119
 30
0.0
 11
164.441831
 21
135.438119
 31
0.0
  0
LINE
  5
735
100
AcDbEntity
  8
0
100
AcDbLine
 10
159.911501
 20
131.438119
 30
0.0
 11
163.911501
 21
135.438119
 31
0.0
  0
LINE
  5
736
100
AcDbEntity
  8
0
100
AcDbLine
 10
159.38117
 20
131.438119
 30
0.0
 11
163.38117
 21
135.438119
 31
0.0
  0
LINE
  5
737
100
AcDbEntity
  8
0
100
AcDbLine
 10
158.85084
 20
131.438119
 30
0.0
 11
162.85084
 21
135.438119
 31
0.0
  0
LINE
  5
738
100
AcDbEntity
  8
0
100
AcDbLine
 10
158.32051
 20
131.438119
 30
0.0
 11
162.32051
 21
135.438119
 31
0.0
  0
LINE
  5
739
100
AcDbEntity
  8
0
100
AcDbLine
 10
157.79018
 20
131.438119
 30
0.0
 11
161.79018
 21
135.438119
 31
0.0
  0
LINE
  5
73A
100
AcDbEntity
  8
0
100
AcDbLine
 10
157.25985
 20
131.438119
 30
0.0
 11
161.25985
 21
135.438119
 31
0.0
  0
LINE
  5
73B
100
AcDbEntity
  8
0
100
AcDbLine
 10
165.745131
 20
131.438119
 30
0.0
 11
166.076563
 21
131.769551
 31
0.0
  0
LINE
  5
73C
100
AcDbEntity
  8
0
100
AcDbLine
 10
165.214801
 20
131.438119
 30
0.0
 11
166.076563
 21
132.299881
 31
0.0
  0
LINE
  5
73D
100
AcDbEntity
  8
0
100
AcDbLine
 10
164.684471
 20
131.438119
 30
0.0
 11
166.076563
 21
132.830211
 31
0.0
  0
LINE
  5
73E
100
AcDbEntity
  8
0
100
AcDbLine
 10
164.154141
 20
131.438119
 30
0.0
 11
166.076563
 21
133.360541
 31
0.0
  0
LINE
  5
73F
100
AcDbEntity
  8
0
100
AcDbLine
 10
163.623811
 20
131.438119
 30
0.0
 11
166.076563
 21
133.890871
 31
0.0
  0
LINE
  5
740
100
AcDbEntity
  8
0
100
AcDbLine
 10
163.093481
 20
131.438119
 30
0.0
 11
166.076563
 21
134.421201
 31
0.0
  0
LINE
  5
741
100
AcDbEntity
  8
2
100
AcDbLine
 10
158.378492
 20
172.839339
 30
0.0
 11
158.378492
 21
169.402795
 31
0.0
  0
LINE
  5
742
100
AcDbEntity
  8
2
100
AcDbLine
 10
173.378492
 20
169.402795
 30
0.0
 11
173.378492
 21
172.839339
 31
0.0
  0
ARC
  5
743
100
AcDbEntity
  8
2
100
AcDbCircle
 10
165.878492
 20
203.948019
 30
0.0
 40
32.0
100
AcDbArc
 50
256.445216
 51
283.554784
  0
LINE
  5
744
100
AcDbEntity
  8
2
100
AcDbLine
 10
158.378492
 20
169.402795
 30
0.0
 11
158.378492
 21
166.899538
 31
0.0
  0
LINE
  5
745
100
AcDbEntity
  8
2
100
AcDbLine
 10
173.378492
 20
169.402795
 30
0.0
 11
173.378492
 21
166.899538
 31
0.0
  0
LINE
  5
746
100
AcDbEntity
  8
3
100
AcDbLine
 10
61.980826
 20
135.438118
 30
9.364146
 11
96.630826
 21
135.438118
 31
9.364146
  0
LINE
  5
747
100
AcDbEntity
  8
2
100
AcDbLine
 10
33.673736
 20
131.438118
 30
9.364146
 11
97.330826
 21
131.438118
 31
9.364146
  0
LINE
  5
748
100
AcDbEntity
  8
3
100
AcDbLine
 10
96.630826
 20
137.938118
 30
9.364146
 11
27.330826
 21
137.938118
 31
9.364146
  0
LINE
  5
749
100
AcDbEntity
  8
3
100
AcDbLine
 10
97.330826
 20
126.438118
 30
9.364146
 11
33.673736
 21
126.438118
 31
9.364146
  0
LINE
  5
74A
100
AcDbEntity
  8
3
100
AcDbLine
 10
61.980826
 20
135.438118
 30
9.364146
 11
27.330826
 21
135.438118
 31
9.364146
  0
LINE
  5
74B
100
AcDbEntity
  8
3
100
AcDbLine
 10
24.180826
 20
135.438118
 30
9.364146
 11
22.130826
 21
135.438118
 31
9.364146
  0
ARC
  5
74C
100
AcDbEntity
  8
3
100
AcDbCircle
 10
24.630826
 20
135.438118
 30
9.364146
 40
2.5
100
AcDbArc
 50
90.0
 51
180.0
  0
LINE
  5
74D
100
AcDbEntity
  8
3
100
AcDbLine
 10
33.673736
 20
126.438118
 30
9.364146
 11
33.673736
 21
119.438118
 31
9.364146
  0
LINE
  5
74E
100
AcDbEntity
  8
2
100
AcDbLine
 10
32.130826
 20
131.438118
 30
9.364146
 11
32.130826
 21
119.438118
 31
9.364146
  0
LINE
  5
74F
100
AcDbEntity
  8
3
100
AcDbLine
 10
24.180826
 20
135.438118
 30
9.364146
 11
24.180826
 21
119.438118
 31
9.364146
  0
LINE
  5
750
100
AcDbEntity
  8
3
100
AcDbLine
 10
33.673736
 20
119.438118
 30
9.364146
 11
24.130826
 21
119.438118
 31
9.364146
  0
LINE
  5
751
100
AcDbEntity
  8
2
100
AcDbLine
 10
33.673736
 20
131.438118
 30
9.364146
 11
27.807019
 21
131.438118
 31
9.364146
  0
LINE
  5
752
100
AcDbEntity
  8
3
100
AcDbLine
 10
33.673736
 20
126.438118
 30
9.364146
 11
24.180826
 21
126.438118
 31
9.364146
  0
LINE
  5
753
100
AcDbEntity
  8
2
100
AcDbLine
 10
27.807019
 20
131.438118
 30
9.364146
 11
27.807019
 21
126.438118
 31
9.364146
  0
LINE
  5
754
100
AcDbEntity
  8
3
100
AcDbLine
 10
27.330826
 20
137.938118
 30
9.364146
 11
24.630826
 21
137.938118
 31
9.364146
  0
LINE
  5
755
100
AcDbEntity
  8
3
100
AcDbLine
 10
27.330826
 20
135.438118
 30
9.364146
 11
24.180826
 21
135.438118
 31
9.364146
  0
LINE
  5
756
100
AcDbEntity
  8
2
100
AcDbLine
 10
27.330826
 20
137.938118
 30
9.364146
 11
27.330826
 21
135.438118
 31
9.364146
  0
LINE
  5
757
100
AcDbEntity
  8
2
100
AcDbLine
 10
33.673736
 20
126.438118
 30
9.364146
 11
33.673736
 21
131.438118
 31
9.364146
  0
LINE
  5
758
100
AcDbEntity
  8
1
100
AcDbLine
 10
61.980826
 20
139.938118
 30
9.364146
 11
61.980826
 21
115.938118
 31
9.364146
  0
LINE
  5
759
100
AcDbEntity
  8
3
100
AcDbLine
 10
99.780826
 20
135.438118
 30
9.364146
 11
101.830826
 21
135.438118
 31
9.364146
  0
ARC
  5
75A
100
AcDbEntity
  8
3
100
AcDbCircle
 10
99.330826
 20
135.438118
 30
9.364146
 40
2.5
100
AcDbArc
 50
0.0
 51
90.0
  0
LINE
  5
75B
100
AcDbEntity
  8
3
100
AcDbLine
 10
99.780826
 20
126.438118
 30
9.364146
 11
99.780826
 21
135.438118
 31
9.364146
  0
LINE
  5
75C
100
AcDbEntity
  8
2
100
AcDbLine
 10
97.330826
 20
131.438118
 30
9.364146
 11
97.330826
 21
126.438118
 31
9.364146
  0
LINE
  5
75D
100
AcDbEntity
  8
3
100
AcDbLine
 10
97.330826
 20
126.438118
 30
9.364146
 11
99.780826
 21
126.438118
 31
9.364146
  0
LINE
  5
75E
100
AcDbEntity
  8
2
100
AcDbLine
 10
96.630826
 20
137.938118
 30
9.364146
 11
96.630826
 21
135.438118
 31
9.364146
  0
LINE
  5
75F
100
AcDbEntity
  8
3
100
AcDbLine
 10
96.630826
 20
137.938118
 30
9.364146
 11
99.330826
 21
137.938118
 31
9.364146
  0
LINE
  5
760
100
AcDbEntity
  8
3
100
AcDbLine
 10
96.630826
 20
135.438118
 30
9.364146
 11
99.780826
 21
135.438118
 31
9.364146
  0
LINE
  5
761
100
AcDbEntity
  8
3
100
AcDbLine
 10
130.726563
 20
131.438119
 30
9.364146
 11
166.076563
 21
131.438119
 31
9.364146
  0
LINE
  5
762
100
AcDbEntity
  8
3
100
AcDbLine
 10
131.426563
 20
137.938119
 30
9.364146
 11
166.076563
 21
137.938119
 31
9.364146
  0
LINE
  5
763
100
AcDbEntity
  8
3
100
AcDbLine
 10
130.726563
 20
126.438119
 30
9.364146
 11
158.576563
 21
126.438119
 31
9.364146
  0
LINE
  5
764
100
AcDbEntity
  8
3
100
AcDbLine
 10
130.726563
 20
126.438119
 30
9.364146
 11
130.726563
 21
131.438119
 31
9.364146
  0
LINE
  5
765
100
AcDbEntity
  8
3
100
AcDbLine
 10
128.276563
 20
126.438119
 30
9.364146
 11
128.276563
 21
135.438119
 31
9.364146
  0
LINE
  5
766
100
AcDbEntity
  8
3
100
AcDbLine
 10
130.726563
 20
126.438119
 30
9.364146
 11
128.276563
 21
126.438119
 31
9.364146
  0
LINE
  5
767
100
AcDbEntity
  8
3
100
AcDbLine
 10
131.426563
 20
137.938119
 30
9.364146
 11
128.726563
 21
137.938119
 31
9.364146
  0
LINE
  5
768
100
AcDbEntity
  8
3
100
AcDbLine
 10
128.276563
 20
135.438119
 30
9.364146
 11
126.226563
 21
135.438119
 31
9.364146
  0
ARC
  5
769
100
AcDbEntity
  8
3
100
AcDbCircle
 10
128.726563
 20
135.438119
 30
9.364146
 40
2.5
100
AcDbArc
 50
90.0
 51
180.0
  0
LINE
  5
76A
100
AcDbEntity
  8
3
100
AcDbLine
 10
131.426563
 20
137.938119
 30
9.364146
 11
131.426563
 21
135.438119
 31
9.364146
  0
LINE
  5
76B
100
AcDbEntity
  8
1
100
AcDbLine
 10
166.076563
 20
139.938119
 30
9.364146
 11
166.076563
 21
115.938119
 31
9.364146
  0
LINE
  5
76C
100
AcDbEntity
  8
3
100
AcDbLine
 10
173.576563
 20
119.438119
 30
9.364146
 11
173.576563
 21
126.438119
 31
9.364146
  0
LINE
  5
76D
100
AcDbEntity
  8
3
100
AcDbLine
 10
166.076563
 20
119.438119
 30
9.364146
 11
173.576563
 21
119.438119
 31
9.364146
  0
LINE
  5
76E
100
AcDbEntity
  8
3
100
AcDbLine
 10
158.576563
 20
126.438119
 30
9.364146
 11
166.076563
 21
126.438119
 31
9.364146
  0
LINE
  5
76F
100
AcDbEntity
  8
2
100
AcDbLine
 10
173.576563
 20
126.438119
 30
9.364146
 11
173.576563
 21
131.438119
 31
9.364146
  0
LINE
  5
777
100
AcDbEntity
  8
3
100
AcDbLine
 10
255.917594
 20
126.438119
 30
9.364146
 11
319.574684
 21
126.438119
 31
9.364146
  0
LINE
  5
778
100
AcDbEntity
  8
3
100
AcDbLine
 10
256.617594
 20
137.938119
 30
9.364146
 11
325.917594
 21
137.938119
 31
9.364146
  0
LINE
  5
779
100
AcDbEntity
  8
3
100
AcDbLine
 10
291.267594
 20
135.438119
 30
9.364146
 11
256.617594
 21
135.438119
 31
9.364146
  0
LINE
  5
77A
100
AcDbEntity
  8
2
100
AcDbLine
 10
319.574684
 20
131.438119
 30
9.364146
 11
255.917594
 21
131.438119
 31
9.364146
  0
LINE
  5
77B
100
AcDbEntity
  8
3
100
AcDbLine
 10
200.726563
 20
137.938119
 30
9.364146
 11
203.426563
 21
137.938119
 31
9.364146
  0
LINE
  5
77C
100
AcDbEntity
  8
3
100
AcDbLine
 10
201.426563
 20
126.438119
 30
9.364146
 11
203.876563
 21
126.438119
 31
9.364146
  0
LINE
  5
77D
100
AcDbEntity
  8
2
100
AcDbLine
 10
201.426563
 20
131.438119
 30
9.364146
 11
201.426563
 21
126.438119
 31
9.364146
  0
LINE
  5
77E
100
AcDbEntity
  8
2
100
AcDbLine
 10
200.726563
 20
135.438119
 30
9.364146
 11
200.726563
 21
137.938119
 31
9.364146
  0
LINE
  5
77F
100
AcDbEntity
  8
3
100
AcDbLine
 10
203.876563
 20
126.438119
 30
9.364146
 11
203.876563
 21
135.438119
 31
9.364146
  0
LINE
  5
780
100
AcDbEntity
  8
3
100
AcDbLine
 10
203.876563
 20
135.438119
 30
9.364146
 11
205.926563
 21
135.438119
 31
9.364146
  0
ARC
  5
781
100
AcDbEntity
  8
3
100
AcDbCircle
 10
203.426563
 20
135.438119
 30
9.364146
 40
2.5
100
AcDbArc
 50
0.0
 51
90.0
  0
LINE
  5
782
100
AcDbEntity
  8
3
100
AcDbLine
 10
253.467594
 20
126.438119
 30
9.364146
 11
253.467594
 21
135.438119
 31
9.364146
  0
LINE
  5
783
100
AcDbEntity
  8
2
100
AcDbLine
 10
255.917594
 20
131.438119
 30
9.364146
 11
255.917594
 21
126.438119
 31
9.364146
  0
LINE
  5
784
100
AcDbEntity
  8
3
100
AcDbLine
 10
255.917594
 20
126.438119
 30
9.364146
 11
253.467594
 21
126.438119
 31
9.364146
  0
LINE
  5
785
100
AcDbEntity
  8
3
100
AcDbLine
 10
256.617594
 20
137.938119
 30
9.364146
 11
253.917594
 21
137.938119
 31
9.364146
  0
LINE
  5
786
100
AcDbEntity
  8
3
100
AcDbLine
 10
256.617594
 20
135.438119
 30
9.364146
 11
253.467594
 21
135.438119
 31
9.364146
  0
ARC
  5
787
100
AcDbEntity
  8
3
100
AcDbCircle
 10
253.917594
 20
135.438119
 30
9.364146
 40
2.5
100
AcDbArc
 50
90.0
 51
180.0
  0
LINE
  5
788
100
AcDbEntity
  8
3
100
AcDbLine
 10
253.467594
 20
135.438119
 30
9.364146
 11
251.417594
 21
135.438119
 31
9.364146
  0
LINE
  5
789
100
AcDbEntity
  8
2
100
AcDbLine
 10
256.617594
 20
137.938119
 30
9.364146
 11
256.617594
 21
135.438119
 31
9.364146
  0
LINE
  5
78A
100
AcDbEntity
  8
3
100
AcDbLine
 10
291.267594
 20
135.438119
 30
9.364146
 11
325.917594
 21
135.438119
 31
9.364146
  0
LINE
  5
78B
100
AcDbEntity
  8
1
100
AcDbLine
 10
291.267594
 20
139.938119
 30
9.364146
 11
291.267594
 21
115.938119
 31
9.364146
  0
LINE
  5
78C
100
AcDbEntity
  8
3
100
AcDbLine
 10
325.917594
 20
137.938119
 30
9.364146
 11
328.617594
 21
137.938119
 31
9.364146
  0
LINE
  5
78D
100
AcDbEntity
  8
3
100
AcDbLine
 10
325.917594
 20
135.438119
 30
9.364146
 11
329.067594
 21
135.438119
 31
9.364146
  0
LINE
  5
78E
100
AcDbEntity
  8
3
100
AcDbLine
 10
319.574684
 20
119.438119
 30
9.364146
 11
329.117594
 21
119.438119
 31
9.364146
  0
LINE
  5
78F
100
AcDbEntity
  8
3
100
AcDbLine
 10
319.574684
 20
126.438119
 30
9.364146
 11
329.067594
 21
126.438119
 31
9.364146
  0
LINE
  5
790
100
AcDbEntity
  8
3
100
AcDbLine
 10
319.574684
 20
126.438119
 30
9.364146
 11
319.574684
 21
119.438119
 31
9.364146
  0
LINE
  5
791
100
AcDbEntity
  8
2
100
AcDbLine
 10
321.117594
 20
131.438119
 30
9.364146
 11
321.117594
 21
119.438119
 31
9.364146
  0
LINE
  5
792
100
AcDbEntity
  8
2
100
AcDbLine
 10
319.574684
 20
126.438119
 30
9.364146
 11
319.574684
 21
131.438119
 31
9.364146
  0
LINE
  5
793
100
AcDbEntity
  8
2
100
AcDbLine
 10
325.441402
 20
131.438119
 30
9.364146
 11
325.441402
 21
126.438119
 31
9.364146
  0
LINE
  5
794
100
AcDbEntity
  8
2
100
AcDbLine
 10
319.574684
 20
131.438119
 30
9.364146
 11
325.441402
 21
131.438119
 31
9.364146
  0
LINE
  5
795
100
AcDbEntity
  8
2
100
AcDbLine
 10
325.917594
 20
137.938119
 30
9.364146
 11
325.917594
 21
135.438119
 31
9.364146
  0
LINE
  5
796
100
AcDbEntity
  8
3
100
AcDbLine
 10
329.067594
 20
135.438119
 30
9.364146
 11
329.067594
 21
119.438119
 31
9.364146
  0
LINE
  5
797
100
AcDbEntity
  8
3
100
AcDbLine
 10
329.067594
 20
135.438119
 30
9.364146
 11
331.117594
 21
135.438119
 31
9.364146
  0
ARC
  5
798
100
AcDbEntity
  8
3
100
AcDbCircle
 10
328.617594
 20
135.438119
 30
9.364146
 40
2.5
100
AcDbArc
 50
0.0
 51
90.0
  0
ENDSEC
  0
SECTION
  2
OBJECTS
  0
DICTIONARY
  5
EB
100
AcDbDictionary
  3
ACAD_GROUP
350
EC
  3
ACAD_MLINESTYLE
350
F9
  3
ACDBVARIABLEDICTIONARY
350
108
  0
DICTIONARY
  5
1D8
100
AcDbDictionary
280
     1
  3
ACAD_XREC_ROUNDTRIP
360
1D9
  0
DICTIONARY
  5
EC
102
{ACAD_REACTORS
330
EB
102
}
100
AcDbDictionary
  0
DICTIONARY
  5
F9
102
{ACAD_REACTORS
330
EB
102
}
100
AcDbDictionary
  3
STANDARD
350
FA
  0
DICTIONARY
  5
108
102
{ACAD_REACTORS
330
EB
102
}
100
AcDbDictionary
  3
DIMADEC
350
109
  0
XRECORD
  5
1D9
102
{ACAD_REACTORS
330
1D8
102
}
100
AcDbXrecord
102
PLOTBIT
280
     0
  0
MLINESTYLE
  5
FA
102
{ACAD_REACTORS
330
F9
102
}
100
AcDbMlineStyle
  2
STANDARD
 70
     0
  3

 62
   256
 51
90.0
 52
90.0
 71
     2
 49
0.5
 62
   256
  6
BYLAYER
 49
-0.5
 62
   256
  6
BYLAYER
  0
DICTIONARYVAR
  5
109
102
{ACAD_REACTORS
330
108
102
}
100
DictionaryVariables
280
     0
  1
0
  0
ENDSEC
  0
EOF
