  0
SECTION
  2
HEADER
  9
$ACADVER
  1
AC1014
  9
$ACADMAINTVER
 70
     0
  9
$DWGCODEPAGE
  3
ANSI_932
  9
$INSBASE
 10
0.0
 20
0.0
 30
0.0
  9
$EXTMIN
 10
21.335602
 20
19.294434
 30
10.635376
  9
$EXTMAX
 10
314.666749
 20
238.300782
 30
20.001221
  9
$LIMMIN
 10
0.0
 20
0.0
  9
$LIMMAX
 10
350.0
 20
250.0
  9
$ORTHOMODE
 70
     1
  9
$REGENMODE
 70
     1
  9
$FILLMODE
 70
     1
  9
$QTEXTMODE
 70
     0
  9
$MIRRTEXT
 70
     1
  9
$DRAGMODE
 70
     2
  9
$LTSCALE
 40
1.0
  9
$OSMODE
 70
     0
  9
$ATTMODE
 70
     1
  9
$TEXTSIZE
 40
5.0
  9
$TRACEWID
 40
0.05
  9
$TEXTSTYLE
  7
BIGFONT
  9
$CLAYER
  8
0
  9
$CELTYPE
  6
BYLAYER
  9
$CECOLOR
 62
   256
  9
$CELTSCALE
 40
1.0
  9
$DELOBJ
 70
     1
  9
$DISPSILH
 70
     0
  9
$DIMSCALE
 40
1.0
  9
$DIMASZ
 40
0.18
  9
$DIMEXO
 40
0.0625
  9
$DIMDLI
 40
0.38
  9
$DIMRND
 40
0.0
  9
$DIMDLE
 40
0.0
  9
$DIMEXE
 40
0.18
  9
$DIMTP
 40
0.0
  9
$DIMTM
 40
0.0
  9
$DIMTXT
 40
0.18
  9
$DIMCEN
 40
0.09
  9
$DIMTSZ
 40
0.0
  9
$DIMTOL
 70
     0
  9
$DIMLIM
 70
     0
  9
$DIMTIH
 70
     1
  9
$DIMTOH
 70
     1
  9
$DIMSE1
 70
     0
  9
$DIMSE2
 70
     0
  9
$DIMTAD
 70
     0
  9
$DIMZIN
 70
     0
  9
$DIMBLK
  1

  9
$DIMASO
 70
     1
  9
$DIMSHO
 70
     1
  9
$DIMPOST
  1

  9
$DIMAPOST
  1

  9
$DIMALT
 70
     0
  9
$DIMALTD
 70
     2
  9
$DIMALTF
 40
25.4
  9
$DIMLFAC
 40
1.0
  9
$DIMTOFL
 70
     0
  9
$DIMTVP
 40
0.0
  9
$DIMTIX
 70
     0
  9
$DIMSOXD
 70
     0
  9
$DIMSAH
 70
     0
  9
$DIMBLK1
  1

  9
$DIMBLK2
  1

  9
$DIMSTYLE
  2
STANDARD
  9
$DIMCLRD
 70
     0
  9
$DIMCLRE
 70
     0
  9
$DIMCLRT
 70
     0
  9
$DIMTFAC
 40
1.0
  9
$DIMGAP
 40
0.09
  9
$DIMJUST
 70
     0
  9
$DIMSD1
 70
     0
  9
$DIMSD2
 70
     0
  9
$DIMTOLJ
 70
     1
  9
$DIMTZIN
 70
     0
  9
$DIMALTZ
 70
     0
  9
$DIMALTTZ
 70
     0
  9
$DIMFIT
 70
     5
  9
$DIMUPT
 70
     0
  9
$DIMUNIT
 70
     2
  9
$DIMDEC
 70
     4
  9
$DIMTDEC
 70
     4
  9
$DIMALTU
 70
     2
  9
$DIMALTTD
 70
     2
  9
$DIMTXSTY
  7
BIGFONT
  9
$DIMAUNIT
 70
     0
  9
$LUNITS
 70
     2
  9
$LUPREC
 70
     4
  9
$SKETCHINC
 40
0.1
  9
$FILLETRAD
 40
0.0
  9
$AUNITS
 70
     0
  9
$AUPREC
 70
     0
  9
$MENU
  1
acad
  9
$ELEVATION
 40
0.0
  9
$PELEVATION
 40
0.0
  9
$THICKNESS
 40
0.0
  9
$LIMCHECK
 70
     0
  9
$BLIPMODE
 70
     0
  9
$CHAMFERA
 40
0.0
  9
$CHAMFERB
 40
0.0
  9
$CHAMFERC
 40
0.0
  9
$CHAMFERD
 40
0.0
  9
$SKPOLY
 70
     0
  9
$TDCREATE
 40
2450870.104410764
  9
$TDUPDATE
 40
2453593.658517072
  9
$TDINDWG
 40
0.0034038657
  9
$TDUSRTIMER
 40
0.0034038657
  9
$USRTIMER
 70
     1
  9
$ANGBASE
 50
0.0
  9
$ANGDIR
 70
     0
  9
$PDMODE
 70
     0
  9
$PDSIZE
 40
0.0
  9
$PLINEWID
 40
0.0
  9
$COORDS
 70
     2
  9
$SPLFRAME
 70
     0
  9
$SPLINETYPE
 70
     6
  9
$SPLINESEGS
 70
     8
  9
$ATTDIA
 70
     0
  9
$ATTREQ
 70
     1
  9
$HANDLING
 70
     1
  9
$HANDSEED
  5
4EA
  9
$SURFTAB1
 70
     6
  9
$SURFTAB2
 70
     6
  9
$SURFTYPE
 70
     6
  9
$SURFU
 70
     6
  9
$SURFV
 70
     6
  9
$UCSNAME
  2

  9
$UCSORG
 10
0.0
 20
0.0
 30
0.0
  9
$UCSXDIR
 10
1.0
 20
0.0
 30
0.0
  9
$UCSYDIR
 10
0.0
 20
1.0
 30
0.0
  9
$PUCSNAME
  2

  9
$PUCSORG
 10
0.0
 20
0.0
 30
0.0
  9
$PUCSXDIR
 10
1.0
 20
0.0
 30
0.0
  9
$PUCSYDIR
 10
0.0
 20
1.0
 30
0.0
  9
$USERI1
 70
     0
  9
$USERI2
 70
     0
  9
$USERI3
 70
     0
  9
$USERI4
 70
     0
  9
$USERI5
 70
     0
  9
$USERR1
 40
0.0
  9
$USERR2
 40
0.0
  9
$USERR3
 40
0.0
  9
$USERR4
 40
0.0
  9
$USERR5
 40
0.0
  9
$WORLDVIEW
 70
     1
  9
$SHADEDGE
 70
     3
  9
$SHADEDIF
 70
    70
  9
$TILEMODE
 70
     1
  9
$MAXACTVP
 70
    16
  9
$PINSBASE
 10
0.0
 20
0.0
 30
0.0
  9
$PLIMCHECK
 70
     0
  9
$PEXTMIN
 10
1.000000E+20
 20
1.000000E+20
 30
1.000000E+20
  9
$PEXTMAX
 10
-1.000000E+20
 20
-1.000000E+20
 30
-1.000000E+20
  9
$PLIMMIN
 10
0.0
 20
0.0
  9
$PLIMMAX
 10
12.0
 20
9.0
  9
$UNITMODE
 70
     0
  9
$VISRETAIN
 70
     0
  9
$PLINEGEN
 70
     0
  9
$PSLTSCALE
 70
     1
  9
$TREEDEPTH
 70
  3020
  9
$PICKSTYLE
 70
     1
  9
$CMLSTYLE
  2
STANDARD
  9
$CMLJUST
 70
     0
  9
$CMLSCALE
 40
1.0
  9
$PROXYGRAPHICS
 70
     1
  9
$MEASUREMENT
 70
     0
  0
ENDSEC
  0
SECTION
  2
CLASSES
  0
CLASS
  1
DICTIONARYVAR
  2
AcDbDictionaryVar
  3
"AutoCAD"
 90
        0
280
     0
281
     0
  0
CLASS
  1
XRECORD
  2
AcDbXrecord
  3
"<Built In>"
 90
        0
280
     0
281
     0
  0
ENDSEC
  0
SECTION
  2
TABLES
  0
TABLE
  2
VPORT
  5
E7
100
AcDbSymbolTable
 70
     5
  0
VPORT
  5
4E9
100
AcDbSymbolTableRecord
100
AcDbViewportTableRecord
  2
*ACTIVE
 70
     0
 10
0.0
 20
0.0
 11
1.0
 21
1.0
 12
179.36803
 22
125.0
 13
0.0
 23
0.0
 14
5.0
 24
5.0
 15
10.0
 25
10.0
 16
0.0
 26
0.0
 36
1.0
 17
0.0
 27
0.0
 37
0.0
 40
250.0
 41
1.434944
 42
50.0
 43
0.0
 44
0.0
 50
0.0
 51
0.0
 71
     0
 72
   100
 73
     1
 74
     1
 75
     0
 76
     1
 77
     0
 78
     0
  0
ENDTAB
  0
TABLE
  2
LTYPE
  5
E4
100
AcDbSymbolTable
 70
     4
  0
LTYPE
  5
F0
100
AcDbSymbolTableRecord
100
AcDbLinetypeTableRecord
  2
BYBLOCK
 70
     0
  3

 72
    65
 73
     0
 40
0.0
  0
LTYPE
  5
F1
100
AcDbSymbolTableRecord
100
AcDbLinetypeTableRecord
  2
BYLAYER
 70
     0
  3

 72
    65
 73
     0
 40
0.0
  0
LTYPE
  5
F2
100
AcDbSymbolTableRecord
100
AcDbLinetypeTableRecord
  2
CONTINUOUS
 70
     0
  3
Solid line
 72
    65
 73
     0
 40
0.0
  0
LTYPE
  5
FC
100
AcDbSymbolTableRecord
100
AcDbLinetypeTableRecord
  2
TENSEN1
 70
     0
  3

 72
    65
 73
     2
 40
0.4
 49
0.3
 74
     0
 49
-0.1
 74
     0
  0
LTYPE
  5
FD
100
AcDbSymbolTableRecord
100
AcDbLinetypeTableRecord
  2
ITTEN1
 70
     0
  3

 72
    65
 73
     4
 40
8.2
 49
5.0
 74
     0
 49
-1.0
 74
     0
 49
1.2
 74
     0
 49
-1.0
 74
     0
  0
LTYPE
  5
1D6
100
AcDbSymbolTableRecord
100
AcDbLinetypeTableRecord
  2
TENSEN
 70
     0
  3

 72
    65
 73
     2
 40
4.0
 49
3.0
 74
     0
 49
-1.0
 74
     0
  0
ENDTAB
  0
TABLE
  2
LAYER
  5
E1
100
AcDbSymbolTable
 70
     5
  0
LAYER
  5
ED
100
AcDbSymbolTableRecord
100
AcDbLayerTableRecord
  2
0
 70
     0
 62
     7
  6
CONTINUOUS
  0
LAYER
  5
101
100
AcDbSymbolTableRecord
100
AcDbLayerTableRecord
  2
1
 70
     0
 62
     1
  6
ITTEN1
  0
LAYER
  5
102
100
AcDbSymbolTableRecord
100
AcDbLayerTableRecord
  2
2
 70
     0
 62
     2
  6
TENSEN1
  0
LAYER
  5
103
100
AcDbSymbolTableRecord
100
AcDbLayerTableRecord
  2
3
 70
     0
 62
     3
  6
CONTINUOUS
  0
LAYER
  5
1D7
102
{ACAD_XDICTIONARY
360
1D8
102
}
100
AcDbSymbolTableRecord
100
AcDbLayerTableRecord
  2
DEFPOINTS
 70
     0
 62
     7
  6
CONTINUOUS
  0
ENDTAB
  0
TABLE
  2
STYLE
  5
E2
100
AcDbSymbolTable
 70
     2
  0
STYLE
  5
EE
100
AcDbSymbolTableRecord
100
AcDbTextStyleTableRecord
  2
STANDARD
 70
     0
 40
0.0
 41
1.0
 50
0.0
 71
     0
 42
0.2
  3
txt
  4

  0
STYLE
  5
FB
100
AcDbSymbolTableRecord
100
AcDbTextStyleTableRecord
  2
BIGFONT
 70
     0
 40
5.0
 41
1.0
 50
0.0
 71
     0
 42
5.0
  3

  4
bigfont
  0
ENDTAB
  0
TABLE
  2
VIEW
  5
E5
100
AcDbSymbolTable
 70
     0
  0
ENDTAB
  0
TABLE
  2
UCS
  5
E6
100
AcDbSymbolTable
 70
     0
  0
ENDTAB
  0
TABLE
  2
APPID
  5
E8
100
AcDbSymbolTable
 70
     1
  0
APPID
  5
EF
100
AcDbSymbolTableRecord
100
AcDbRegAppTableRecord
  2
ACAD
 70
     0
  0
ENDTAB
  0
TABLE
  2
DIMSTYLE
  5
E9
100
AcDbSymbolTable
 70
     1
  0
DIMSTYLE
105
100
100
AcDbSymbolTableRecord
100
AcDbDimStyleTableRecord
  2
STANDARD
 70
     0
  3

  4

  5

  6

  7

 40
1.0
 41
0.18
 42
0.0625
 43
0.38
 44
0.18
 45
0.0
 46
0.0
 47
0.0
 48
0.0
140
0.18
141
0.09
142
0.0
143
25.4
144
1.0
145
0.0
146
1.0
147
0.09
 71
     0
 72
     0
 73
     1
 74
     1
 75
     0
 76
     0
 77
     0
 78
     0
170
     0
171
     2
172
     0
173
     0
174
     0
175
     0
176
     0
177
     0
178
     0
270
     2
271
     4
272
     4
273
     2
274
     2
340
FB
275
     0
280
     0
281
     0
282
     0
283
     1
284
     0
285
     0
286
     0
287
     5
288
     0
  0
ENDTAB
  0
TABLE
  2
BLOCK_RECORD
  5
E0
100
AcDbSymbolTable
 70
    35
  0
BLOCK_RECORD
  5
F6
100
AcDbSymbolTableRecord
100
AcDbBlockTableRecord
  2
*MODEL_SPACE
  0
BLOCK_RECORD
  5
F3
100
AcDbSymbolTableRecord
100
AcDbBlockTableRecord
  2
*PAPER_SPACE
  0
BLOCK_RECORD
  5
10E
100
AcDbSymbolTableRecord
100
AcDbBlockTableRecord
  2
*D0
  0
BLOCK_RECORD
  5
11A
100
AcDbSymbolTableRecord
100
AcDbBlockTableRecord
  2
*D1
  0
BLOCK_RECORD
  5
125
100
AcDbSymbolTableRecord
100
AcDbBlockTableRecord
  2
*D2
  0
BLOCK_RECORD
  5
130
100
AcDbSymbolTableRecord
100
AcDbBlockTableRecord
  2
*D3
  0
BLOCK_RECORD
  5
139
100
AcDbSymbolTableRecord
100
AcDbBlockTableRecord
  2
*D4
  0
BLOCK_RECORD
  5
142
100
AcDbSymbolTableRecord
100
AcDbBlockTableRecord
  2
*D5
  0
BLOCK_RECORD
  5
14B
100
AcDbSymbolTableRecord
100
AcDbBlockTableRecord
  2
*D6
  0
BLOCK_RECORD
  5
154
100
AcDbSymbolTableRecord
100
AcDbBlockTableRecord
  2
*D7
  0
BLOCK_RECORD
  5
15D
100
AcDbSymbolTableRecord
100
AcDbBlockTableRecord
  2
*D8
  0
BLOCK_RECORD
  5
16A
100
AcDbSymbolTableRecord
100
AcDbBlockTableRecord
  2
*D9
  0
BLOCK_RECORD
  5
177
100
AcDbSymbolTableRecord
100
AcDbBlockTableRecord
  2
*D10
  0
BLOCK_RECORD
  5
184
100
AcDbSymbolTableRecord
100
AcDbBlockTableRecord
  2
*D11
  0
BLOCK_RECORD
  5
191
100
AcDbSymbolTableRecord
100
AcDbBlockTableRecord
  2
*D12
  0
BLOCK_RECORD
  5
19E
100
AcDbSymbolTableRecord
100
AcDbBlockTableRecord
  2
*D13
  0
BLOCK_RECORD
  5
1AC
100
AcDbSymbolTableRecord
100
AcDbBlockTableRecord
  2
*D14
  0
BLOCK_RECORD
  5
1BA
100
AcDbSymbolTableRecord
100
AcDbBlockTableRecord
  2
*D15
  0
BLOCK_RECORD
  5
1C8
100
AcDbSymbolTableRecord
100
AcDbBlockTableRecord
  2
*D16
  0
BLOCK_RECORD
  5
1DA
100
AcDbSymbolTableRecord
100
AcDbBlockTableRecord
  2
A$C6DC837BF
  0
BLOCK_RECORD
  5
37F
100
AcDbSymbolTableRecord
100
AcDbBlockTableRecord
  2
*D18
  0
BLOCK_RECORD
  5
396
100
AcDbSymbolTableRecord
100
AcDbBlockTableRecord
  2
*D19
  0
BLOCK_RECORD
  5
3A3
100
AcDbSymbolTableRecord
100
AcDbBlockTableRecord
  2
*D20
  0
BLOCK_RECORD
  5
3B0
100
AcDbSymbolTableRecord
100
AcDbBlockTableRecord
  2
*D21
  0
BLOCK_RECORD
  5
3BD
100
AcDbSymbolTableRecord
100
AcDbBlockTableRecord
  2
*D22
  0
BLOCK_RECORD
  5
3CA
100
AcDbSymbolTableRecord
100
AcDbBlockTableRecord
  2
*D23
  0
BLOCK_RECORD
  5
3D7
100
AcDbSymbolTableRecord
100
AcDbBlockTableRecord
  2
*D24
  0
BLOCK_RECORD
  5
3E3
100
AcDbSymbolTableRecord
100
AcDbBlockTableRecord
  2
*D25
  0
BLOCK_RECORD
  5
3EC
100
AcDbSymbolTableRecord
100
AcDbBlockTableRecord
  2
*D26
  0
BLOCK_RECORD
  5
3F4
100
AcDbSymbolTableRecord
100
AcDbBlockTableRecord
  2
*D27
  0
BLOCK_RECORD
  5
3FC
100
AcDbSymbolTableRecord
100
AcDbBlockTableRecord
  2
*D28
  0
BLOCK_RECORD
  5
404
100
AcDbSymbolTableRecord
100
AcDbBlockTableRecord
  2
*D29
  0
BLOCK_RECORD
  5
40C
100
AcDbSymbolTableRecord
100
AcDbBlockTableRecord
  2
*D30
  0
BLOCK_RECORD
  5
418
100
AcDbSymbolTableRecord
100
AcDbBlockTableRecord
  2
*D31
  0
BLOCK_RECORD
  5
426
100
AcDbSymbolTableRecord
100
AcDbBlockTableRecord
  2
*D32
  0
BLOCK_RECORD
  5
42E
100
AcDbSymbolTableRecord
100
AcDbBlockTableRecord
  2
*D33
  0
BLOCK_RECORD
  5
436
100
AcDbSymbolTableRecord
100
AcDbBlockTableRecord
  2
*D34
  0
ENDTAB
  0
ENDSEC
  0
SECTION
  2
BLOCKS
  0
BLOCK
  5
106
100
AcDbEntity
  8
0
100
AcDbBlockBegin
  2
*MODEL_SPACE
 70
     0
 10
0.0
 20
0.0
 30
0.0
  3
*MODEL_SPACE
  1

  0
ENDBLK
  5
107
100
AcDbEntity
  8
0
100
AcDbBlockEnd
  0
BLOCK
  5
104
100
AcDbEntity
 67
     1
  8
0
100
AcDbBlockBegin
  2
*PAPER_SPACE
 70
     0
 10
0.0
 20
0.0
 30
0.0
  3
*PAPER_SPACE
  1

  0
ENDBLK
  5
105
100
AcDbEntity
 67
     1
  8
0
100
AcDbBlockEnd
  0
BLOCK
  5
118
100
AcDbEntity
  8
0
100
AcDbBlockBegin
  2
*D0
 70
     1
 10
0.0
 20
0.0
 30
0.0
  3
*D0
  1

  0
LINE
  5
10F
100
AcDbEntity
  8
0
  6
BYBLOCK
 62
     0
100
AcDbLine
 10
184.0
 20
137.903961
 30
0.0
 11
244.776548
 21
137.903961
 31
0.0
  0
LINE
  5
110
100
AcDbEntity
  8
0
  6
BYBLOCK
 62
     0
100
AcDbLine
 10
184.0
 20
129.953961
 30
0.0
 11
244.776548
 21
129.953961
 31
0.0
  0
LINE
  5
111
100
AcDbEntity
  8
0
  6
BYBLOCK
 62
     0
100
AcDbLine
 10
243.776548
 20
135.903961
 30
0.0
 11
243.776548
 21
131.953961
 31
0.0
  0
SOLID
  5
112
100
AcDbEntity
  8
0
  6
BYBLOCK
 62
     0
100
AcDbTrace
 10
243.443214
 20
135.903961
 30
0.0
 11
244.109881
 21
135.903961
 31
0.0
 12
243.776548
 22
137.903961
 32
0.0
 13
243.776548
 23
137.903961
 33
0.0
  0
SOLID
  5
113
100
AcDbEntity
  8
0
  6
BYBLOCK
 62
     0
100
AcDbTrace
 10
243.443214
 20
131.953961
 30
0.0
 11
244.109881
 21
131.953961
 31
0.0
 12
243.776548
 22
129.953961
 32
0.0
 13
243.776548
 23
129.953961
 33
0.0
  0
MTEXT
  5
114
100
AcDbEntity
  8
0
  6
BYBLOCK
 62
     0
100
AcDbMText
 10
240.651548
 20
134.207118
 30
0.0
 40
5.0
 41
0.0
 71
     5
 72
     1
  1
\A1;8
 11
0.0
 21
1.0
 31
0.0
  0
POINT
  5
115
100
AcDbEntity
  8
DEFPOINTS
  6
BYBLOCK
 62
     0
100
AcDbPoint
 10
183.0
 20
137.903961
 30
9.364146
  0
POINT
  5
116
100
AcDbEntity
  8
DEFPOINTS
  6
BYBLOCK
 62
     0
100
AcDbPoint
 10
183.0
 20
129.953961
 30
9.364146
  0
POINT
  5
117
100
AcDbEntity
  8
DEFPOINTS
  6
BYBLOCK
 62
     0
100
AcDbPoint
 10
243.776548
 20
129.953961
 30
0.0
  0
ENDBLK
  5
119
100
AcDbEntity
  8
0
100
AcDbBlockEnd
  0
BLOCK
  5
123
100
AcDbEntity
  8
0
100
AcDbBlockBegin
  2
*D1
 70
     1
 10
0.0
 20
0.0
 30
0.0
  3
*D1
  1

  0
LINE
  5
11B
100
AcDbEntity
  8
0
  6
BYBLOCK
 62
     0
100
AcDbLine
 10
327.769748
 20
242.692683
 30
0.0
 11
344.859748
 21
242.692683
 31
0.0
  0
LINE
  5
11C
100
AcDbEntity
  8
0
  6
BYBLOCK
 62
     0
100
AcDbLine
 10
344.859748
 20
242.692683
 30
0.0
 11
351.094486
 21
233.521455
 31
0.0
  0
MTEXT
  5
11D
100
AcDbEntity
  8
0
  6
BYBLOCK
 62
     0
100
AcDbMText
 10
335.269748
 20
245.817683
 30
0.0
 40
5.0
 41
0.0
 71
     5
 72
     1
  1
\A1;R2.5
  0
SOLID
  5
11E
100
AcDbEntity
  8
0
  6
BYBLOCK
 62
     0
100
AcDbTrace
 10
350.245741
 20
235.362852
 30
0.0
 11
349.69441
 21
234.988048
 31
0.0
 12
351.094486
 22
233.521455
 32
0.0
 13
351.094486
 23
233.521455
 33
0.0
  0
LINE
  5
11F
100
AcDbEntity
  8
0
  6
BYBLOCK
 62
     0
100
AcDbLine
 10
350.0
 20
231.453961
 30
0.0
 11
355.0
 21
231.453961
 31
0.0
  0
LINE
  5
120
100
AcDbEntity
  8
0
  6
BYBLOCK
 62
     0
100
AcDbLine
 10
352.5
 20
228.953961
 30
0.0
 11
352.5
 21
233.953961
 31
0.0
  0
POINT
  5
121
100
AcDbEntity
  8
DEFPOINTS
  6
BYBLOCK
 62
     0
100
AcDbPoint
 10
351.094486
 20
233.521455
 30
9.364146
  0
POINT
  5
122
100
AcDbEntity
  8
DEFPOINTS
  6
BYBLOCK
 62
     0
100
AcDbPoint
 10
352.5
 20
231.453961
 30
9.364146
  0
ENDBLK
  5
124
100
AcDbEntity
  8
0
100
AcDbBlockEnd
  0
BLOCK
  5
12E
100
AcDbEntity
  8
0
100
AcDbBlockBegin
  2
*D2
 70
     1
 10
0.0
 20
0.0
 30
0.0
  3
*D2
  1

  0
LINE
  5
126
100
AcDbEntity
  8
0
  6
BYBLOCK
 62
     0
100
AcDbLine
 10
435.558774
 20
246.527587
 30
0.0
 11
418.468774
 21
246.527587
 31
0.0
  0
LINE
  5
127
100
AcDbEntity
  8
0
  6
BYBLOCK
 62
     0
100
AcDbLine
 10
418.468774
 20
246.527587
 30
0.0
 11
407.130492
 21
233.349085
 31
0.0
  0
MTEXT
  5
128
100
AcDbEntity
  8
0
  6
BYBLOCK
 62
     0
100
AcDbMText
 10
428.058774
 20
249.652587
 30
0.0
 40
5.0
 41
0.0
 71
     5
 72
     1
  1
\A1;R2.5
  0
SOLID
  5
129
100
AcDbEntity
  8
0
  6
BYBLOCK
 62
     0
100
AcDbTrace
 10
408.182203
 20
235.082583
 30
0.0
 11
408.68757
 21
234.647785
 31
0.0
 12
407.130492
 22
233.349085
 32
0.0
 13
407.130492
 23
233.349085
 33
0.0
  0
LINE
  5
12A
100
AcDbEntity
  8
0
  6
BYBLOCK
 62
     0
100
AcDbLine
 10
403.0
 20
231.453961
 30
0.0
 11
408.0
 21
231.453961
 31
0.0
  0
LINE
  5
12B
100
AcDbEntity
  8
0
  6
BYBLOCK
 62
     0
100
AcDbLine
 10
405.5
 20
228.953961
 30
0.0
 11
405.5
 21
233.953961
 31
0.0
  0
POINT
  5
12C
100
AcDbEntity
  8
DEFPOINTS
  6
BYBLOCK
 62
     0
100
AcDbPoint
 10
407.130492
 20
233.349085
 30
9.364146
  0
POINT
  5
12D
100
AcDbEntity
  8
DEFPOINTS
  6
BYBLOCK
 62
     0
100
AcDbPoint
 10
405.5
 20
231.453961
 30
9.364146
  0
ENDBLK
  5
12F
100
AcDbEntity
  8
0
100
AcDbBlockEnd
  0
BLOCK
  5
137
100
AcDbEntity
  8
0
100
AcDbBlockBegin
  2
*D3
 70
     1
 10
0.0
 20
0.0
 30
0.0
  3
*D3
  1

  0
LINE
  5
131
100
AcDbEntity
  8
0
  6
BYBLOCK
 62
     0
100
AcDbLine
 10
130.080843
 20
121.5
 30
0.0
 11
128.080843
 21
121.5
 31
0.0
  0
LINE
  5
132
100
AcDbEntity
  8
0
  6
BYBLOCK
 62
     0
100
AcDbLine
 10
128.080843
 20
121.5
 30
0.0
 11
156.890212
 21
107.574538
 31
0.0
  0
MTEXT
  5
133
100
AcDbEntity
  8
0
  6
BYBLOCK
 62
     0
100
AcDbMText
 10
136.039176
 20
121.5
 30
0.0
 40
4.0
 41
0.0
 71
     5
 72
     1
  1
\A1;R29
  0
SOLID
  5
134
100
AcDbEntity
  8
0
  6
BYBLOCK
 62
     0
100
AcDbTrace
 10
155.234601
 20
108.745035
 30
0.0
 11
154.944473
 21
108.14481
 31
0.0
 12
156.890212
 22
107.574538
 32
0.0
 13
156.890212
 23
107.574538
 33
0.0
  0
POINT
  5
135
100
AcDbEntity
  8
DEFPOINTS
  6
BYBLOCK
 62
     0
100
AcDbPoint
 10
156.890212
 20
107.574538
 30
9.364146
  0
POINT
  5
136
100
AcDbEntity
  8
DEFPOINTS
  6
BYBLOCK
 62
     0
100
AcDbPoint
 10
183.0
 20
94.953961
 30
9.364146
  0
ENDBLK
  5
138
100
AcDbEntity
  8
0
100
AcDbBlockEnd
  0
BLOCK
  5
140
100
AcDbEntity
  8
0
100
AcDbBlockBegin
  2
*D4
 70
     1
 10
0.0
 20
0.0
 30
0.0
  3
*D4
  1

  0
LINE
  5
13A
100
AcDbEntity
  8
0
  6
BYBLOCK
 62
     0
100
AcDbLine
 10
100.665793
 20
118.5
 30
0.0
 11
98.665793
 21
118.5
 31
0.0
  0
LINE
  5
13B
100
AcDbEntity
  8
0
  6
BYBLOCK
 62
     0
100
AcDbLine
 10
98.665793
 20
118.5
 30
0.0
 11
157.042729
 21
102.201209
 31
0.0
  0
MTEXT
  5
13C
100
AcDbEntity
  8
0
  6
BYBLOCK
 62
     0
100
AcDbMText
 10
111.290793
 20
118.5
 30
0.0
 40
4.0
 41
0.0
 71
     5
 72
     1
  1
\A1;R26.95
  0
SOLID
  5
13D
100
AcDbEntity
  8
0
  6
BYBLOCK
 62
     0
100
AcDbTrace
 10
155.20604
 20
103.060093
 30
0.0
 11
155.026763
 21
102.417983
 31
0.0
 12
157.042729
 22
102.201209
 32
0.0
 13
157.042729
 23
102.201209
 33
0.0
  0
POINT
  5
13E
100
AcDbEntity
  8
DEFPOINTS
  6
BYBLOCK
 62
     0
100
AcDbPoint
 10
157.042729
 20
102.201209
 30
9.364146
  0
POINT
  5
13F
100
AcDbEntity
  8
DEFPOINTS
  6
BYBLOCK
 62
     0
100
AcDbPoint
 10
183.0
 20
94.953961
 30
9.364146
  0
ENDBLK
  5
141
100
AcDbEntity
  8
0
100
AcDbBlockEnd
  0
BLOCK
  5
149
100
AcDbEntity
  8
0
100
AcDbBlockBegin
  2
*D5
 70
     1
 10
0.0
 20
0.0
 30
0.0
  3
*D5
  1

  0
LINE
  5
143
100
AcDbEntity
  8
0
  6
BYBLOCK
 62
     0
100
AcDbLine
 10
123.488168
 20
104.931803
 30
0.0
 11
125.488168
 21
104.931803
 31
0.0
  0
LINE
  5
144
100
AcDbEntity
  8
0
  6
BYBLOCK
 62
     0
100
AcDbLine
 10
125.488168
 20
104.931803
 30
0.0
 11
158.860598
 21
99.141954
 31
0.0
  0
MTEXT
  5
145
100
AcDbEntity
  8
0
  6
BYBLOCK
 62
     0
100
AcDbMText
 10
114.863168
 20
104.931803
 30
0.0
 40
4.0
 41
0.0
 71
     5
 72
     1
  1
\A1;R24.5
  0
SOLID
  5
146
100
AcDbEntity
  8
0
  6
BYBLOCK
 62
     0
100
AcDbTrace
 10
156.947014
 20
99.812258
 30
0.0
 11
156.833055
 21
99.155403
 31
0.0
 12
158.860598
 22
99.141954
 32
0.0
 13
158.860598
 23
99.141954
 33
0.0
  0
POINT
  5
147
100
AcDbEntity
  8
DEFPOINTS
  6
BYBLOCK
 62
     0
100
AcDbPoint
 10
158.860598
 20
99.141954
 30
9.364146
  0
POINT
  5
148
100
AcDbEntity
  8
DEFPOINTS
  6
BYBLOCK
 62
     0
100
AcDbPoint
 10
183.0
 20
94.953961
 30
9.364146
  0
ENDBLK
  5
14A
100
AcDbEntity
  8
0
100
AcDbBlockEnd
  0
BLOCK
  5
152
100
AcDbEntity
  8
0
100
AcDbBlockBegin
  2
*D6
 70
     1
 10
0.0
 20
0.0
 30
0.0
  3
*D6
  1

  0
LINE
  5
14C
100
AcDbEntity
  8
0
  6
BYBLOCK
 62
     0
100
AcDbLine
 10
131.99963
 20
93.512587
 30
0.0
 11
133.99963
 21
93.512587
 31
0.0
  0
LINE
  5
14D
100
AcDbEntity
  8
0
  6
BYBLOCK
 62
     0
100
AcDbLine
 10
133.99963
 20
93.512587
 30
0.0
 11
159.21029
 21
94.254173
 31
0.0
  0
MTEXT
  5
14E
100
AcDbEntity
  8
0
  6
BYBLOCK
 62
     0
100
AcDbMText
 10
123.37463
 20
93.512587
 30
0.0
 40
4.0
 41
0.0
 71
     5
 72
     1
  1
\A1;R23.8
  0
SOLID
  5
14F
100
AcDbEntity
  8
0
  6
BYBLOCK
 62
     0
100
AcDbTrace
 10
157.201354
 20
94.528556
 30
0.0
 11
157.220956
 21
93.862178
 31
0.0
 12
159.21029
 22
94.254173
 32
0.0
 13
159.21029
 23
94.254173
 33
0.0
  0
POINT
  5
150
100
AcDbEntity
  8
DEFPOINTS
  6
BYBLOCK
 62
     0
100
AcDbPoint
 10
159.21029
 20
94.254173
 30
9.364146
  0
POINT
  5
151
100
AcDbEntity
  8
DEFPOINTS
  6
BYBLOCK
 62
     0
100
AcDbPoint
 10
183.0
 20
94.953961
 30
9.364146
  0
ENDBLK
  5
153
100
AcDbEntity
  8
0
100
AcDbBlockEnd
  0
BLOCK
  5
15B
100
AcDbEntity
  8
0
100
AcDbBlockBegin
  2
*D7
 70
     1
 10
0.0
 20
0.0
 30
0.0
  3
*D7
  1

  0
LINE
  5
155
100
AcDbEntity
  8
0
  6
BYBLOCK
 62
     0
100
AcDbLine
 10
187.005656
 20
87.0
 30
0.0
 11
185.005656
 21
87.0
 31
0.0
  0
LINE
  5
156
100
AcDbEntity
  8
0
  6
BYBLOCK
 62
     0
100
AcDbLine
 10
185.005656
 20
87.0
 30
0.0
 11
178.354411
 21
113.377275
 31
0.0
  0
MTEXT
  5
157
100
AcDbEntity
  8
0
  6
BYBLOCK
 62
     0
100
AcDbMText
 10
192.297323
 20
87.0
 30
0.0
 40
4.0
 41
0.0
 71
     5
 72
     1
  1
\A1;R19
  0
SOLID
  5
158
100
AcDbEntity
  8
0
  6
BYBLOCK
 62
     0
100
AcDbTrace
 10
179.166637
 20
111.51948
 30
0.0
 11
178.520205
 21
111.356477
 31
0.0
 12
178.354411
 22
113.377275
 32
0.0
 13
178.354411
 23
113.377275
 33
0.0
  0
POINT
  5
159
100
AcDbEntity
  8
DEFPOINTS
  6
BYBLOCK
 62
     0
100
AcDbPoint
 10
178.354411
 20
113.377275
 30
9.364146
  0
POINT
  5
15A
100
AcDbEntity
  8
DEFPOINTS
  6
BYBLOCK
 62
     0
100
AcDbPoint
 10
183.0
 20
94.953961
 30
9.364146
  0
ENDBLK
  5
15C
100
AcDbEntity
  8
0
100
AcDbBlockEnd
  0
BLOCK
  5
168
100
AcDbEntity
  8
0
100
AcDbBlockBegin
  2
*D8
 70
     1
 10
0.0
 20
0.0
 30
0.0
  3
*D8
  1

  0
LINE
  5
15E
100
AcDbEntity
  8
0
  6
BYBLOCK
 62
     0
100
AcDbLine
 10
175.5
 20
121.839333
 30
0.0
 11
175.5
 21
132.0
 31
0.0
  0
LINE
  5
15F
100
AcDbEntity
  8
0
  6
BYBLOCK
 62
     0
100
AcDbLine
 10
190.5
 20
121.839333
 30
0.0
 11
190.5
 21
132.0
 31
0.0
  0
LINE
  5
160
100
AcDbEntity
  8
0
  6
BYBLOCK
 62
     0
100
AcDbLine
 10
177.5
 20
131.0
 30
0.0
 11
180.208333
 21
131.0
 31
0.0
  0
LINE
  5
161
100
AcDbEntity
  8
0
  6
BYBLOCK
 62
     0
100
AcDbLine
 10
188.5
 20
131.0
 30
0.0
 11
186.791667
 21
131.0
 31
0.0
  0
SOLID
  5
162
100
AcDbEntity
  8
0
  6
BYBLOCK
 62
     0
100
AcDbTrace
 10
177.5
 20
131.333333
 30
0.0
 11
177.5
 21
130.666667
 31
0.0
 12
175.5
 22
131.0
 32
0.0
 13
175.5
 23
131.0
 33
0.0
  0
SOLID
  5
163
100
AcDbEntity
  8
0
  6
BYBLOCK
 62
     0
100
AcDbTrace
 10
188.5
 20
131.333333
 30
0.0
 11
188.5
 21
130.666667
 31
0.0
 12
190.5
 22
131.0
 32
0.0
 13
190.5
 23
131.0
 33
0.0
  0
MTEXT
  5
164
100
AcDbEntity
  8
0
  6
BYBLOCK
 62
     0
100
AcDbMText
 10
183.5
 20
131.0
 30
0.0
 40
4.0
 41
0.0
 71
     5
 72
     1
  1
\A1;15
  0
POINT
  5
165
100
AcDbEntity
  8
DEFPOINTS
  6
BYBLOCK
 62
     0
100
AcDbPoint
 10
175.5
 20
120.839333
 30
9.364146
  0
POINT
  5
166
100
AcDbEntity
  8
DEFPOINTS
  6
BYBLOCK
 62
     0
100
AcDbPoint
 10
190.5
 20
120.839333
 30
9.364146
  0
POINT
  5
167
100
AcDbEntity
  8
DEFPOINTS
  6
BYBLOCK
 62
     0
100
AcDbPoint
 10
190.5
 20
131.0
 30
0.0
  0
ENDBLK
  5
169
100
AcDbEntity
  8
0
100
AcDbBlockEnd
  0
BLOCK
  5
175
100
AcDbEntity
  8
0
100
AcDbBlockBegin
  2
*D9
 70
     1
 10
0.0
 20
0.0
 30
0.0
  3
*D9
  1

  0
LINE
  5
16B
100
AcDbEntity
  8
0
  6
BYBLOCK
 62
     0
100
AcDbLine
 10
210.95
 20
179.953961
 30
0.0
 11
210.95
 21
157.0
 31
0.0
  0
LINE
  5
16C
100
AcDbEntity
  8
0
  6
BYBLOCK
 62
     0
100
AcDbLine
 10
157.05
 20
179.953961
 30
0.0
 11
157.05
 21
157.0
 31
0.0
  0
LINE
  5
16D
100
AcDbEntity
  8
0
  6
BYBLOCK
 62
     0
100
AcDbLine
 10
208.95
 20
158.0
 30
0.0
 11
191.125
 21
158.0
 31
0.0
  0
LINE
  5
16E
100
AcDbEntity
  8
0
  6
BYBLOCK
 62
     0
100
AcDbLine
 10
159.05
 20
158.0
 30
0.0
 11
177.875
 21
158.0
 31
0.0
  0
SOLID
  5
16F
100
AcDbEntity
  8
0
  6
BYBLOCK
 62
     0
100
AcDbTrace
 10
208.95
 20
158.333333
 30
0.0
 11
208.95
 21
157.666667
 31
0.0
 12
210.95
 22
158.0
 32
0.0
 13
210.95
 23
158.0
 33
0.0
  0
SOLID
  5
170
100
AcDbEntity
  8
0
  6
BYBLOCK
 62
     0
100
AcDbTrace
 10
159.05
 20
158.333333
 30
0.0
 11
159.05
 21
157.666667
 31
0.0
 12
157.05
 22
158.0
 32
0.0
 13
157.05
 23
158.0
 33
0.0
  0
MTEXT
  5
171
100
AcDbEntity
  8
0
  6
BYBLOCK
 62
     0
100
AcDbMText
 10
184.5
 20
158.0
 30
0.0
 40
4.0
 41
0.0
 71
     5
 72
     1
  1
\A1;53.9
  0
POINT
  5
172
100
AcDbEntity
  8
DEFPOINTS
  6
BYBLOCK
 62
     0
100
AcDbPoint
 10
210.95
 20
180.953961
 30
0.0
  0
POINT
  5
173
100
AcDbEntity
  8
DEFPOINTS
  6
BYBLOCK
 62
     0
100
AcDbPoint
 10
157.05
 20
180.953961
 30
0.0
  0
POINT
  5
174
100
AcDbEntity
  8
DEFPOINTS
  6
BYBLOCK
 62
     0
100
AcDbPoint
 10
157.05
 20
158.0
 30
0.0
  0
ENDBLK
  5
176
100
AcDbEntity
  8
0
100
AcDbBlockEnd
  0
BLOCK
  5
182
100
AcDbEntity
  8
0
100
AcDbBlockBegin
  2
*D10
 70
     1
 10
0.0
 20
0.0
 30
0.0
  3
*D10
  1

  0
LINE
  5
178
100
AcDbEntity
  8
0
  6
BYBLOCK
 62
     0
100
AcDbLine
 10
208.0
 20
178.5
 30
0.0
 11
208.0
 21
166.0
 31
0.0
  0
LINE
  5
179
100
AcDbEntity
  8
0
  6
BYBLOCK
 62
     0
100
AcDbLine
 10
159.0
 20
178.5
 30
0.0
 11
159.0
 21
166.0
 31
0.0
  0
LINE
  5
17A
100
AcDbEntity
  8
0
  6
BYBLOCK
 62
     0
100
AcDbLine
 10
206.0
 20
167.0
 30
0.0
 11
186.958333
 21
167.0
 31
0.0
  0
LINE
  5
17B
100
AcDbEntity
  8
0
  6
BYBLOCK
 62
     0
100
AcDbLine
 10
161.0
 20
167.0
 30
0.0
 11
179.041667
 21
167.0
 31
0.0
  0
SOLID
  5
17C
100
AcDbEntity
  8
0
  6
BYBLOCK
 62
     0
100
AcDbTrace
 10
206.0
 20
167.333333
 30
0.0
 11
206.0
 21
166.666667
 31
0.0
 12
208.0
 22
167.0
 32
0.0
 13
208.0
 23
167.0
 33
0.0
  0
SOLID
  5
17D
100
AcDbEntity
  8
0
  6
BYBLOCK
 62
     0
100
AcDbTrace
 10
161.0
 20
167.333333
 30
0.0
 11
161.0
 21
166.666667
 31
0.0
 12
159.0
 22
167.0
 32
0.0
 13
159.0
 23
167.0
 33
0.0
  0
MTEXT
  5
17E
100
AcDbEntity
  8
0
  6
BYBLOCK
 62
     0
100
AcDbMText
 10
183.0
 20
167.0
 30
0.0
 40
4.0
 41
0.0
 71
     5
 72
     1
  1
\A1;49
  0
POINT
  5
17F
100
AcDbEntity
  8
DEFPOINTS
  6
BYBLOCK
 62
     0
100
AcDbPoint
 10
208.0
 20
179.5
 30
0.0
  0
POINT
  5
180
100
AcDbEntity
  8
DEFPOINTS
  6
BYBLOCK
 62
     0
100
AcDbPoint
 10
159.0
 20
179.5
 30
0.0
  0
POINT
  5
181
100
AcDbEntity
  8
DEFPOINTS
  6
BYBLOCK
 62
     0
100
AcDbPoint
 10
159.0
 20
167.0
 30
0.0
  0
ENDBLK
  5
183
100
AcDbEntity
  8
0
100
AcDbBlockEnd
  0
BLOCK
  5
18F
100
AcDbEntity
  8
0
100
AcDbBlockBegin
  2
*D11
 70
     1
 10
0.0
 20
0.0
 30
0.0
  3
*D11
  1

  0
LINE
  5
185
100
AcDbEntity
  8
0
  6
BYBLOCK
 62
     0
100
AcDbLine
 10
212.0
 20
190.953961
 30
0.0
 11
212.0
 21
216.5
 31
0.0
  0
LINE
  5
186
100
AcDbEntity
  8
0
  6
BYBLOCK
 62
     0
100
AcDbLine
 10
154.318433
 20
190.953961
 30
0.0
 11
154.318433
 21
216.5
 31
0.0
  0
LINE
  5
187
100
AcDbEntity
  8
0
  6
BYBLOCK
 62
     0
100
AcDbLine
 10
210.0
 20
215.5
 30
0.0
 11
186.458333
 21
215.5
 31
0.0
  0
LINE
  5
188
100
AcDbEntity
  8
0
  6
BYBLOCK
 62
     0
100
AcDbLine
 10
156.318433
 20
215.5
 30
0.0
 11
178.541667
 21
215.5
 31
0.0
  0
SOLID
  5
189
100
AcDbEntity
  8
0
  6
BYBLOCK
 62
     0
100
AcDbTrace
 10
210.0
 20
215.833333
 30
0.0
 11
210.0
 21
215.166667
 31
0.0
 12
212.0
 22
215.5
 32
0.0
 13
212.0
 23
215.5
 33
0.0
  0
SOLID
  5
18A
100
AcDbEntity
  8
0
  6
BYBLOCK
 62
     0
100
AcDbTrace
 10
156.318433
 20
215.833333
 30
0.0
 11
156.318433
 21
215.166667
 31
0.0
 12
154.318433
 22
215.5
 32
0.0
 13
154.318433
 23
215.5
 33
0.0
  0
MTEXT
  5
18B
100
AcDbEntity
  8
0
  6
BYBLOCK
 62
     0
100
AcDbMText
 10
182.5
 20
215.5
 30
0.0
 40
4.0
 41
0.0
 71
     5
 72
     1
  1
\A1;58
  0
POINT
  5
18C
100
AcDbEntity
  8
DEFPOINTS
  6
BYBLOCK
 62
     0
100
AcDbPoint
 10
212.0
 20
189.953961
 30
9.364146
  0
POINT
  5
18D
100
AcDbEntity
  8
DEFPOINTS
  6
BYBLOCK
 62
     0
100
AcDbPoint
 10
154.318433
 20
189.953961
 30
0.0
  0
POINT
  5
18E
100
AcDbEntity
  8
DEFPOINTS
  6
BYBLOCK
 62
     0
100
AcDbPoint
 10
154.318433
 20
215.5
 30
0.0
  0
ENDBLK
  5
190
100
AcDbEntity
  8
0
100
AcDbBlockEnd
  0
BLOCK
  5
19C
100
AcDbEntity
  8
0
100
AcDbBlockBegin
  2
*D12
 70
     1
 10
0.0
 20
0.0
 30
0.0
  3
*D12
  1

  0
LINE
  5
192
100
AcDbEntity
  8
0
  6
BYBLOCK
 62
     0
100
AcDbLine
 10
206.8
 20
193.453961
 30
0.0
 11
206.8
 21
210.5
 31
0.0
  0
LINE
  5
193
100
AcDbEntity
  8
0
  6
BYBLOCK
 62
     0
100
AcDbLine
 10
159.2
 20
193.453961
 30
0.0
 11
159.2
 21
210.5
 31
0.0
  0
LINE
  5
194
100
AcDbEntity
  8
0
  6
BYBLOCK
 62
     0
100
AcDbLine
 10
204.8
 20
209.5
 30
0.0
 11
188.125
 21
209.5
 31
0.0
  0
LINE
  5
195
100
AcDbEntity
  8
0
  6
BYBLOCK
 62
     0
100
AcDbLine
 10
161.2
 20
209.5
 30
0.0
 11
174.875
 21
209.5
 31
0.0
  0
SOLID
  5
196
100
AcDbEntity
  8
0
  6
BYBLOCK
 62
     0
100
AcDbTrace
 10
204.8
 20
209.833333
 30
0.0
 11
204.8
 21
209.166667
 31
0.0
 12
206.8
 22
209.5
 32
0.0
 13
206.8
 23
209.5
 33
0.0
  0
SOLID
  5
197
100
AcDbEntity
  8
0
  6
BYBLOCK
 62
     0
100
AcDbTrace
 10
161.2
 20
209.833333
 30
0.0
 11
161.2
 21
209.166667
 31
0.0
 12
159.2
 22
209.5
 32
0.0
 13
159.2
 23
209.5
 33
0.0
  0
MTEXT
  5
198
100
AcDbEntity
  8
0
  6
BYBLOCK
 62
     0
100
AcDbMText
 10
181.5
 20
209.5
 30
0.0
 40
4.0
 41
0.0
 71
     5
 72
     1
  1
\A1;47.6
  0
POINT
  5
199
100
AcDbEntity
  8
DEFPOINTS
  6
BYBLOCK
 62
     0
100
AcDbPoint
 10
206.8
 20
192.453961
 30
9.364146
  0
POINT
  5
19A
100
AcDbEntity
  8
DEFPOINTS
  6
BYBLOCK
 62
     0
100
AcDbPoint
 10
159.2
 20
192.453961
 30
9.364146
  0
POINT
  5
19B
100
AcDbEntity
  8
DEFPOINTS
  6
BYBLOCK
 62
     0
100
AcDbPoint
 10
159.2
 20
209.5
 30
0.0
  0
ENDBLK
  5
19D
100
AcDbEntity
  8
0
100
AcDbBlockEnd
  0
BLOCK
  5
1AA
100
AcDbEntity
  8
0
100
AcDbBlockBegin
  2
*D13
 70
     1
 10
0.0
 20
0.0
 30
0.0
  3
*D13
  1

  0
LINE
  5
19F
100
AcDbEntity
  8
0
  6
BYBLOCK
 62
     0
100
AcDbLine
 10
210.5
 20
161.953961
 30
0.0
 11
225.875
 21
161.953961
 31
0.0
  0
LINE
  5
1A0
100
AcDbEntity
  8
0
  6
BYBLOCK
 62
     0
100
AcDbLine
 10
213.0
 20
159.453961
 30
0.0
 11
225.875
 21
159.453961
 31
0.0
  0
LINE
  5
1A1
100
AcDbEntity
  8
0
  6
BYBLOCK
 62
     0
100
AcDbLine
 10
224.875
 20
157.453961
 30
0.0
 11
224.875
 21
155.453961
 31
0.0
  0
LINE
  5
1A2
100
AcDbEntity
  8
0
  6
BYBLOCK
 62
     0
100
AcDbLine
 10
224.875
 20
163.953961
 30
0.0
 11
224.875
 21
165.953961
 31
0.0
  0
LINE
  5
1A3
100
AcDbEntity
  8
0
  6
BYBLOCK
 62
     0
100
AcDbLine
 10
224.875
 20
165.953961
 30
0.0
 11
226.875
 21
165.953961
 31
0.0
  0
SOLID
  5
1A4
100
AcDbEntity
  8
0
  6
BYBLOCK
 62
     0
100
AcDbTrace
 10
224.541667
 20
157.453961
 30
0.0
 11
225.208333
 21
157.453961
 31
0.0
 12
224.875
 22
159.453961
 32
0.0
 13
224.875
 23
159.453961
 33
0.0
  0
SOLID
  5
1A5
100
AcDbEntity
  8
0
  6
BYBLOCK
 62
     0
100
AcDbTrace
 10
224.541667
 20
163.953961
 30
0.0
 11
225.208333
 21
163.953961
 31
0.0
 12
224.875
 22
161.953961
 32
0.0
 13
224.875
 23
161.953961
 33
0.0
  0
MTEXT
  5
1A6
100
AcDbEntity
  8
0
  6
BYBLOCK
 62
     0
100
AcDbMText
 10
231.5
 20
165.953961
 30
0.0
 40
4.0
 41
0.0
 71
     5
 72
     1
  1
\A1;2.5
  0
POINT
  5
1A7
100
AcDbEntity
  8
DEFPOINTS
  6
BYBLOCK
 62
     0
100
AcDbPoint
 10
209.5
 20
161.953961
 30
9.364146
  0
POINT
  5
1A8
100
AcDbEntity
  8
DEFPOINTS
  6
BYBLOCK
 62
     0
100
AcDbPoint
 10
212.0
 20
159.453961
 30
9.364146
  0
POINT
  5
1A9
100
AcDbEntity
  8
DEFPOINTS
  6
BYBLOCK
 62
     0
100
AcDbPoint
 10
224.875
 20
159.453961
 30
0.0
  0
ENDBLK
  5
1AB
100
AcDbEntity
  8
0
100
AcDbBlockEnd
  0
BLOCK
  5
1B8
100
AcDbEntity
  8
0
100
AcDbBlockBegin
  2
*D14
 70
     1
 10
0.0
 20
0.0
 30
0.0
  3
*D14
  1

  0
LINE
  5
1AD
100
AcDbEntity
  8
0
  6
BYBLOCK
 62
     0
100
AcDbLine
 10
211.5
 20
161.953961
 30
0.0
 11
238.375
 21
161.953961
 31
0.0
  0
LINE
  5
1AE
100
AcDbEntity
  8
0
  6
BYBLOCK
 62
     0
100
AcDbLine
 10
209.5
 20
155.453961
 30
0.0
 11
238.375
 21
155.453961
 31
0.0
  0
LINE
  5
1AF
100
AcDbEntity
  8
0
  6
BYBLOCK
 62
     0
100
AcDbLine
 10
237.375
 20
157.453961
 30
0.0
 11
237.375
 21
159.953961
 31
0.0
  0
LINE
  5
1B0
100
AcDbEntity
  8
0
  6
BYBLOCK
 62
     0
100
AcDbLine
 10
237.375
 20
161.953961
 30
0.0
 11
237.375
 21
165.0
 31
0.0
  0
LINE
  5
1B1
100
AcDbEntity
  8
0
  6
BYBLOCK
 62
     0
100
AcDbLine
 10
237.375
 20
165.0
 30
0.0
 11
239.375
 21
165.0
 31
0.0
  0
SOLID
  5
1B2
100
AcDbEntity
  8
0
  6
BYBLOCK
 62
     0
100
AcDbTrace
 10
237.041667
 20
157.453961
 30
0.0
 11
237.708333
 21
157.453961
 31
0.0
 12
237.375
 22
155.453961
 32
0.0
 13
237.375
 23
155.453961
 33
0.0
  0
SOLID
  5
1B3
100
AcDbEntity
  8
0
  6
BYBLOCK
 62
     0
100
AcDbTrace
 10
237.041667
 20
159.953961
 30
0.0
 11
237.708333
 21
159.953961
 31
0.0
 12
237.375
 22
161.953961
 32
0.0
 13
237.375
 23
161.953961
 33
0.0
  0
MTEXT
  5
1B4
100
AcDbEntity
  8
0
  6
BYBLOCK
 62
     0
100
AcDbMText
 10
244.0
 20
165.0
 30
0.0
 40
4.0
 41
0.0
 71
     5
 72
     1
  1
\A1;6.5
  0
POINT
  5
1B5
100
AcDbEntity
  8
DEFPOINTS
  6
BYBLOCK
 62
     0
100
AcDbPoint
 10
210.5
 20
161.953961
 30
0.0
  0
POINT
  5
1B6
100
AcDbEntity
  8
DEFPOINTS
  6
BYBLOCK
 62
     0
100
AcDbPoint
 10
208.5
 20
155.453961
 30
0.0
  0
POINT
  5
1B7
100
AcDbEntity
  8
DEFPOINTS
  6
BYBLOCK
 62
     0
100
AcDbPoint
 10
237.375
 20
155.453961
 30
0.0
  0
ENDBLK
  5
1B9
100
AcDbEntity
  8
0
100
AcDbBlockEnd
  0
BLOCK
  5
1C6
100
AcDbEntity
  8
0
100
AcDbBlockBegin
  2
*D15
 70
     1
 10
0.0
 20
0.0
 30
0.0
  3
*D15
  1

  0
LINE
  5
1BB
100
AcDbEntity
  8
0
  6
BYBLOCK
 62
     0
100
AcDbLine
 10
210.5
 20
161.953961
 30
0.0
 11
252.208333
 21
161.953961
 31
0.0
  0
LINE
  5
1BC
100
AcDbEntity
  8
0
  6
BYBLOCK
 62
     0
100
AcDbLine
 10
210.95
 20
150.453961
 30
0.0
 11
252.208333
 21
150.453961
 31
0.0
  0
LINE
  5
1BD
100
AcDbEntity
  8
0
  6
BYBLOCK
 62
     0
100
AcDbLine
 10
251.208333
 20
152.453961
 30
0.0
 11
251.208333
 21
159.953961
 31
0.0
  0
LINE
  5
1BE
100
AcDbEntity
  8
0
  6
BYBLOCK
 62
     0
100
AcDbLine
 10
251.208333
 20
161.953961
 30
0.0
 11
251.208333
 21
163.953961
 31
0.0
  0
LINE
  5
1BF
100
AcDbEntity
  8
0
  6
BYBLOCK
 62
     0
100
AcDbLine
 10
251.208333
 20
163.953961
 30
0.0
 11
253.208333
 21
163.953961
 31
0.0
  0
SOLID
  5
1C0
100
AcDbEntity
  8
0
  6
BYBLOCK
 62
     0
100
AcDbTrace
 10
250.875
 20
152.453961
 30
0.0
 11
251.541667
 21
152.453961
 31
0.0
 12
251.208333
 22
150.453961
 32
0.0
 13
251.208333
 23
150.453961
 33
0.0
  0
SOLID
  5
1C1
100
AcDbEntity
  8
0
  6
BYBLOCK
 62
     0
100
AcDbTrace
 10
250.875
 20
159.953961
 30
0.0
 11
251.541667
 21
159.953961
 31
0.0
 12
251.208333
 22
161.953961
 32
0.0
 13
251.208333
 23
161.953961
 33
0.0
  0
MTEXT
  5
1C2
100
AcDbEntity
  8
0
  6
BYBLOCK
 62
     0
100
AcDbMText
 10
258.5
 20
163.953961
 30
0.0
 40
4.0
 41
0.0
 71
     5
 72
     1
  1
\A1;11.5
  0
POINT
  5
1C3
100
AcDbEntity
  8
DEFPOINTS
  6
BYBLOCK
 62
     0
100
AcDbPoint
 10
209.5
 20
161.953961
 30
9.364146
  0
POINT
  5
1C4
100
AcDbEntity
  8
DEFPOINTS
  6
BYBLOCK
 62
     0
100
AcDbPoint
 10
209.95
 20
150.453961
 30
9.364146
  0
POINT
  5
1C5
100
AcDbEntity
  8
DEFPOINTS
  6
BYBLOCK
 62
     0
100
AcDbPoint
 10
251.208333
 20
150.453961
 30
0.0
  0
ENDBLK
  5
1C7
100
AcDbEntity
  8
0
100
AcDbBlockEnd
  0
BLOCK
  5
1D4
100
AcDbEntity
  8
0
100
AcDbBlockBegin
  2
*D16
 70
     1
 10
0.0
 20
0.0
 30
0.0
  3
*D16
  1

  0
LINE
  5
1C9
100
AcDbEntity
  8
0
  6
BYBLOCK
 62
     0
100
AcDbLine
 10
210.5
 20
161.953961
 30
0.0
 11
267.541667
 21
161.953961
 31
0.0
  0
LINE
  5
1CA
100
AcDbEntity
  8
0
  6
BYBLOCK
 62
     0
100
AcDbLine
 10
191.5
 20
143.453961
 30
0.0
 11
267.541667
 21
143.453961
 31
0.0
  0
LINE
  5
1CB
100
AcDbEntity
  8
0
  6
BYBLOCK
 62
     0
100
AcDbLine
 10
266.541667
 20
145.453961
 30
0.0
 11
266.541667
 21
159.953961
 31
0.0
  0
LINE
  5
1CC
100
AcDbEntity
  8
0
  6
BYBLOCK
 62
     0
100
AcDbLine
 10
266.541667
 20
161.953961
 30
0.0
 11
266.541667
 21
163.953961
 31
0.0
  0
LINE
  5
1CD
100
AcDbEntity
  8
0
  6
BYBLOCK
 62
     0
100
AcDbLine
 10
266.541667
 20
163.953961
 30
0.0
 11
268.541667
 21
163.953961
 31
0.0
  0
SOLID
  5
1CE
100
AcDbEntity
  8
0
  6
BYBLOCK
 62
     0
100
AcDbTrace
 10
266.208333
 20
145.453961
 30
0.0
 11
266.875
 21
145.453961
 31
0.0
 12
266.541667
 22
143.453961
 32
0.0
 13
266.541667
 23
143.453961
 33
0.0
  0
SOLID
  5
1CF
100
AcDbEntity
  8
0
  6
BYBLOCK
 62
     0
100
AcDbTrace
 10
266.208333
 20
159.953961
 30
0.0
 11
266.875
 21
159.953961
 31
0.0
 12
266.541667
 22
161.953961
 32
0.0
 13
266.541667
 23
161.953961
 33
0.0
  0
MTEXT
  5
1D0
100
AcDbEntity
  8
0
  6
BYBLOCK
 62
     0
100
AcDbMText
 10
274.5
 20
163.953961
 30
0.0
 40
4.0
 41
0.0
 71
     5
 72
     1
  1
\A1;18.5
  0
POINT
  5
1D1
100
AcDbEntity
  8
DEFPOINTS
  6
BYBLOCK
 62
     0
100
AcDbPoint
 10
209.5
 20
161.953961
 30
9.364146
  0
POINT
  5
1D2
100
AcDbEntity
  8
DEFPOINTS
  6
BYBLOCK
 62
     0
100
AcDbPoint
 10
190.5
 20
143.453961
 30
9.364146
  0
POINT
  5
1D3
100
AcDbEntity
  8
DEFPOINTS
  6
BYBLOCK
 62
     0
100
AcDbPoint
 10
266.541667
 20
143.453961
 30
0.0
  0
ENDBLK
  5
1D5
100
AcDbEntity
  8
0
100
AcDbBlockEnd
  0
BLOCK
  5
2AB
100
AcDbEntity
  8
0
100
AcDbBlockBegin
  2
A$C6DC837BF
 70
     0
 10
0.0
 20
0.0
 30
0.0
  3
A$C6DC837BF
  1

  0
DIMENSION
  5
1DB
100
AcDbEntity
  8
0
100
AcDbDimension
  2
*D16
 10
254.969631
 20
97.408837
 30
10.636095
 11
262.927964
 21
117.908837
 31
10.636095
 12
-11.572036
 22
-46.045124
 32
10.636095
 70
   128
  3
STANDARD
100
AcDbAlignedDimension
 13
197.927964
 23
115.908837
 33
20.000241
 14
178.927964
 24
97.408837
 34
20.000241
 50
90.0
100
AcDbRotatedDimension
1001
ACAD
1000
DSTYLE
1002
{
1070
   140
1040
4.0
1070
    77
1070
     0
1070
    40
1040
1.0
1070
   141
1040
0.0
1070
    41
1040
2.0
1002
}
  0
DIMENSION
  5
1DC
100
AcDbEntity
  8
0
100
AcDbDimension
  2
*D12
 10
147.627964
 20
132.954876
 30
10.636095
 11
169.927964
 21
132.954876
 31
10.636095
 12
-11.572036
 22
-76.545124
 32
10.636095
 70
   128
  3
STANDARD
100
AcDbAlignedDimension
 13
195.227964
 23
115.908837
 33
20.000241
 14
147.627964
 24
115.908837
 34
20.000241
100
AcDbRotatedDimension
1001
ACAD
1000
DSTYLE
1002
{
1070
   140
1040
4.0
1070
    77
1070
     0
1070
    40
1040
1.0
1070
   141
1040
0.0
1070
    41
1040
2.0
1002
}
  0
DIMENSION
  5
1DD
100
AcDbEntity
  8
0
100
AcDbDimension
  2
*D11
 10
142.746397
 20
138.954876
 30
10.636095
 11
170.927964
 21
138.954876
 31
10.636095
 12
-11.572036
 22
-76.545124
 32
10.636095
 70
   128
  1
58
  3
STANDARD
100
AcDbAlignedDimension
 13
200.427964
 23
113.408837
 33
20.000241
 14
142.746397
 24
113.408837
 34
10.636095
100
AcDbRotatedDimension
1001
ACAD
1000
DSTYLE
1002
{
1070
   140
1040
4.0
1070
    77
1070
     0
1070
    40
1040
1.0
1070
   141
1040
0.0
1070
    41
1040
2.0
1002
}
  0
DIMENSION
  5
1DE
100
AcDbEntity
  8
0
100
AcDbDimension
  2
*D10
 10
147.427964
 20
90.454876
 30
10.636095
 11
171.427964
 21
90.454876
 31
10.636095
 12
-11.572036
 22
-76.545124
 32
10.636095
 70
   128
  3
STANDARD
100
AcDbAlignedDimension
 13
196.427964
 23
102.954876
 33
10.636095
 14
147.427964
 24
102.954876
 34
10.636095
100
AcDbRotatedDimension
1001
ACAD
1000
DSTYLE
1002
{
1070
   140
1040
4.0
1070
    77
1070
     0
1070
    40
1040
1.0
1070
   141
1040
0.0
1070
    41
1040
2.0
1002
}
  0
DIMENSION
  5
1DF
100
AcDbEntity
  8
0
100
AcDbDimension
  2
*D9
 10
144.977964
 20
81.454876
 30
10.636095
 11
172.427964
 21
81.454876
 31
10.636095
 12
-12.072036
 22
-76.545124
 32
10.636095
 70
   128
  3
STANDARD
100
AcDbAlignedDimension
 13
198.877964
 23
104.408837
 33
10.636095
 14
144.977964
 24
104.408837
 34
10.636095
100
AcDbRotatedDimension
1001
ACAD
1000
DSTYLE
1002
{
1070
   140
1040
4.0
1070
    77
1070
     0
1070
    40
1040
1.0
1070
   141
1040
0.0
1070
    41
1040
2.0
1002
}
  0
ARC
  5
1E0
100
AcDbEntity
  8
3
100
AcDbCircle
 10
171.427964
 20
187.408837
 30
20.000241
 40
23.8
100
AcDbArc
 50
180.0
 51
0.0
  0
ARC
  5
1E1
100
AcDbEntity
  8
2
100
AcDbCircle
 10
171.427964
 20
187.408837
 30
20.000241
 40
26.95
100
AcDbArc
 50
180.0
 51
0.0
  0
LINE
  5
1E2
100
AcDbEntity
  8
1
100
AcDbLine
 10
203.427964
 20
187.408837
 30
20.000241
 11
140.927964
 21
187.408837
 31
20.000241
  0
ARC
  5
1E3
100
AcDbEntity
  8
2
100
AcDbCircle
 10
171.427964
 20
187.408837
 30
20.000241
 40
24.5
100
AcDbArc
 50
0.0
 51
180.0
  0
ARC
  5
1E4
100
AcDbEntity
  8
3
100
AcDbCircle
 10
171.427964
 20
187.408837
 30
20.000241
 40
23.8
100
AcDbArc
 50
0.0
 51
180.0
  0
CIRCLE
  5
1E5
100
AcDbEntity
  8
3
100
AcDbCircle
 10
171.427964
 20
187.408837
 30
20.000241
 40
29.0
  0
ARC
  5
1E6
100
AcDbEntity
  8
2
100
AcDbCircle
 10
171.427964
 20
187.408837
 30
20.000241
 40
26.95
100
AcDbArc
 50
0.0
 51
180.0
  0
ARC
  5
1E7
100
AcDbEntity
  8
2
100
AcDbCircle
 10
171.427964
 20
187.408837
 30
20.000241
 40
24.5
100
AcDbArc
 50
287.825706
 51
0.0
  0
LINE
  5
1E8
100
AcDbEntity
  8
2
100
AcDbLine
 10
178.927964
 20
109.408837
 30
20.000241
 11
195.927964
 21
109.408837
 31
20.000241
  0
LINE
  5
1E9
100
AcDbEntity
  8
3
100
AcDbLine
 10
195.927964
 20
104.408837
 30
20.000241
 11
178.927964
 21
104.408837
 31
20.000241
  0
LINE
  5
1EA
100
AcDbEntity
  8
3
100
AcDbLine
 10
195.227964
 20
115.908837
 30
20.000241
 11
171.427964
 21
115.908837
 31
20.000241
  0
LINE
  5
1EB
100
AcDbEntity
  8
3
100
AcDbLine
 10
198.377964
 20
113.408837
 30
20.000241
 11
147.627964
 21
113.408837
 31
20.000241
  0
DIMENSION
  5
1EC
100
AcDbEntity
  8
0
100
AcDbDimension
  2
*D0
 10
232.204512
 20
53.908837
 30
10.636095
 11
232.204512
 21
58.161994
 31
10.636095
 12
-11.572036
 22
-76.045124
 32
10.636095
 70
   128
  1
8
  3
STANDARD
100
AcDbAlignedDimension
 13
171.427964
 23
61.858837
 33
20.000241
 14
171.427964
 24
53.908837
 34
20.000241
 50
90.0
100
AcDbRotatedDimension
1001
ACAD
1000
DSTYLE
1002
{
1070
    78
1070
     8
1070
   288
1070
     1
1070
   284
1070
     8
1070
   140
1040
5.0
1070
    73
1070
     0
1070
   272
1070
     2
1070
    42
1040
1.0
1070
    44
1040
1.0
1070
   271
1070
     2
1070
    41
1040
2.0
1002
}
  0
LINE
  5
1ED
100
AcDbEntity
  8
1
100
AcDbLine
 10
139.427964
 20
34.908837
 30
20.000241
 11
201.927964
 21
34.908837
 31
20.000241
  0
ARC
  5
1EE
100
AcDbEntity
  8
2
100
AcDbCircle
 10
171.427964
 20
34.908837
 30
20.000241
 40
23.8
100
AcDbArc
 50
0.0
 51
180.0
  0
ARC
  5
1EF
100
AcDbEntity
  8
3
100
AcDbCircle
 10
171.427964
 20
34.908837
 30
20.000241
 40
26.95
100
AcDbArc
 50
0.0
 51
180.0
  0
ARC
  5
1F0
100
AcDbEntity
  8
3
100
AcDbCircle
 10
171.427964
 20
34.908837
 30
20.000241
 40
24.5
100
AcDbArc
 50
107.825706
 51
72.174294
  0
ARC
  5
1F1
100
AcDbEntity
  8
2
100
AcDbCircle
 10
171.427964
 20
34.908837
 30
20.000241
 40
23.8
100
AcDbArc
 50
180.0
 51
0.0
  0
ARC
  5
1F2
100
AcDbEntity
  8
3
100
AcDbCircle
 10
171.427964
 20
34.908837
 30
20.000241
 40
26.95
100
AcDbArc
 50
180.0
 51
0.0
  0
CIRCLE
  5
1F3
100
AcDbEntity
  8
3
100
AcDbCircle
 10
171.427964
 20
34.908837
 30
20.000241
 40
29.0
  0
LINE
  5
1F4
100
AcDbEntity
  8
0
100
AcDbLine
 10
98.847964
 20
0.0
 30
10.636095
 11
382.577964
 21
0.0
 31
10.636095
  0
DIMENSION
  5
1F5
100
AcDbEntity
  8
0
100
AcDbDimension
  2
*D8
 10
178.927964
 20
70.954876
 30
10.636095
 11
171.927964
 21
70.954876
 31
10.636095
 12
-11.572036
 22
-60.045124
 32
10.636095
 70
   128
  3
STANDARD
100
AcDbAlignedDimension
 13
163.927964
 23
60.794209
 33
20.000241
 14
178.927964
 24
60.794209
 34
20.000241
100
AcDbRotatedDimension
1001
ACAD
1000
DSTYLE
1002
{
1070
   140
1040
4.0
1070
    77
1070
     0
1070
    40
1040
1.0
1070
   141
1040
0.0
1070
    41
1040
2.0
1002
}
  0
DIMENSION
  5
1F6
100
AcDbEntity
  8
0
100
AcDbDimension
  2
*D7
 10
171.427964
 20
34.908837
 30
20.000241
 11
180.725287
 21
26.954876
 31
10.636095
 12
-11.572036
 22
-60.045124
 32
10.636095
 70
   132
  3
STANDARD
100
AcDbRadialDimension
 15
166.782376
 25
53.332151
 35
20.000241
 40
0.0
1001
ACAD
1000
DSTYLE
1002
{
1070
   140
1040
4.0
1070
    77
1070
     0
1070
    40
1040
1.0
1070
   287
1070
     4
1070
   141
1040
0.0
1070
    41
1040
2.0
1002
}
  0
DIMENSION
  5
1F7
100
AcDbEntity
  8
0
100
AcDbDimension
  2
*D6
 10
171.427964
 20
34.908837
 30
20.000241
 11
111.802594
 21
33.467463
 31
10.636095
 12
-11.572036
 22
-60.045124
 32
10.636095
 70
   132
  3
STANDARD
100
AcDbRadialDimension
 15
147.638254
 25
34.209049
 35
20.000241
 40
0.0
1001
ACAD
1000
DSTYLE
1002
{
1070
   140
1040
4.0
1070
    77
1070
     0
1070
    40
1040
1.0
1070
   141
1040
0.0
1070
    41
1040
2.0
1002
}
  0
DIMENSION
  5
1F8
100
AcDbEntity
  8
0
100
AcDbDimension
  2
*D5
 10
171.427964
 20
34.908837
 30
20.000241
 11
103.291133
 21
44.886679
 31
10.636095
 12
-11.572036
 22
-60.045124
 32
10.636095
 70
   132
  3
STANDARD
100
AcDbRadialDimension
 15
147.288563
 25
39.09683
 35
20.000241
 40
0.0
1001
ACAD
1000
DSTYLE
1002
{
1070
   140
1040
4.0
1070
    77
1070
     0
1070
    40
1040
1.0
1070
   141
1040
0.0
1070
    41
1040
2.0
1002
}
  0
DIMENSION
  5
1F9
100
AcDbEntity
  8
0
100
AcDbDimension
  2
*D4
 10
171.427964
 20
34.908837
 30
20.000241
 11
99.718757
 21
58.454876
 31
10.636095
 12
-11.572036
 22
-60.045124
 32
10.636095
 70
   132
  3
STANDARD
100
AcDbRadialDimension
 15
145.470694
 25
42.156085
 35
20.000241
 40
0.0
1001
ACAD
1000
DSTYLE
1002
{
1070
   140
1040
4.0
1070
    77
1070
     0
1070
    40
1040
1.0
1070
   141
1040
0.0
1070
    41
1040
2.0
1002
}
  0
DIMENSION
  5
1FA
100
AcDbEntity
  8
0
100
AcDbDimension
  2
*D3
 10
171.427964
 20
34.908837
 30
20.000241
 11
124.467141
 21
61.454876
 31
10.636095
 12
-11.572036
 22
-60.045124
 32
10.636095
 70
   132
  3
STANDARD
100
AcDbRadialDimension
 15
145.318176
 25
47.529414
 35
20.000241
 40
0.0
1001
ACAD
1000
DSTYLE
1002
{
1070
   140
1040
4.0
1070
    77
1070
     0
1070
    40
1040
1.0
1070
   141
1040
0.0
1070
    41
1040
2.0
1002
}
  0
LINE
  5
1FB
100
AcDbEntity
  8
1
100
AcDbLine
 10
171.427964
 20
0.908837
 30
20.000241
 11
171.427964
 21
67.908837
 31
20.000241
  0
ARC
  5
1FC
100
AcDbEntity
  8
3
100
AcDbCircle
 10
171.427964
 20
34.908837
 30
20.000241
 40
19.0
100
AcDbArc
 50
66.750437
 51
113.249563
  0
LINE
  5
1FD
100
AcDbEntity
  8
3
100
AcDbLine
 10
163.927964
 20
60.794209
 30
20.000241
 11
163.927964
 21
52.365927
 31
20.000241
  0
LINE
  5
1FE
100
AcDbEntity
  8
3
100
AcDbLine
 10
178.927964
 20
60.794209
 30
20.000241
 11
178.927964
 21
52.365927
 31
20.000241
  0
ARC
  5
1FF
100
AcDbEntity
  8
2
100
AcDbCircle
 10
58.358386
 20
112.377577
 30
10.636095
 40
6.302395
100
AcDbArc
 50
7.457906
 51
98.828954
  0
LINE
  5
200
100
AcDbEntity
  8
2
100
AcDbLine
 10
50.776024
 20
118.605295
 30
10.636095
 11
57.391062
 21
118.605295
 31
10.636095
  0
MTEXT
  5
201
102
{ACAD_REACTORS
330
224
102
}
100
AcDbEntity
  8
0
100
AcDbMText
 10
124.802964
 20
126.454876
 30
10.636095
 40
4.0
 41
0.0
 71
     6
 72
     1
  1
\A1;R2.5
  0
LEADER
  5
202
100
AcDbEntity
  8
0
100
AcDbLeader
  3
STANDARD
 76
     3
 10
63.519465
 20
118.399664
 30
10.636095
 10
68.338314
 20
123.90425
 30
10.636095
 10
96.563003
 20
123.90425
 30
10.636095
 77
   256
1001
ACAD
1000
DSTYLE
1002
{
1070
    78
1070
     8
1070
   288
1070
     1
1070
   284
1070
     8
1070
   140
1040
5.0
1070
    73
1070
     0
1070
   272
1070
     2
1070
    42
1040
1.0
1070
    44
1040
1.0
1070
   271
1070
     2
1070
    41
1040
2.0
1002
}
  0
TEXT
  5
203
100
AcDbEntity
  8
0
100
AcDbText
 10
68.338314
 20
125.96847
 30
10.636095
 40
5.0
  1
ワックス磨き。
 41
0.7
  7
BIGFONT
100
AcDbText
  0
MTEXT
  5
204
102
{ACAD_REACTORS
330
205
102
}
100
AcDbEntity
  8
0
100
AcDbMText
 10
158.396314
 20
124.814132
 30
10.636095
 40
5.0
 41
0.0
 71
     4
 72
     1
  1
\A1;C0.5
  0
LEADER
  5
205
100
AcDbEntity
  8
0
100
AcDbLeader
  3
STANDARD
 73
     0
 40
5.0
 41
14.166667
 76
     3
 10
147.983806
 20
115.970555
 30
10.636095
 10
157.716458
 20
124.814132
 30
10.636095
 10
158.306314
 20
124.814132
 30
10.636095
 77
   256
340
204
1001
ACAD
1000
DSTYLE
1002
{
1070
    78
1070
     8
1070
   288
1070
     1
1070
   284
1070
     8
1070
   140
1040
5.0
1070
    73
1070
     0
1070
   272
1070
     2
1070
    42
1040
1.0
1070
    44
1040
1.0
1070
   271
1070
     2
1070
    41
1040
2.0
1002
}
  0
LINE
  5
206
100
AcDbEntity
  8
0
100
AcDbLine
 10
154.6563
 20
109.408837
 30
10.636095
 11
158.6563
 21
113.408837
 31
10.636095
  0
LINE
  5
207
100
AcDbEntity
  8
0
100
AcDbLine
 10
154.12597
 20
109.408837
 30
10.636095
 11
158.12597
 21
113.408837
 31
10.636095
  0
LINE
  5
208
100
AcDbEntity
  8
0
100
AcDbLine
 10
153.59564
 20
109.408837
 30
10.636095
 11
157.59564
 21
113.408837
 31
10.636095
  0
LINE
  5
209
100
AcDbEntity
  8
0
100
AcDbLine
 10
153.065309
 20
109.408837
 30
10.636095
 11
157.065309
 21
113.408837
 31
10.636095
  0
LINE
  5
20A
100
AcDbEntity
  8
0
100
AcDbLine
 10
152.534979
 20
109.408837
 30
10.636095
 11
156.534979
 21
113.408837
 31
10.636095
  0
LINE
  5
20B
100
AcDbEntity
  8
0
100
AcDbLine
 10
152.004649
 20
109.408837
 30
10.636095
 11
156.004649
 21
113.408837
 31
10.636095
  0
LINE
  5
20C
100
AcDbEntity
  8
0
100
AcDbLine
 10
151.474319
 20
109.408837
 30
10.636095
 11
155.474319
 21
113.408837
 31
10.636095
  0
LINE
  5
20D
100
AcDbEntity
  8
0
100
AcDbLine
 10
150.943989
 20
109.408837
 30
10.636095
 11
154.943989
 21
113.408837
 31
10.636095
  0
LINE
  5
20E
100
AcDbEntity
  8
0
100
AcDbLine
 10
150.413659
 20
109.408837
 30
10.636095
 11
154.413659
 21
113.408837
 31
10.636095
  0
LINE
  5
20F
100
AcDbEntity
  8
0
100
AcDbLine
 10
149.883329
 20
109.408837
 30
10.636095
 11
153.883329
 21
113.408837
 31
10.636095
  0
LINE
  5
210
100
AcDbEntity
  8
0
100
AcDbLine
 10
149.352999
 20
109.408837
 30
10.636095
 11
153.352999
 21
113.408837
 31
10.636095
  0
LINE
  5
211
100
AcDbEntity
  8
0
100
AcDbLine
 10
148.822669
 20
109.408837
 30
10.636095
 11
152.822669
 21
113.408837
 31
10.636095
  0
LINE
  5
212
100
AcDbEntity
  8
0
100
AcDbLine
 10
148.292339
 20
109.408837
 30
10.636095
 11
152.292339
 21
113.408837
 31
10.636095
  0
LINE
  5
213
100
AcDbEntity
  8
0
100
AcDbLine
 10
147.762009
 20
109.408837
 30
10.636095
 11
151.762009
 21
113.408837
 31
10.636095
  0
LINE
  5
214
100
AcDbEntity
  8
0
100
AcDbLine
 10
144.477964
 20
107.185453
 30
10.636095
 11
150.701348
 21
113.408837
 31
10.636095
  0
LINE
  5
215
100
AcDbEntity
  8
0
100
AcDbLine
 10
144.477964
 20
107.715783
 30
10.636095
 11
150.171018
 21
113.408837
 31
10.636095
  0
LINE
  5
216
100
AcDbEntity
  8
0
100
AcDbLine
 10
144.477964
 20
108.246113
 30
10.636095
 11
149.640688
 21
113.408837
 31
10.636095
  0
LINE
  5
217
100
AcDbEntity
  8
0
100
AcDbLine
 10
144.477964
 20
108.776443
 30
10.636095
 11
149.110358
 21
113.408837
 31
10.636095
  0
LINE
  5
218
100
AcDbEntity
  8
0
100
AcDbLine
 10
144.477964
 20
109.306773
 30
10.636095
 11
148.580028
 21
113.408837
 31
10.636095
  0
LINE
  5
219
100
AcDbEntity
  8
0
100
AcDbLine
 10
144.477964
 20
109.837103
 30
10.636095
 11
148.049698
 21
113.408837
 31
10.636095
  0
LINE
  5
21A
100
AcDbEntity
  8
0
100
AcDbLine
 10
147.231679
 20
109.408837
 30
10.636095
 11
151.231679
 21
113.408837
 31
10.636095
  0
LINE
  5
21B
100
AcDbEntity
  8
0
100
AcDbLine
 10
146.474319
 20
104.408837
 30
10.636095
 11
146.927964
 21
104.862482
 31
10.636095
  0
LINE
  5
21C
100
AcDbEntity
  8
0
100
AcDbLine
 10
145.943989
 20
104.408837
 30
10.636095
 11
146.927964
 21
105.392812
 31
10.636095
  0
LINE
  5
21D
100
AcDbEntity
  8
0
100
AcDbLine
 10
145.413659
 20
104.408837
 30
10.636095
 11
146.927964
 21
105.923142
 31
10.636095
  0
LINE
  5
21E
100
AcDbEntity
  8
0
100
AcDbLine
 10
144.883329
 20
104.408837
 30
10.636095
 11
146.927964
 21
106.453472
 31
10.636095
  0
LINE
  5
21F
100
AcDbEntity
  8
0
100
AcDbLine
 10
144.477964
 20
104.533802
 30
10.636095
 11
146.927964
 21
106.983802
 31
10.636095
  0
LINE
  5
220
100
AcDbEntity
  8
0
100
AcDbLine
 10
144.477964
 20
105.064133
 30
10.636095
 11
146.927964
 21
107.514133
 31
10.636095
  0
LINE
  5
221
100
AcDbEntity
  8
0
100
AcDbLine
 10
144.477964
 20
105.594463
 30
10.636095
 11
146.927964
 21
108.044463
 31
10.636095
  0
LINE
  5
222
100
AcDbEntity
  8
0
100
AcDbLine
 10
144.477964
 20
106.124793
 30
10.636095
 11
146.927964
 21
108.574793
 31
10.636095
  0
LINE
  5
223
100
AcDbEntity
  8
0
100
AcDbLine
 10
144.477964
 20
106.655123
 30
10.636095
 11
146.927964
 21
109.105123
 31
10.636095
  0
LEADER
  5
224
100
AcDbEntity
  8
0
100
AcDbLeader
  3
STANDARD
 73
     0
 75
     1
 40
4.0
 41
12.0
 76
     3
 10
142.927964
 20
115.954876
 30
10.636095
 10
126.892964
 20
126.454876
 30
10.636095
 10
124.892964
 20
126.454876
 30
10.636095
 77
   256
340
201
1001
ACAD
1000
DSTYLE
1002
{
1070
   140
1040
4.0
1070
    77
1070
     0
1070
    40
1040
1.0
1070
   141
1040
0.0
1070
    41
1040
2.0
1002
}
  0
LINE
  5
225
100
AcDbEntity
  8
0
100
AcDbLine
 10
144.477964
 20
111.958424
 30
10.636095
 11
147.627964
 21
115.108424
 31
10.636095
  0
LINE
  5
226
100
AcDbEntity
  8
0
100
AcDbLine
 10
144.477964
 20
112.488754
 30
10.636095
 11
147.627964
 21
115.638754
 31
10.636095
  0
LINE
  5
227
100
AcDbEntity
  8
0
100
AcDbLine
 10
144.477964
 20
113.019084
 30
10.636095
 11
147.367717
 21
115.908837
 31
10.636095
  0
LINE
  5
228
100
AcDbEntity
  8
0
100
AcDbLine
 10
144.477964
 20
110.367433
 30
10.636095
 11
147.627964
 21
113.517433
 31
10.636095
  0
LINE
  5
229
100
AcDbEntity
  8
0
100
AcDbLine
 10
144.477964
 20
110.897764
 30
10.636095
 11
147.627964
 21
114.047764
 31
10.636095
  0
LINE
  5
22A
100
AcDbEntity
  8
0
100
AcDbLine
 10
144.477964
 20
111.428094
 30
10.636095
 11
147.627964
 21
114.578094
 31
10.636095
  0
LINE
  5
22B
100
AcDbEntity
  8
0
100
AcDbLine
 10
142.746397
 20
113.408837
 30
10.636095
 11
145.246397
 21
115.908837
 31
10.636095
  0
LINE
  5
22C
100
AcDbEntity
  8
0
100
AcDbLine
 10
142.437819
 20
113.630588
 30
10.636095
 11
144.706213
 21
115.898983
 31
10.636095
  0
LINE
  5
22D
100
AcDbEntity
  8
0
100
AcDbLine
 10
142.601875
 20
114.324975
 30
10.636095
 11
144.011826
 21
115.734926
 31
10.636095
  0
LINE
  5
22E
100
AcDbEntity
  8
0
100
AcDbLine
 10
144.337387
 20
113.408837
 30
10.636095
 11
146.837387
 21
115.908837
 31
10.636095
  0
LINE
  5
22F
100
AcDbEntity
  8
0
100
AcDbLine
 10
143.807057
 20
113.408837
 30
10.636095
 11
146.307057
 21
115.908837
 31
10.636095
  0
LINE
  5
230
100
AcDbEntity
  8
0
100
AcDbLine
 10
143.276727
 20
113.408837
 30
10.636095
 11
145.776727
 21
115.908837
 31
10.636095
  0
LINE
  5
231
100
AcDbEntity
  8
0
100
AcDbLine
 10
170.566202
 20
109.408837
 30
10.636095
 11
171.427964
 21
110.270599
 31
10.636095
  0
LINE
  5
232
100
AcDbEntity
  8
0
100
AcDbLine
 10
170.035872
 20
109.408837
 30
10.636095
 11
171.427964
 21
110.800929
 31
10.636095
  0
LINE
  5
233
100
AcDbEntity
  8
0
100
AcDbLine
 10
169.505542
 20
109.408837
 30
10.636095
 11
171.427964
 21
111.331259
 31
10.636095
  0
LINE
  5
234
100
AcDbEntity
  8
0
100
AcDbLine
 10
167.914552
 20
109.408837
 30
10.636095
 11
171.427964
 21
112.922249
 31
10.636095
  0
LINE
  5
235
100
AcDbEntity
  8
0
100
AcDbLine
 10
167.384222
 20
109.408837
 30
10.636095
 11
171.384222
 21
113.408837
 31
10.636095
  0
LINE
  5
236
100
AcDbEntity
  8
0
100
AcDbLine
 10
166.853892
 20
109.408837
 30
10.636095
 11
170.853892
 21
113.408837
 31
10.636095
  0
LINE
  5
237
100
AcDbEntity
  8
0
100
AcDbLine
 10
166.323562
 20
109.408837
 30
10.636095
 11
170.323562
 21
113.408837
 31
10.636095
  0
LINE
  5
238
100
AcDbEntity
  8
0
100
AcDbLine
 10
165.793232
 20
109.408837
 30
10.636095
 11
169.793232
 21
113.408837
 31
10.636095
  0
LINE
  5
239
100
AcDbEntity
  8
0
100
AcDbLine
 10
165.262901
 20
109.408837
 30
10.636095
 11
169.262901
 21
113.408837
 31
10.636095
  0
LINE
  5
23A
100
AcDbEntity
  8
0
100
AcDbLine
 10
164.732571
 20
109.408837
 30
10.636095
 11
168.732571
 21
113.408837
 31
10.636095
  0
LINE
  5
23B
100
AcDbEntity
  8
0
100
AcDbLine
 10
164.202241
 20
109.408837
 30
10.636095
 11
168.202241
 21
113.408837
 31
10.636095
  0
LINE
  5
23C
100
AcDbEntity
  8
0
100
AcDbLine
 10
163.671911
 20
109.408837
 30
10.636095
 11
167.671911
 21
113.408837
 31
10.636095
  0
LINE
  5
23D
100
AcDbEntity
  8
0
100
AcDbLine
 10
163.141581
 20
109.408837
 30
10.636095
 11
167.141581
 21
113.408837
 31
10.636095
  0
LINE
  5
23E
100
AcDbEntity
  8
0
100
AcDbLine
 10
162.611251
 20
109.408837
 30
10.636095
 11
166.611251
 21
113.408837
 31
10.636095
  0
LINE
  5
23F
100
AcDbEntity
  8
0
100
AcDbLine
 10
168.975212
 20
109.408837
 30
10.636095
 11
171.427964
 21
111.861589
 31
10.636095
  0
LINE
  5
240
100
AcDbEntity
  8
0
100
AcDbLine
 10
168.444882
 20
109.408837
 30
10.636095
 11
171.427964
 21
112.391919
 31
10.636095
  0
LINE
  5
241
100
AcDbEntity
  8
0
100
AcDbLine
 10
156.77762
 20
109.408837
 30
10.636095
 11
160.77762
 21
113.408837
 31
10.636095
  0
LINE
  5
242
100
AcDbEntity
  8
0
100
AcDbLine
 10
156.24729
 20
109.408837
 30
10.636095
 11
160.24729
 21
113.408837
 31
10.636095
  0
LINE
  5
243
100
AcDbEntity
  8
0
100
AcDbLine
 10
155.71696
 20
109.408837
 30
10.636095
 11
159.71696
 21
113.408837
 31
10.636095
  0
LINE
  5
244
100
AcDbEntity
  8
0
100
AcDbLine
 10
155.18663
 20
109.408837
 30
10.636095
 11
159.18663
 21
113.408837
 31
10.636095
  0
LINE
  5
245
100
AcDbEntity
  8
0
100
AcDbLine
 10
158.36861
 20
109.408837
 30
10.636095
 11
162.36861
 21
113.408837
 31
10.636095
  0
LINE
  5
246
100
AcDbEntity
  8
0
100
AcDbLine
 10
157.83828
 20
109.408837
 30
10.636095
 11
161.83828
 21
113.408837
 31
10.636095
  0
LINE
  5
247
100
AcDbEntity
  8
0
100
AcDbLine
 10
157.30795
 20
109.408837
 30
10.636095
 11
161.30795
 21
113.408837
 31
10.636095
  0
LINE
  5
248
100
AcDbEntity
  8
0
100
AcDbLine
 10
162.080921
 20
109.408837
 30
10.636095
 11
166.080921
 21
113.408837
 31
10.636095
  0
LINE
  5
249
100
AcDbEntity
  8
0
100
AcDbLine
 10
161.550591
 20
109.408837
 30
10.636095
 11
165.550591
 21
113.408837
 31
10.636095
  0
LINE
  5
24A
100
AcDbEntity
  8
0
100
AcDbLine
 10
161.020261
 20
109.408837
 30
10.636095
 11
165.020261
 21
113.408837
 31
10.636095
  0
LINE
  5
24B
100
AcDbEntity
  8
0
100
AcDbLine
 10
160.489931
 20
109.408837
 30
10.636095
 11
164.489931
 21
113.408837
 31
10.636095
  0
LINE
  5
24C
100
AcDbEntity
  8
0
100
AcDbLine
 10
159.959601
 20
109.408837
 30
10.636095
 11
163.959601
 21
113.408837
 31
10.636095
  0
LINE
  5
24D
100
AcDbEntity
  8
0
100
AcDbLine
 10
159.42927
 20
109.408837
 30
10.636095
 11
163.42927
 21
113.408837
 31
10.636095
  0
LINE
  5
24E
100
AcDbEntity
  8
0
100
AcDbLine
 10
158.89894
 20
109.408837
 30
10.636095
 11
162.89894
 21
113.408837
 31
10.636095
  0
LINE
  5
24F
100
AcDbEntity
  8
0
100
AcDbLine
 10
171.096532
 20
109.408837
 30
10.636095
 11
171.427964
 21
109.740269
 31
10.636095
  0
LINE
  5
250
100
AcDbEntity
  8
3
100
AcDbLine
 10
0.977964
 20
113.408837
 30
20.000241
 11
-1.072036
 21
113.408837
 31
20.000241
  0
ARC
  5
251
100
AcDbEntity
  8
3
100
AcDbCircle
 10
1.427964
 20
113.408837
 30
20.000241
 40
2.5
100
AcDbArc
 50
90.0
 51
180.0
  0
LINE
  5
252
100
AcDbEntity
  8
3
100
AcDbLine
 10
27.927964
 20
113.408837
 30
20.000241
 11
51.727964
 21
113.408837
 31
20.000241
  0
LINE
  5
253
100
AcDbEntity
  8
2
100
AcDbLine
 10
10.470874
 20
109.408837
 30
20.000241
 11
52.427964
 21
109.408837
 31
20.000241
  0
LINE
  5
254
100
AcDbEntity
  8
3
100
AcDbLine
 10
51.727964
 20
115.908837
 30
20.000241
 11
4.127964
 21
115.908837
 31
20.000241
  0
LINE
  5
255
100
AcDbEntity
  8
3
100
AcDbLine
 10
52.427964
 20
104.408837
 30
20.000241
 11
10.470874
 21
104.408837
 31
20.000241
  0
LINE
  5
256
100
AcDbEntity
  8
1
100
AcDbLine
 10
27.927964
 20
117.908837
 30
20.000241
 11
27.927964
 21
93.908837
 31
20.000241
  0
LINE
  5
257
100
AcDbEntity
  8
3
100
AcDbLine
 10
0.977964
 20
113.408837
 30
20.000241
 11
0.977964
 21
97.408837
 31
20.000241
  0
LINE
  5
258
100
AcDbEntity
  8
3
100
AcDbLine
 10
10.470874
 20
104.408837
 30
20.000241
 11
10.470874
 21
97.408837
 31
20.000241
  0
LINE
  5
259
100
AcDbEntity
  8
2
100
AcDbLine
 10
8.927964
 20
109.408837
 30
20.000241
 11
8.927964
 21
97.408837
 31
20.000241
  0
LINE
  5
25A
100
AcDbEntity
  8
3
100
AcDbLine
 10
10.470874
 20
97.408837
 30
20.000241
 11
0.927964
 21
97.408837
 31
20.000241
  0
LINE
  5
25B
100
AcDbEntity
  8
3
100
AcDbLine
 10
10.470874
 20
104.408837
 30
20.000241
 11
0.977964
 21
104.408837
 31
20.000241
  0
LINE
  5
25C
100
AcDbEntity
  8
2
100
AcDbLine
 10
10.470874
 20
109.408837
 30
20.000241
 11
4.604157
 21
109.408837
 31
20.000241
  0
LINE
  5
25D
100
AcDbEntity
  8
2
100
AcDbLine
 10
4.604157
 20
109.408837
 30
20.000241
 11
4.604157
 21
104.408837
 31
20.000241
  0
LINE
  5
25E
100
AcDbEntity
  8
2
100
AcDbLine
 10
10.470874
 20
104.408837
 30
20.000241
 11
10.470874
 21
109.408837
 31
20.000241
  0
LINE
  5
25F
100
AcDbEntity
  8
3
100
AcDbLine
 10
27.927964
 20
113.408837
 30
20.000241
 11
4.127964
 21
113.408837
 31
20.000241
  0
LINE
  5
260
100
AcDbEntity
  8
2
100
AcDbLine
 10
4.127964
 20
115.908837
 30
20.000241
 11
4.127964
 21
113.408837
 31
20.000241
  0
LINE
  5
261
100
AcDbEntity
  8
3
100
AcDbLine
 10
4.127964
 20
113.408837
 30
20.000241
 11
0.977964
 21
113.408837
 31
20.000241
  0
LINE
  5
262
100
AcDbEntity
  8
3
100
AcDbLine
 10
4.127964
 20
115.908837
 30
20.000241
 11
1.427964
 21
115.908837
 31
20.000241
  0
LINE
  5
263
100
AcDbEntity
  8
3
100
AcDbLine
 10
54.877964
 20
104.408837
 30
20.000241
 11
54.877964
 21
113.408837
 31
20.000241
  0
LINE
  5
264
100
AcDbEntity
  8
3
100
AcDbLine
 10
52.427964
 20
104.408837
 30
20.000241
 11
54.877964
 21
104.408837
 31
20.000241
  0
LINE
  5
265
100
AcDbEntity
  8
2
100
AcDbLine
 10
52.427964
 20
109.408837
 30
20.000241
 11
52.427964
 21
104.408837
 31
20.000241
  0
LINE
  5
266
100
AcDbEntity
  8
3
100
AcDbLine
 10
51.727964
 20
113.408837
 30
20.000241
 11
54.877964
 21
113.408837
 31
20.000241
  0
ARC
  5
267
100
AcDbEntity
  8
3
100
AcDbCircle
 10
54.427964
 20
113.408837
 30
20.000241
 40
2.5
100
AcDbArc
 50
0.0
 51
90.0
  0
LINE
  5
268
100
AcDbEntity
  8
2
100
AcDbLine
 10
51.727964
 20
115.908837
 30
20.000241
 11
51.727964
 21
113.408837
 31
20.000241
  0
LINE
  5
269
100
AcDbEntity
  8
3
100
AcDbLine
 10
51.727964
 20
115.908837
 30
20.000241
 11
54.427964
 21
115.908837
 31
20.000241
  0
LINE
  5
26A
100
AcDbEntity
  8
3
100
AcDbLine
 10
54.877964
 20
113.408837
 30
20.000241
 11
56.927964
 21
113.408837
 31
20.000241
  0
ARC
  5
26B
100
AcDbEntity
  8
2
100
AcDbCircle
 10
171.427964
 20
187.408837
 30
20.000241
 40
24.5
100
AcDbArc
 50
180.0
 51
252.174294
  0
LINE
  5
26C
100
AcDbEntity
  8
1
100
AcDbLine
 10
171.427964
 20
219.908837
 30
20.000241
 11
171.427964
 21
154.408837
 31
20.000241
  0
LINE
  5
26D
100
AcDbEntity
  8
3
100
AcDbLine
 10
146.927964
 20
109.408837
 30
20.000241
 11
171.427964
 21
109.408837
 31
20.000241
  0
LINE
  5
26E
100
AcDbEntity
  8
3
100
AcDbLine
 10
147.627964
 20
115.908837
 30
20.000241
 11
171.427964
 21
115.908837
 31
20.000241
  0
LINE
  5
26F
100
AcDbEntity
  8
3
100
AcDbLine
 10
146.927964
 20
104.408837
 30
20.000241
 11
163.927964
 21
104.408837
 31
20.000241
  0
LINE
  5
270
100
AcDbEntity
  8
3
100
AcDbLine
 10
144.477964
 20
104.408837
 30
20.000241
 11
144.477964
 21
113.408837
 31
20.000241
  0
LINE
  5
271
100
AcDbEntity
  8
3
100
AcDbLine
 10
146.927964
 20
104.408837
 30
20.000241
 11
146.927964
 21
109.408837
 31
20.000241
  0
LINE
  5
272
100
AcDbEntity
  8
3
100
AcDbLine
 10
146.927964
 20
104.408837
 30
20.000241
 11
144.477964
 21
104.408837
 31
20.000241
  0
LINE
  5
273
100
AcDbEntity
  8
3
100
AcDbLine
 10
147.627964
 20
115.908837
 30
20.000241
 11
144.927964
 21
115.908837
 31
20.000241
  0
ARC
  5
274
100
AcDbEntity
  8
3
100
AcDbCircle
 10
144.927964
 20
113.408837
 30
20.000241
 40
2.5
100
AcDbArc
 50
90.0
 51
180.0
  0
LINE
  5
275
100
AcDbEntity
  8
3
100
AcDbLine
 10
144.477964
 20
113.408837
 30
20.000241
 11
142.427964
 21
113.408837
 31
20.000241
  0
LINE
  5
276
100
AcDbEntity
  8
3
100
AcDbLine
 10
147.627964
 20
115.908837
 30
20.000241
 11
147.627964
 21
113.408837
 31
20.000241
  0
LINE
  5
277
100
AcDbEntity
  8
1
100
AcDbLine
 10
171.427964
 20
117.908837
 30
20.000241
 11
171.427964
 21
93.908837
 31
20.000241
  0
LINE
  5
278
100
AcDbEntity
  8
3
100
AcDbLine
 10
163.927964
 20
104.408837
 30
20.000241
 11
171.427964
 21
104.408837
 31
20.000241
  0
LINE
  5
279
100
AcDbEntity
  8
3
100
AcDbLine
 10
178.927964
 20
97.408837
 30
20.000241
 11
178.927964
 21
104.408837
 31
20.000241
  0
LINE
  5
27A
100
AcDbEntity
  8
3
100
AcDbLine
 10
171.427964
 20
97.408837
 30
20.000241
 11
178.927964
 21
97.408837
 31
20.000241
  0
LINE
  5
27B
100
AcDbEntity
  8
2
100
AcDbLine
 10
178.927964
 20
104.408837
 30
20.000241
 11
178.927964
 21
109.408837
 31
20.000241
  0
ARC
  5
27C
100
AcDbEntity
  8
2
100
AcDbCircle
 10
171.427964
 20
187.408837
 30
20.000241
 40
19.0
100
AcDbArc
 50
246.750437
 51
293.249563
  0
LINE
  5
27D
100
AcDbEntity
  8
2
100
AcDbLine
 10
163.927964
 20
164.085029
 30
20.000241
 11
163.927964
 21
161.523465
 31
20.000241
  0
LINE
  5
27E
100
AcDbEntity
  8
2
100
AcDbLine
 10
163.927964
 20
164.085029
 30
20.000241
 11
163.927964
 21
169.951747
 31
20.000241
  0
LINE
  5
27F
100
AcDbEntity
  8
2
100
AcDbLine
 10
178.927964
 20
164.085029
 30
20.000241
 11
178.927964
 21
161.523465
 31
20.000241
  0
LINE
  5
280
100
AcDbEntity
  8
2
100
AcDbLine
 10
178.927964
 20
164.085029
 30
20.000241
 11
178.927964
 21
169.951747
 31
20.000241
  0
LINE
  5
281
100
AcDbEntity
  8
0
100
AcDbLine
 10
382.577964
 20
0.0
 30
10.636095
 11
383.427964
 21
0.0
 31
10.636095
  0
DIMENSION
  5
282
100
AcDbEntity
  8
0
100
AcDbDimension
  2
*D15
 10
239.636298
 20
104.408837
 30
10.636095
 11
246.927964
 21
117.908837
 31
10.636095
 12
-11.572036
 22
-46.045124
 32
10.636095
 70
   128
  3
STANDARD
100
AcDbAlignedDimension
 13
197.927964
 23
115.908837
 33
20.000241
 14
198.377964
 24
104.408837
 34
20.000241
 50
90.0
100
AcDbRotatedDimension
1001
ACAD
1000
DSTYLE
1002
{
1070
   140
1040
4.0
1070
    77
1070
     0
1070
    40
1040
1.0
1070
   141
1040
0.0
1070
    41
1040
2.0
1002
}
  0
DIMENSION
  5
283
100
AcDbEntity
  8
0
100
AcDbDimension
  2
*D13
 10
213.302964
 20
113.408837
 30
10.636095
 11
219.927964
 21
119.908837
 31
10.636095
 12
-11.572036
 22
-46.045124
 32
10.636095
 70
   128
  3
STANDARD
100
AcDbAlignedDimension
 13
197.927964
 23
115.908837
 33
20.000241
 14
200.427964
 24
113.408837
 34
20.000241
 50
90.0
100
AcDbRotatedDimension
1001
ACAD
1000
DSTYLE
1002
{
1070
   140
1040
4.0
1070
    77
1070
     0
1070
    40
1040
1.0
1070
   141
1040
0.0
1070
    41
1040
2.0
1002
}
  0
DIMENSION
  5
284
100
AcDbEntity
  8
0
100
AcDbDimension
  2
*D2
 10
349.427964
 20
113.408837
 30
20.000241
 11
371.986738
 21
128.482463
 31
10.636095
 12
-56.072036
 22
-118.045124
 32
10.636095
 70
   132
  3
STANDARD
100
AcDbRadialDimension
 15
351.058457
 25
115.303961
 35
20.000241
 40
0.0
1001
ACAD
1000
DSTYLE
1002
{
1070
    78
1070
     8
1070
   288
1070
     1
1070
   284
1070
     8
1070
   140
1040
5.0
1070
    73
1070
     0
1070
   272
1070
     2
1070
    42
1040
1.0
1070
    44
1040
1.0
1070
   271
1070
     2
1070
    41
1040
2.0
1002
}
  0
DIMENSION
  5
285
100
AcDbEntity
  8
0
100
AcDbDimension
  2
*D1
 10
296.427964
 20
113.408837
 30
20.000241
 11
279.197712
 21
124.647559
 31
10.636095
 12
-56.072036
 22
-118.045124
 32
10.636095
 70
   132
  3
STANDARD
100
AcDbRadialDimension
 15
295.022451
 25
115.476331
 35
20.000241
 40
0.0
1001
ACAD
1000
DSTYLE
1002
{
1070
    78
1070
     8
1070
   288
1070
     1
1070
   284
1070
     8
1070
   140
1040
5.0
1070
    73
1070
     0
1070
   272
1070
     2
1070
    42
1040
1.0
1070
    44
1040
1.0
1070
   271
1070
     2
1070
    41
1040
2.0
1002
}
  0
MTEXT
  5
286
102
{ACAD_REACTORS
330
287
102
}
100
AcDbEntity
  8
0
100
AcDbMText
 10
225.052964
 20
132.954876
 30
10.636095
 40
4.0
 41
0.0
 71
     4
 72
     1
  1
\A1;R2.5
  0
LEADER
  5
287
100
AcDbEntity
  8
0
100
AcDbLeader
  3
STANDARD
 73
     0
 74
     0
 75
     1
 40
4.0
 41
12.0
 76
     3
 10
200.427964
 20
114.954876
 30
10.636095
 10
222.962964
 20
132.954876
 30
10.636095
 10
224.962964
 20
132.954876
 30
10.636095
 77
   256
340
286
1001
ACAD
1000
DSTYLE
1002
{
1070
   140
1040
4.0
1070
    77
1070
     0
1070
    40
1040
1.0
1070
   141
1040
0.0
1070
    41
1040
2.0
1002
}
  0
DIMENSION
  5
288
100
AcDbEntity
  8
0
100
AcDbDimension
  2
*D14
 10
225.802964
 20
109.408837
 30
10.636095
 11
232.427964
 21
118.954876
 31
10.636095
 12
-11.572036
 22
-46.045124
 32
10.636095
 70
   128
  3
STANDARD
100
AcDbAlignedDimension
 13
198.927964
 23
115.908837
 33
10.636095
 14
196.927964
 24
109.408837
 34
10.636095
 50
90.0
100
AcDbRotatedDimension
1001
ACAD
1000
DSTYLE
1002
{
1070
   140
1040
4.0
1070
    77
1070
     0
1070
    40
1040
1.0
1070
   141
1040
0.0
1070
    41
1040
2.0
1002
}
  0
LINE
  5
289
100
AcDbEntity
  8
3
100
AcDbLine
 10
298.427964
 20
104.408837
 30
20.000241
 11
340.385055
 21
104.408837
 31
20.000241
  0
LINE
  5
28A
100
AcDbEntity
  8
3
100
AcDbLine
 10
299.127964
 20
115.908837
 30
20.000241
 11
346.727964
 21
115.908837
 31
20.000241
  0
LINE
  5
28B
100
AcDbEntity
  8
3
100
AcDbLine
 10
322.927964
 20
113.408837
 30
20.000241
 11
299.127964
 21
113.408837
 31
20.000241
  0
LINE
  5
28C
100
AcDbEntity
  8
2
100
AcDbLine
 10
340.385055
 20
109.408837
 30
20.000241
 11
298.427964
 21
109.408837
 31
20.000241
  0
LINE
  5
28D
100
AcDbEntity
  8
3
100
AcDbLine
 10
198.377964
 20
104.408837
 30
20.000241
 11
198.377964
 21
113.408837
 31
20.000241
  0
LINE
  5
28E
100
AcDbEntity
  8
2
100
AcDbLine
 10
195.927964
 20
109.408837
 30
20.000241
 11
195.927964
 21
104.408837
 31
20.000241
  0
LINE
  5
28F
100
AcDbEntity
  8
3
100
AcDbLine
 10
195.927964
 20
104.408837
 30
20.000241
 11
198.377964
 21
104.408837
 31
20.000241
  0
ARC
  5
290
100
AcDbEntity
  8
3
100
AcDbCircle
 10
197.927964
 20
113.408837
 30
20.000241
 40
2.5
100
AcDbArc
 50
0.0
 51
90.0
  0
LINE
  5
291
100
AcDbEntity
  8
2
100
AcDbLine
 10
195.227964
 20
113.408837
 30
20.000241
 11
195.227964
 21
115.908837
 31
20.000241
  0
LINE
  5
292
100
AcDbEntity
  8
3
100
AcDbLine
 10
198.377964
 20
113.408837
 30
20.000241
 11
200.427964
 21
113.408837
 31
20.000241
  0
LINE
  5
293
100
AcDbEntity
  8
3
100
AcDbLine
 10
195.227964
 20
115.908837
 30
20.000241
 11
197.927964
 21
115.908837
 31
20.000241
  0
LINE
  5
294
100
AcDbEntity
  8
3
100
AcDbLine
 10
295.977964
 20
104.408837
 30
20.000241
 11
295.977964
 21
113.408837
 31
20.000241
  0
LINE
  5
295
100
AcDbEntity
  8
2
100
AcDbLine
 10
298.427964
 20
109.408837
 30
20.000241
 11
298.427964
 21
104.408837
 31
20.000241
  0
LINE
  5
296
100
AcDbEntity
  8
3
100
AcDbLine
 10
298.427964
 20
104.408837
 30
20.000241
 11
295.977964
 21
104.408837
 31
20.000241
  0
LINE
  5
297
100
AcDbEntity
  8
3
100
AcDbLine
 10
295.977964
 20
113.408837
 30
20.000241
 11
293.927964
 21
113.408837
 31
20.000241
  0
ARC
  5
298
100
AcDbEntity
  8
3
100
AcDbCircle
 10
296.427964
 20
113.408837
 30
20.000241
 40
2.5
100
AcDbArc
 50
90.0
 51
180.0
  0
LINE
  5
299
100
AcDbEntity
  8
2
100
AcDbLine
 10
299.127964
 20
115.908837
 30
20.000241
 11
299.127964
 21
113.408837
 31
20.000241
  0
LINE
  5
29A
100
AcDbEntity
  8
3
100
AcDbLine
 10
299.127964
 20
113.408837
 30
20.000241
 11
295.977964
 21
113.408837
 31
20.000241
  0
LINE
  5
29B
100
AcDbEntity
  8
3
100
AcDbLine
 10
299.127964
 20
115.908837
 30
20.000241
 11
296.427964
 21
115.908837
 31
20.000241
  0
LINE
  5
29C
100
AcDbEntity
  8
3
100
AcDbLine
 10
322.927964
 20
113.408837
 30
20.000241
 11
346.727964
 21
113.408837
 31
20.000241
  0
LINE
  5
29D
100
AcDbEntity
  8
1
100
AcDbLine
 10
322.927964
 20
117.908837
 30
20.000241
 11
322.927964
 21
93.908837
 31
20.000241
  0
LINE
  5
29E
100
AcDbEntity
  8
3
100
AcDbLine
 10
349.877964
 20
113.408837
 30
20.000241
 11
349.877964
 21
97.408837
 31
20.000241
  0
LINE
  5
29F
100
AcDbEntity
  8
2
100
AcDbLine
 10
341.927964
 20
109.408837
 30
20.000241
 11
341.927964
 21
97.408837
 31
20.000241
  0
LINE
  5
2A0
100
AcDbEntity
  8
3
100
AcDbLine
 10
340.385055
 20
104.408837
 30
20.000241
 11
340.385055
 21
97.408837
 31
20.000241
  0
LINE
  5
2A1
100
AcDbEntity
  8
3
100
AcDbLine
 10
340.385055
 20
97.408837
 30
20.000241
 11
349.927964
 21
97.408837
 31
20.000241
  0
LINE
  5
2A2
100
AcDbEntity
  8
3
100
AcDbLine
 10
340.385055
 20
104.408837
 30
20.000241
 11
349.877964
 21
104.408837
 31
20.000241
  0
LINE
  5
2A3
100
AcDbEntity
  8
2
100
AcDbLine
 10
346.251772
 20
109.408837
 30
20.000241
 11
346.251772
 21
104.408837
 31
20.000241
  0
LINE
  5
2A4
100
AcDbEntity
  8
2
100
AcDbLine
 10
340.385055
 20
104.408837
 30
20.000241
 11
340.385055
 21
109.408837
 31
20.000241
  0
LINE
  5
2A5
100
AcDbEntity
  8
2
100
AcDbLine
 10
340.385055
 20
109.408837
 30
20.000241
 11
346.251772
 21
109.408837
 31
20.000241
  0
LINE
  5
2A6
100
AcDbEntity
  8
3
100
AcDbLine
 10
346.727964
 20
115.908837
 30
20.000241
 11
349.427964
 21
115.908837
 31
20.000241
  0
LINE
  5
2A7
100
AcDbEntity
  8
3
100
AcDbLine
 10
346.727964
 20
113.408837
 30
20.000241
 11
349.877964
 21
113.408837
 31
20.000241
  0
LINE
  5
2A8
100
AcDbEntity
  8
2
100
AcDbLine
 10
346.727964
 20
115.908837
 30
20.000241
 11
346.727964
 21
113.408837
 31
20.000241
  0
ARC
  5
2A9
100
AcDbEntity
  8
3
100
AcDbCircle
 10
349.427964
 20
113.408837
 30
20.000241
 40
2.5
100
AcDbArc
 50
0.0
 51
90.0
  0
LINE
  5
2AA
100
AcDbEntity
  8
3
100
AcDbLine
 10
349.877964
 20
113.408837
 30
20.000241
 11
351.927964
 21
113.408837
 31
20.000241
  0
ENDBLK
  5
2AC
100
AcDbEntity
  8
0
100
AcDbBlockEnd
  0
BLOCK
  5
442
100
AcDbEntity
  8
0
100
AcDbBlockBegin
  2
*D18
 70
     1
 10
0.0
 20
0.0
 30
0.0
  3
*D18
  1

  0
LINE
  5
443
100
AcDbEntity
  8
0
  6
BYBLOCK
 62
     0
100
AcDbLine
 10
122.990464
 20
245.908837
 30
0.0
 11
180.149631
 21
245.908837
 31
0.0
  0
LINE
  5
444
100
AcDbEntity
  8
0
  6
BYBLOCK
 62
     0
100
AcDbLine
 10
103.990464
 20
227.408837
 30
0.0
 11
180.149631
 21
227.408837
 31
0.0
  0
LINE
  5
445
100
AcDbEntity
  8
0
  6
BYBLOCK
 62
     0
100
AcDbLine
 10
179.969631
 20
243.908837
 30
0.0
 11
179.969631
 21
229.408837
 31
0.0
  0
MTEXT
  5
446
100
AcDbEntity
  8
0
  6
BYBLOCK
 62
     0
100
AcDbMText
 10
187.927964
 20
247.908837
 30
0.0
 40
5.0
 41
0.0
 71
     5
 72
     1
  1
\A1;18.5000
  7
BIGFONT
  0
SOLID
  5
447
100
AcDbEntity
  8
0
  6
BYBLOCK
 62
     0
100
AcDbTrace
 10
179.636298
 20
243.908837
 30
0.0
 11
180.302964
 21
243.908837
 31
0.0
 12
179.969631
 22
245.908837
 32
0.0
 13
179.969631
 23
245.908837
 33
0.0
  0
SOLID
  5
448
100
AcDbEntity
  8
0
  6
BYBLOCK
 62
     0
100
AcDbTrace
 10
179.636298
 20
229.408837
 30
0.0
 11
180.302964
 21
229.408837
 31
0.0
 12
179.969631
 22
227.408837
 32
0.0
 13
179.969631
 23
227.408837
 33
0.0
  0
POINT
  5
449
100
AcDbEntity
  8
DEFPOINTS
  6
BYBLOCK
 62
     0
100
AcDbPoint
 10
122.927964
 20
245.908837
 30
9.364146
  0
POINT
  5
44A
100
AcDbEntity
  8
DEFPOINTS
  6
BYBLOCK
 62
     0
100
AcDbPoint
 10
103.927964
 20
227.408837
 30
9.364146
  0
POINT
  5
44B
100
AcDbEntity
  8
DEFPOINTS
  6
BYBLOCK
 62
     0
100
AcDbPoint
 10
179.969631
 20
227.408837
 30
0.0
  0
ENDBLK
  5
44C
100
AcDbEntity
  8
0
100
AcDbBlockEnd
  0
BLOCK
  5
44D
100
AcDbEntity
  8
0
100
AcDbBlockBegin
  2
*D19
 70
     1
 10
0.0
 20
0.0
 30
0.0
  3
*D19
  1

  0
LINE
  5
44E
100
AcDbEntity
  8
0
  6
BYBLOCK
 62
     0
100
AcDbLine
 10
120.227964
 20
245.971337
 30
0.0
 11
120.227964
 21
263.134876
 31
0.0
  0
LINE
  5
44F
100
AcDbEntity
  8
0
  6
BYBLOCK
 62
     0
100
AcDbLine
 10
72.627964
 20
245.971337
 30
0.0
 11
72.627964
 21
263.134876
 31
0.0
  0
LINE
  5
450
100
AcDbEntity
  8
0
  6
BYBLOCK
 62
     0
100
AcDbLine
 10
118.227964
 20
262.954876
 30
0.0
 11
108.767964
 21
262.954876
 31
0.0
  0
LINE
  5
451
100
AcDbEntity
  8
0
  6
BYBLOCK
 62
     0
100
AcDbLine
 10
74.627964
 20
262.954876
 30
0.0
 11
81.087964
 21
262.954876
 31
0.0
  0
MTEXT
  5
452
100
AcDbEntity
  8
0
  6
BYBLOCK
 62
     0
100
AcDbMText
 10
94.927964
 20
262.954876
 30
0.0
 40
5.0
 41
0.0
 71
     5
 72
     1
  1
\A1;47.6000
  7
BIGFONT
  0
SOLID
  5
453
100
AcDbEntity
  8
0
  6
BYBLOCK
 62
     0
100
AcDbTrace
 10
118.227964
 20
263.288209
 30
0.0
 11
118.227964
 21
262.621543
 31
0.0
 12
120.227964
 22
262.954876
 32
0.0
 13
120.227964
 23
262.954876
 33
0.0
  0
SOLID
  5
454
100
AcDbEntity
  8
0
  6
BYBLOCK
 62
     0
100
AcDbTrace
 10
74.627964
 20
263.288209
 30
0.0
 11
74.627964
 21
262.621543
 31
0.0
 12
72.627964
 22
262.954876
 32
0.0
 13
72.627964
 23
262.954876
 33
0.0
  0
POINT
  5
455
100
AcDbEntity
  8
DEFPOINTS
  6
BYBLOCK
 62
     0
100
AcDbPoint
 10
120.227964
 20
245.908837
 30
9.364146
  0
POINT
  5
456
100
AcDbEntity
  8
DEFPOINTS
  6
BYBLOCK
 62
     0
100
AcDbPoint
 10
72.627964
 20
245.908837
 30
9.364146
  0
POINT
  5
457
100
AcDbEntity
  8
DEFPOINTS
  6
BYBLOCK
 62
     0
100
AcDbPoint
 10
72.627964
 20
262.954876
 30
0.0
  0
ENDBLK
  5
458
100
AcDbEntity
  8
0
100
AcDbBlockEnd
  0
BLOCK
  5
459
100
AcDbEntity
  8
0
100
AcDbBlockBegin
  2
*D20
 70
     1
 10
0.0
 20
0.0
 30
0.0
  3
*D20
  1

  0
LINE
  5
45A
100
AcDbEntity
  8
0
  6
BYBLOCK
 62
     0
100
AcDbLine
 10
125.427964
 20
243.471337
 30
0.0
 11
125.427964
 21
269.134876
 31
0.0
  0
LINE
  5
45B
100
AcDbEntity
  8
0
  6
BYBLOCK
 62
     0
100
AcDbLine
 10
67.746397
 20
243.471337
 30
0.0
 11
67.746397
 21
269.134876
 31
0.0
  0
LINE
  5
45C
100
AcDbEntity
  8
0
  6
BYBLOCK
 62
     0
100
AcDbLine
 10
123.427964
 20
268.954876
 30
0.0
 11
100.184631
 21
268.954876
 31
0.0
  0
LINE
  5
45D
100
AcDbEntity
  8
0
  6
BYBLOCK
 62
     0
100
AcDbLine
 10
69.746397
 20
268.954876
 30
0.0
 11
91.671298
 21
268.954876
 31
0.0
  0
MTEXT
  5
45E
100
AcDbEntity
  8
0
  6
BYBLOCK
 62
     0
100
AcDbMText
 10
95.927964
 20
268.954876
 30
0.0
 40
5.0
 41
0.0
 71
     5
 72
     1
  1
\A1;58
  7
BIGFONT
  0
SOLID
  5
45F
100
AcDbEntity
  8
0
  6
BYBLOCK
 62
     0
100
AcDbTrace
 10
123.427964
 20
269.288209
 30
0.0
 11
123.427964
 21
268.621543
 31
0.0
 12
125.427964
 22
268.954876
 32
0.0
 13
125.427964
 23
268.954876
 33
0.0
  0
SOLID
  5
460
100
AcDbEntity
  8
0
  6
BYBLOCK
 62
     0
100
AcDbTrace
 10
69.746397
 20
269.288209
 30
0.0
 11
69.746397
 21
268.621543
 31
0.0
 12
67.746397
 22
268.954876
 32
0.0
 13
67.746397
 23
268.954876
 33
0.0
  0
POINT
  5
461
100
AcDbEntity
  8
DEFPOINTS
  6
BYBLOCK
 62
     0
100
AcDbPoint
 10
125.427964
 20
243.408837
 30
9.364146
  0
POINT
  5
462
100
AcDbEntity
  8
DEFPOINTS
  6
BYBLOCK
 62
     0
100
AcDbPoint
 10
67.746397
 20
243.408837
 30
0.0
  0
POINT
  5
463
100
AcDbEntity
  8
DEFPOINTS
  6
BYBLOCK
 62
     0
100
AcDbPoint
 10
67.746397
 20
268.954876
 30
0.0
  0
ENDBLK
  5
464
100
AcDbEntity
  8
0
100
AcDbBlockEnd
  0
BLOCK
  5
465
100
AcDbEntity
  8
0
100
AcDbBlockBegin
  2
*D21
 70
     1
 10
0.0
 20
0.0
 30
0.0
  3
*D21
  1

  0
LINE
  5
466
100
AcDbEntity
  8
0
  6
BYBLOCK
 62
     0
100
AcDbLine
 10
121.427964
 20
232.892376
 30
0.0
 11
121.427964
 21
220.274876
 31
0.0
  0
LINE
  5
467
100
AcDbEntity
  8
0
  6
BYBLOCK
 62
     0
100
AcDbLine
 10
72.427964
 20
232.892376
 30
0.0
 11
72.427964
 21
220.274876
 31
0.0
  0
LINE
  5
468
100
AcDbEntity
  8
0
  6
BYBLOCK
 62
     0
100
AcDbLine
 10
119.427964
 20
220.454876
 30
0.0
 11
109.851298
 21
220.454876
 31
0.0
  0
LINE
  5
469
100
AcDbEntity
  8
0
  6
BYBLOCK
 62
     0
100
AcDbLine
 10
74.427964
 20
220.454876
 30
0.0
 11
83.004631
 21
220.454876
 31
0.0
  0
MTEXT
  5
46A
100
AcDbEntity
  8
0
  6
BYBLOCK
 62
     0
100
AcDbMText
 10
96.427964
 20
220.454876
 30
0.0
 40
5.0
 41
0.0
 71
     5
 72
     1
  1
\A1;49.0000
  7
BIGFONT
  0
SOLID
  5
46B
100
AcDbEntity
  8
0
  6
BYBLOCK
 62
     0
100
AcDbTrace
 10
119.427964
 20
220.788209
 30
0.0
 11
119.427964
 21
220.121543
 31
0.0
 12
121.427964
 22
220.454876
 32
0.0
 13
121.427964
 23
220.454876
 33
0.0
  0
SOLID
  5
46C
100
AcDbEntity
  8
0
  6
BYBLOCK
 62
     0
100
AcDbTrace
 10
74.427964
 20
220.788209
 30
0.0
 11
74.427964
 21
220.121543
 31
0.0
 12
72.427964
 22
220.454876
 32
0.0
 13
72.427964
 23
220.454876
 33
0.0
  0
POINT
  5
46D
100
AcDbEntity
  8
DEFPOINTS
  6
BYBLOCK
 62
     0
100
AcDbPoint
 10
121.427964
 20
232.954876
 30
0.0
  0
POINT
  5
46E
100
AcDbEntity
  8
DEFPOINTS
  6
BYBLOCK
 62
     0
100
AcDbPoint
 10
72.427964
 20
232.954876
 30
0.0
  0
POINT
  5
46F
100
AcDbEntity
  8
DEFPOINTS
  6
BYBLOCK
 62
     0
100
AcDbPoint
 10
72.427964
 20
220.454876
 30
0.0
  0
ENDBLK
  5
470
100
AcDbEntity
  8
0
100
AcDbBlockEnd
  0
BLOCK
  5
471
100
AcDbEntity
  8
0
100
AcDbBlockBegin
  2
*D22
 70
     1
 10
0.0
 20
0.0
 30
0.0
  3
*D22
  1

  0
LINE
  5
472
100
AcDbEntity
  8
0
  6
BYBLOCK
 62
     0
100
AcDbLine
 10
123.877964
 20
234.346337
 30
0.0
 11
123.877964
 21
211.274876
 31
0.0
  0
LINE
  5
473
100
AcDbEntity
  8
0
  6
BYBLOCK
 62
     0
100
AcDbLine
 10
69.977964
 20
234.346337
 30
0.0
 11
69.977964
 21
211.274876
 31
0.0
  0
LINE
  5
474
100
AcDbEntity
  8
0
  6
BYBLOCK
 62
     0
100
AcDbLine
 10
121.877964
 20
211.454876
 30
0.0
 11
111.267964
 21
211.454876
 31
0.0
  0
LINE
  5
475
100
AcDbEntity
  8
0
  6
BYBLOCK
 62
     0
100
AcDbLine
 10
71.977964
 20
211.454876
 30
0.0
 11
83.587964
 21
211.454876
 31
0.0
  0
MTEXT
  5
476
100
AcDbEntity
  8
0
  6
BYBLOCK
 62
     0
100
AcDbMText
 10
97.427964
 20
211.454876
 30
0.0
 40
5.0
 41
0.0
 71
     5
 72
     1
  1
\A1;53.9000
  7
BIGFONT
  0
SOLID
  5
477
100
AcDbEntity
  8
0
  6
BYBLOCK
 62
     0
100
AcDbTrace
 10
121.877964
 20
211.788209
 30
0.0
 11
121.877964
 21
211.121543
 31
0.0
 12
123.877964
 22
211.454876
 32
0.0
 13
123.877964
 23
211.454876
 33
0.0
  0
SOLID
  5
478
100
AcDbEntity
  8
0
  6
BYBLOCK
 62
     0
100
AcDbTrace
 10
71.977964
 20
211.788209
 30
0.0
 11
71.977964
 21
211.121543
 31
0.0
 12
69.977964
 22
211.454876
 32
0.0
 13
69.977964
 23
211.454876
 33
0.0
  0
POINT
  5
479
100
AcDbEntity
  8
DEFPOINTS
  6
BYBLOCK
 62
     0
100
AcDbPoint
 10
123.877964
 20
234.408837
 30
0.0
  0
POINT
  5
47A
100
AcDbEntity
  8
DEFPOINTS
  6
BYBLOCK
 62
     0
100
AcDbPoint
 10
69.977964
 20
234.408837
 30
0.0
  0
POINT
  5
47B
100
AcDbEntity
  8
DEFPOINTS
  6
BYBLOCK
 62
     0
100
AcDbPoint
 10
69.977964
 20
211.454876
 30
0.0
  0
ENDBLK
  5
47C
100
AcDbEntity
  8
0
100
AcDbBlockEnd
  0
BLOCK
  5
47D
100
AcDbEntity
  8
0
100
AcDbBlockBegin
  2
*D23
 70
     1
 10
0.0
 20
0.0
 30
0.0
  3
*D23
  1

  0
LINE
  5
47E
100
AcDbEntity
  8
0
  6
BYBLOCK
 62
     0
100
AcDbLine
 10
97.427964
 20
191.858837
 30
0.0
 11
158.204512
 21
191.858837
 31
0.0
  0
LINE
  5
47F
100
AcDbEntity
  8
0
  6
BYBLOCK
 62
     0
100
AcDbLine
 10
97.427964
 20
183.908837
 30
0.0
 11
158.204512
 21
183.908837
 31
0.0
  0
LINE
  5
480
100
AcDbEntity
  8
0
  6
BYBLOCK
 62
     0
100
AcDbLine
 10
157.204512
 20
189.858837
 30
0.0
 11
157.204512
 21
189.768837
 31
0.0
  0
LINE
  5
481
100
AcDbEntity
  8
0
  6
BYBLOCK
 62
     0
100
AcDbLine
 10
157.204512
 20
185.908837
 30
0.0
 11
157.204512
 21
186.405327
 31
0.0
  0
MTEXT
  5
482
100
AcDbEntity
  8
0
  6
BYBLOCK
 62
     0
100
AcDbMText
 10
157.204512
 20
188.161994
 30
0.0
 40
5.0
 41
0.0
 71
     5
 72
     1
  1
\A1;8
  7
BIGFONT
 11
0.0
 21
1.0
 31
0.0
  0
SOLID
  5
483
100
AcDbEntity
  8
0
  6
BYBLOCK
 62
     0
100
AcDbTrace
 10
156.871179
 20
189.858837
 30
0.0
 11
157.537845
 21
189.858837
 31
0.0
 12
157.204512
 22
191.858837
 32
0.0
 13
157.204512
 23
191.858837
 33
0.0
  0
SOLID
  5
484
100
AcDbEntity
  8
0
  6
BYBLOCK
 62
     0
100
AcDbTrace
 10
156.871179
 20
185.908837
 30
0.0
 11
157.537845
 21
185.908837
 31
0.0
 12
157.204512
 22
183.908837
 32
0.0
 13
157.204512
 23
183.908837
 33
0.0
  0
POINT
  5
485
100
AcDbEntity
  8
DEFPOINTS
  6
BYBLOCK
 62
     0
100
AcDbPoint
 10
96.427964
 20
191.858837
 30
9.364146
  0
POINT
  5
486
100
AcDbEntity
  8
DEFPOINTS
  6
BYBLOCK
 62
     0
100
AcDbPoint
 10
96.427964
 20
183.908837
 30
9.364146
  0
POINT
  5
487
100
AcDbEntity
  8
DEFPOINTS
  6
BYBLOCK
 62
     0
100
AcDbPoint
 10
157.204512
 20
183.908837
 30
0.0
  0
ENDBLK
  5
488
100
AcDbEntity
  8
0
100
AcDbBlockEnd
  0
BLOCK
  5
489
100
AcDbEntity
  8
0
100
AcDbBlockBegin
  2
*D24
 70
     1
 10
0.0
 20
0.0
 30
0.0
  3
*D24
  1

  0
LINE
  5
48A
100
AcDbEntity
  8
0
  6
BYBLOCK
 62
     0
100
AcDbLine
 10
88.927964
 20
190.856709
 30
0.0
 11
88.927964
 21
201.134876
 31
0.0
  0
LINE
  5
48B
100
AcDbEntity
  8
0
  6
BYBLOCK
 62
     0
100
AcDbLine
 10
103.927964
 20
190.856709
 30
0.0
 11
103.927964
 21
201.134876
 31
0.0
  0
LINE
  5
48C
100
AcDbEntity
  8
0
  6
BYBLOCK
 62
     0
100
AcDbLine
 10
90.927964
 20
200.954876
 30
0.0
 11
101.927964
 21
200.954876
 31
0.0
  0
MTEXT
  5
48D
100
AcDbEntity
  8
0
  6
BYBLOCK
 62
     0
100
AcDbMText
 10
96.927964
 20
200.954876
 30
0.0
 40
5.0
 41
0.0
 71
     5
 72
     1
  1
\A1;15.0000
  7
BIGFONT
  0
SOLID
  5
48E
100
AcDbEntity
  8
0
  6
BYBLOCK
 62
     0
100
AcDbTrace
 10
90.927964
 20
201.288209
 30
0.0
 11
90.927964
 21
200.621543
 31
0.0
 12
88.927964
 22
200.954876
 32
0.0
 13
88.927964
 23
200.954876
 33
0.0
  0
SOLID
  5
48F
100
AcDbEntity
  8
0
  6
BYBLOCK
 62
     0
100
AcDbTrace
 10
101.927964
 20
201.288209
 30
0.0
 11
101.927964
 21
200.621543
 31
0.0
 12
103.927964
 22
200.954876
 32
0.0
 13
103.927964
 23
200.954876
 33
0.0
  0
POINT
  5
490
100
AcDbEntity
  8
DEFPOINTS
  6
BYBLOCK
 62
     0
100
AcDbPoint
 10
88.927964
 20
190.794209
 30
9.364146
  0
POINT
  5
491
100
AcDbEntity
  8
DEFPOINTS
  6
BYBLOCK
 62
     0
100
AcDbPoint
 10
103.927964
 20
190.794209
 30
9.364146
  0
POINT
  5
492
100
AcDbEntity
  8
DEFPOINTS
  6
BYBLOCK
 62
     0
100
AcDbPoint
 10
103.927964
 20
200.954876
 30
0.0
  0
ENDBLK
  5
493
100
AcDbEntity
  8
0
100
AcDbBlockEnd
  0
BLOCK
  5
494
100
AcDbEntity
  8
0
100
AcDbBlockBegin
  2
*D25
 70
     1
 10
0.0
 20
0.0
 30
0.0
  3
*D25
  1

  0
LINE
  5
495
100
AcDbEntity
  8
0
  6
BYBLOCK
 62
     0
100
AcDbLine
 10
100.43362
 20
156.954876
 30
0.0
 11
98.43362
 21
156.954876
 31
0.0
  0
LINE
  5
496
100
AcDbEntity
  8
0
  6
BYBLOCK
 62
     0
100
AcDbLine
 10
98.43362
 20
156.954876
 30
0.0
 11
91.782376
 21
183.332151
 31
0.0
  0
MTEXT
  5
497
100
AcDbEntity
  8
0
  6
BYBLOCK
 62
     0
100
AcDbMText
 10
115.52362
 20
156.954876
 30
0.0
 40
5.0
 41
0.0
 71
     5
 72
     1
  1
\A1;R19.0000
  7
BIGFONT
  0
SOLID
  5
498
100
AcDbEntity
  8
0
  6
BYBLOCK
 62
     0
100
AcDbTrace
 10
92.594601
 20
181.474356
 30
0.0
 11
91.948169
 21
181.311353
 31
0.0
 12
91.782376
 22
183.332151
 32
0.0
 13
91.782376
 23
183.332151
 33
0.0
  0
POINT
  5
499
100
AcDbEntity
  8
DEFPOINTS
  6
BYBLOCK
 62
     0
100
AcDbPoint
 10
91.782376
 20
183.332151
 30
9.364146
  0
POINT
  5
49A
100
AcDbEntity
  8
DEFPOINTS
  6
BYBLOCK
 62
     0
100
AcDbPoint
 10
96.427964
 20
164.908837
 30
9.364146
  0
ENDBLK
  5
49B
100
AcDbEntity
  8
0
100
AcDbBlockEnd
  0
BLOCK
  5
49C
100
AcDbEntity
  8
0
100
AcDbBlockBegin
  2
*D26
 70
     1
 10
0.0
 20
0.0
 30
0.0
  3
*D26
  1

  0
LINE
  5
49D
100
AcDbEntity
  8
0
  6
BYBLOCK
 62
     0
100
AcDbLine
 10
96.427964
 20
164.908837
 30
0.0
 11
74.63739
 21
164.267855
 31
0.0
  0
MTEXT
  5
49E
100
AcDbEntity
  8
0
  6
BYBLOCK
 62
     0
100
AcDbMText
 10
36.802594
 20
163.467463
 30
0.0
 40
5.0
 41
0.0
 71
     5
 72
     1
  1
\A1;R23.8000
  7
BIGFONT
  0
SOLID
  5
49F
100
AcDbEntity
  8
0
  6
BYBLOCK
 62
     0
100
AcDbTrace
 10
74.627589
 20
164.601044
 30
0.0
 11
74.647191
 21
163.934665
 31
0.0
 12
72.638254
 22
164.209049
 32
0.0
 13
72.638254
 23
164.209049
 33
0.0
  0
POINT
  5
4A0
100
AcDbEntity
  8
DEFPOINTS
  6
BYBLOCK
 62
     0
100
AcDbPoint
 10
72.638254
 20
164.209049
 30
9.364146
  0
POINT
  5
4A1
100
AcDbEntity
  8
DEFPOINTS
  6
BYBLOCK
 62
     0
100
AcDbPoint
 10
96.427964
 20
164.908837
 30
9.364146
  0
ENDBLK
  5
4A2
100
AcDbEntity
  8
0
100
AcDbBlockEnd
  0
BLOCK
  5
4A3
100
AcDbEntity
  8
0
100
AcDbBlockBegin
  2
*D27
 70
     1
 10
0.0
 20
0.0
 30
0.0
  3
*D27
  1

  0
LINE
  5
4A4
100
AcDbEntity
  8
0
  6
BYBLOCK
 62
     0
100
AcDbLine
 10
96.427964
 20
164.908837
 30
0.0
 11
74.259126
 21
168.754953
 31
0.0
  0
MTEXT
  5
4A5
100
AcDbEntity
  8
0
  6
BYBLOCK
 62
     0
100
AcDbMText
 10
28.291133
 20
174.886679
 30
0.0
 40
5.0
 41
0.0
 71
     5
 72
     1
  1
\A1;R24.5000
  7
BIGFONT
  0
SOLID
  5
4A6
100
AcDbEntity
  8
0
  6
BYBLOCK
 62
     0
100
AcDbTrace
 10
74.316106
 20
169.08338
 30
0.0
 11
74.202147
 21
168.426525
 31
0.0
 12
72.288563
 22
169.09683
 32
0.0
 13
72.288563
 23
169.09683
 33
0.0
  0
POINT
  5
4A7
100
AcDbEntity
  8
DEFPOINTS
  6
BYBLOCK
 62
     0
100
AcDbPoint
 10
72.288563
 20
169.09683
 30
9.364146
  0
POINT
  5
4A8
100
AcDbEntity
  8
DEFPOINTS
  6
BYBLOCK
 62
     0
100
AcDbPoint
 10
96.427964
 20
164.908837
 30
9.364146
  0
ENDBLK
  5
4A9
100
AcDbEntity
  8
0
100
AcDbBlockEnd
  0
BLOCK
  5
4AA
100
AcDbEntity
  8
0
100
AcDbBlockBegin
  2
*D28
 70
     1
 10
0.0
 20
0.0
 30
0.0
  3
*D28
  1

  0
LINE
  5
4AB
100
AcDbEntity
  8
0
  6
BYBLOCK
 62
     0
100
AcDbLine
 10
96.427964
 20
164.908837
 30
0.0
 11
72.397022
 21
171.618256
 31
0.0
  0
MTEXT
  5
4AC
100
AcDbEntity
  8
0
  6
BYBLOCK
 62
     0
100
AcDbMText
 10
24.718757
 20
188.454876
 30
0.0
 40
5.0
 41
0.0
 71
     5
 72
     1
  1
\A1;R26.9500
  7
BIGFONT
  0
SOLID
  5
4AD
100
AcDbEntity
  8
0
  6
BYBLOCK
 62
     0
100
AcDbTrace
 10
72.48666
 20
171.93931
 30
0.0
 11
72.307384
 21
171.297201
 31
0.0
 12
70.470694
 22
172.156085
 32
0.0
 13
70.470694
 23
172.156085
 33
0.0
  0
POINT
  5
4AE
100
AcDbEntity
  8
DEFPOINTS
  6
BYBLOCK
 62
     0
100
AcDbPoint
 10
70.470694
 20
172.156085
 30
9.364146
  0
POINT
  5
4AF
100
AcDbEntity
  8
DEFPOINTS
  6
BYBLOCK
 62
     0
100
AcDbPoint
 10
96.427964
 20
164.908837
 30
9.364146
  0
ENDBLK
  5
4B0
100
AcDbEntity
  8
0
100
AcDbBlockEnd
  0
BLOCK
  5
4B1
100
AcDbEntity
  8
0
100
AcDbBlockBegin
  2
*D29
 70
     1
 10
0.0
 20
0.0
 30
0.0
  3
*D29
  1

  0
LINE
  5
4B2
100
AcDbEntity
  8
0
  6
BYBLOCK
 62
     0
100
AcDbLine
 10
96.427964
 20
164.908837
 30
0.0
 11
72.118851
 21
176.659029
 31
0.0
  0
MTEXT
  5
4B3
100
AcDbEntity
  8
0
  6
BYBLOCK
 62
     0
100
AcDbMText
 10
49.467141
 20
191.454876
 30
0.0
 40
5.0
 41
0.0
 71
     5
 72
     1
  1
\A1;R29.0000
  7
BIGFONT
  0
SOLID
  5
4B4
100
AcDbEntity
  8
0
  6
BYBLOCK
 62
     0
100
AcDbTrace
 10
72.263915
 20
176.959142
 30
0.0
 11
71.973787
 21
176.358917
 31
0.0
 12
70.318176
 22
177.529414
 32
0.0
 13
70.318176
 23
177.529414
 33
0.0
  0
POINT
  5
4B5
100
AcDbEntity
  8
DEFPOINTS
  6
BYBLOCK
 62
     0
100
AcDbPoint
 10
70.318176
 20
177.529414
 30
9.364146
  0
POINT
  5
4B6
100
AcDbEntity
  8
DEFPOINTS
  6
BYBLOCK
 62
     0
100
AcDbPoint
 10
96.427964
 20
164.908837
 30
9.364146
  0
ENDBLK
  5
4B7
100
AcDbEntity
  8
0
100
AcDbBlockEnd
  0
BLOCK
  5
4B8
100
AcDbEntity
  8
0
100
AcDbBlockBegin
  2
*D30
 70
     1
 10
0.0
 20
0.0
 30
0.0
  3
*D30
  1

  0
LINE
  5
4B9
100
AcDbEntity
  8
0
  6
BYBLOCK
 62
     0
100
AcDbLine
 10
122.990464
 20
245.908837
 30
0.0
 11
164.816298
 21
245.908837
 31
0.0
  0
LINE
  5
4BA
100
AcDbEntity
  8
0
  6
BYBLOCK
 62
     0
100
AcDbLine
 10
123.440464
 20
234.408837
 30
0.0
 11
164.816298
 21
234.408837
 31
0.0
  0
LINE
  5
4BB
100
AcDbEntity
  8
0
  6
BYBLOCK
 62
     0
100
AcDbLine
 10
164.636298
 20
243.908837
 30
0.0
 11
164.636298
 21
236.408837
 31
0.0
  0
MTEXT
  5
4BC
100
AcDbEntity
  8
0
  6
BYBLOCK
 62
     0
100
AcDbMText
 10
171.927964
 20
247.908837
 30
0.0
 40
5.0
 41
0.0
 71
     5
 72
     1
  1
\A1;11.5000
  7
BIGFONT
  0
SOLID
  5
4BD
100
AcDbEntity
  8
0
  6
BYBLOCK
 62
     0
100
AcDbTrace
 10
164.302964
 20
243.908837
 30
0.0
 11
164.969631
 21
243.908837
 31
0.0
 12
164.636298
 22
245.908837
 32
0.0
 13
164.636298
 23
245.908837
 33
0.0
  0
SOLID
  5
4BE
100
AcDbEntity
  8
0
  6
BYBLOCK
 62
     0
100
AcDbTrace
 10
164.302964
 20
236.408837
 30
0.0
 11
164.969631
 21
236.408837
 31
0.0
 12
164.636298
 22
234.408837
 32
0.0
 13
164.636298
 23
234.408837
 33
0.0
  0
POINT
  5
4BF
100
AcDbEntity
  8
DEFPOINTS
  6
BYBLOCK
 62
     0
100
AcDbPoint
 10
122.927964
 20
245.908837
 30
9.364146
  0
POINT
  5
4C0
100
AcDbEntity
  8
DEFPOINTS
  6
BYBLOCK
 62
     0
100
AcDbPoint
 10
123.377964
 20
234.408837
 30
9.364146
  0
POINT
  5
4C1
100
AcDbEntity
  8
DEFPOINTS
  6
BYBLOCK
 62
     0
100
AcDbPoint
 10
164.636298
 20
234.408837
 30
0.0
  0
ENDBLK
  5
4C2
100
AcDbEntity
  8
0
100
AcDbBlockEnd
  0
BLOCK
  5
4C3
100
AcDbEntity
  8
0
100
AcDbBlockBegin
  2
*D31
 70
     1
 10
0.0
 20
0.0
 30
0.0
  3
*D31
  1

  0
LINE
  5
4C4
100
AcDbEntity
  8
0
  6
BYBLOCK
 62
     0
100
AcDbLine
 10
122.990464
 20
245.908837
 30
0.0
 11
138.482964
 21
245.908837
 31
0.0
  0
LINE
  5
4C5
100
AcDbEntity
  8
0
  6
BYBLOCK
 62
     0
100
AcDbLine
 10
125.490464
 20
243.408837
 30
0.0
 11
138.482964
 21
243.408837
 31
0.0
  0
LINE
  5
4C6
100
AcDbEntity
  8
0
  6
BYBLOCK
 62
     0
100
AcDbLine
 10
138.302964
 20
247.908837
 30
0.0
 11
138.302964
 21
249.908837
 31
0.0
  0
LINE
  5
4C7
100
AcDbEntity
  8
0
  6
BYBLOCK
 62
     0
100
AcDbLine
 10
138.302964
 20
241.408837
 30
0.0
 11
138.302964
 21
239.408837
 31
0.0
  0
MTEXT
  5
4C8
100
AcDbEntity
  8
0
  6
BYBLOCK
 62
     0
100
AcDbMText
 10
144.927964
 20
249.908837
 30
0.0
 40
5.0
 41
0.0
 71
     5
 72
     1
  1
\A1;2.5000
  7
BIGFONT
  0
LINE
  5
4C9
100
AcDbEntity
  8
0
  6
BYBLOCK
 62
     0
100
AcDbLine
 10
138.302964
 20
245.908837
 30
0.0
 11
138.302964
 21
243.408837
 31
0.0
  0
SOLID
  5
4CA
100
AcDbEntity
  8
0
  6
BYBLOCK
 62
     0
100
AcDbTrace
 10
137.969631
 20
247.908837
 30
0.0
 11
138.636298
 21
247.908837
 31
0.0
 12
138.302964
 22
245.908837
 32
0.0
 13
138.302964
 23
245.908837
 33
0.0
  0
SOLID
  5
4CB
100
AcDbEntity
  8
0
  6
BYBLOCK
 62
     0
100
AcDbTrace
 10
137.969631
 20
241.408837
 30
0.0
 11
138.636298
 21
241.408837
 31
0.0
 12
138.302964
 22
243.408837
 32
0.0
 13
138.302964
 23
243.408837
 33
0.0
  0
POINT
  5
4CC
100
AcDbEntity
  8
DEFPOINTS
  6
BYBLOCK
 62
     0
100
AcDbPoint
 10
122.927964
 20
245.908837
 30
9.364146
  0
POINT
  5
4CD
100
AcDbEntity
  8
DEFPOINTS
  6
BYBLOCK
 62
     0
100
AcDbPoint
 10
125.427964
 20
243.408837
 30
9.364146
  0
POINT
  5
4CE
100
AcDbEntity
  8
DEFPOINTS
  6
BYBLOCK
 62
     0
100
AcDbPoint
 10
138.302964
 20
243.408837
 30
0.0
  0
ENDBLK
  5
4CF
100
AcDbEntity
  8
0
100
AcDbBlockEnd
  0
BLOCK
  5
4D0
100
AcDbEntity
  8
0
100
AcDbBlockBegin
  2
*D32
 70
     1
 10
0.0
 20
0.0
 30
0.0
  3
*D32
  1

  0
LINE
  5
4D1
100
AcDbEntity
  8
0
  6
BYBLOCK
 62
     0
100
AcDbLine
 10
274.427964
 20
243.408837
 30
0.0
 11
274.754063
 21
243.787862
 31
0.0
  0
MTEXT
  5
4D2
100
AcDbEntity
  8
0
  6
BYBLOCK
 62
     0
100
AcDbMText
 10
296.986738
 20
258.482463
 30
0.0
 40
5.0
 41
0.0
 71
     5
 72
     1
  1
\A1;R2.5
  7
BIGFONT
  0
SOLID
  5
4D3
100
AcDbEntity
  8
0
  6
BYBLOCK
 62
     0
100
AcDbTrace
 10
274.50138
 20
244.005261
 30
0.0
 11
275.006746
 21
243.570463
 31
0.0
 12
276.058457
 22
245.303961
 32
0.0
 13
276.058457
 23
245.303961
 33
0.0
  0
POINT
  5
4D4
100
AcDbEntity
  8
DEFPOINTS
  6
BYBLOCK
 62
     0
100
AcDbPoint
 10
276.058457
 20
245.303961
 30
9.364146
  0
POINT
  5
4D5
100
AcDbEntity
  8
DEFPOINTS
  6
BYBLOCK
 62
     0
100
AcDbPoint
 10
274.427964
 20
243.408837
 30
9.364146
  0
ENDBLK
  5
4D6
100
AcDbEntity
  8
0
100
AcDbBlockEnd
  0
BLOCK
  5
4D7
100
AcDbEntity
  8
0
100
AcDbBlockBegin
  2
*D33
 70
     1
 10
0.0
 20
0.0
 30
0.0
  3
*D33
  1

  0
LINE
  5
4D8
100
AcDbEntity
  8
0
  6
BYBLOCK
 62
     0
100
AcDbLine
 10
221.427964
 20
243.408837
 30
0.0
 11
221.146862
 21
243.822336
 31
0.0
  0
MTEXT
  5
4D9
100
AcDbEntity
  8
0
  6
BYBLOCK
 62
     0
100
AcDbMText
 10
204.197712
 20
254.647559
 30
0.0
 40
5.0
 41
0.0
 71
     5
 72
     1
  1
\A1;R2.5
  7
BIGFONT
  0
SOLID
  5
4DA
100
AcDbEntity
  8
0
  6
BYBLOCK
 62
     0
100
AcDbTrace
 10
221.422528
 20
244.009738
 30
0.0
 11
220.871196
 21
243.634934
 31
0.0
 12
220.022451
 22
245.476331
 32
0.0
 13
220.022451
 23
245.476331
 33
0.0
  0
POINT
  5
4DB
100
AcDbEntity
  8
DEFPOINTS
  6
BYBLOCK
 62
     0
100
AcDbPoint
 10
220.022451
 20
245.476331
 30
9.364146
  0
POINT
  5
4DC
100
AcDbEntity
  8
DEFPOINTS
  6
BYBLOCK
 62
     0
100
AcDbPoint
 10
221.427964
 20
243.408837
 30
9.364146
  0
ENDBLK
  5
4DD
100
AcDbEntity
  8
0
100
AcDbBlockEnd
  0
BLOCK
  5
4DE
100
AcDbEntity
  8
0
100
AcDbBlockBegin
  2
*D34
 70
     1
 10
0.0
 20
0.0
 30
0.0
  3
*D34
  1

  0
LINE
  5
4DF
100
AcDbEntity
  8
0
  6
BYBLOCK
 62
     0
100
AcDbLine
 10
123.990464
 20
245.908837
 30
0.0
 11
150.982964
 21
245.908837
 31
0.0
  0
LINE
  5
4E0
100
AcDbEntity
  8
0
  6
BYBLOCK
 62
     0
100
AcDbLine
 10
121.990464
 20
239.408837
 30
0.0
 11
150.982964
 21
239.408837
 31
0.0
  0
LINE
  5
4E1
100
AcDbEntity
  8
0
  6
BYBLOCK
 62
     0
100
AcDbLine
 10
150.802964
 20
243.908837
 30
0.0
 11
150.802964
 21
241.408837
 31
0.0
  0
MTEXT
  5
4E2
100
AcDbEntity
  8
0
  6
BYBLOCK
 62
     0
100
AcDbMText
 10
157.427964
 20
248.954876
 30
0.0
 40
5.0
 41
0.0
 71
     5
 72
     1
  1
\A1;6.5000
  7
BIGFONT
  0
SOLID
  5
4E3
100
AcDbEntity
  8
0
  6
BYBLOCK
 62
     0
100
AcDbTrace
 10
150.469631
 20
243.908837
 30
0.0
 11
151.136298
 21
243.908837
 31
0.0
 12
150.802964
 22
245.908837
 32
0.0
 13
150.802964
 23
245.908837
 33
0.0
  0
SOLID
  5
4E4
100
AcDbEntity
  8
0
  6
BYBLOCK
 62
     0
100
AcDbTrace
 10
150.469631
 20
241.408837
 30
0.0
 11
151.136298
 21
241.408837
 31
0.0
 12
150.802964
 22
239.408837
 32
0.0
 13
150.802964
 23
239.408837
 33
0.0
  0
POINT
  5
4E5
100
AcDbEntity
  8
DEFPOINTS
  6
BYBLOCK
 62
     0
100
AcDbPoint
 10
123.927964
 20
245.908837
 30
0.0
  0
POINT
  5
4E6
100
AcDbEntity
  8
DEFPOINTS
  6
BYBLOCK
 62
     0
100
AcDbPoint
 10
121.927964
 20
239.408837
 30
0.0
  0
POINT
  5
4E7
100
AcDbEntity
  8
DEFPOINTS
  6
BYBLOCK
 62
     0
100
AcDbPoint
 10
150.802964
 20
239.408837
 30
0.0
  0
ENDBLK
  5
4E8
100
AcDbEntity
  8
0
100
AcDbBlockEnd
  0
ENDSEC
  0
SECTION
  2
ENTITIES
  0
ARC
  5
2B4
100
AcDbEntity
  8
3
100
AcDbCircle
 10
168.90315
 20
205.799759
 30
20.000241
 40
23.8
100
AcDbArc
 50
180.0
 51
0.0
  0
ARC
  5
2B5
100
AcDbEntity
  8
2
100
AcDbCircle
 10
168.90315
 20
205.799759
 30
20.000241
 40
26.95
100
AcDbArc
 50
180.0
 51
0.0
  0
LINE
  5
2B6
100
AcDbEntity
  8
1
100
AcDbLine
 10
200.90315
 20
205.799759
 30
20.000241
 11
138.40315
 21
205.799759
 31
20.000241
  0
ARC
  5
2B7
100
AcDbEntity
  8
2
100
AcDbCircle
 10
168.90315
 20
205.799759
 30
20.000241
 40
24.5
100
AcDbArc
 50
0.0
 51
180.0
  0
ARC
  5
2B8
100
AcDbEntity
  8
3
100
AcDbCircle
 10
168.90315
 20
205.799759
 30
20.000241
 40
23.8
100
AcDbArc
 50
0.0
 51
180.0
  0
CIRCLE
  5
2B9
100
AcDbEntity
  8
3
100
AcDbCircle
 10
168.90315
 20
205.799759
 30
20.000241
 40
29.0
  0
ARC
  5
2BA
100
AcDbEntity
  8
2
100
AcDbCircle
 10
168.90315
 20
205.799759
 30
20.000241
 40
26.95
100
AcDbArc
 50
0.0
 51
180.0
  0
ARC
  5
2BB
100
AcDbEntity
  8
2
100
AcDbCircle
 10
168.90315
 20
205.799759
 30
20.000241
 40
24.5
100
AcDbArc
 50
287.825706
 51
0.0
  0
LINE
  5
2BC
100
AcDbEntity
  8
2
100
AcDbLine
 10
176.40315
 20
127.799759
 30
20.000241
 11
193.40315
 21
127.799759
 31
20.000241
  0
LINE
  5
2BD
100
AcDbEntity
  8
3
100
AcDbLine
 10
193.40315
 20
122.799759
 30
20.000241
 11
176.40315
 21
122.799759
 31
20.000241
  0
LINE
  5
2BE
100
AcDbEntity
  8
3
100
AcDbLine
 10
192.70315
 20
134.299759
 30
20.000241
 11
168.90315
 21
134.299759
 31
20.000241
  0
LINE
  5
2BF
100
AcDbEntity
  8
3
100
AcDbLine
 10
195.85315
 20
131.799759
 30
20.000241
 11
145.10315
 21
131.799759
 31
20.000241
  0
LINE
  5
2C1
100
AcDbEntity
  8
1
100
AcDbLine
 10
136.90315
 20
53.299759
 30
20.000241
 11
199.40315
 21
53.299759
 31
20.000241
  0
ARC
  5
2C2
100
AcDbEntity
  8
2
100
AcDbCircle
 10
168.90315
 20
53.299759
 30
20.000241
 40
23.8
100
AcDbArc
 50
0.0
 51
180.0
  0
ARC
  5
2C3
100
AcDbEntity
  8
3
100
AcDbCircle
 10
168.90315
 20
53.299759
 30
20.000241
 40
26.95
100
AcDbArc
 50
0.0
 51
180.0
  0
ARC
  5
2C4
100
AcDbEntity
  8
3
100
AcDbCircle
 10
168.90315
 20
53.299759
 30
20.000241
 40
24.5
100
AcDbArc
 50
107.825706
 51
72.174294
  0
ARC
  5
2C5
100
AcDbEntity
  8
2
100
AcDbCircle
 10
168.90315
 20
53.299759
 30
20.000241
 40
23.8
100
AcDbArc
 50
180.0
 51
0.0
  0
ARC
  5
2C6
100
AcDbEntity
  8
3
100
AcDbCircle
 10
168.90315
 20
53.299759
 30
20.000241
 40
26.95
100
AcDbArc
 50
180.0
 51
0.0
  0
CIRCLE
  5
2C7
100
AcDbEntity
  8
3
100
AcDbCircle
 10
168.90315
 20
53.299759
 30
20.000241
 40
29.0
  0
LINE
  5
2CF
100
AcDbEntity
  8
1
100
AcDbLine
 10
168.90315
 20
19.299759
 30
20.000241
 11
168.90315
 21
86.299759
 31
20.000241
  0
ARC
  5
2D0
100
AcDbEntity
  8
3
100
AcDbCircle
 10
168.90315
 20
53.299759
 30
20.000241
 40
19.0
100
AcDbArc
 50
66.750437
 51
113.249563
  0
LINE
  5
2D1
100
AcDbEntity
  8
3
100
AcDbLine
 10
161.40315
 20
79.185131
 30
20.000241
 11
161.40315
 21
70.756849
 31
20.000241
  0
LINE
  5
2D2
100
AcDbEntity
  8
3
100
AcDbLine
 10
176.40315
 20
79.185131
 30
20.000241
 11
176.40315
 21
70.756849
 31
20.000241
  0
LINE
  5
2DA
100
AcDbEntity
  8
0
100
AcDbLine
 10
152.131486
 20
127.799759
 30
10.636095
 11
156.131486
 21
131.799759
 31
10.636095
  0
LINE
  5
2DB
100
AcDbEntity
  8
0
100
AcDbLine
 10
151.601155
 20
127.799759
 30
10.636095
 11
155.601155
 21
131.799759
 31
10.636095
  0
LINE
  5
2DC
100
AcDbEntity
  8
0
100
AcDbLine
 10
151.070825
 20
127.799759
 30
10.636095
 11
155.070825
 21
131.799759
 31
10.636095
  0
LINE
  5
2DD
100
AcDbEntity
  8
0
100
AcDbLine
 10
150.540495
 20
127.799759
 30
10.636095
 11
154.540495
 21
131.799759
 31
10.636095
  0
LINE
  5
2DE
100
AcDbEntity
  8
0
100
AcDbLine
 10
150.010165
 20
127.799759
 30
10.636095
 11
154.010165
 21
131.799759
 31
10.636095
  0
LINE
  5
2DF
100
AcDbEntity
  8
0
100
AcDbLine
 10
149.479835
 20
127.799759
 30
10.636095
 11
153.479835
 21
131.799759
 31
10.636095
  0
LINE
  5
2E0
100
AcDbEntity
  8
0
100
AcDbLine
 10
148.949505
 20
127.799759
 30
10.636095
 11
152.949505
 21
131.799759
 31
10.636095
  0
LINE
  5
2E1
100
AcDbEntity
  8
0
100
AcDbLine
 10
148.419175
 20
127.799759
 30
10.636095
 11
152.419175
 21
131.799759
 31
10.636095
  0
LINE
  5
2E2
100
AcDbEntity
  8
0
100
AcDbLine
 10
147.888845
 20
127.799759
 30
10.636095
 11
151.888845
 21
131.799759
 31
10.636095
  0
LINE
  5
2E3
100
AcDbEntity
  8
0
100
AcDbLine
 10
147.358515
 20
127.799759
 30
10.636095
 11
151.358515
 21
131.799759
 31
10.636095
  0
LINE
  5
2E4
100
AcDbEntity
  8
0
100
AcDbLine
 10
146.828185
 20
127.799759
 30
10.636095
 11
150.828185
 21
131.799759
 31
10.636095
  0
LINE
  5
2E5
100
AcDbEntity
  8
0
100
AcDbLine
 10
146.297855
 20
127.799759
 30
10.636095
 11
150.297855
 21
131.799759
 31
10.636095
  0
LINE
  5
2E6
100
AcDbEntity
  8
0
100
AcDbLine
 10
145.767525
 20
127.799759
 30
10.636095
 11
149.767525
 21
131.799759
 31
10.636095
  0
LINE
  5
2E7
100
AcDbEntity
  8
0
100
AcDbLine
 10
145.237194
 20
127.799759
 30
10.636095
 11
149.237194
 21
131.799759
 31
10.636095
  0
LINE
  5
2E8
100
AcDbEntity
  8
0
100
AcDbLine
 10
141.95315
 20
125.576375
 30
10.636095
 11
148.176534
 21
131.799759
 31
10.636095
  0
LINE
  5
2E9
100
AcDbEntity
  8
0
100
AcDbLine
 10
141.95315
 20
126.106705
 30
10.636095
 11
147.646204
 21
131.799759
 31
10.636095
  0
LINE
  5
2EA
100
AcDbEntity
  8
0
100
AcDbLine
 10
141.95315
 20
126.637035
 30
10.636095
 11
147.115874
 21
131.799759
 31
10.636095
  0
LINE
  5
2EB
100
AcDbEntity
  8
0
100
AcDbLine
 10
141.95315
 20
127.167365
 30
10.636095
 11
146.585544
 21
131.799759
 31
10.636095
  0
LINE
  5
2EC
100
AcDbEntity
  8
0
100
AcDbLine
 10
141.95315
 20
127.697695
 30
10.636095
 11
146.055214
 21
131.799759
 31
10.636095
  0
LINE
  5
2ED
100
AcDbEntity
  8
0
100
AcDbLine
 10
141.95315
 20
128.228025
 30
10.636095
 11
145.524884
 21
131.799759
 31
10.636095
  0
LINE
  5
2EE
100
AcDbEntity
  8
0
100
AcDbLine
 10
144.706864
 20
127.799759
 30
10.636095
 11
148.706864
 21
131.799759
 31
10.636095
  0
LINE
  5
2EF
100
AcDbEntity
  8
0
100
AcDbLine
 10
143.949505
 20
122.799759
 30
10.636095
 11
144.40315
 21
123.253404
 31
10.636095
  0
LINE
  5
2F0
100
AcDbEntity
  8
0
100
AcDbLine
 10
143.419175
 20
122.799759
 30
10.636095
 11
144.40315
 21
123.783734
 31
10.636095
  0
LINE
  5
2F1
100
AcDbEntity
  8
0
100
AcDbLine
 10
142.888845
 20
122.799759
 30
10.636095
 11
144.40315
 21
124.314064
 31
10.636095
  0
LINE
  5
2F2
100
AcDbEntity
  8
0
100
AcDbLine
 10
142.358515
 20
122.799759
 30
10.636095
 11
144.40315
 21
124.844395
 31
10.636095
  0
LINE
  5
2F3
100
AcDbEntity
  8
0
100
AcDbLine
 10
141.95315
 20
122.924725
 30
10.636095
 11
144.40315
 21
125.374725
 31
10.636095
  0
LINE
  5
2F4
100
AcDbEntity
  8
0
100
AcDbLine
 10
141.95315
 20
123.455055
 30
10.636095
 11
144.40315
 21
125.905055
 31
10.636095
  0
LINE
  5
2F5
100
AcDbEntity
  8
0
100
AcDbLine
 10
141.95315
 20
123.985385
 30
10.636095
 11
144.40315
 21
126.435385
 31
10.636095
  0
LINE
  5
2F6
100
AcDbEntity
  8
0
100
AcDbLine
 10
141.95315
 20
124.515715
 30
10.636095
 11
144.40315
 21
126.965715
 31
10.636095
  0
LINE
  5
2F7
100
AcDbEntity
  8
0
100
AcDbLine
 10
141.95315
 20
125.046045
 30
10.636095
 11
144.40315
 21
127.496045
 31
10.636095
  0
LINE
  5
2F9
100
AcDbEntity
  8
0
100
AcDbLine
 10
141.95315
 20
130.349346
 30
10.636095
 11
145.10315
 21
133.499346
 31
10.636095
  0
LINE
  5
2FA
100
AcDbEntity
  8
0
100
AcDbLine
 10
141.95315
 20
130.879676
 30
10.636095
 11
145.10315
 21
134.029676
 31
10.636095
  0
LINE
  5
2FB
100
AcDbEntity
  8
0
100
AcDbLine
 10
141.95315
 20
131.410006
 30
10.636095
 11
144.842903
 21
134.299759
 31
10.636095
  0
LINE
  5
2FC
100
AcDbEntity
  8
0
100
AcDbLine
 10
141.95315
 20
128.758356
 30
10.636095
 11
145.10315
 21
131.908356
 31
10.636095
  0
LINE
  5
2FD
100
AcDbEntity
  8
0
100
AcDbLine
 10
141.95315
 20
129.288686
 30
10.636095
 11
145.10315
 21
132.438686
 31
10.636095
  0
LINE
  5
2FE
100
AcDbEntity
  8
0
100
AcDbLine
 10
141.95315
 20
129.819016
 30
10.636095
 11
145.10315
 21
132.969016
 31
10.636095
  0
LINE
  5
2FF
100
AcDbEntity
  8
0
100
AcDbLine
 10
140.221583
 20
131.799759
 30
10.636095
 11
142.721583
 21
134.299759
 31
10.636095
  0
LINE
  5
300
100
AcDbEntity
  8
0
100
AcDbLine
 10
139.913004
 20
132.021511
 30
10.636095
 11
142.181399
 21
134.289905
 31
10.636095
  0
LINE
  5
301
100
AcDbEntity
  8
0
100
AcDbLine
 10
140.077061
 20
132.715897
 30
10.636095
 11
141.487012
 21
134.125848
 31
10.636095
  0
LINE
  5
302
100
AcDbEntity
  8
0
100
AcDbLine
 10
141.812573
 20
131.799759
 30
10.636095
 11
144.312573
 21
134.299759
 31
10.636095
  0
LINE
  5
303
100
AcDbEntity
  8
0
100
AcDbLine
 10
141.282243
 20
131.799759
 30
10.636095
 11
143.782243
 21
134.299759
 31
10.636095
  0
LINE
  5
304
100
AcDbEntity
  8
0
100
AcDbLine
 10
140.751913
 20
131.799759
 30
10.636095
 11
143.251913
 21
134.299759
 31
10.636095
  0
LINE
  5
305
100
AcDbEntity
  8
0
100
AcDbLine
 10
168.041388
 20
127.799759
 30
10.636095
 11
168.90315
 21
128.661521
 31
10.636095
  0
LINE
  5
306
100
AcDbEntity
  8
0
100
AcDbLine
 10
167.511058
 20
127.799759
 30
10.636095
 11
168.90315
 21
129.191851
 31
10.636095
  0
LINE
  5
307
100
AcDbEntity
  8
0
100
AcDbLine
 10
166.980728
 20
127.799759
 30
10.636095
 11
168.90315
 21
129.722181
 31
10.636095
  0
LINE
  5
308
100
AcDbEntity
  8
0
100
AcDbLine
 10
165.389738
 20
127.799759
 30
10.636095
 11
168.90315
 21
131.313172
 31
10.636095
  0
LINE
  5
309
100
AcDbEntity
  8
0
100
AcDbLine
 10
164.859408
 20
127.799759
 30
10.636095
 11
168.859408
 21
131.799759
 31
10.636095
  0
LINE
  5
30A
100
AcDbEntity
  8
0
100
AcDbLine
 10
164.329078
 20
127.799759
 30
10.636095
 11
168.329078
 21
131.799759
 31
10.636095
  0
LINE
  5
30B
100
AcDbEntity
  8
0
100
AcDbLine
 10
163.798747
 20
127.799759
 30
10.636095
 11
167.798747
 21
131.799759
 31
10.636095
  0
LINE
  5
30C
100
AcDbEntity
  8
0
100
AcDbLine
 10
163.268417
 20
127.799759
 30
10.636095
 11
167.268417
 21
131.799759
 31
10.636095
  0
LINE
  5
30D
100
AcDbEntity
  8
0
100
AcDbLine
 10
162.738087
 20
127.799759
 30
10.636095
 11
166.738087
 21
131.799759
 31
10.636095
  0
LINE
  5
30E
100
AcDbEntity
  8
0
100
AcDbLine
 10
162.207757
 20
127.799759
 30
10.636095
 11
166.207757
 21
131.799759
 31
10.636095
  0
LINE
  5
30F
100
AcDbEntity
  8
0
100
AcDbLine
 10
161.677427
 20
127.799759
 30
10.636095
 11
165.677427
 21
131.799759
 31
10.636095
  0
LINE
  5
310
100
AcDbEntity
  8
0
100
AcDbLine
 10
161.147097
 20
127.799759
 30
10.636095
 11
165.147097
 21
131.799759
 31
10.636095
  0
LINE
  5
311
100
AcDbEntity
  8
0
100
AcDbLine
 10
160.616767
 20
127.799759
 30
10.636095
 11
164.616767
 21
131.799759
 31
10.636095
  0
LINE
  5
312
100
AcDbEntity
  8
0
100
AcDbLine
 10
160.086437
 20
127.799759
 30
10.636095
 11
164.086437
 21
131.799759
 31
10.636095
  0
LINE
  5
313
100
AcDbEntity
  8
0
100
AcDbLine
 10
166.450398
 20
127.799759
 30
10.636095
 11
168.90315
 21
130.252511
 31
10.636095
  0
LINE
  5
314
100
AcDbEntity
  8
0
100
AcDbLine
 10
165.920068
 20
127.799759
 30
10.636095
 11
168.90315
 21
130.782842
 31
10.636095
  0
LINE
  5
315
100
AcDbEntity
  8
0
100
AcDbLine
 10
154.252806
 20
127.799759
 30
10.636095
 11
158.252806
 21
131.799759
 31
10.636095
  0
LINE
  5
316
100
AcDbEntity
  8
0
100
AcDbLine
 10
153.722476
 20
127.799759
 30
10.636095
 11
157.722476
 21
131.799759
 31
10.636095
  0
LINE
  5
317
100
AcDbEntity
  8
0
100
AcDbLine
 10
153.192146
 20
127.799759
 30
10.636095
 11
157.192146
 21
131.799759
 31
10.636095
  0
LINE
  5
318
100
AcDbEntity
  8
0
100
AcDbLine
 10
152.661816
 20
127.799759
 30
10.636095
 11
156.661816
 21
131.799759
 31
10.636095
  0
LINE
  5
319
100
AcDbEntity
  8
0
100
AcDbLine
 10
155.843796
 20
127.799759
 30
10.636095
 11
159.843796
 21
131.799759
 31
10.636095
  0
LINE
  5
31A
100
AcDbEntity
  8
0
100
AcDbLine
 10
155.313466
 20
127.799759
 30
10.636095
 11
159.313466
 21
131.799759
 31
10.636095
  0
LINE
  5
31B
100
AcDbEntity
  8
0
100
AcDbLine
 10
154.783136
 20
127.799759
 30
10.636095
 11
158.783136
 21
131.799759
 31
10.636095
  0
LINE
  5
31C
100
AcDbEntity
  8
0
100
AcDbLine
 10
159.556107
 20
127.799759
 30
10.636095
 11
163.556107
 21
131.799759
 31
10.636095
  0
LINE
  5
31D
100
AcDbEntity
  8
0
100
AcDbLine
 10
159.025777
 20
127.799759
 30
10.636095
 11
163.025777
 21
131.799759
 31
10.636095
  0
LINE
  5
31E
100
AcDbEntity
  8
0
100
AcDbLine
 10
158.495447
 20
127.799759
 30
10.636095
 11
162.495447
 21
131.799759
 31
10.636095
  0
LINE
  5
31F
100
AcDbEntity
  8
0
100
AcDbLine
 10
157.965117
 20
127.799759
 30
10.636095
 11
161.965117
 21
131.799759
 31
10.636095
  0
LINE
  5
320
100
AcDbEntity
  8
0
100
AcDbLine
 10
157.434786
 20
127.799759
 30
10.636095
 11
161.434786
 21
131.799759
 31
10.636095
  0
LINE
  5
321
100
AcDbEntity
  8
0
100
AcDbLine
 10
156.904456
 20
127.799759
 30
10.636095
 11
160.904456
 21
131.799759
 31
10.636095
  0
LINE
  5
322
100
AcDbEntity
  8
0
100
AcDbLine
 10
156.374126
 20
127.799759
 30
10.636095
 11
160.374126
 21
131.799759
 31
10.636095
  0
LINE
  5
323
100
AcDbEntity
  8
0
100
AcDbLine
 10
168.571718
 20
127.799759
 30
10.636095
 11
168.90315
 21
128.131191
 31
10.636095
  0
LINE
  5
324
100
AcDbEntity
  8
3
100
AcDbLine
 10
23.917404
 20
131.799759
 30
20.000241
 11
21.867404
 21
131.799759
 31
20.000241
  0
ARC
  5
325
100
AcDbEntity
  8
3
100
AcDbCircle
 10
24.367404
 20
131.799759
 30
20.000241
 40
2.5
100
AcDbArc
 50
90.0
 51
180.0
  0
LINE
  5
326
100
AcDbEntity
  8
3
100
AcDbLine
 10
50.867404
 20
131.799759
 30
20.000241
 11
74.667404
 21
131.799759
 31
20.000241
  0
LINE
  5
327
100
AcDbEntity
  8
2
100
AcDbLine
 10
33.410314
 20
127.799759
 30
20.000241
 11
75.367404
 21
127.799759
 31
20.000241
  0
LINE
  5
328
100
AcDbEntity
  8
3
100
AcDbLine
 10
74.667404
 20
134.299759
 30
20.000241
 11
27.067404
 21
134.299759
 31
20.000241
  0
LINE
  5
329
100
AcDbEntity
  8
3
100
AcDbLine
 10
75.367404
 20
122.799759
 30
20.000241
 11
33.410314
 21
122.799759
 31
20.000241
  0
LINE
  5
32A
100
AcDbEntity
  8
1
100
AcDbLine
 10
50.867404
 20
136.299759
 30
20.000241
 11
50.867404
 21
112.299759
 31
20.000241
  0
LINE
  5
32B
100
AcDbEntity
  8
3
100
AcDbLine
 10
23.917404
 20
131.799759
 30
20.000241
 11
23.917404
 21
115.799759
 31
20.000241
  0
LINE
  5
32C
100
AcDbEntity
  8
3
100
AcDbLine
 10
33.410314
 20
122.799759
 30
20.000241
 11
33.410314
 21
115.799759
 31
20.000241
  0
LINE
  5
32D
100
AcDbEntity
  8
2
100
AcDbLine
 10
31.867404
 20
127.799759
 30
20.000241
 11
31.867404
 21
115.799759
 31
20.000241
  0
LINE
  5
32E
100
AcDbEntity
  8
3
100
AcDbLine
 10
33.410314
 20
115.799759
 30
20.000241
 11
23.867404
 21
115.799759
 31
20.000241
  0
LINE
  5
32F
100
AcDbEntity
  8
3
100
AcDbLine
 10
33.410314
 20
122.799759
 30
20.000241
 11
23.917404
 21
122.799759
 31
20.000241
  0
LINE
  5
330
100
AcDbEntity
  8
2
100
AcDbLine
 10
33.410314
 20
127.799759
 30
20.000241
 11
27.543597
 21
127.799759
 31
20.000241
  0
LINE
  5
331
100
AcDbEntity
  8
2
100
AcDbLine
 10
27.543597
 20
127.799759
 30
20.000241
 11
27.543597
 21
122.799759
 31
20.000241
  0
LINE
  5
332
100
AcDbEntity
  8
2
100
AcDbLine
 10
33.410314
 20
122.799759
 30
20.000241
 11
33.410314
 21
127.799759
 31
20.000241
  0
LINE
  5
333
100
AcDbEntity
  8
3
100
AcDbLine
 10
50.867404
 20
131.799759
 30
20.000241
 11
27.067404
 21
131.799759
 31
20.000241
  0
LINE
  5
334
100
AcDbEntity
  8
2
100
AcDbLine
 10
27.067404
 20
134.299759
 30
20.000241
 11
27.067404
 21
131.799759
 31
20.000241
  0
LINE
  5
335
100
AcDbEntity
  8
3
100
AcDbLine
 10
27.067404
 20
131.799759
 30
20.000241
 11
23.917404
 21
131.799759
 31
20.000241
  0
LINE
  5
336
100
AcDbEntity
  8
3
100
AcDbLine
 10
27.067404
 20
134.299759
 30
20.000241
 11
24.367404
 21
134.299759
 31
20.000241
  0
LINE
  5
337
100
AcDbEntity
  8
3
100
AcDbLine
 10
77.817404
 20
122.799759
 30
20.000241
 11
77.817404
 21
131.799759
 31
20.000241
  0
LINE
  5
338
100
AcDbEntity
  8
3
100
AcDbLine
 10
75.367404
 20
122.799759
 30
20.000241
 11
77.817404
 21
122.799759
 31
20.000241
  0
LINE
  5
339
100
AcDbEntity
  8
2
100
AcDbLine
 10
75.367404
 20
127.799759
 30
20.000241
 11
75.367404
 21
122.799759
 31
20.000241
  0
LINE
  5
33A
100
AcDbEntity
  8
3
100
AcDbLine
 10
74.667404
 20
131.799759
 30
20.000241
 11
77.817404
 21
131.799759
 31
20.000241
  0
ARC
  5
33B
100
AcDbEntity
  8
3
100
AcDbCircle
 10
77.367404
 20
131.799759
 30
20.000241
 40
2.5
100
AcDbArc
 50
0.0
 51
90.0
  0
LINE
  5
33C
100
AcDbEntity
  8
2
100
AcDbLine
 10
74.667404
 20
134.299759
 30
20.000241
 11
74.667404
 21
131.799759
 31
20.000241
  0
LINE
  5
33D
100
AcDbEntity
  8
3
100
AcDbLine
 10
74.667404
 20
134.299759
 30
20.000241
 11
77.367404
 21
134.299759
 31
20.000241
  0
LINE
  5
33E
100
AcDbEntity
  8
3
100
AcDbLine
 10
77.817404
 20
131.799759
 30
20.000241
 11
79.867404
 21
131.799759
 31
20.000241
  0
ARC
  5
33F
100
AcDbEntity
  8
2
100
AcDbCircle
 10
168.90315
 20
205.799759
 30
20.000241
 40
24.5
100
AcDbArc
 50
180.0
 51
252.174294
  0
LINE
  5
340
100
AcDbEntity
  8
1
100
AcDbLine
 10
168.90315
 20
238.299759
 30
20.000241
 11
168.90315
 21
172.799759
 31
20.000241
  0
LINE
  5
341
100
AcDbEntity
  8
3
100
AcDbLine
 10
144.40315
 20
127.799759
 30
20.000241
 11
168.90315
 21
127.799759
 31
20.000241
  0
LINE
  5
342
100
AcDbEntity
  8
3
100
AcDbLine
 10
145.10315
 20
134.299759
 30
20.000241
 11
168.90315
 21
134.299759
 31
20.000241
  0
LINE
  5
343
100
AcDbEntity
  8
3
100
AcDbLine
 10
144.40315
 20
122.799759
 30
20.000241
 11
161.40315
 21
122.799759
 31
20.000241
  0
LINE
  5
344
100
AcDbEntity
  8
3
100
AcDbLine
 10
141.95315
 20
122.799759
 30
20.000241
 11
141.95315
 21
131.799759
 31
20.000241
  0
LINE
  5
345
100
AcDbEntity
  8
3
100
AcDbLine
 10
144.40315
 20
122.799759
 30
20.000241
 11
144.40315
 21
127.799759
 31
20.000241
  0
LINE
  5
346
100
AcDbEntity
  8
3
100
AcDbLine
 10
144.40315
 20
122.799759
 30
20.000241
 11
141.95315
 21
122.799759
 31
20.000241
  0
LINE
  5
347
100
AcDbEntity
  8
3
100
AcDbLine
 10
145.10315
 20
134.299759
 30
20.000241
 11
142.40315
 21
134.299759
 31
20.000241
  0
ARC
  5
348
100
AcDbEntity
  8
3
100
AcDbCircle
 10
142.40315
 20
131.799759
 30
20.000241
 40
2.5
100
AcDbArc
 50
90.0
 51
180.0
  0
LINE
  5
349
100
AcDbEntity
  8
3
100
AcDbLine
 10
141.95315
 20
131.799759
 30
20.000241
 11
139.90315
 21
131.799759
 31
20.000241
  0
LINE
  5
34A
100
AcDbEntity
  8
3
100
AcDbLine
 10
145.10315
 20
134.299759
 30
20.000241
 11
145.10315
 21
131.799759
 31
20.000241
  0
LINE
  5
34B
100
AcDbEntity
  8
1
100
AcDbLine
 10
168.90315
 20
136.299759
 30
20.000241
 11
168.90315
 21
112.299759
 31
20.000241
  0
LINE
  5
34C
100
AcDbEntity
  8
3
100
AcDbLine
 10
161.40315
 20
122.799759
 30
20.000241
 11
168.90315
 21
122.799759
 31
20.000241
  0
LINE
  5
34D
100
AcDbEntity
  8
3
100
AcDbLine
 10
176.40315
 20
115.799759
 30
20.000241
 11
176.40315
 21
122.799759
 31
20.000241
  0
LINE
  5
34E
100
AcDbEntity
  8
3
100
AcDbLine
 10
168.90315
 20
115.799759
 30
20.000241
 11
176.40315
 21
115.799759
 31
20.000241
  0
LINE
  5
34F
100
AcDbEntity
  8
2
100
AcDbLine
 10
176.40315
 20
122.799759
 30
20.000241
 11
176.40315
 21
127.799759
 31
20.000241
  0
ARC
  5
350
100
AcDbEntity
  8
2
100
AcDbCircle
 10
168.90315
 20
205.799759
 30
20.000241
 40
19.0
100
AcDbArc
 50
246.750437
 51
293.249563
  0
LINE
  5
351
100
AcDbEntity
  8
2
100
AcDbLine
 10
161.40315
 20
182.475952
 30
20.000241
 11
161.40315
 21
179.914387
 31
20.000241
  0
LINE
  5
352
100
AcDbEntity
  8
2
100
AcDbLine
 10
161.40315
 20
182.475952
 30
20.000241
 11
161.40315
 21
188.342669
 31
20.000241
  0
LINE
  5
353
100
AcDbEntity
  8
2
100
AcDbLine
 10
176.40315
 20
182.475952
 30
20.000241
 11
176.40315
 21
179.914387
 31
20.000241
  0
LINE
  5
354
100
AcDbEntity
  8
2
100
AcDbLine
 10
176.40315
 20
182.475952
 30
20.000241
 11
176.40315
 21
188.342669
 31
20.000241
  0
LINE
  5
35D
100
AcDbEntity
  8
3
100
AcDbLine
 10
260.644952
 20
122.799759
 30
20.000241
 11
302.602042
 21
122.799759
 31
20.000241
  0
LINE
  5
35E
100
AcDbEntity
  8
3
100
AcDbLine
 10
261.344952
 20
134.299759
 30
20.000241
 11
308.944952
 21
134.299759
 31
20.000241
  0
LINE
  5
35F
100
AcDbEntity
  8
3
100
AcDbLine
 10
285.144952
 20
131.799759
 30
20.000241
 11
261.344952
 21
131.799759
 31
20.000241
  0
LINE
  5
360
100
AcDbEntity
  8
2
100
AcDbLine
 10
302.602042
 20
127.799759
 30
20.000241
 11
260.644952
 21
127.799759
 31
20.000241
  0
LINE
  5
361
100
AcDbEntity
  8
3
100
AcDbLine
 10
195.85315
 20
122.799759
 30
20.000241
 11
195.85315
 21
131.799759
 31
20.000241
  0
LINE
  5
362
100
AcDbEntity
  8
2
100
AcDbLine
 10
193.40315
 20
127.799759
 30
20.000241
 11
193.40315
 21
122.799759
 31
20.000241
  0
LINE
  5
363
100
AcDbEntity
  8
3
100
AcDbLine
 10
193.40315
 20
122.799759
 30
20.000241
 11
195.85315
 21
122.799759
 31
20.000241
  0
ARC
  5
364
100
AcDbEntity
  8
3
100
AcDbCircle
 10
195.40315
 20
131.799759
 30
20.000241
 40
2.5
100
AcDbArc
 50
0.0
 51
90.0
  0
LINE
  5
365
100
AcDbEntity
  8
2
100
AcDbLine
 10
192.70315
 20
131.799759
 30
20.000241
 11
192.70315
 21
134.299759
 31
20.000241
  0
LINE
  5
366
100
AcDbEntity
  8
3
100
AcDbLine
 10
195.85315
 20
131.799759
 30
20.000241
 11
197.90315
 21
131.799759
 31
20.000241
  0
LINE
  5
367
100
AcDbEntity
  8
3
100
AcDbLine
 10
192.70315
 20
134.299759
 30
20.000241
 11
195.40315
 21
134.299759
 31
20.000241
  0
LINE
  5
368
100
AcDbEntity
  8
3
100
AcDbLine
 10
258.194952
 20
122.799759
 30
20.000241
 11
258.194952
 21
131.799759
 31
20.000241
  0
LINE
  5
369
100
AcDbEntity
  8
2
100
AcDbLine
 10
260.644952
 20
127.799759
 30
20.000241
 11
260.644952
 21
122.799759
 31
20.000241
  0
LINE
  5
36A
100
AcDbEntity
  8
3
100
AcDbLine
 10
260.644952
 20
122.799759
 30
20.000241
 11
258.194952
 21
122.799759
 31
20.000241
  0
LINE
  5
36B
100
AcDbEntity
  8
3
100
AcDbLine
 10
258.194952
 20
131.799759
 30
20.000241
 11
256.144952
 21
131.799759
 31
20.000241
  0
ARC
  5
36C
100
AcDbEntity
  8
3
100
AcDbCircle
 10
258.644952
 20
131.799759
 30
20.000241
 40
2.5
100
AcDbArc
 50
90.0
 51
180.0
  0
LINE
  5
36D
100
AcDbEntity
  8
2
100
AcDbLine
 10
261.344952
 20
134.299759
 30
20.000241
 11
261.344952
 21
131.799759
 31
20.000241
  0
LINE
  5
36E
100
AcDbEntity
  8
3
100
AcDbLine
 10
261.344952
 20
131.799759
 30
20.000241
 11
258.194952
 21
131.799759
 31
20.000241
  0
LINE
  5
36F
100
AcDbEntity
  8
3
100
AcDbLine
 10
261.344952
 20
134.299759
 30
20.000241
 11
258.644952
 21
134.299759
 31
20.000241
  0
LINE
  5
370
100
AcDbEntity
  8
3
100
AcDbLine
 10
285.144952
 20
131.799759
 30
20.000241
 11
308.944952
 21
131.799759
 31
20.000241
  0
LINE
  5
371
100
AcDbEntity
  8
1
100
AcDbLine
 10
285.144952
 20
136.299759
 30
20.000241
 11
285.144952
 21
112.299759
 31
20.000241
  0
LINE
  5
372
100
AcDbEntity
  8
3
100
AcDbLine
 10
312.094952
 20
131.799759
 30
20.000241
 11
312.094952
 21
115.799759
 31
20.000241
  0
LINE
  5
373
100
AcDbEntity
  8
2
100
AcDbLine
 10
304.144952
 20
127.799759
 30
20.000241
 11
304.144952
 21
115.799759
 31
20.000241
  0
LINE
  5
374
100
AcDbEntity
  8
3
100
AcDbLine
 10
302.602042
 20
122.799759
 30
20.000241
 11
302.602042
 21
115.799759
 31
20.000241
  0
LINE
  5
375
100
AcDbEntity
  8
3
100
AcDbLine
 10
302.602042
 20
115.799759
 30
20.000241
 11
312.144952
 21
115.799759
 31
20.000241
  0
LINE
  5
376
100
AcDbEntity
  8
3
100
AcDbLine
 10
302.602042
 20
122.799759
 30
20.000241
 11
312.094952
 21
122.799759
 31
20.000241
  0
LINE
  5
377
100
AcDbEntity
  8
2
100
AcDbLine
 10
308.468759
 20
127.799759
 30
20.000241
 11
308.468759
 21
122.799759
 31
20.000241
  0
LINE
  5
378
100
AcDbEntity
  8
2
100
AcDbLine
 10
302.602042
 20
122.799759
 30
20.000241
 11
302.602042
 21
127.799759
 31
20.000241
  0
LINE
  5
379
100
AcDbEntity
  8
2
100
AcDbLine
 10
302.602042
 20
127.799759
 30
20.000241
 11
308.468759
 21
127.799759
 31
20.000241
  0
LINE
  5
37A
100
AcDbEntity
  8
3
100
AcDbLine
 10
308.944952
 20
134.299759
 30
20.000241
 11
311.644952
 21
134.299759
 31
20.000241
  0
LINE
  5
37B
100
AcDbEntity
  8
3
100
AcDbLine
 10
308.944952
 20
131.799759
 30
20.000241
 11
312.094952
 21
131.799759
 31
20.000241
  0
LINE
  5
37C
100
AcDbEntity
  8
2
100
AcDbLine
 10
308.944952
 20
134.299759
 30
20.000241
 11
308.944952
 21
131.799759
 31
20.000241
  0
ARC
  5
37D
100
AcDbEntity
  8
3
100
AcDbCircle
 10
311.644952
 20
131.799759
 30
20.000241
 40
2.5
100
AcDbArc
 50
0.0
 51
90.0
  0
LINE
  5
37E
100
AcDbEntity
  8
3
100
AcDbLine
 10
312.094952
 20
131.799759
 30
20.000241
 11
314.144952
 21
131.799759
 31
20.000241
  0
ENDSEC
  0
SECTION
  2
OBJECTS
  0
DICTIONARY
  5
EB
100
AcDbDictionary
  3
ACAD_GROUP
350
EC
  3
ACAD_MLINESTYLE
350
F9
  3
ACDBVARIABLEDICTIONARY
350
108
  0
DICTIONARY
  5
1D8
100
AcDbDictionary
280
     1
  3
ACAD_XREC_ROUNDTRIP
360
1D9
  0
DICTIONARY
  5
EC
102
{ACAD_REACTORS
330
EB
102
}
100
AcDbDictionary
  0
DICTIONARY
  5
F9
102
{ACAD_REACTORS
330
EB
102
}
100
AcDbDictionary
  3
STANDARD
350
FA
  0
DICTIONARY
  5
108
102
{ACAD_REACTORS
330
EB
102
}
100
AcDbDictionary
  3
DIMADEC
350
109
  0
XRECORD
  5
1D9
102
{ACAD_REACTORS
330
1D8
102
}
100
AcDbXrecord
102
PLOTBIT
280
     0
  0
MLINESTYLE
  5
FA
102
{ACAD_REACTORS
330
F9
102
}
100
AcDbMlineStyle
  2
STANDARD
 70
     0
  3

 62
   256
 51
90.0
 52
90.0
 71
     2
 49
0.5
 62
   256
  6
BYLAYER
 49
-0.5
 62
   256
  6
BYLAYER
  0
DICTIONARYVAR
  5
109
102
{ACAD_REACTORS
330
108
102
}
100
DictionaryVariables
280
     0
  1
0
  0
ENDSEC
  0
EOF
